osu file format v14

[General]
AudioFilename: audio.mp3
AudioLeadIn: 0
PreviewTime: 62227
Countdown: 0
SampleSet: Soft
StackLeniency: 0.4
Mode: 3
LetterboxInBreaks: 0
SpecialStyle: 0
WidescreenStoryboard: 1

[Editor]
Bookmarks: 29577,30856,40998,69805,70145
DistanceSpacing: 1.1
BeatDivisor: 4
GridSize: 8
TimelineZoom: 1.6

[Metadata]
Title:SHIORI (TV Size)
TitleUnicode:SHIORI (TV Size)
Artist:ClariS
ArtistUnicode:ClariS
Creator:Daeng Simatta
Version:Hard
Source:終物語
Tags:roger ][ -GH- ][ volta drum-hitnormal dudehacker famoss monogatari owarimonogatari anime j-pop jpop pop japanese ending ED Mix Fairy Party 18th single End Story
BeatmapID:2367398
BeatmapSetID:914328

[Difficulty]
HPDrainRate:7.5
CircleSize:4
OverallDifficulty:8
ApproachRate:5
SliderMultiplier:1.4
SliderTickRate:1

[Events]
//Background and Video events
0,0,"Claris.jpg",0,0
//Break Periods
//Storyboard Layer 0 (Background)
//Storyboard Layer 1 (Fail)
//Storyboard Layer 2 (Pass)
//Storyboard Layer 3 (Foreground)
//Storyboard Layer 4 (Overlay)
//Storyboard Sound Samples

[TimingPoints]
438,340.909090909091,4,2,2,50,1,0
14074,-100,4,2,1,50,0,0
54983,-100,4,2,2,40,0,0
57710,-100,4,2,1,50,0,0
63165,-100,4,2,1,70,0,1
86347,-100,4,2,1,70,0,0
87028,-100,4,2,2,40,0,0

[HitObjects]
64,192,438,5,0,0:0:0:70:A7S_s.wav
448,192,438,1,0,0:0:0:0:
192,192,608,1,0,0:0:0:70:D7S_s.wav
320,192,778,1,0,0:0:0:70:E7S_s.wav
192,192,949,1,0,0:0:0:70:D7S_s.wav
448,192,1119,1,0,0:0:0:70:A6S_s.wav
320,192,1290,1,0,0:0:0:70:D7S_s.wav
192,192,1460,1,0,0:0:0:70:E7S_s.wav
64,192,1631,1,0,0:0:0:70:D7S_s.wav
448,192,1801,1,0,0:0:0:70:A6S_s.wav
320,192,1972,1,0,0:0:0:70:D7S_s.wav
192,192,2142,1,0,0:0:0:70:E7S_s.wav
64,192,2313,1,0,0:0:0:70:D7S_s.wav
320,192,2483,1,0,0:0:0:70:B7S_s.wav
448,192,2483,1,0,0:0:0:0:
192,192,2653,1,0,0:0:0:70:D7S_s.wav
320,192,2824,1,0,0:0:0:70:E7S_s.wav
192,192,2994,1,0,0:0:0:70:D7S_s.wav
64,192,3165,1,0,0:0:0:70:A7S_s.wav
448,192,3165,1,0,0:0:0:0:
320,192,3335,1,0,0:0:0:70:D7S_s.wav
192,192,3506,1,0,0:0:0:70:E7S_s.wav
320,192,3676,1,0,0:0:0:70:D7S_s.wav
64,192,3847,1,0,0:0:0:70:A6S_s.wav
192,192,4017,1,0,0:0:0:70:D7S_s.wav
320,192,4188,1,0,0:0:0:70:E7S_s.wav
448,192,4358,1,0,0:0:0:70:D7S_s.wav
192,192,4528,1,0,0:0:0:70:A6S_s.wav
320,192,4528,1,0,0:0:0:0:
64,192,4699,1,0,0:0:0:70:D7S_s.wav
192,192,4869,1,0,0:0:0:70:E7S_s.wav
320,192,5040,1,0,0:0:0:70:D7S_s.wav
64,192,5210,1,0,0:0:0:70:A7S_s.wav
448,192,5210,1,0,0:0:0:0:
192,192,5381,1,0,0:0:0:70:D7S_s.wav
320,192,5551,1,0,0:0:0:70:E7S_s.wav
192,192,5722,1,0,0:0:0:70:D7S_s.wav
64,192,5892,1,0,0:0:0:50:soft-hitwhistle.wav
448,192,5892,1,0,0:0:0:50:soft-hitfinish.wav
320,192,6063,1,0,0:0:0:0:
192,192,6233,1,0,0:0:0:0:
64,192,6403,1,0,0:0:0:0:
448,192,6744,1,0,0:0:0:0:
320,192,6915,1,0,0:0:0:0:
192,192,7085,1,0,0:0:0:0:
64,192,7256,1,0,0:0:0:50:soft-hitwhistle.wav
448,192,7256,1,0,0:0:0:50:soft-hitfinish.wav
320,192,7426,1,0,0:0:0:0:
64,192,7597,1,0,0:0:0:0:
192,192,7767,1,0,0:0:0:50:soft-hitclap.wav
320,192,7767,1,0,0:0:0:0:
320,192,8108,1,0,0:0:0:70:Tom2.wav
448,192,8108,1,0,0:0:0:0:
64,192,8278,1,0,0:0:0:70:Tom3.wav
192,192,8278,1,0,0:0:0:0:
320,192,8449,1,0,0:0:0:0:
64,192,8619,1,0,0:0:0:50:soft-hitwhistle.wav
448,192,8619,1,0,0:0:0:50:soft-hitfinish.wav
192,192,8790,1,0,0:0:0:0:
320,192,8960,1,0,0:0:0:0:
448,192,9131,1,0,0:0:0:0:
64,192,9472,1,0,0:0:0:0:
192,192,9642,1,0,0:0:0:0:
320,192,9813,1,0,0:0:0:0:
64,192,9983,1,0,0:0:0:50:soft-hitwhistle.wav
448,192,9983,1,0,0:0:0:50:soft-hitfinish.wav
192,192,10153,1,0,0:0:0:0:
320,192,10324,1,0,0:0:0:0:
64,192,10494,1,0,0:0:0:70:Tom1.wav
448,192,10494,1,0,0:0:0:0:
320,192,10665,1,0,0:0:0:0:
64,192,10835,1,0,0:0:0:70:Tom2.wav
192,192,10835,1,0,0:0:0:0:
320,192,11006,1,0,0:0:0:70:Tom3.wav
448,192,11006,1,0,0:0:0:0:
192,192,11176,1,0,0:0:0:0:
64,192,11347,1,0,0:0:0:50:soft-hitwhistle.wav
320,192,11347,1,0,0:0:0:50:soft-hitfinish.wav
448,192,11347,1,0,0:0:0:0:
64,192,11688,1,0,0:0:0:20:Tom2.wav
320,192,11688,1,0,0:0:0:70:soft-hitclap.wav
192,192,11858,1,0,0:0:0:20:Tom2.wav
448,192,11858,1,0,0:0:0:70:soft-hitclap.wav
64,192,12028,1,0,0:0:0:40:Tom2.wav
448,192,12028,1,0,0:0:0:70:soft-hitclap.wav
192,192,12199,1,0,0:0:0:40:Tom2.wav
320,192,12199,1,0,0:0:0:70:soft-hitclap.wav
64,192,12369,1,0,0:0:0:55:Tom2.wav
192,192,12369,1,0,0:0:0:70:soft-hitclap.wav
320,192,12540,1,0,0:0:0:60:Tom2.wav
448,192,12540,1,0,0:0:0:70:soft-hitclap.wav
64,192,12710,1,0,0:0:0:70:Tom2.wav
192,192,12710,1,0,0:0:0:70:soft-hitclap.wav
448,192,12710,1,0,0:0:0:0:
192,192,13733,128,0,13903:0:0:0:0:
320,192,13903,128,0,14074:0:0:0:0:
64,192,14074,1,8,0:0:0:0:
448,192,14074,1,4,0:0:0:0:
192,192,14244,1,2,0:0:0:0:
192,192,14415,1,2,0:0:0:0:
64,192,14585,1,8,0:0:0:0:
448,192,14585,1,4,0:0:0:0:
320,192,14756,1,2,0:0:0:0:
320,192,14926,1,2,0:0:0:0:
64,192,15097,1,8,0:0:0:0:
448,192,15097,1,4,0:0:0:0:
192,192,15267,1,2,0:0:0:0:
192,192,15438,1,2,0:0:0:0:
64,192,15608,1,8,0:0:0:0:
448,192,15608,1,4,0:0:0:0:
64,192,15778,1,8,0:0:0:0:
448,192,15778,1,0,0:0:0:0:
320,192,15949,1,2,0:0:0:0:
64,192,16119,1,8,0:0:0:0:
192,192,16119,1,0,0:0:0:0:
448,192,16290,1,8,0:0:0:0:
320,192,16375,1,8,0:0:0:0:
192,192,16460,1,8,0:0:0:0:
64,192,16545,1,8,0:0:0:0:
448,192,16631,1,8,0:0:0:0:
320,192,16716,1,8,0:0:0:0:
64,192,16801,1,4,0:0:0:0:
192,192,16801,1,2,0:0:0:0:
64,192,17142,1,2,0:0:0:0:
448,192,17142,1,0,0:0:0:0:
320,192,17313,1,0,0:0:0:0:
192,192,17483,1,2,0:0:0:0:
448,192,17483,1,0,0:0:0:0:
64,192,17653,1,0,0:0:0:0:
320,192,17824,1,2,0:0:0:0:
448,192,17824,1,0,0:0:0:0:
64,192,17994,1,8,0:0:0:0:
192,192,17994,1,0,0:0:0:0:
320,192,18165,1,2,0:0:0:0:
448,192,18165,1,0,0:0:0:0:
192,192,18506,1,2,0:0:0:0:
448,192,18506,1,0,0:0:0:0:
320,192,18676,1,0,0:0:0:0:
64,192,18847,1,2,0:0:0:0:
192,192,18847,1,0,0:0:0:0:
320,192,19017,1,0,0:0:0:70:Tom1.wav
448,192,19017,1,0,0:0:0:0:
64,192,19188,1,2,0:0:0:0:
448,192,19188,1,0,0:0:0:70:Tom2.wav
192,192,19358,1,0,0:0:0:70:Tom3.wav
320,192,19358,1,0,0:0:0:0:
64,192,19528,128,2,20040:0:0:0:0:
192,192,19528,1,0,0:0:0:0:
448,192,19869,1,2,0:0:0:0:
320,192,20040,1,0,0:0:0:0:
64,192,20210,1,2,0:0:0:0:
448,192,20210,128,0,20722:0:0:0:0:
192,192,20381,1,0,0:0:0:0:
320,192,20551,1,2,0:0:0:0:
64,192,20722,1,8,0:0:0:0:
192,192,20722,1,0,0:0:0:0:
320,192,20892,1,2,0:0:0:0:
448,192,20892,128,0,21233:0:0:0:0:
64,192,21233,128,2,21574:0:0:0:0:
192,192,21233,1,0,0:0:0:0:
320,192,21403,1,0,0:0:0:0:
448,192,21574,1,2,0:0:0:0:
64,192,21744,1,0,0:0:0:70:Tom1.wav
192,192,21744,1,0,0:0:0:0:
320,192,21915,1,2,0:0:0:0:
448,192,21915,1,0,0:0:0:70:Tom2.wav
64,192,22085,1,0,0:0:0:50:HHOpen.wav
192,192,22085,1,0,0:0:0:0:
320,192,22256,1,2,0:0:0:0:
448,192,22256,1,0,0:0:0:0:
320,192,22597,1,2,0:0:0:0:
448,192,22597,1,0,0:0:0:0:
192,192,22767,1,0,0:0:0:0:
64,192,22938,1,2,0:0:0:0:
320,192,22938,1,0,0:0:0:0:
448,192,23108,1,0,0:0:0:0:
64,192,23278,1,2,0:0:0:0:
192,192,23278,1,0,0:0:0:0:
320,192,23449,1,8,0:0:0:0:
448,192,23449,1,0,0:0:0:0:
64,192,23619,1,2,0:0:0:0:
192,192,23619,1,0,0:0:0:0:
64,192,23960,1,2,0:0:0:0:
448,192,23960,1,0,0:0:0:0:
320,192,24131,1,0,0:0:0:0:
64,192,24301,1,2,0:0:0:0:
192,192,24301,1,0,0:0:0:0:
320,192,24472,1,0,0:0:0:50:Tom2.wav
448,192,24472,1,0,0:0:0:0:
192,192,24642,1,2,0:0:0:0:
320,192,24642,1,0,0:0:0:0:
64,192,24813,1,0,0:0:0:50:Tom3.wav
192,192,24813,1,0,0:0:0:0:
320,192,24983,1,2,0:0:0:0:
448,192,24983,128,0,25835:0:0:0:0:
64,192,25324,1,2,0:0:0:0:
192,192,25494,1,0,0:0:0:0:
320,192,25665,1,2,0:0:0:0:
64,192,25835,1,0,0:0:0:0:
320,192,26006,1,2,0:0:0:0:
448,192,26006,1,0,0:0:0:0:
64,192,26176,1,8,0:0:0:0:
192,192,26176,1,0,0:0:0:0:
192,192,26347,1,2,0:0:0:0:
448,192,26347,128,0,27028:0:0:0:0:
64,192,26688,1,2,0:0:0:0:
192,192,26858,1,0,0:0:0:0:
64,192,27028,128,2,27540:0:0:0:0:
320,192,27028,1,0,0:0:0:0:
192,192,27199,1,8,0:0:0:0:
320,192,27369,1,2,0:0:0:0:
448,192,27369,1,0,0:0:0:50:Tom2.wav
192,192,27540,1,0,0:0:0:70:Tom3.wav
320,192,27625,1,0,0:0:0:50:Tom2.wav
64,192,27710,1,2,0:0:0:0:
192,192,27710,1,4,0:0:0:0:
448,192,27710,128,0,28051:0:0:0:0:
320,192,28051,1,2,0:0:0:0:
192,192,28222,1,0,0:0:0:0:
64,192,28392,128,2,28733:0:0:0:0:
448,192,28392,1,0,0:0:0:0:
192,192,28733,1,2,0:0:0:0:
448,192,28733,128,0,29074:0:0:0:0:
320,192,28903,1,8,0:0:0:0:
64,192,29074,1,2,0:0:0:0:
192,192,29074,128,0,29415:0:0:0:0:
320,192,29415,1,2,0:0:0:0:
448,192,29415,128,0,29756:0:0:0:0:
192,192,29585,1,0,0:0:0:0:
64,192,29756,1,2,0:0:0:0:
192,192,29926,1,0,0:0:0:70:Tom2.wav
320,192,29926,1,0,0:0:0:0:
64,192,30097,1,2,0:0:0:0:
448,192,30097,1,0,0:0:0:0:
64,192,30267,1,0,0:0:0:70:Tom3.wav
192,192,30267,1,0,0:0:0:0:
320,192,30438,1,2,0:0:0:0:
448,192,30438,128,0,30778:0:0:0:0:
64,192,30778,1,2,0:0:0:0:
192,192,30949,1,0,0:0:0:0:
320,192,31119,1,2,0:0:0:0:
448,192,31119,1,0,0:0:0:0:
192,192,31290,1,0,0:0:0:0:
64,192,31460,128,2,31801:0:0:0:0:
448,192,31460,1,0,0:0:0:0:
320,192,31631,1,8,0:0:0:0:
192,192,31801,1,2,0:0:0:0:
448,192,31801,128,0,32142:0:0:0:0:
64,192,32142,128,2,32483:0:0:0:0:
320,192,32142,1,0,0:0:0:0:
192,192,32313,1,0,0:0:0:0:
320,192,32483,128,2,32824:0:0:0:0:
448,192,32483,1,0,0:0:0:0:
64,192,32653,1,0,0:0:0:70:Tom1.wav
192,192,32824,1,2,0:0:0:0:
448,192,32824,1,0,0:0:0:70:Tom3.wav
192,192,32994,1,0,0:0:0:70:Tom2.wav
320,192,32994,1,0,0:0:0:70:HHOpen.wav
64,192,33165,128,2,33506:0:0:0:0:
448,192,33165,1,0,0:0:0:0:
192,192,33506,1,2,0:0:0:0:
320,192,33676,1,0,0:0:0:0:
64,192,33847,1,2,0:0:0:0:
448,192,33847,128,0,34188:0:0:0:0:
192,192,34188,128,2,34528:0:0:0:0:
320,192,34188,1,0,0:0:0:0:
64,192,34358,1,8,0:0:0:0:
320,192,34528,128,2,34869:0:0:0:0:
448,192,34528,1,0,0:0:0:0:
64,192,34869,1,2,0:0:0:0:
448,192,35040,1,0,0:0:0:0:
64,192,35210,128,2,35551:0:0:0:0:
192,192,35210,1,0,0:0:0:0:
448,192,35381,1,8,0:0:0:0:
320,192,35551,1,2,0:0:0:70:Tom2.wav
448,192,35551,1,0,0:0:0:0:
64,192,35722,1,0,0:0:0:70:Tom3.wav
192,192,35722,1,0,0:0:0:0:
64,192,35892,1,2,0:0:0:0:
320,192,35892,1,4,0:0:0:0:
448,192,35892,1,0,0:0:0:0:
64,192,36233,1,2,0:0:0:0:
448,192,36233,1,0,0:0:0:0:
320,192,36403,1,0,0:0:0:0:
64,192,36574,1,2,0:0:0:0:
192,192,36574,1,0,0:0:0:0:
448,192,36744,1,0,0:0:0:0:
192,192,36915,128,2,37085:0:0:0:0:
320,192,36915,1,0,0:0:0:0:
64,192,37085,1,8,0:0:0:0:
448,192,37085,128,0,37256:0:0:0:0:
192,192,37256,1,2,0:0:0:0:
320,192,37256,128,4,37426:0:0:0:0:
64,192,37426,128,8,37597:0:0:0:0:
448,192,37426,1,0,0:0:0:0:
192,192,37597,128,2,37767:0:0:0:0:
320,192,37597,1,0,0:0:0:0:
448,192,37767,128,0,37938:0:0:0:70:Tom1.wav
64,192,37938,128,2,38108:0:0:0:0:
192,192,37938,1,0,0:0:0:0:
320,192,38108,128,0,38278:0:0:0:70:Tom2.wav
192,192,38278,128,2,38619:0:0:0:0:
448,192,38278,1,0,0:0:0:0:
64,192,38449,1,0,0:0:0:70:Tom3.wav
320,192,38619,1,2,0:0:0:0:
448,192,38619,128,4,38960:0:0:0:0:
64,192,38960,1,0,0:0:0:0:
192,192,39131,1,2,0:0:0:0:
448,192,39131,128,0,39472:0:0:0:0:
64,192,39472,1,0,0:0:0:0:
192,192,39642,1,0,0:0:0:70:Tom2.wav
320,192,39642,1,0,0:0:0:0:
448,192,39813,1,0,0:0:0:0:
64,192,39983,128,2,40324:0:0:0:0:
192,192,39983,1,0,0:0:0:0:
448,192,40324,1,0,0:0:0:0:
64,192,40494,128,2,40835:0:0:0:0:
320,192,40494,1,0,0:0:0:0:
192,192,40835,1,8,0:0:0:0:
320,192,40835,1,0,0:0:0:0:
64,192,41006,1,0,0:0:0:70:Tom2.wav
448,192,41006,1,0,0:0:0:0:
192,192,41176,1,0,0:0:0:0:
320,192,41347,1,2,0:0:0:0:
448,192,41347,128,0,41688:0:0:0:0:
64,192,41688,1,0,0:0:0:0:
192,192,41858,1,2,0:0:0:0:
448,192,41858,128,0,42199:0:0:0:0:
320,192,42199,1,0,0:0:0:0:
64,192,42369,1,0,0:0:0:70:Tom2.wav
192,192,42369,1,0,0:0:0:0:
448,192,42540,1,0,0:0:0:0:
192,192,42710,1,2,0:0:0:0:
320,192,42710,128,0,43392:0:0:0:0:
448,192,43051,1,0,0:0:0:0:
64,192,43222,1,2,0:0:0:0:
192,192,43392,1,0,0:0:0:0:
448,192,43392,128,0,44074:0:0:0:0:
320,192,43563,1,2,0:0:0:0:
64,192,43733,1,8,0:0:0:0:
192,192,43733,1,0,0:0:0:0:
64,192,44074,128,2,44415:0:0:0:0:
192,192,44074,1,4,0:0:0:0:
320,192,44074,1,0,0:0:0:0:
448,192,44415,1,0,0:0:0:0:
64,192,44585,128,2,44926:0:0:0:0:
192,192,44585,1,0,0:0:0:0:
320,192,44926,1,0,0:0:0:0:
192,192,45097,1,0,0:0:0:70:Tom2.wav
448,192,45097,1,0,0:0:0:0:
320,192,45267,1,0,0:0:0:0:
64,192,45438,128,2,46119:0:0:0:0:
192,192,45438,1,0,0:0:0:0:
448,192,45778,1,0,0:0:0:0:
192,192,45949,1,2,0:0:0:0:
320,192,45949,1,0,0:0:0:0:
448,192,46119,1,0,0:0:0:0:
64,192,46290,1,8,0:0:0:0:
192,192,46290,1,0,0:0:0:0:
320,192,46460,1,0,0:0:0:70:Tom2.wav
448,192,46460,1,0,0:0:0:0:
192,192,46631,1,0,0:0:0:0:
320,192,46801,128,2,47142:0:0:0:0:
448,192,46801,1,0,0:0:0:0:
64,192,47142,1,0,0:0:0:0:
320,192,47313,128,2,47653:0:0:0:0:
448,192,47313,1,0,0:0:0:0:
192,192,47653,1,0,0:0:0:0:
64,192,47824,1,0,0:0:0:70:Tom2.wav
448,192,47824,1,0,0:0:0:0:
192,192,47994,1,0,0:0:0:0:
320,192,48165,1,2,0:0:0:0:
448,192,48165,128,0,48847:0:0:0:0:
64,192,48506,1,0,0:0:0:0:
320,192,48676,1,2,0:0:0:0:
64,192,48847,1,2,0:0:0:0:
192,192,48847,128,0,49528:0:0:0:0:
320,192,49188,1,8,0:0:0:0:
448,192,49188,1,0,0:0:0:0:
64,192,49528,1,4,0:0:0:0:
320,192,49528,1,2,0:0:0:0:
448,192,49528,128,0,49869:0:0:0:0:
192,192,49869,1,0,0:0:0:0:
64,192,50040,1,2,0:0:0:0:
448,192,50040,128,0,50381:0:0:0:0:
320,192,50381,1,0,0:0:0:0:
64,192,50551,1,0,0:0:0:70:Tom2.wav
192,192,50551,1,0,0:0:0:0:
320,192,50722,1,0,0:0:0:0:
64,192,50892,1,2,0:0:0:0:
448,192,50892,128,0,51574:0:0:0:0:
192,192,51063,1,0,0:0:0:0:
320,192,51233,1,0,0:0:0:0:
64,192,51403,1,2,0:0:0:0:
192,192,51574,1,0,0:0:0:0:
320,192,51744,1,8,0:0:0:0:
448,192,51744,1,0,0:0:0:0:
64,192,51915,1,8,0:0:0:0:
192,192,51915,1,0,0:0:0:70:Tom2.wav
320,192,52085,1,0,2:0:0:70:Tom3.wav
64,192,52256,1,2,0:0:0:0:
448,192,52256,1,0,0:0:0:0:
320,192,52426,1,0,0:0:0:0:
192,192,52597,1,0,0:0:0:0:
448,192,52824,1,8,0:0:0:0:
64,192,52938,1,8,0:0:0:0:
192,192,52938,1,0,0:0:0:0:
320,192,53051,1,8,0:0:0:0:
192,192,53165,1,0,0:0:0:70:Tom1.wav
64,192,53278,1,0,0:0:0:70:Tom2.wav
448,192,53392,1,0,0:0:0:70:Tom2.wav
320,192,53506,1,0,0:0:0:70:Tom3.wav
64,192,53619,128,2,54301:0:0:0:0:
192,192,53619,1,4,0:0:0:0:
448,192,53619,1,0,0:0:0:0:
192,192,54301,128,2,54983:0:0:0:0:
320,192,54301,1,4,0:0:0:0:
448,192,54301,1,0,0:0:0:0:
320,192,54983,1,0,0:0:0:70:D5S.wav
448,192,54983,128,0,57369:0:0:0:50:B4S.wav
320,192,56006,1,0,0:0:0:0:
64,192,56347,1,0,0:0:0:70:A5S.wav
192,192,56347,1,0,0:0:0:50:A4S.wav
64,192,56858,1,0,0:0:0:0:
192,192,57199,1,0,0:0:0:0:
320,192,57540,1,0,0:0:0:0:
64,192,57710,1,8,0:0:0:0:
448,192,57710,1,0,0:0:0:0:
192,192,57881,1,8,0:0:0:0:
320,192,57881,1,0,0:0:0:20:Tom3.wav
192,192,58051,1,8,0:0:0:0:
448,192,58051,1,0,0:0:0:20:Tom3.wav
64,192,58222,1,8,0:0:0:0:
320,192,58222,1,0,0:0:0:30:Tom3.wav
320,192,58392,1,8,0:0:0:0:
448,192,58392,1,0,0:0:0:30:Tom3.wav
64,192,58563,1,8,0:0:0:0:
192,192,58563,1,0,0:0:0:40:Tom3.wav
192,192,58733,1,8,0:0:0:0:
448,192,58733,1,0,0:0:0:40:Tom3.wav
320,192,58903,1,8,0:0:0:0:
448,192,58903,1,0,0:0:0:45:Tom3.wav
64,192,59074,1,8,0:0:0:0:
192,192,59074,1,0,0:0:0:45:Tom3.wav
64,192,59244,1,8,0:0:0:0:
448,192,59244,1,0,0:0:0:45:Tom3.wav
192,192,59415,1,8,0:0:0:0:
320,192,59415,1,0,0:0:0:45:Tom3.wav
64,192,59585,1,8,0:0:0:0:
320,192,59585,1,0,0:0:0:45:Tom3.wav
192,192,59756,1,8,0:0:0:0:
448,192,59756,1,0,0:0:0:45:Tom3.wav
64,192,59926,1,8,0:0:0:0:
320,192,59926,1,0,0:0:0:45:Tom3.wav
64,192,60097,1,8,0:0:0:0:
192,192,60097,1,0,0:0:0:45:Tom3.wav
320,192,60267,1,8,0:0:0:0:
448,192,60267,1,0,0:0:0:45:Tom3.wav
64,192,60438,1,8,0:0:0:0:
192,192,60438,1,4,0:0:0:0:
448,192,60438,1,0,0:0:0:45:Tom3.wav
320,192,60608,1,2,0:0:0:0:
320,192,60778,1,2,0:0:0:0:
192,192,60949,1,8,0:0:0:0:
448,192,60949,1,0,0:0:0:0:
64,192,61119,1,2,0:0:0:0:
192,192,61290,1,8,0:0:0:0:
320,192,61290,1,0,0:0:0:0:
64,192,61460,1,0,0:0:0:70:Tom1.wav
448,192,61460,1,0,0:0:0:0:
320,192,61631,1,0,0:0:0:70:Tom2.wav
192,192,61716,1,0,0:0:0:70:Tom3.wav
64,192,61801,128,4,62483:0:0:0:0:
320,192,61801,1,2,0:0:0:0:
448,192,61801,1,0,0:0:0:0:
64,192,63165,1,2,0:0:0:0:
192,192,63165,1,4,0:0:0:0:
448,192,63165,1,0,0:0:0:0:
192,192,63335,1,2,0:0:0:0:
320,192,63335,1,0,0:0:0:0:
64,192,63506,1,8,0:0:0:0:
448,192,63506,1,0,0:0:0:0:
320,192,63676,1,0,0:0:0:0:
64,192,63847,1,2,0:0:0:0:
192,192,63847,1,0,0:0:0:0:
64,192,64017,1,2,0:0:0:0:
192,192,64017,1,0,0:0:0:0:
320,192,64188,1,8,0:0:0:0:
448,192,64188,1,0,0:0:0:0:
64,192,64358,1,0,0:0:0:0:
192,192,64528,1,2,0:0:0:0:
320,192,64528,1,0,0:0:0:0:
320,192,64699,1,2,0:0:0:0:
448,192,64699,1,0,0:0:0:0:
64,192,64869,1,8,0:0:0:0:
192,192,64869,1,0,0:0:0:0:
448,192,65040,1,0,0:0:0:0:
192,192,65210,1,2,0:0:0:0:
320,192,65210,1,0,0:0:0:0:
192,192,65381,1,2,0:0:0:0:
320,192,65381,1,0,0:0:0:0:
64,192,65551,1,8,0:0:0:0:
448,192,65551,1,0,0:0:0:0:
192,192,65722,1,0,0:0:0:0:
320,192,65892,1,2,0:0:0:0:
448,192,65892,1,0,0:0:0:0:
64,192,66063,1,2,0:0:0:0:
192,192,66063,1,0,0:0:0:0:
192,192,66233,1,8,0:0:0:0:
320,192,66233,1,0,0:0:0:0:
448,192,66403,1,0,0:0:0:0:
64,192,66574,1,2,0:0:0:0:
320,192,66574,1,0,0:0:0:0:
64,192,66744,1,2,0:0:0:0:
320,192,66744,1,0,0:0:0:0:
192,192,66915,1,8,0:0:0:0:
448,192,66915,1,0,0:0:0:0:
64,192,67085,1,0,0:0:0:0:
320,192,67256,1,2,0:0:0:0:
448,192,67256,128,0,67426:0:0:0:0:
192,192,67426,128,2,67597:0:0:0:0:
64,192,67597,1,8,0:0:0:0:
448,192,67597,128,0,67767:0:0:0:0:
320,192,67767,128,0,67938:0:0:0:0:
64,192,67938,128,2,68108:0:0:0:0:
448,192,67938,1,0,0:0:0:0:
192,192,68108,128,2,68278:0:0:0:0:
320,192,68278,1,8,0:0:0:0:
448,192,68278,128,0,68449:0:0:0:0:
64,192,68449,128,0,68619:0:0:0:0:
320,192,68619,1,2,0:0:0:0:
448,192,68619,1,4,0:0:0:0:
64,192,68790,1,2,0:0:0:0:
192,192,68790,1,0,0:0:0:0:
64,192,68960,1,8,0:0:0:0:
448,192,68960,1,0,0:0:0:0:
320,192,69131,1,0,0:0:0:0:
64,192,69301,1,2,0:0:0:0:
192,192,69301,1,0,0:0:0:0:
64,192,69472,1,2,0:0:0:0:
192,192,69472,1,0,0:0:0:0:
320,192,69642,1,8,0:0:0:0:
448,192,69642,1,0,0:0:0:0:
192,192,69813,1,0,0:0:0:0:
64,192,69983,1,2,0:0:0:0:
320,192,69983,1,4,0:0:0:0:
192,192,70153,1,2,0:0:0:0:
448,192,70153,1,0,0:0:0:0:
64,192,70324,1,8,0:0:0:0:
448,192,70324,1,0,0:0:0:0:
192,192,70494,1,0,0:0:0:0:
320,192,70665,1,2,0:0:0:0:
448,192,70665,1,0,0:0:0:0:
320,192,70835,1,2,0:0:0:0:
448,192,70835,1,0,0:0:0:0:
64,192,71006,1,8,0:0:0:0:
192,192,71006,1,0,0:0:0:0:
320,192,71176,1,0,0:0:0:0:
192,192,71347,1,2,0:0:0:0:
448,192,71347,1,0,0:0:0:0:
64,192,71517,1,2,0:0:0:0:
320,192,71517,1,0,0:0:0:0:
64,192,71688,1,8,0:0:0:0:
448,192,71688,1,0,0:0:0:0:
320,192,71858,1,0,0:0:0:0:
64,192,72028,1,2,0:0:0:0:
192,192,72028,1,0,0:0:0:0:
64,192,72199,1,2,0:0:0:0:
192,192,72199,1,0,0:0:0:0:
320,192,72369,1,8,0:0:0:0:
448,192,72369,1,0,0:0:0:0:
64,192,72540,1,2,0:0:0:0:
448,192,72540,1,0,0:0:0:0:
64,192,72710,128,4,73051:0:0:0:0:
192,192,72710,1,8,0:0:0:0:
320,192,72881,1,2,0:0:0:0:
192,192,73051,1,4,0:0:0:0:
448,192,73051,128,8,73392:0:0:0:0:
320,192,73222,1,2,0:0:0:0:
64,192,73392,1,6,0:0:0:0:
192,192,73392,1,8,0:0:0:0:
320,192,73563,1,8,0:0:0:0:
192,192,73648,1,8,0:0:0:0:
448,192,73733,1,8,0:0:0:0:
320,192,73818,1,8,0:0:0:0:
64,192,73903,1,8,0:0:0:0:
192,192,73989,1,8,0:0:0:0:
320,192,74074,1,2,0:0:0:0:
448,192,74074,128,4,74244:0:0:0:0:
192,192,74244,1,2,0:0:0:0:
64,192,74415,1,8,0:0:0:0:
320,192,74415,1,0,0:0:0:0:
192,192,74585,1,0,0:0:0:0:
448,192,74585,128,0,74756:0:0:0:0:
64,192,74756,1,2,0:0:0:0:
192,192,74926,1,2,0:0:0:0:
320,192,75097,1,8,0:0:0:0:
448,192,75097,1,0,0:0:0:0:
192,192,75267,1,0,0:0:0:0:
64,192,75438,128,2,75778:0:0:0:0:
448,192,75438,1,0,0:0:0:0:
320,192,75608,1,2,0:0:0:0:
192,192,75778,1,8,0:0:0:0:
448,192,75778,128,0,76119:0:0:0:0:
320,192,75949,1,0,0:0:0:0:
64,192,76119,1,2,0:0:0:0:
192,192,76119,128,0,76460:0:0:0:0:
448,192,76290,1,2,0:0:0:0:
64,192,76460,1,8,0:0:0:0:
320,192,76460,128,0,76801:0:0:0:0:
448,192,76631,1,0,0:0:0:0:
64,192,76801,128,2,76972:0:0:0:0:
192,192,76801,1,0,0:0:0:0:
448,192,76972,1,2,0:0:0:0:
192,192,77142,1,8,0:0:0:0:
320,192,77142,1,0,0:0:0:0:
64,192,77313,128,0,77483:0:0:0:0:
448,192,77313,1,0,0:0:0:0:
320,192,77483,1,2,0:0:0:0:
192,192,77653,1,2,0:0:0:0:
320,192,77824,1,8,0:0:0:0:
448,192,77824,1,0,0:0:0:0:
64,192,77994,1,0,0:0:0:0:
192,192,78080,1,0,0:0:0:0:
320,192,78165,1,2,0:0:0:0:
448,192,78165,128,0,78506:0:0:0:0:
64,192,78335,1,2,0:0:0:0:
192,192,78506,128,8,78847:0:0:0:0:
320,192,78506,1,0,0:0:0:0:
448,192,78676,1,0,0:0:0:0:
64,192,78847,1,2,0:0:0:0:
320,192,78847,128,0,79188:0:0:0:0:
448,192,79017,1,2,0:0:0:0:
64,192,79188,128,8,79528:0:0:0:0:
192,192,79188,1,0,0:0:0:0:
320,192,79358,1,8,0:0:0:0:
192,192,79528,1,2,0:0:0:0:
448,192,79528,128,4,80892:0:0:0:0:
320,192,79699,1,2,0:0:0:0:
64,192,79869,1,8,0:0:0:0:
192,192,79869,1,0,0:0:0:0:
320,192,80040,1,0,0:0:0:0:
192,192,80210,1,2,0:0:0:0:
64,192,80381,1,2,0:0:0:0:
192,192,80551,1,8,0:0:0:0:
320,192,80551,1,0,0:0:0:0:
64,192,80722,1,0,0:0:0:0:
192,192,80892,1,2,0:0:0:0:
320,192,80892,128,4,82256:0:0:0:0:
448,192,81063,1,2,0:0:0:0:
64,192,81233,1,8,0:0:0:0:
192,192,81233,1,0,0:0:0:0:
448,192,81403,1,0,0:0:0:0:
64,192,81574,1,2,0:0:0:0:
192,192,81744,1,2,0:0:0:0:
64,192,81915,1,8,0:0:0:0:
448,192,81915,1,0,0:0:0:0:
192,192,82085,1,0,0:0:0:0:
64,192,82256,128,2,83619:0:0:0:0:
448,192,82256,1,0,0:0:0:0:
192,192,82426,1,2,0:0:0:0:
320,192,82597,1,8,0:0:0:0:
448,192,82597,1,0,0:0:0:0:
192,192,82767,1,0,0:0:0:0:
320,192,82938,1,2,0:0:0:0:
448,192,83108,1,2,0:0:0:0:
192,192,83278,1,8,0:0:0:0:
320,192,83278,1,0,0:0:0:0:
448,192,83449,1,0,0:0:0:0:
320,192,83619,1,2,0:0:0:0:
192,192,83790,1,2,0:0:0:0:
64,192,83960,1,8,0:0:0:0:
448,192,83960,1,0,0:0:0:0:
192,192,84131,1,8,0:0:0:30:
320,192,84216,1,8,0:0:0:30:
64,192,84301,1,2,0:0:0:0:
448,192,84301,1,0,0:0:0:0:
192,192,84386,1,8,0:0:0:30:
320,192,84472,1,2,0:0:0:0:
64,192,84642,1,8,0:0:0:0:
192,192,84642,1,0,0:0:0:0:
448,192,84813,1,8,0:0:0:0:
320,192,84898,1,8,0:0:0:0:
64,192,84983,128,4,85153:0:0:0:0:
192,192,84983,1,2,0:0:0:0:
320,192,85153,1,8,0:0:0:0:
448,192,85153,128,0,85324:0:0:0:45:Tom3.wav
64,192,85324,1,8,0:0:0:0:
192,192,85324,128,0,85494:0:0:0:45:Tom3.wav
320,192,85494,1,8,0:0:0:0:
448,192,85494,128,0,85665:0:0:0:45:Tom3.wav
64,192,85665,128,8,85835:0:0:0:0:
192,192,85665,1,0,0:0:0:45:Tom3.wav
448,192,85835,1,8,0:0:0:0:
320,192,85920,1,8,0:0:0:0:
192,192,86006,1,8,0:0:0:0:
64,192,86091,1,8,0:0:0:0:
448,192,86176,1,8,0:0:0:0:
320,192,86261,1,8,0:0:0:0:
64,192,86347,1,8,0:0:0:0:
192,192,86347,1,0,0:0:0:0:
192,192,87710,128,0,88903:0:0:0:100:D5S_s.wav
320,192,87710,128,0,88903:0:0:0:0:
