osu file format v14

[General]
AudioFilename: audio.mp3
AudioLeadIn: 0
PreviewTime: -1
Countdown: 0
SampleSet: Soft
StackLeniency: 0.7
Mode: 0
LetterboxInBreaks: 0
WidescreenStoryboard: 1

[Editor]
DistanceSpacing: 0.8
BeatDivisor: 4
GridSize: 16
TimelineZoom: 1.5

[Metadata]
Title:SHIORI (TV Size)
TitleUnicode:SHIORI (TV Size)
Artist:ClariS
ArtistUnicode:ClariS
Creator:-Liban-
Version:Extra
Source:終物語
Tags:ending ed owarimonogatari anime jpop j-pop j pop japanese
BeatmapID:2234009
BeatmapSetID:1067040

[Difficulty]
HPDrainRate:5
CircleSize:4.2
OverallDifficulty:8
ApproachRate:9
SliderMultiplier:1.8
SliderTickRate:1

[Events]
//Background and Video events
0,0,"thumb-1920-724919.png",0,0
//Break Periods
//Storyboard Layer 0 (Background)
//Storyboard Layer 1 (Fail)
//Storyboard Layer 2 (Pass)
//Storyboard Layer 3 (Foreground)
//Storyboard Layer 4 (Overlay)
//Storyboard Sound Samples

[TimingPoints]
430,340.909090909091,4,2,1,60,1,0
430,-200,4,2,1,60,0,0
5884,-133.333333333333,4,2,1,70,0,0
8611,-153.846153846154,4,2,1,70,0,0
9975,-95.2380952380952,4,2,1,70,0,0
11339,-100,4,2,1,70,0,0
14066,-100,4,2,1,80,0,0
16793,-125,4,2,1,70,0,0
26339,-100,4,2,1,70,0,0
26680,-125,4,2,1,70,0,0
28384,-100,4,2,1,70,0,0
35884,-90.9090909090909,4,2,1,70,0,0
38611,-125,4,2,1,75,0,0
54123,-125,4,2,1,5,0,0
54293,-166.666666666667,4,2,1,75,0,0
54975,-166.666666666667,4,2,1,60,0,0
56339,-200,4,2,1,60,0,0
57702,-100,4,2,1,65,0,0
58725,-100,4,2,1,70,0,0
59748,-100,4,2,1,75,0,0
60430,-100,4,2,1,80,0,0
61793,-125,4,2,1,80,0,0
62305,-250,4,2,1,80,0,0
62645,-250,4,2,1,5,0,0
62816,-83.3333333333333,4,2,1,80,0,0
62986,-83.3333333333333,4,2,1,5,0,0
63157,-83.3333333333333,4,2,1,85,0,1
73555,-83.3333333333333,4,2,1,85,0,1
84975,-83.3333333333333,4,2,1,85,0,1
87020,-166.666666666667,4,2,1,60,0,0
88895,-166.666666666667,4,2,1,5,0,0

[Colours]
Combo1 : 202,0,0
Combo2 : 0,223,223

[HitObjects]
111,126,430,5,0,0:0:0:0:
141,135,600,1,0,0:0:0:0:
170,145,770,1,0,0:0:0:0:
200,152,940,1,0,0:0:0:0:
321,181,1111,5,0,0:0:0:0:
318,163,1282,1,0,0:0:0:0:
301,155,1452,1,0,0:0:0:0:
283,157,1623,1,0,0:0:0:0:
229,217,1793,5,0,0:0:0:0:
243,234,1964,1,0,0:0:0:0:
271,305,2134,1,0,0:0:0:0:
288,307,2305,1,0,0:0:0:0:
422,370,2475,5,0,0:0:0:0:
361,339,2645,1,0,0:0:0:0:
293,334,2816,1,0,0:0:0:0:
232,363,2986,1,0,0:0:0:0:
105,357,3157,5,0,0:0:0:0:
122,315,3327,1,0,0:0:0:0:
104,273,3498,1,0,0:0:0:0:
128,235,3668,1,0,0:0:0:0:
236,172,3839,5,0,0:0:0:0:
199,132,4009,1,0,0:0:0:0:
185,184,4180,1,0,0:0:0:0:
223,221,4350,1,0,0:0:0:0:
331,96,4520,5,0,0:0:0:0:
344,119,4691,1,0,0:0:0:0:
328,198,4861,1,0,0:0:0:0:
311,224,5032,1,0,0:0:0:0:
450,164,5202,5,0,0:0:0:0:
386,139,5373,1,0,0:0:0:0:
355,79,5543,1,0,0:0:0:0:
380,16,5714,1,0,0:0:0:0:
387,23,5799,1,0,0:0:0:0:
398,39,5884,2,0,B|285:-27|286:130|138:93,1,270.000010299683,0|0,0:0|0:0,0:0:0:0:
152,96,7162,6,0,L|135:94,2,16.8750006437302
95,160,7759,1,0,0:0:0:0:
93,143,8100,5,0,0:0:0:0:
208,211,8270,5,0,0:0:0:0:
329,148,8441,5,0,0:0:0:0:
475,257,8611,6,0,P|392:236|297:226,1,175.499991966248
361,308,9293,5,0,0:0:0:0:
399,218,9464,1,0,0:0:0:0:
345,140,9634,1,0,0:0:0:0:
408,33,9805,1,0,0:0:0:0:
314,67,9975,2,0,B|216:60|244:13|118:10,1,188.999994232178
15,97,10444,5,0,0:0:0:0:
7,84,10486,1,0,0:0:0:0:
124,253,10827,5,0,0:0:0:0:
156,101,10998,5,0,0:0:0:0:
462,229,11339,6,0,P|451:272|441:333,1,90
318,357,11680,5,0,0:0:0:0:
379,238,11850,1,0,0:0:0:0:
230,160,12020,5,0,0:0:0:0:
255,291,12191,1,0,0:0:0:0:
392,117,12361,5,0,0:0:0:0:
277,62,12532,1,0,0:0:0:0:
477,13,12702,1,0,0:0:0:0:
95,149,13725,6,0,L|72:165,6,22.5,0|0|0|0|0|0|0,0:0|0:0|0:0|0:0|0:0|0:0|0:0,0:0:0:0:
195,57,14066,5,0,0:0:0:0:
207,141,14236,1,0,0:0:0:0:
224,232,14407,1,0,0:0:0:0:
59,171,14577,5,0,0:0:0:0:
211,127,14748,1,0,0:0:0:0:
318,184,14918,1,0,0:0:0:0:
278,45,15089,5,0,0:0:0:0:
235,177,15259,1,0,0:0:0:0:
291,277,15430,1,0,0:0:0:0:
502,190,15600,5,0,0:0:0:0:
356,166,15770,1,0,0:0:0:0:
229,288,15941,5,0,0:0:0:0:
370,242,16111,1,0,0:0:0:0:
496,332,16282,5,0,0:0:0:0:
483,327,16367,1,0,0:0:0:0:
440,312,16452,5,0,0:0:0:0:
391,314,16537,5,0,0:0:0:0:
356,343,16623,5,0,0:0:0:0:
312,331,16708,5,0,0:0:0:0:
302,341,16793,6,0,B|229:337|243:307|152:297,1,144
165,298,17305,5,0,0:0:0:0:
61,383,17475,2,0,P|96:375|131:369,1,72,0|0,0:0|0:0,0:0:0:0:
0,261,17816,2,0,P|10:300|13:331,1,72,0|0,0:0|0:0,0:0:0:0:
186,230,18157,6,0,P|190:194|206:159,1,72,0|0,0:0|0:0,0:0:0:0:
371,118,18498,2,0,P|342:95|306:81,1,72,0|0,0:0|0:0,0:0:0:0:
223,126,18839,1,0,0:0:0:0:
119,56,19009,1,0,0:0:0:0:
193,53,19180,1,0,0:0:0:0:
104,145,19350,1,0,0:0:0:0:
5,38,19520,6,0,P|13:97|22:215,1,144,0|0,0:0|0:0,0:0:0:0:
182,297,20032,1,0,0:0:0:0:
182,297,20117,1,0,0:0:0:0:
182,297,20202,2,0,P|128:276|40:273,1,144,0|0,0:0|0:0,0:0:0:0:
210,201,20714,1,0,0:0:0:0:
315,358,20884,2,0,L|331:273,1,72
454,235,21225,2,0,L|467:305,1,72
309,164,21566,1,0,0:0:0:0:
425,96,21736,5,0,0:0:0:0:
416,172,21907,1,0,0:0:0:0:
346,77,22077,1,0,0:0:0:0:
465,30,22248,2,0,P|394:17|322:9,1,144
276,104,22759,1,0,0:0:0:0:
416,172,22930,6,0,L|344:183,1,72
197,66,23270,2,0,L|208:137,1,72,0|0,0:0|0:0,0:0:0:0:
146,312,23611,2,0,L|217:301,1,72
15,229,23952,2,0,B|4:259|4:259|18:296,1,72
121,188,24293,5,0,0:0:0:0:
208,275,24464,1,0,0:0:0:0:
338,238,24634,1,0,0:0:0:0:
488,287,24805,1,0,0:0:0:0:
347,373,24975,6,0,P|321:305|356:217,1,144
239,162,25486,1,0,0:0:0:0:
300,123,25657,1,0,0:0:0:0:
223,242,25827,1,0,0:0:0:0:
117,307,25998,1,0,0:0:0:0:
146,198,26168,1,0,0:0:0:0:
280,288,26339,2,0,B|374:255|339:217|434:183,1,180
456,257,26850,1,0,0:0:0:0:
267,174,27020,5,0,0:0:0:0:
348,86,27191,1,0,0:0:0:0:
381,204,27361,1,0,0:0:0:0:
234,84,27532,1,0,0:0:0:0:
234,84,27617,1,0,0:0:0:0:
234,84,27702,6,0,B|172:69|172:69|158:60|158:60|77:42,1,144
183,162,28214,1,0,0:0:0:0:
71,266,28384,2,0,B|107:248|107:248|179:268,1,90
314,364,28725,1,0,0:0:0:0:
427,260,28895,1,0,0:0:0:0:
316,100,29066,2,0,P|333:177|347:306,1,180
265,266,29577,1,0,0:0:0:0:
438,145,29748,5,0,0:0:0:0:
399,227,29918,1,0,0:0:0:0:
286,169,30089,1,0,0:0:0:0:
287,16,30259,1,0,0:0:0:0:
217,88,30430,6,0,B|122:79|144:36|48:28,1,180,0|0,0:0|0:0,0:0:0:0:
198,189,30941,2,0,P|249:174|299:167,1,90,0|0,0:0|0:0,0:0:0:0:
131,145,31282,1,0,0:0:0:0:
53,186,31452,5,0,0:0:0:0:
82,377,31623,1,0,0:0:0:0:
125,312,31793,2,0,L|217:296,1,90,0|0,0:0|0:0,0:0:0:0:
428,220,32134,2,0,B|405:266|405:266|420:312,1,90
349,201,32475,1,0,0:0:0:0:
274,319,32645,1,0,0:0:0:0:
336,209,32816,1,0,0:0:0:0:
247,109,32986,1,0,0:0:0:0:
209,179,33157,6,0,P|228:93|228:-2,1,180,0|0,0:0|0:0,0:0:0:0:
336,209,33668,1,0,0:0:0:0:
417,32,33839,2,0,P|421:76|434:119,1,90
179,130,34180,5,0,0:0:0:0:
278,85,34350,1,0,0:0:0:0:
398,25,34520,2,0,L|402:116,1,90
268,237,34861,2,0,L|353:209,1,90,0|0,0:0|0:0,0:0:0:0:
208,167,35202,1,0,0:0:0:0:
212,330,35373,1,0,0:0:0:0:
280,190,35543,1,0,0:0:0:0:
147,91,35714,1,0,0:0:0:0:
187,10,35884,6,0,P|186:112|170:208,1,198.000006042481
401,64,36395,2,0,L|313:8,1,99.0000030212403,0|0,0:0|0:0,0:0:0:0:
268,197,36736,1,0,0:0:0:0:
415,266,36907,5,0,0:0:0:0:
314,129,37077,1,0,0:0:0:0:
183,275,37248,5,0,0:0:0:0:
335,228,37418,1,0,0:0:0:0:
140,184,37589,5,0,0:0:0:0:
111,340,37759,1,0,0:0:0:0:
13,210,37930,5,0,0:0:0:0:
191,243,38100,5,0,0:0:0:0:
287,177,38270,5,0,0:0:0:0:
439,218,38441,5,0,0:0:0:0:
512,130,38611,6,0,B|397:98|445:62|309:37,1,216
223,173,39293,5,0,0:0:0:0:
183,114,39464,1,0,0:0:0:0:
282,127,39634,5,0,0:0:0:0:
134,190,39805,1,0,0:0:0:0:
92,128,39975,2,0,P|102:96|111:46,1,72
278,74,40316,5,0,0:0:0:0:
204,33,40486,1,0,0:0:0:0:
155,190,40657,2,0,L|229:157,1,72
299,155,40998,5,0,0:0:0:0:
362,187,41168,1,0,0:0:0:0:
411,310,41339,2,0,P|398:350|388:393,1,72
340,235,41680,5,0,0:0:0:0:
289,287,41850,1,0,0:0:0:0:
270,103,42020,2,0,P|302:112|366:120,1,72
249,241,42361,2,0,P|292:230|359:228,1,108
356,228,42702,6,0,B|387:298|387:298|358:381,1,144
249,294,43214,1,0,0:0:0:0:
114,322,43384,2,0,B|106:314|177:292|177:292|191:280|191:280|276:256,1,144
114,322,43895,1,0,0:0:0:0:
13,161,44066,2,0,P|29:238|36:347,1,144
222,69,44748,6,0,L|136:46,1,72
271,186,45089,1,0,0:0:0:0:
271,186,45430,6,0,L|251:263,1,72
361,146,45770,1,0,0:0:0:0:
296,107,45941,1,0,0:0:0:0:
404,243,46111,5,0,0:0:0:0:
444,158,46282,1,0,0:0:0:0:
322,206,46452,1,0,0:0:0:0:
335,277,46623,1,0,0:0:0:0:
387,374,46793,6,0,L|300:347,1,72
240,351,47134,1,0,0:0:0:0:
173,384,47305,1,0,0:0:0:0:
226,277,47475,2,0,L|211:179,1,72
90,217,47816,5,0,0:0:0:0:
165,147,47986,1,0,0:0:0:0:
73,46,48157,2,0,L|83:140,1,72
235,207,48498,2,0,P|242:164|253:121,1,72
90,217,48839,2,0,P|109:277|126:352,1,108
155,384,49180,1,0,0:0:0:0:
470,25,49520,6,0,P|459:103|456:206,1,144
354,125,50032,1,0,0:0:0:0:
298,85,50202,2,0,L|290:13,1,72
192,156,50543,2,0,L|157:65,1,72
61,325,50884,6,0,L|138:298,1,72
50,183,51225,1,0,0:0:0:0:
9,258,51395,1,0,0:0:0:0:
186,172,51566,2,0,P|177:160|160:96,1,72
314,156,51907,1,0,0:0:0:0:
262,235,52077,1,0,0:0:0:0:
244,44,52248,6,0,L|255:142,1,72
208,181,52589,2,0,B|253:155|253:155|333:184,1,108
401,155,52930,5,0,0:0:0:0:
382,224,53043,1,0,0:0:0:0:
419,285,53157,1,0,0:0:0:0:
429,299,53270,2,0,P|411:281|398:252,2,48
512,238,53611,2,0,L|268:217,1,242.999992584229
176,168,54293,6,0,B|229:201|276:216|276:216|252:283|255:343,1,215.999993408203
270,340,55998,1,0,0:0:0:0:
256,315,56339,1,0,0:0:0:0:
288,218,56850,1,0,0:0:0:0:
226,149,57191,1,0,0:0:0:0:
143,111,57532,1,0,0:0:0:0:
187,48,57702,5,0,0:0:0:0:
198,155,57873,1,0,0:0:0:0:
217,260,58043,1,0,0:0:0:0:
358,126,58214,5,0,0:0:0:0:
237,224,58384,1,0,0:0:0:0:
80,166,58555,1,0,0:0:0:0:
311,50,58725,5,0,0:0:0:0:
344,218,58895,1,0,0:0:0:0:
250,334,59066,1,0,0:0:0:0:
55,233,59236,5,0,0:0:0:0:
239,180,59406,1,0,0:0:0:0:
312,372,59576,1,0,0:0:0:0:
135,336,59748,5,0,0:0:0:0:
370,259,59918,1,0,0:0:0:0:
463,363,60089,5,0,0:0:0:0:
185,250,60259,1,0,0:0:0:0:
357,366,60430,6,0,P|360:317|343:267,1,90
214,380,60770,1,0,0:0:0:0:
102,196,60941,2,0,P|90:239|93:283,1,90,0|0,0:0|0:0,0:0:0:0:
248,181,61282,1,0,0:0:0:0:
77,60,61452,1,0,0:0:0:0:
94,101,61537,1,0,0:0:0:0:
131,127,61623,1,0,0:0:0:0:
175,121,61708,1,0,0:0:0:0:
186,106,61793,2,0,B|127:82|38:130,1,144,0|0,0:0|0:0,0:0:0:0:
297,246,62305,6,0,L|329:144,1,90,0|0,0:0|0:0,0:0:0:0:
354,147,62816,6,0,B|286:191|286:191|296:311,1,161.999995056153,0|0,0:0|0:0,0:0:0:0:
339,334,63157,6,0,B|220:309|278:257|143:219,1,215.999993408203,0|0,0:0|0:0,0:0:0:0:
145,310,63668,1,0,0:0:0:0:
294,152,63839,1,0,0:0:0:0:
323,244,64009,1,0,0:0:0:0:
104,182,64180,2,0,P|119:146|123:69,1,107.999996704102
252,222,64520,5,0,0:0:0:0:
73,260,64691,1,0,0:0:0:0:
218,144,64861,1,0,0:0:0:0:
328,281,65032,6,0,P|368:255|456:223,1,107.999996704102,0|0,0:0|0:0,0:0:0:0:
298,153,65373,1,0,0:0:0:0:
478,57,65543,2,0,P|501:111|501:177,1,107.999996704102,0|0,0:0|0:0,0:0:0:0:
215,87,65884,2,0,B|331:67|280:20|445:0,1,215.999993408203,0|0,0:0|0:0,0:0:0:0:
120,35,66395,5,0,0:0:0:0:
197,213,66566,1,0,0:0:0:0:
231,110,66736,1,0,0:0:0:0:
76,226,66907,1,0,0:0:0:0:
141,381,67077,1,0,0:0:0:0:
171,311,67248,6,0,P|122:282|73:264,1,107.999996704102
251,144,67589,1,0,0:0:0:0:
326,201,67759,2,0,P|372:173|422:154,1,107.999996704102,0|0,0:0|0:0,0:0:0:0:
251,144,68100,1,0,0:0:0:0:
86,194,68270,2,0,B|161:169|116:114|245:78,1,161.999995056153,0|0,0:0|0:0,0:0:0:0:
276,47,68611,6,0,B|243:89|243:89|255:174,1,107.999996704102,0|0,0:0|0:0,0:0:0:0:
87,83,68952,1,0,0:0:0:0:
165,7,69123,1,0,0:0:0:0:
193,206,69293,1,0,0:0:0:0:
301,203,69464,1,0,0:0:0:0:
103,359,69634,6,0,P|98:322|77:255,1,107.999996704102
330,259,69975,1,0,0:0:0:0:
217,370,70145,1,0,0:0:0:0:
212,255,70316,1,0,0:0:0:0:
331,369,70486,1,0,0:0:0:0:
444,192,70657,2,0,P|463:252|479:304,1,107.999996704102
212,255,70998,2,0,B|280:217|280:217|291:203|291:203|365:163,1,161.999995056153
426,188,71339,6,0,B|384:192|384:192|328:134,1,107.999996704102
512,30,71680,2,0,P|506:92|498:137,1,107.999996704102,0|0,0:0|0:0,0:0:0:0:
190,131,72020,2,0,P|258:109|313:89,1,107.999996704102,0|0,0:0|0:0,0:0:0:0:
116,267,72361,2,0,L|246:296,1,107.999996704102,0|0,0:0|0:0,0:0:0:0:
133,188,72702,5,0,0:0:0:0:
0,289,72873,1,0,0:0:0:0:
69,66,73043,1,0,0:0:0:0:
239,199,73214,1,0,0:0:0:0:
73,221,73384,1,0,0:0:0:0:
59,197,73469,1,0,0:0:0:0:
64,170,73555,1,0,0:0:0:0:
79,147,73640,1,0,0:0:0:0:
120,156,73725,5,0,0:0:0:0:
118,199,73810,1,0,0:0:0:0:
80,221,73895,1,0,0:0:0:0:
37,212,73981,1,0,0:0:0:0:
24,199,74066,2,0,B|142:238|81:301|206:345,1,215.999993408203
299,195,74577,2,0,P|271:244|267:263,1,53.9999983520508
235,92,74748,5,0,0:0:0:0:
369,46,74918,1,0,0:0:0:0:
224,110,75089,1,0,0:0:0:0:
119,50,75259,1,0,0:0:0:0:
369,46,75430,2,0,B|385:96|385:96|366:173,1,107.999996704102
191,171,75770,1,0,0:0:0:0:
272,77,75941,5,0,0:0:0:0:
145,98,76111,1,0,0:0:0:0:
98,237,76282,1,0,0:0:0:0:
243,234,76452,1,0,0:0:0:0:
239,375,76623,1,0,0:0:0:0:
160,341,76793,2,0,L|24:387,1,107.999996704102
205,233,77134,5,0,0:0:0:0:
283,283,77305,2,0,P|332:260|356:256,1,53.9999983520508
482,176,77475,6,0,P|436:174|363:157,1,107.999996704102,0|0,0:0|0:0,0:0:0:0:
207,30,77816,5,0,0:0:0:0:
294,107,77986,1,0,0:0:0:0:
150,153,78157,5,0,0:0:0:0:
287,20,78327,1,0,0:0:0:0:
378,188,78498,5,0,0:0:0:0:
286,131,78668,1,0,0:0:0:0:
145,267,78839,5,0,0:0:0:0:
239,225,79009,1,0,0:0:0:0:
364,379,79180,5,0,0:0:0:0:
261,311,79350,2,0,L|192:327,1,53.9999983520508
44,349,79520,6,0,B|158:312|97:258|227:225,1,215.999993408203,0|0,0:0|0:0,0:0:0:0:
275,286,80032,1,0,0:0:0:0:
424,364,80202,2,0,B|442:319|442:319|415:253,1,107.999996704102,0|0,0:0|0:0,0:0:0:0:
97,119,80543,6,0,P|97:171|88:233,1,107.999996704102,0|0,0:0|0:0,0:0:0:0:
375,34,80884,2,0,P|384:139|405:254,1,215.999993408203,0|0,0:0|0:0,0:0:0:0:
347,292,81395,1,0,0:0:0:0:
175,190,81566,6,0,L|284:142,1,107.999996704102
116,317,81907,2,0,L|215:358,1,107.999996704102,0|0,0:0|0:0,0:0:0:0:
42,155,82248,2,0,P|176:127|263:187,1,215.999993408203
199,220,82759,5,0,0:0:0:0:
399,95,82930,2,0,P|378:186|373:330,1,215.999993408203,0|0,0:0|0:0,0:0:0:0:
429,350,83441,5,0,0:0:0:0:
211,161,83611,2,0,B|116:196|116:196|106:212|106:212|7:247,1,215.999993408203
20,359,84123,1,0,0:0:0:0:
75,307,84293,1,0,0:0:0:0:
75,307,84378,1,0,0:0:0:0:
75,307,84464,1,0,0:0:0:0:
100,139,84634,1,0,0:0:0:0:
44,85,84805,1,0,0:0:0:0:
44,85,84890,1,0,0:0:0:0:
44,85,84975,5,0,0:0:0:0:
316,114,85145,1,0,0:0:0:0:
230,43,85316,5,0,0:0:0:0:
322,314,85486,1,0,0:0:0:0:
407,228,85657,5,0,0:0:0:0:
100,139,85827,1,0,0:0:0:0:
113,152,85912,1,0,0:0:0:0:
109,177,85998,1,0,0:0:0:0:
131,203,86083,1,0,0:0:0:0:
118,236,86168,1,0,0:0:0:0:
159,272,86253,1,0,0:0:0:0:
121,331,86339,1,0,0:0:0:0:
121,331,87021,5,0,0:0:0:0:
121,331,87191,2,0,L|191:309,1,53.9999983520508,0|0,0:0|0:0,0:0:0:0:
248,296,87532,1,0,0:0:0:0:
184,373,87702,2,0,P|241:199|176:11,1,377.999988464356
