osu file format v14

[General]
AudioFilename: audio.mp3
AudioLeadIn: 0
PreviewTime: -1
Countdown: 1
SampleSet: Soft
StackLeniency: 0.7
Mode: 0
LetterboxInBreaks: 0
WidescreenStoryboard: 0

[Editor]
DistanceSpacing: 1.3
BeatDivisor: 4
GridSize: 4
TimelineZoom: 1.9

[Metadata]
Title:SHIORI
TitleUnicode:SHIORI
Artist:ClariS
ArtistUnicode:ClariS
Creator:Ringer
Version:zzz
Source:
Tags:
BeatmapID:1482604
BeatmapSetID:700297

[Difficulty]
HPDrainRate:6.5
CircleSize:4
OverallDifficulty:7.5
ApproachRate:9
SliderMultiplier:1.5
SliderTickRate:1

[Events]
//Background and Video events
0,0,"cKAmYVR.jpg",0,0
//Break Periods
//Storyboard Layer 0 (Background)
//Storyboard Layer 1 (Fail)
//Storyboard Layer 2 (Pass)
//Storyboard Layer 3 (Foreground)
//Storyboard Sound Samples

[TimingPoints]
506,340.909090909091,4,2,2,70,1,0
677,340.909090909091,4,2,2,70,1,0
677,-100,4,2,4,50,0,0
6131,-200,4,2,2,60,0,0
8858,-200,4,2,2,65,0,0
11586,-100,4,2,4,70,0,0
17040,-100,4,2,2,70,0,0
19767,-100,4,2,2,70,0,0
20449,-100,4,2,2,70,0,0
21813,-100,4,2,3,70,0,0
22495,-100,4,2,2,70,0,0
25222,-100,4,2,2,70,0,0
26586,-100,4,2,4,70,0,0
27267,-100,4,2,2,70,0,0
27949,-100,4,2,2,70,0,0
29313,-100,4,2,4,70,0,0
30677,-100,4,2,2,70,0,0
32040,-100,4,2,4,70,0,0
33404,-100,4,2,3,70,0,0
34767,-100,4,2,4,70,0,0
36642,-100,4,2,2,70,0,0
38858,-100,4,2,2,50,0,0
40222,-100,4,2,2,50,0,0
40904,-100,4,2,4,50,0,0
41586,-100,4,2,4,50,0,0
42949,-100,4,2,4,50,0,0
43631,-100,4,2,2,50,0,0
44313,-100,4,2,3,50,0,0
45677,-100,4,2,4,50,0,0
47040,-100,4,2,3,50,0,0
48404,-100,4,2,4,50,0,0
49086,-100,4,2,2,50,0,0
49767,-100,4,2,3,50,0,0
51131,-100,4,2,2,50,0,0
51813,-100,4,2,4,50,0,0
52495,-100,4,2,4,50,0,0
53858,-100,4,2,4,50,0,0
54540,-100,4,2,2,50,0,0
55222,-100,4,2,3,50,0,0
56245,-200,4,2,2,50,0,0
57779,-100,4,2,2,50,0,0
57949,-100,4,2,2,70,0,0
60677,-75.187969924812,4,2,2,70,0,0
62040,-200,4,2,2,70,0,0
63404,-83.3333333333333,4,2,2,70,0,1
63745,-83.3333333333333,4,2,2,70,0,1
67154,-83.3333333333333,4,2,2,70,0,1
67495,-100,4,2,2,70,0,1
67836,-83.3333333333333,4,2,2,70,0,1
68517,-83.3333333333333,4,2,2,70,0,1
68858,-83.3333333333333,4,2,2,70,0,1
78404,-83.3333333333333,4,2,3,70,0,1
78745,-83.3333333333333,4,2,4,70,0,1
79086,-83.3333333333333,4,2,4,70,0,1
79427,-83.3333333333333,4,2,4,70,0,1
79767,-83.3333333333333,4,2,2,70,0,1
86586,-100,4,2,2,70,0,0
87267,-100,4,2,2,70,0,0
87949,-100,4,2,2,70,0,0

[Colours]
Combo1 : 255,128,255
Combo2 : 128,0,64
Combo3 : 255,128,192
Combo4 : 255,255,255

[HitObjects]
80,112,506,5,8,0:0:0:0:
80,112,677,2,0,L|96:192,1,75,8|0,0:0|0:0,0:0:0:0:
160,256,1017,2,0,L|174:182,1,75,8|0,0:0|0:0,0:0:0:0:
240,112,1358,2,0,L|256:192,1,75,8|0,0:0|0:0,0:0:0:0:
320,256,1698,2,0,L|334:182,1,75,8|0,0:0|0:0,0:0:0:0:
400,112,2040,5,8,0:0:0:0:
464,192,2211,1,8,0:0:0:0:
416,272,2381,1,8,0:0:0:0:
352,352,2552,2,0,P|260:336|224:272,1,150,8|0,0:0|0:0,0:0:0:0:
320,256,3233,5,8,0:0:0:0:
320,256,3404,2,0,L|304:160,1,75,8|0,0:0|0:0,0:0:0:0:
320,80,3745,2,0,L|224:96,1,75,8|0,0:0|0:0,0:0:0:0:
144,80,4086,2,0,L|160:176,1,75,8|0,0:0|0:0,0:0:0:0:
80,208,4427,2,0,L|64:304,1,75,8|0,0:0|0:0,0:0:0:0:
144,336,4767,6,0,P|236:320|272:256,1,150,8|0,0:0|0:0,0:0:0:0:
176,240,5279,2,0,P|192:148|256:112,1,150,8|0,0:0|0:0,0:0:0:0:
268,208,5790,1,8,0:0:0:0:
348,156,5961,1,8,0:0:0:0:
428,208,6131,6,0,P|412:279|350:319,1,150,12|0,0:0|0:0,0:0:0:0:
332,224,7495,2,0,P|304:184|280:168,1,75,4|8,0:0|0:0,0:0:0:0:
208,104,8006,1,8,0:0:0:0:
124,152,8177,1,8,0:0:0:0:
148,248,8347,1,8,0:0:0:0:
244,256,8517,1,8,0:0:0:0:
244,256,8858,6,0,P|194:309|121:314,1,150,4|0,0:0|0:0,0:0:0:0:
152,221,10222,2,0,P|131:176|129:147,1,75,4|8,0:0|0:0,0:0:0:0:
212,100,10733,1,8,0:0:0:0:
388,96,11074,1,8,0:0:0:0:
300,140,11245,1,8,0:0:0:0:
300,140,11586,6,0,P|320:184|322:213,1,75,4|0,0:0|0:0,0:0:0:0:
256,280,11927,1,8,0:0:0:0:
224,156,12097,1,8,0:0:0:0:
176,284,12267,1,8,0:0:0:0:
177,91,12437,1,8,0:0:0:0:
96,288,12608,1,8,0:0:0:0:
130,26,12779,1,8,0:0:0:0:
16,292,12949,1,12,0:0:0:0:
36,132,13290,6,0,L|16:252,1,112.5
16,292,13631,1,0,0:0:0:0:
100,340,13802,1,0,0:0:0:0:
176,284,13972,5,8,0:0:0:0:
170,246,14057,1,8,0:0:0:0:
165,209,14142,1,8,0:0:0:0:
160,172,14227,1,8,0:0:0:0:
155,135,14313,5,12,0:0:0:0:
288,75,14483,1,0,0:0:0:0:
273,219,14654,1,0,0:0:0:0:
240,144,14824,5,4,0:0:0:0:
373,84,14994,1,0,0:0:0:0:
358,228,15165,1,0,0:0:0:0:
325,153,15336,5,4,0:0:0:0:
458,93,15506,1,0,0:0:0:0:
443,237,15677,1,0,0:0:0:0:
412,164,15847,5,4,0:0:0:0:
395,306,16017,2,0,L|299:290,1,75
190,293,16359,5,4,0:0:0:0:
37,184,16529,1,0,0:0:0:0:
209,106,16699,1,12,0:0:0:0:
209,106,16784,1,8,0:0:0:0:
209,106,16870,1,8,0:0:0:0:
209,106,16955,1,8,0:0:0:0:
209,106,17040,6,0,L|282:118,1,75,12|0,0:0|0:0,0:0:0:0:
336,36,17381,2,0,P|376:84|380:128,1,75
464,144,17722,2,0,L|451:217,1,75,8|0,0:0|0:0,0:0:0:0:
400,300,18063,1,8,0:0:0:0:
340,224,18233,1,8,0:0:0:0:
284,304,18404,6,0,L|210:291,1,75,8|0,0:0|0:0,0:0:0:0:
113,267,18745,2,0,P|129:233|157:209,1,75
212,128,19086,1,8,0:0:0:0:
252,216,19257,1,8,0:0:0:0:
300,136,19427,1,8,0:0:0:0:
340,224,19598,1,8,0:0:0:0:
388,144,19767,6,0,P|348:60|272:52,1,150,8|0,0:0|0:0,0:0:0:0:
300,136,20279,1,8,0:0:0:0:
340,224,20449,2,0,P|286:299|209:294,1,150,8|8,0:0|0:0,0:0:0:0:
252,216,20961,1,8,0:0:0:0:
160,244,21131,6,0,L|147:170,1,75,8|0,0:0|0:0,0:0:0:0:
64,117,21472,2,0,P|89:88|123:73,1,75,8|0,0:0|0:0,0:0:0:0:
220,68,21813,1,10,0:0:0:0:
312,36,21983,1,8,0:0:0:0:
300,136,22154,1,8,0:0:0:0:
392,105,22324,1,8,0:0:0:0:
380,204,22495,6,0,P|412:236|348:236,1,150,10|0,0:0|0:0,0:0:0:0:
252,216,23006,1,0,0:0:0:0:
156,204,23177,2,0,L|143:278,1,75,8|0,0:0|0:0,0:0:0:0:
100,364,23517,1,8,0:0:0:0:
52,280,23688,1,8,0:0:0:0:
52,184,23858,6,0,L|65:110,1,75,8|0,0:0|0:0,0:0:0:0:
5,31,24199,2,0,P|38:12|75:9,1,75
156,72,24540,1,8,0:0:0:0:
220,144,24711,1,8,0:0:0:0:
316,132,24881,1,8,0:0:0:0:
380,204,25052,1,8,0:0:0:0:
476,192,25222,6,0,P|448:272|284:208,1,300,10|0,0:0|0:0,0:0:0:0:
220,144,26074,2,8,L|256:56,2,75
156,220,26586,2,0,B|180:284|180:284|144:360,1,150,10|0,0:0|0:0,0:0:0:0:
76,280,27097,1,0,0:0:0:0:
60,184,27267,2,0,L|84:112,1,75,10|0,0:0|0:0,0:0:0:0:
168,68,27608,1,8,0:0:0:0:
224,148,27779,1,8,0:0:0:0:
252,108,27864,1,8,0:0:0:0:
280,68,27949,6,0,P|372:68|420:140,1,150,10|0,0:0|0:0,0:0:0:0:
324,152,28461,1,0,0:0:0:0:
408,204,28631,2,0,L|320:264,1,75,8|0,0:0|0:0,0:0:0:0:
266,306,28972,1,8,0:0:0:0:
184,256,29142,1,8,0:0:0:0:
104,312,29313,6,0,P|88:256|144:168,1,150,10|0,0:0|0:0,0:0:0:0:
200,112,29824,1,8,0:0:0:0:
124,48,29995,2,0,L|208:4,1,75,8|0,0:0|0:0,0:0:0:0:
284,40,30336,1,8,0:0:0:0:
377,66,30507,1,8,0:0:0:0:
470,92,30677,6,0,P|460:176|286:150,1,300,10|0,0:0|0:0,0:0:0:0:
200,112,31529,1,0,0:0:0:0:
108,140,31699,1,8,0:0:0:0:
18,92,31870,1,8,0:0:0:0:
18,92,31955,1,8,0:0:0:0:
18,92,32040,6,0,L|16:188,1,75,10|0,0:0|0:0,0:0:0:0:
6,267,32381,2,0,P|43:264|75:246,1,75,8|0,0:0|0:0,0:0:0:0:
168,208,32722,1,8,0:0:0:0:
196,300,32892,1,8,0:0:0:0:
268,232,33063,1,8,0:0:0:0:
296,324,33233,1,8,0:0:0:0:
368,256,33404,6,0,L|368:96,1,150,10|0,0:0|0:0,0:0:0:0:
288,52,33915,1,8,0:0:0:0:
208,108,34086,2,0,L|131:152,1,75,8|0,0:0|0:0,0:0:0:0:
80,220,34427,1,8,0:0:0:0:
144,296,34597,1,8,0:0:0:0:
236,268,34767,6,0,L|273:203,1,75,10|0,0:0|0:0,0:0:0:0:
345,134,35108,2,0,P|366:164|372:201,1,75,8|0,0:0|0:0,0:0:0:0:
376,300,35449,6,0,L|440:262,1,75,8|0,0:0|0:0,0:0:0:0:
476,172,35790,1,8,0:0:0:0:
440,80,35961,1,8,0:0:0:0:
348,36,36131,6,0,P|276:68|248:136,1,150,10|0,0:0|0:0,0:0:0:0:
248,204,36642,2,0,L|248:100,1,75,10|0,0:0|0:0,0:0:0:0:
152,108,36983,1,2,0:0:0:0:
88,180,37154,1,8,0:0:0:0:
160,248,37324,1,2,0:0:0:0:
248,204,37495,5,8,0:0:0:0:
354,256,37665,1,2,0:0:0:0:
440,175,37836,1,8,0:0:0:0:
364,89,38006,1,2,0:0:0:0:
248,32,38177,5,8,0:0:0:0:
98,81,38347,1,8,0:0:0:0:
98,238,38517,1,8,0:0:0:0:
248,288,38688,1,8,0:0:0:0:
440,175,38858,6,0,P|332:156|296:124,1,150,14|0,0:0|0:0,0:0:0:0:
204,120,39370,1,0,0:0:0:0:
112,164,39540,2,0,L|96:244,1,75,8|0,0:0|0:0,0:0:0:0:
176,312,39881,2,0,L|253:285,1,75,8|0,0:0|0:0,0:0:0:0:
272,182,40222,6,0,P|274:107|240:42,1,150,10|0,0:0|0:0,0:0:0:0:
147,10,40733,1,0,0:0:0:0:
87,92,40903,2,0,L|113:169,1,75,8|0,0:0|0:0,0:0:0:0:
100,268,41245,2,0,P|164:260|192:232,1,75,8|0,0:0|0:0,0:0:0:0:
276,276,41586,6,0,P|344:304|416:272,1,150,10|0,0:0|0:0,0:0:0:0:
344,196,42097,1,0,0:0:0:0:
272,120,42267,2,0,P|248:155|241:190,1,75,8|0,0:0|0:0,0:0:0:0:
153,280,42608,1,8,0:0:0:0:
100,168,42779,1,8,0:0:0:0:
148,77,42949,6,0,P|64:72|0:152,1,150,10|0,0:0|0:0,0:0:0:0:
100,168,43461,1,8,0:0:0:0:
28,232,43631,2,4,B|72:280|140:256|140:256|164:300,1,150,10|0,0:0|0:0,0:0:0:0:
252,292,44142,1,8,0:0:0:0:
332,232,44313,6,0,B|376:184|376:184|324:128|368:52,1,150,10|0,0:0|0:0,0:0:0:0:
404,16,44824,1,0,0:0:0:0:
452,112,44995,2,0,L|472:192,1,75,8|0,0:0|0:0,0:0:0:0:
400,264,45336,2,0,L|340:321,1,75,8|0,0:0|0:0,0:0:0:0:
252,292,45677,6,0,P|180:356|124:356,1,150,10|0,0:0|0:0,0:0:0:0:
56,284,46188,1,0,0:0:0:0:
156,264,46358,2,0,L|156:160,1,75,8|0,0:0|0:0,0:0:0:0:
92,88,46699,1,8,0:0:0:0:
212,88,46870,1,8,0:0:0:0:
332,88,47040,6,0,P|376:152|364:228,1,150,10|0,0:0|0:0,0:0:0:0:
252,292,47552,1,0,0:0:0:0:
272,176,47722,2,0,L|196:192,1,75,8|0,0:0|0:0,0:0:0:0:
96,208,48063,2,0,P|136:276|184:288,1,75,8|0,0:0|0:0,0:0:0:0:
252,292,48404,6,0,B|326:275|326:275|316:228|364:228,1,150,10|0,0:0|0:0,0:0:0:0:
424,144,48915,1,8,0:0:0:0:
332,88,49086,2,0,P|343:44|288:76,1,150,10|0,0:0|0:0,0:0:0:0:
188,108,49597,1,8,0:0:0:0:
88,84,49767,6,0,L|60:280,1,150,14|0,0:0|0:0,0:0:0:0:
140,316,50279,1,0,0:0:0:0:
244,304,50449,2,0,L|321:277,1,75,8|0,0:0|0:0,0:0:0:0:
340,174,50790,2,0,L|278:120,1,75,8|0,0:0|0:0,0:0:0:0:
188,108,51131,6,0,P|204:188|300:228,1,150,10|0,0:0|0:0,0:0:0:0:
376,240,51642,1,0,0:0:0:0:
408,140,51813,2,0,P|468:192|476:228,1,75,8|0,0:0|0:0,0:0:0:0:
432,285,52154,2,0,P|372:233|364:197,1,75,8|0,0:0|0:0,0:0:0:0:
256,225,52495,6,0,P|197:268|191:358,1,150,2|0,0:0|0:0,0:0:0:0:
282,323,53006,1,0,0:0:0:0:
384,292,53177,2,8,L|448:284,2,50
375,239,53517,2,8,L|432:204,2,50
340,192,53858,5,10,0:0:0:0:
172,192,54540,5,10,0:0:0:0:
340,192,55222,5,14,0:0:0:0:
159,118,56245,6,0,L|175:214,1,75
171,191,57097,5,0,0:0:0:0:
256,260,57438,1,0,0:0:0:0:
340,192,57779,1,0,0:0:0:0:
171,191,57949,5,4,0:0:0:0:
340,192,58120,1,0,0:0:0:0:
256,68,58290,1,0,0:0:0:0:
256,152,58461,5,4,0:0:0:0:
374,271,58632,1,0,0:0:0:0:
403,124,58802,1,0,0:0:0:0:
340,192,58972,5,4,0:0:0:0:
339,359,59143,1,0,0:0:0:0:
463,276,59313,1,0,0:0:0:0:
374,271,59483,5,4,0:0:0:0:
180,232,59654,1,0,0:0:0:0:
339,77,59824,1,0,0:0:0:0:
180,352,59995,5,12,0:0:0:0:
70,187,60166,1,8,0:0:0:0:
292,190,60336,1,8,0:0:0:0:
180,232,60506,5,8,0:0:0:0:
218,37,60677,2,8,P|328:72|376:116,1,99.7499958904268,8|0,0:0|0:0,0:0:0:0:
468,222,61017,1,8,0:0:0:0:
275,258,61188,5,4,0:0:0:0:
124,132,61358,1,8,0:0:0:0:
356,175,61529,1,0,0:0:0:0:
82,294,61699,1,8,0:0:0:0:
82,294,61784,1,8,0:0:0:0:
82,294,61870,1,8,0:0:0:0:
82,294,61955,1,8,0:0:0:0:
82,294,62040,6,0,L|242:310,1,150,12|0,0:0|0:0,0:0:0:0:
272,233,63404,6,0,P|256:285|212:317,1,89.9999972534181,4|0,0:0|0:0,0:0:0:0:
180,228,63745,1,8,0:0:0:0:
100,132,63915,1,0,0:0:0:0:
224,112,64086,1,0,0:0:0:0:
180,228,64256,1,0,0:0:0:0:
100,324,64427,1,8,0:0:0:0:
224,344,64597,2,8,L|272:328,1,44.999998626709
364,344,64767,6,0,P|352:284|328:256,1,89.9999972534181,8|0,0:0|0:0,0:0:0:0:
180,228,65108,1,8,0:0:0:0:
348,92,65279,2,0,L|376:180,1,89.9999972534181
448,344,65620,1,0,0:0:0:0:
224,344,65790,1,8,0:0:0:0:
100,324,65961,2,8,L|84:276,1,44.999998626709
151,146,66131,6,0,P|175:183|179:227,1,89.9999972534181,12|0,0:0|0:0,0:0:0:0:
224,344,66472,2,0,L|256:252,1,89.9999972534181,8|0,0:0|0:0,0:0:0:0:
233,134,66813,1,0,0:0:0:0:
350,178,66983,1,0,0:0:0:0:
253,258,67154,2,0,P|214:279|189:316,1,89.9999972534181,8|0,0:0|0:0,0:0:0:0:
96,300,67495,1,8,0:0:0:0:
151,146,67665,1,0,0:0:0:0:
253,258,67836,1,8,0:0:0:0:
308,104,68006,1,0,0:0:0:0:
413,222,68177,1,8,0:0:0:0:
468,68,68347,1,0,0:0:0:0:
504,264,68517,2,0,P|456:316|428:324,1,89.9999972534181,8|0,0:0|0:0,0:0:0:0:
310,342,68858,6,0,P|212:356|156:300,1,179.999994506836,12|8,0:0|0:0,0:0:0:0:
151,146,69370,1,0,0:0:0:0:
253,258,69541,1,0,0:0:0:0:
105,290,69711,1,0,0:0:0:0:
151,146,69881,2,0,P|180:112|222:96,1,89.9999972534181,8|0,0:0|0:0,0:0:0:0:
294,47,70222,6,0,B|264:80|264:80|222:96,1,89.9999972534181,12|0,0:0|0:0,0:0:0:0:
253,258,70563,2,0,B|292:237|292:237|337:236,1,89.9999972534181,8|0,0:0|0:0,0:0:0:0:
419,212,70904,2,0,B|379:232|379:232|334:233,1,89.9999972534181,12|0,0:0|0:0,0:0:0:0:
70,374,71245,2,0,B|70:329|70:329|91:289,1,89.9999972534181,8|0,0:0|0:0,0:0:0:0:
151,56,71586,6,0,L|151:152,1,89.9999972534181,12|0,0:0|0:0,0:0:0:0:
156,352,71927,2,0,L|252:352,1,89.9999972534181,12|0,0:0|0:0,0:0:0:0:
452,347,72267,2,0,L|452:251,1,89.9999972534181,12|0,0:0|0:0,0:0:0:0:
447,51,72608,2,0,L|351:51,1,89.9999972534181,12|0,0:0|0:0,0:0:0:0:
151,56,72949,5,12,0:0:0:0:
247,268,73120,1,0,0:0:0:0:
248,96,73290,5,8,0:0:0:0:
152,308,73461,1,0,0:0:0:0:
345,136,73631,5,8,0:0:0:0:
352,152,73716,1,8,0:0:0:0:
359,168,73802,1,8,0:0:0:0:
366,184,73887,1,8,0:0:0:0:
373,200,73973,1,8,0:0:0:0:
380,216,74057,1,8,0:0:0:0:
387,232,74143,1,8,0:0:0:0:
247,268,74313,5,12,0:0:0:0:
164,152,74483,1,0,0:0:0:0:
106,282,74654,1,8,0:0:0:0:
230,100,74824,1,0,0:0:0:0:
89,115,74995,1,0,0:0:0:0:
172,232,75165,1,0,0:0:0:0:
308,137,75336,1,8,0:0:0:0:
224,22,75507,1,0,0:0:0:0:
164,152,75677,6,0,P|104:188|136:304,1,179.999994506836,12|0,0:0|0:0,0:0:0:0:
314,208,76188,2,0,P|250:265|172:232,1,179.999994506836,8|8,0:0|0:0,0:0:0:0:
236,184,76870,1,8,0:0:0:0:
236,184,77040,5,12,0:0:0:0:
377,170,77210,1,0,0:0:0:0:
294,54,77381,1,8,0:0:0:0:
389,253,77551,1,0,0:0:0:0:
447,123,77722,1,0,0:0:0:0:
304,137,77892,1,0,0:0:0:0:
318,302,78063,1,8,0:0:0:0:
184,324,78233,1,0,0:0:0:0:
241,192,78404,6,0,P|220:132|244:80,1,89.9999972534181,10|0,0:0|0:0,0:0:0:0:
428,40,78745,2,0,P|490:51|523:98,1,89.9999972534181,10|0,0:0|0:0,0:0:0:0:
466,277,79086,2,0,P|424:325|367:330,1,89.9999972534181,10|0,0:0|0:0,0:0:0:0:
124,380,79427,2,0,P|103:320|127:268,1,89.9999972534181,10|0,0:0|0:0,0:0:0:0:
152,72,79767,6,0,P|244:28|304:88,1,179.999994506836,12|8,0:0|0:0,0:0:0:0:
225,108,80279,1,0,0:0:0:0:
181,171,80449,2,0,P|180:256|256:296,1,179.999994506836,0|8,0:0|0:0,0:0:0:0:
248,216,80961,2,8,L|296:200,1,44.999998626709
364,220,81131,6,0,P|438:178|434:93,1,179.999994506836,12|8,0:0|0:0,0:0:0:0:
368,140,81642,1,0,0:0:0:0:
297,69,81813,2,0,P|223:25|151:71,1,179.999994506836,0|8,0:0|0:0,0:0:0:0:
225,108,82324,1,0,0:0:0:0:
181,171,82495,6,0,P|185:256|110:297,1,179.999994506836,12|8,0:0|0:0,0:0:0:0:
112,216,83006,1,0,0:0:0:0:
108,136,83177,2,0,P|179:89|253:133,1,179.999994506836,0|8,0:0|0:0,0:0:0:0:
284,208,83688,1,0,0:0:0:0:
364,220,83858,6,0,P|438:178|434:93,1,179.999994506836,12|8,0:0|0:0,0:0:0:0:
368,140,84370,1,0,0:0:0:0:
267,101,84540,2,8,L|283:37,2,44.999998626709
183,169,84881,1,8,0:0:0:0:
176,18,85052,2,8,L|166:62,1,44.999998626709
264,240,85222,5,8,0:0:0:0:
267,101,85392,1,8,0:0:0:0:
96,168,85563,1,8,0:0:0:0:
116,340,85733,1,8,0:0:0:0:
183,169,85904,1,8,0:0:0:0:
389,89,86074,2,8,L|378:132,1,44.999998626709
274,283,86245,2,8,L|263:239,1,44.999998626709
176,18,86415,2,8,L|166:62,1,44.999998626709
116,340,86586,1,12,0:0:0:0:
116,340,87267,5,0,0:0:0:0:
116,340,87438,2,0,L|265:354,1,150
356,324,87949,5,4,0:0:0:0:
