osu file format v14

[General]
AudioFilename: audio.mp3
AudioLeadIn: 0
PreviewTime: 204374
Countdown: 0
SampleSet: Soft
StackLeniency: 0.7
Mode: 0
LetterboxInBreaks: 0
EpilepsyWarning: 1
WidescreenStoryboard: 1

[Editor]
Bookmarks: 27953,57953,101590,131590,160226,207953,228408
DistanceSpacing: 0.9
BeatDivisor: 4
GridSize: 4
TimelineZoom: 1

[Metadata]
Title:SHIORI
TitleUnicode:SHIORI
Artist:ClariS
ArtistUnicode:ClariS
Creator:PantyDev
Version:Panternal's Kokorowatari
Source:終物語
Tags:owarimonogatari ed ending araragi hitagi senjougahara hitagigahara bake monogatari shaft isin nisio TheMefisto piroshki _Hou InternalLight VOFAN keeVY Anime Japanese
BeatmapID:1594266
BeatmapSetID:747684

[Difficulty]
HPDrainRate:6
CircleSize:4
OverallDifficulty:9
ApproachRate:9.3
SliderMultiplier:1.6
SliderTickRate:1

[Events]
//Background and Video events
0,0,"bgPantyLight.jpg",0,0
//Break Periods
2,161790,166133
//Storyboard Layer 0 (Background)
Sprite,Background,Centre,"sb\sprites\InterntalLightXPanty\kiaiBG.jpg",320,240 M,0,63408,,320,240 S,0,63408,86590,0.679,0.65 F,0,86590,,1
Sprite,Background,Centre,"sb\visual\square.jpg",320,240 R,0,63408,,0.418909 C,0,63408,,13,56,33 V,0,63408,,4.3,7 M,0,63408,66721,274.0364,237.0909,274.6182,235.9272 F,0,63408,86590,1
Sprite,Background,Centre,"sb\sprites\InterntalLightXPanty\kiaiBG.jpg",320,240 M,0,137044,,320,240 S,0,137044,160226,0.679,0.65
Sprite,Background,Centre,"sb\visual\square.jpg",320,240 M,0,137044,,274.0364,237.0909 R,0,137044,,0.418909 C,0,137044,,13,56,33 V,0,137044,,4.3,7 F,0,137044,160226,1
Sprite,Background,Centre,"sb\sprites\InterntalLightXPanty\kiaiBG.jpg",320,240 M,0,205226,,320,240 C,0,205226,,138,138,138 S,0,205226,210681,0.679,0.65 C,0,205226,210681,138,138,138 S,0,210681,210702,0.65,0.679 C,0,210681,210702,138,138,138,255,255,255 S,0,210702,228408,0.679,0.65
Sprite,Background,Centre,"sb\visual\square.jpg",320,240 M,0,205226,,274.0364,237.0909 R,0,205226,,0.418909 V,0,205226,,4.3,7 C,0,205226,210681,0,36,13 F,0,205226,228408,1 C,0,210681,210702,0,36,13,13,56,33
Sprite,Background,Centre,"sb\visual\donutS.png",0,0 C,0,210680,,65,78,62 F,0,210680,210880,0,1 M,0,210680,212680,566.5446,480,566.5446,0 S,0,210680,212680,0.2250524,0.228281 R,0,210680,212680,0,0.8726646 P,0,210680,227555,A F,0,212480,212680,1,0 F,0,212805,213005,0,1 M,0,212805,214805,13.56971,480,13.56971,0 S,0,212805,214805,0.2485668,0.2116675 R,0,212805,214805,0,0.8726646 F,0,214605,214805,1,0 F,0,214930,215130,0,1 M,0,214930,216930,278.7994,480,278.7994,0 S,0,214930,216930,0.2069805,0.2210449 R,0,214930,216930,0,0.8726646 F,0,216730,216930,1,0 F,0,217055,217255,0,1 M,0,217055,219055,689.2656,480,689.2656,0 S,0,217055,219055,0.2255504,0.2317445 R,0,217055,219055,0,0.8726646 F,0,218855,219055,1,0 F,0,219180,219380,0,1 M,0,219180,221180,315.394,480,315.394,0 S,0,219180,221180,0.2475591,0.2146794 R,0,219180,221180,0,0.8726646 F,0,220980,221180,1,0 F,0,221305,221505,0,1 M,0,221305,223305,631.4557,480,631.4557,0 S,0,221305,223305,0.2133047,0.2214838 R,0,221305,223305,0,0.8726646 F,0,223105,223305,1,0 F,0,223430,223630,0,1 M,0,223430,225430,431.7023,480,431.7023,0 S,0,223430,225430,0.2222291,0.2276997 R,0,223430,225430,0,0.8726646 F,0,225230,225430,1,0 F,0,225555,225755,0,1 M,0,225555,227555,117.7728,480,117.7728,0 S,0,225555,227555,0.2360205,0.2229214 R,0,225555,227555,0,0.8726646 F,0,227355,227555,1,0
Sprite,Background,Centre,"sb\visual\donutS.png",0,0 C,0,210805,,65,78,62 F,0,210805,211005,0,1 M,0,210805,212805,536.2778,480,536.2778,0 S,0,210805,212805,0.225159,0.2169223 R,0,210805,212805,0,0.8726646 P,0,210805,227680,A F,0,212605,212805,1,0 F,0,212930,213130,0,1 M,0,212930,214930,541.3175,480,541.3175,0 S,0,212930,214930,0.2147957,0.2354072 R,0,212930,214930,0,0.8726646 F,0,214730,214930,1,0 F,0,215055,215255,0,1 M,0,215055,217055,411.7789,480,411.7789,0 S,0,215055,217055,0.2228564,0.2199074 R,0,215055,217055,0,0.8726646 F,0,216855,217055,1,0 F,0,217180,217380,0,1 M,0,217180,219180,-24.02957,480,-24.02957,0 S,0,217180,219180,0.2344304,0.2158037 R,0,217180,219180,0,0.8726646 F,0,218980,219180,1,0 F,0,219305,219505,0,1 M,0,219305,221305,-84.30592,480,-84.30592,0 S,0,219305,221305,0.2468468,0.2468126 R,0,219305,221305,0,0.8726646 F,0,221105,221305,1,0 F,0,221430,221630,0,1 M,0,221430,223430,546.6697,480,546.6697,0 S,0,221430,223430,0.2079367,0.2109335 R,0,221430,223430,0,0.8726646 F,0,223230,223430,1,0 F,0,223555,223755,0,1 M,0,223555,225555,700.2181,480,700.2181,0 S,0,223555,225555,0.2093309,0.2140559 R,0,223555,225555,0,0.8726646 F,0,225355,225555,1,0 F,0,225680,225880,0,1 M,0,225680,227680,-102.305,480,-102.305,0 S,0,225680,227680,0.2046131,0.2323413 R,0,225680,227680,0,0.8726646 F,0,227480,227680,1,0
Sprite,Background,Centre,"sb\visual\donutS.png",0,0 C,0,210930,,65,78,62 F,0,210930,211130,0,1 M,0,210930,212930,305.1689,480,305.1689,0 S,0,210930,212930,0.2389529,0.2360445 R,0,210930,212930,0,0.8726646 P,0,210930,227805,A F,0,212730,212930,1,0 F,0,213055,213255,0,1 M,0,213055,215055,180.098,480,180.098,0 S,0,213055,215055,0.2472831,0.2170147 R,0,213055,215055,0,0.8726646 F,0,214855,215055,1,0 F,0,215180,215380,0,1 M,0,215180,217180,301.1262,480,301.1262,0 S,0,215180,217180,0.2065285,0.2464411 R,0,215180,217180,0,0.8726646 F,0,216980,217180,1,0 F,0,217305,217505,0,1 M,0,217305,219305,556.521,480,556.521,0 S,0,217305,219305,0.243711,0.2154334 R,0,217305,219305,0,0.8726646 F,0,219105,219305,1,0 F,0,219430,219630,0,1 M,0,219430,221430,574.6793,480,574.6793,0 S,0,219430,221430,0.2087858,0.2041329 R,0,219430,221430,0,0.8726646 F,0,221230,221430,1,0 F,0,221555,221755,0,1 M,0,221555,223555,198.9191,480,198.9191,0 S,0,221555,223555,0.2133764,0.2102162 R,0,221555,223555,0,0.8726646 F,0,223355,223555,1,0 F,0,223680,223880,0,1 M,0,223680,225680,386.4106,480,386.4106,0 S,0,223680,225680,0.2127519,0.2394593 R,0,223680,225680,0,0.8726646 F,0,225480,225680,1,0 F,0,225805,226005,0,1 M,0,225805,227805,606.8152,480,606.8152,0 S,0,225805,227805,0.2349622,0.2005363 R,0,225805,227805,0,0.8726646 F,0,227605,227805,1,0
Sprite,Background,Centre,"sb\visual\donutS.png",0,0 C,0,211055,,65,78,62 F,0,211055,211255,0,1 M,0,211055,213055,726.5689,480,726.5689,0 S,0,211055,213055,0.2319006,0.2305102 R,0,211055,213055,0,0.8726646 P,0,211055,227930,A F,0,212855,213055,1,0 F,0,213180,213380,0,1 M,0,213180,215180,361.4748,480,361.4748,0 S,0,213180,215180,0.2454077,0.2494822 R,0,213180,215180,0,0.8726646 F,0,214980,215180,1,0 F,0,215305,215505,0,1 M,0,215305,217305,45.44582,480,45.44582,0 S,0,215305,217305,0.2058156,0.2283665 R,0,215305,217305,0,0.8726646 F,0,217105,217305,1,0 F,0,217430,217630,0,1 M,0,217430,219430,-14.42393,480,-14.42393,0 S,0,217430,219430,0.2473507,0.2155696 R,0,217430,219430,0,0.8726646 F,0,219230,219430,1,0 F,0,219555,219755,0,1 M,0,219555,221555,410.9772,480,410.9772,0 S,0,219555,221555,0.2472656,0.2261842 R,0,219555,221555,0,0.8726646 F,0,221355,221555,1,0 F,0,221680,221880,0,1 M,0,221680,223680,546.2216,480,546.2216,0 S,0,221680,223680,0.2394085,0.2384225 R,0,221680,223680,0,0.8726646 F,0,223480,223680,1,0 F,0,223805,224005,0,1 M,0,223805,225805,268.2036,480,268.2036,0 S,0,223805,225805,0.2267473,0.2139138 R,0,223805,225805,0,0.8726646 F,0,225605,225805,1,0 F,0,225930,226130,0,1 M,0,225930,227930,481.9942,480,481.9942,0 S,0,225930,227930,0.2066886,0.2474361 R,0,225930,227930,0,0.8726646 F,0,227730,227930,1,0
Sprite,Background,Centre,"sb\visual\donutS.png",0,0 C,0,211180,,65,78,62 F,0,211180,211380,0,1 M,0,211180,213180,642.0683,480,642.0683,0 S,0,211180,213180,0.2260283,0.2488262 R,0,211180,213180,0,0.8726646 P,0,211180,228055,A F,0,212980,213180,1,0 F,0,213305,213505,0,1 M,0,213305,215305,262.0461,480,262.0461,0 S,0,213305,215305,0.2000626,0.225166 R,0,213305,215305,0,0.8726646 F,0,215105,215305,1,0 F,0,215430,215630,0,1 M,0,215430,217430,269.7542,480,269.7542,0 S,0,215430,217430,0.2077406,0.2492255 R,0,215430,217430,0,0.8726646 F,0,217230,217430,1,0 F,0,217555,217755,0,1 M,0,217555,219555,283.9929,480,283.9929,0 S,0,217555,219555,0.241992,0.2209889 R,0,217555,219555,0,0.8726646 F,0,219355,219555,1,0 F,0,219680,219880,0,1 M,0,219680,221680,17.17029,480,17.17029,0 S,0,219680,221680,0.2148435,0.2261792 R,0,219680,221680,0,0.8726646 F,0,221480,221680,1,0 F,0,221805,222005,0,1 M,0,221805,223805,586.2498,480,586.2498,0 S,0,221805,223805,0.2265977,0.2083963 R,0,221805,223805,0,0.8726646 F,0,223605,223805,1,0 F,0,223930,224130,0,1 M,0,223930,225930,734.0465,480,734.0465,0 S,0,223930,225930,0.2055348,0.2435238 R,0,223930,225930,0,0.8726646 F,0,225730,225930,1,0 F,0,226055,226255,0,1 M,0,226055,228055,568.9237,480,568.9237,0 S,0,226055,228055,0.2222585,0.2402579 R,0,226055,228055,0,0.8726646 F,0,227855,228055,1,0
Sprite,Background,Centre,"sb\visual\donutS.png",0,0 C,0,211305,,65,78,62 F,0,211305,211505,0,1 M,0,211305,213305,-51.1025,480,-51.1025,0 S,0,211305,213305,0.2467092,0.2497606 R,0,211305,213305,0,0.8726646 P,0,211305,228180,A F,0,213105,213305,1,0 F,0,213430,213630,0,1 M,0,213430,215430,-11.55575,480,-11.55575,0 S,0,213430,215430,0.2060101,0.2021072 R,0,213430,215430,0,0.8726646 F,0,215230,215430,1,0 F,0,215555,215755,0,1 M,0,215555,217555,16.47293,480,16.47293,0 S,0,215555,217555,0.203039,0.2418698 R,0,215555,217555,0,0.8726646 F,0,217355,217555,1,0 F,0,217680,217880,0,1 M,0,217680,219680,556.1197,480,556.1197,0 S,0,217680,219680,0.2019301,0.2203216 R,0,217680,219680,0,0.8726646 F,0,219480,219680,1,0 F,0,219805,220005,0,1 M,0,219805,221805,-45.41811,480,-45.41811,0 S,0,219805,221805,0.203758,0.2462896 R,0,219805,221805,0,0.8726646 F,0,221605,221805,1,0 F,0,221930,222130,0,1 M,0,221930,223930,646.7323,480,646.7323,0 S,0,221930,223930,0.2028163,0.2103769 R,0,221930,223930,0,0.8726646 F,0,223730,223930,1,0 F,0,224055,224255,0,1 M,0,224055,226055,103.8074,480,103.8074,0 S,0,224055,226055,0.2465085,0.2402869 R,0,224055,226055,0,0.8726646 F,0,225855,226055,1,0 F,0,226180,226380,0,1 M,0,226180,228180,-11.57677,480,-11.57677,0 S,0,226180,228180,0.2156572,0.2177744 R,0,226180,228180,0,0.8726646 F,0,227980,228180,1,0
Sprite,Background,Centre,"sb\visual\donutS.png",0,0 C,0,211430,,65,78,62 F,0,211430,211630,0,1 M,0,211430,213430,669.0653,480,669.0653,0 S,0,211430,213430,0.2377784,0.2195508 R,0,211430,213430,0,0.8726646 P,0,211430,228305,A F,0,213230,213430,1,0 F,0,213555,213755,0,1 M,0,213555,215555,280.7523,480,280.7523,0 S,0,213555,215555,0.2117145,0.2126708 R,0,213555,215555,0,0.8726646 F,0,215355,215555,1,0 F,0,215680,215880,0,1 M,0,215680,217680,456.6702,480,456.6702,0 S,0,215680,217680,0.2199812,0.217919 R,0,215680,217680,0,0.8726646 F,0,217480,217680,1,0 F,0,217805,218005,0,1 M,0,217805,219805,575.796,480,575.796,0 S,0,217805,219805,0.2071045,0.2473115 R,0,217805,219805,0,0.8726646 F,0,219605,219805,1,0 F,0,219930,220130,0,1 M,0,219930,221930,546.9489,480,546.9489,0 S,0,219930,221930,0.2257293,0.2210606 R,0,219930,221930,0,0.8726646 F,0,221730,221930,1,0 F,0,222055,222255,0,1 M,0,222055,224055,703.1605,480,703.1605,0 S,0,222055,224055,0.2418988,0.2290792 R,0,222055,224055,0,0.8726646 F,0,223855,224055,1,0 F,0,224180,224380,0,1 M,0,224180,226180,186.2333,480,186.2333,0 S,0,224180,226180,0.2070405,0.2246314 R,0,224180,226180,0,0.8726646 F,0,225980,226180,1,0 F,0,226305,226505,0,1 M,0,226305,228305,407.6505,480,407.6505,0 S,0,226305,228305,0.2145925,0.2363443 R,0,226305,228305,0,0.8726646 F,0,228105,228305,1,0
Sprite,Background,Centre,"sb\visual\donutS.png",0,0 C,0,211555,,65,78,62 F,0,211555,211755,0,1 M,0,211555,213555,-34.74416,480,-34.74416,0 S,0,211555,213555,0.2396452,0.2450901 R,0,211555,213555,0,0.8726646 P,0,211555,226305,A F,0,213355,213555,1,0 F,0,213680,213880,0,1 M,0,213680,215680,403.9577,480,403.9577,0 S,0,213680,215680,0.2286594,0.2355625 R,0,213680,215680,0,0.8726646 F,0,215480,215680,1,0 F,0,215805,216005,0,1 M,0,215805,217805,12.87071,480,12.87071,0 S,0,215805,217805,0.2411768,0.2098927 R,0,215805,217805,0,0.8726646 F,0,217605,217805,1,0 F,0,217930,218130,0,1 M,0,217930,219930,635.4083,480,635.4083,0 S,0,217930,219930,0.2287379,0.2216555 R,0,217930,219930,0,0.8726646 F,0,219730,219930,1,0 F,0,220055,220255,0,1 M,0,220055,222055,450.9522,480,450.9522,0 S,0,220055,222055,0.2366256,0.2325903 R,0,220055,222055,0,0.8726646 F,0,221855,222055,1,0 F,0,222180,222380,0,1 M,0,222180,224180,-63.17312,480,-63.17312,0 S,0,222180,224180,0.2492488,0.200372 R,0,222180,224180,0,0.8726646 F,0,223980,224180,1,0 F,0,224305,224505,0,1 M,0,224305,226305,510.4944,480,510.4944,0 S,0,224305,226305,0.2398878,0.2194922 R,0,224305,226305,0,0.8726646 F,0,226105,226305,1,0
Sprite,Background,Centre,"sb\visual\donutS.png",0,0 C,0,211680,,65,78,62 F,0,211680,211880,0,1 M,0,211680,213680,489.8737,480,489.8737,0 S,0,211680,213680,0.2081443,0.2443506 R,0,211680,213680,0,0.8726646 P,0,211680,226430,A F,0,213480,213680,1,0 F,0,213805,214005,0,1 M,0,213805,215805,652.8247,480,652.8247,0 S,0,213805,215805,0.2183547,0.2443326 R,0,213805,215805,0,0.8726646 F,0,215605,215805,1,0 F,0,215930,216130,0,1 M,0,215930,217930,304.3627,480,304.3627,0 S,0,215930,217930,0.207423,0.2253276 R,0,215930,217930,0,0.8726646 F,0,217730,217930,1,0 F,0,218055,218255,0,1 M,0,218055,220055,126.0327,480,126.0327,0 S,0,218055,220055,0.2302975,0.2461302 R,0,218055,220055,0,0.8726646 F,0,219855,220055,1,0 F,0,220180,220380,0,1 M,0,220180,222180,144.1629,480,144.1629,0 S,0,220180,222180,0.2366306,0.2350574 R,0,220180,222180,0,0.8726646 F,0,221980,222180,1,0 F,0,222305,222505,0,1 M,0,222305,224305,-89.52731,480,-89.52731,0 S,0,222305,224305,0.2184774,0.2329009 R,0,222305,224305,0,0.8726646 F,0,224105,224305,1,0 F,0,224430,224630,0,1 M,0,224430,226430,443.3731,480,443.3731,0 S,0,224430,226430,0.2087946,0.2485403 R,0,224430,226430,0,0.8726646 F,0,226230,226430,1,0
Sprite,Background,Centre,"sb\visual\donutS.png",0,0 C,0,211805,,65,78,62 F,0,211805,212005,0,1 M,0,211805,213805,226.7328,480,226.7328,0 S,0,211805,213805,0.2394707,0.2076514 R,0,211805,213805,0,0.8726646 P,0,211805,226555,A F,0,213605,213805,1,0 F,0,213930,214130,0,1 M,0,213930,215930,279.4285,480,279.4285,0 S,0,213930,215930,0.2189166,0.2390729 R,0,213930,215930,0,0.8726646 F,0,215730,215930,1,0 F,0,216055,216255,0,1 M,0,216055,218055,255.8766,480,255.8766,0 S,0,216055,218055,0.240959,0.2193329 R,0,216055,218055,0,0.8726646 F,0,217855,218055,1,0 F,0,218180,218380,0,1 M,0,218180,220180,509.8175,480,509.8175,0 S,0,218180,220180,0.2175268,0.2227034 R,0,218180,220180,0,0.8726646 F,0,219980,220180,1,0 F,0,220305,220505,0,1 M,0,220305,222305,393.777,480,393.777,0 S,0,220305,222305,0.2203634,0.2447213 R,0,220305,222305,0,0.8726646 F,0,222105,222305,1,0 F,0,222430,222630,0,1 M,0,222430,224430,655.7634,480,655.7634,0 S,0,222430,224430,0.2494626,0.2094578 R,0,222430,224430,0,0.8726646 F,0,224230,224430,1,0 F,0,224555,224755,0,1 M,0,224555,226555,500.652,480,500.652,0 S,0,224555,226555,0.2153159,0.2290333 R,0,224555,226555,0,0.8726646 F,0,226355,226555,1,0
Sprite,Background,Centre,"sb\visual\donutS.png",0,0 C,0,211930,,65,78,62 F,0,211930,212130,0,1 M,0,211930,213930,727.6373,480,727.6373,0 S,0,211930,213930,0.2067346,0.2360983 R,0,211930,213930,0,0.8726646 P,0,211930,226680,A F,0,213730,213930,1,0 F,0,214055,214255,0,1 M,0,214055,216055,493.6834,480,493.6834,0 S,0,214055,216055,0.2461823,0.2067113 R,0,214055,216055,0,0.8726646 F,0,215855,216055,1,0 F,0,216180,216380,0,1 M,0,216180,218180,-91.33087,480,-91.33087,0 S,0,216180,218180,0.2348267,0.2171909 R,0,216180,218180,0,0.8726646 F,0,217980,218180,1,0 F,0,218305,218505,0,1 M,0,218305,220305,239.1038,480,239.1038,0 S,0,218305,220305,0.2211716,0.2191751 R,0,218305,220305,0,0.8726646 F,0,220105,220305,1,0 F,0,220430,220630,0,1 M,0,220430,222430,11.26653,480,11.26653,0 S,0,220430,222430,0.2388693,0.2203137 R,0,220430,222430,0,0.8726646 F,0,222230,222430,1,0 F,0,222555,222755,0,1 M,0,222555,224555,640.7553,480,640.7553,0 S,0,222555,224555,0.2458847,0.2007648 R,0,222555,224555,0,0.8726646 F,0,224355,224555,1,0 F,0,224680,224880,0,1 M,0,224680,226680,648.3792,480,648.3792,0 S,0,224680,226680,0.2364895,0.2195007 R,0,224680,226680,0,0.8726646 F,0,226480,226680,1,0
Sprite,Background,Centre,"sb\visual\donutS.png",0,0 C,0,212055,,65,78,62 F,0,212055,212255,0,1 M,0,212055,214055,744.7211,480,744.7211,0 S,0,212055,214055,0.2239211,0.2215284 R,0,212055,214055,0,0.8726646 P,0,212055,226805,A F,0,213855,214055,1,0 F,0,214180,214380,0,1 M,0,214180,216180,313.9524,480,313.9524,0 S,0,214180,216180,0.2081928,0.2081678 R,0,214180,216180,0,0.8726646 F,0,215980,216180,1,0 F,0,216305,216505,0,1 M,0,216305,218305,302.72,480,302.72,0 S,0,216305,218305,0.237419,0.2392018 R,0,216305,218305,0,0.8726646 F,0,218105,218305,1,0 F,0,218430,218630,0,1 M,0,218430,220430,348.1797,480,348.1797,0 S,0,218430,220430,0.2457024,0.2092763 R,0,218430,220430,0,0.8726646 F,0,220230,220430,1,0 F,0,220555,220755,0,1 M,0,220555,222555,65.27232,480,65.27232,0 S,0,220555,222555,0.2044666,0.2236125 R,0,220555,222555,0,0.8726646 F,0,222355,222555,1,0 F,0,222680,222880,0,1 M,0,222680,224680,526.6143,480,526.6143,0 S,0,222680,224680,0.2363108,0.2255646 R,0,222680,224680,0,0.8726646 F,0,224480,224680,1,0 F,0,224805,225005,0,1 M,0,224805,226805,147.4707,480,147.4707,0 S,0,224805,226805,0.2377604,0.2236556 R,0,224805,226805,0,0.8726646 F,0,226605,226805,1,0
Sprite,Background,Centre,"sb\visual\donutS.png",0,0 C,0,212180,,65,78,62 F,0,212180,212380,0,1 M,0,212180,214180,148.9818,480,148.9818,0 S,0,212180,214180,0.2340384,0.2296762 R,0,212180,214180,0,0.8726646 P,0,212180,226930,A F,0,213980,214180,1,0 F,0,214305,214505,0,1 M,0,214305,216305,329.7231,480,329.7231,0 S,0,214305,216305,0.2380911,0.2091254 R,0,214305,216305,0,0.8726646 F,0,216105,216305,1,0 F,0,216430,216630,0,1 M,0,216430,218430,137.8184,480,137.8184,0 S,0,216430,218430,0.2057275,0.2353363 R,0,216430,218430,0,0.8726646 F,0,218230,218430,1,0 F,0,218555,218755,0,1 M,0,218555,220555,141.5762,480,141.5762,0 S,0,218555,220555,0.2308695,0.2029886 R,0,218555,220555,0,0.8726646 F,0,220355,220555,1,0 F,0,220680,220880,0,1 M,0,220680,222680,670.2137,480,670.2137,0 S,0,220680,222680,0.2246788,0.2488556 R,0,220680,222680,0,0.8726646 F,0,222480,222680,1,0 F,0,222805,223005,0,1 M,0,222805,224805,-87.01562,480,-87.01562,0 S,0,222805,224805,0.2281849,0.24653 R,0,222805,224805,0,0.8726646 F,0,224605,224805,1,0 F,0,224930,225130,0,1 M,0,224930,226930,353.0478,480,353.0478,0 S,0,224930,226930,0.2101642,0.22698 R,0,224930,226930,0,0.8726646 F,0,226730,226930,1,0
Sprite,Background,Centre,"sb\visual\donutS.png",0,0 C,0,212305,,65,78,62 F,0,212305,212505,0,1 M,0,212305,214305,304.5675,480,304.5675,0 S,0,212305,214305,0.2022159,0.214037 R,0,212305,214305,0,0.8726646 P,0,212305,227055,A F,0,214105,214305,1,0 F,0,214430,214630,0,1 M,0,214430,216430,130.0514,480,130.0514,0 S,0,214430,216430,0.2018218,0.2367553 R,0,214430,216430,0,0.8726646 F,0,216230,216430,1,0 F,0,216555,216755,0,1 M,0,216555,218555,93.51311,480,93.51311,0 S,0,216555,218555,0.2483257,0.2315626 R,0,216555,218555,0,0.8726646 F,0,218355,218555,1,0 F,0,218680,218880,0,1 M,0,218680,220680,347.3607,480,347.3607,0 S,0,218680,220680,0.2245142,0.2120166 R,0,218680,220680,0,0.8726646 F,0,220480,220680,1,0 F,0,220805,221005,0,1 M,0,220805,222805,534.1193,480,534.1193,0 S,0,220805,222805,0.2253573,0.2220836 R,0,220805,222805,0,0.8726646 F,0,222605,222805,1,0 F,0,222930,223130,0,1 M,0,222930,224930,530.4438,480,530.4438,0 S,0,222930,224930,0.2224066,0.2113024 R,0,222930,224930,0,0.8726646 F,0,224730,224930,1,0 F,0,225055,225255,0,1 M,0,225055,227055,550.4312,480,550.4312,0 S,0,225055,227055,0.2277182,0.2154329 R,0,225055,227055,0,0.8726646 F,0,226855,227055,1,0
Sprite,Background,Centre,"sb\visual\donutS.png",0,0 C,0,212430,,65,78,62 F,0,212430,212630,0,1 M,0,212430,214430,278.754,480,278.754,0 S,0,212430,214430,0.2453126,0.2177147 R,0,212430,214430,0,0.8726646 P,0,212430,227180,A F,0,214230,214430,1,0 F,0,214555,214755,0,1 M,0,214555,216555,530.7426,480,530.7426,0 S,0,214555,216555,0.2033318,0.2068082 R,0,214555,216555,0,0.8726646 F,0,216355,216555,1,0 F,0,216680,216880,0,1 M,0,216680,218680,530.3518,480,530.3518,0 S,0,216680,218680,0.2450465,0.2460062 R,0,216680,218680,0,0.8726646 F,0,218480,218680,1,0 F,0,218805,219005,0,1 M,0,218805,220805,407.0587,480,407.0587,0 S,0,218805,220805,0.2436805,0.200975 R,0,218805,220805,0,0.8726646 F,0,220605,220805,1,0 F,0,220930,221130,0,1 M,0,220930,222930,-87.45462,480,-87.45462,0 S,0,220930,222930,0.2037246,0.2272486 R,0,220930,222930,0,0.8726646 F,0,222730,222930,1,0 F,0,223055,223255,0,1 M,0,223055,225055,87.0386,480,87.0386,0 S,0,223055,225055,0.2007086,0.2359488 R,0,223055,225055,0,0.8726646 F,0,224855,225055,1,0 F,0,225180,225380,0,1 M,0,225180,227180,626.2331,480,626.2331,0 S,0,225180,227180,0.2346464,0.2456593 R,0,225180,227180,0,0.8726646 F,0,226980,227180,1,0
Sprite,Background,Centre,"sb\visual\donutS.png",0,0 C,0,212555,,65,78,62 F,0,212555,212755,0,1 M,0,212555,214555,-41.03093,480,-41.03093,0 S,0,212555,214555,0.2190714,0.2295194 R,0,212555,214555,0,0.8726646 P,0,212555,227305,A F,0,214355,214555,1,0 F,0,214680,214880,0,1 M,0,214680,216680,498.4038,480,498.4038,0 S,0,214680,216680,0.2490218,0.24525 R,0,214680,216680,0,0.8726646 F,0,216480,216680,1,0 F,0,216805,217005,0,1 M,0,216805,218805,603.7205,480,603.7205,0 S,0,216805,218805,0.2347196,0.2455913 R,0,216805,218805,0,0.8726646 F,0,218605,218805,1,0 F,0,218930,219130,0,1 M,0,218930,220930,473.839,480,473.839,0 S,0,218930,220930,0.2355762,0.2030545 R,0,218930,220930,0,0.8726646 F,0,220730,220930,1,0 F,0,221055,221255,0,1 M,0,221055,223055,134.9834,480,134.9834,0 S,0,221055,223055,0.2271728,0.228837 R,0,221055,223055,0,0.8726646 F,0,222855,223055,1,0 F,0,223180,223380,0,1 M,0,223180,225180,172.0678,480,172.0678,0 S,0,223180,225180,0.2394441,0.2271269 R,0,223180,225180,0,0.8726646 F,0,224980,225180,1,0 F,0,225305,225505,0,1 M,0,225305,227305,-62.39722,480,-62.39722,0 S,0,225305,227305,0.237881,0.2451738 R,0,225305,227305,0,0.8726646 F,0,227105,227305,1,0
Sprite,Background,Centre,"sb\visual\donutS.png",0,0 C,0,212680,,65,78,62 F,0,212680,212880,0,1 M,0,212680,214680,161.5259,480,161.5259,0 S,0,212680,214680,0.2327594,0.2322973 R,0,212680,214680,0,0.8726646 P,0,212680,227430,A F,0,214480,214680,1,0 F,0,214805,215005,0,1 M,0,214805,216805,20.26888,480,20.26888,0 S,0,214805,216805,0.2017257,0.2130612 R,0,214805,216805,0,0.8726646 F,0,216605,216805,1,0 F,0,216930,217130,0,1 M,0,216930,218930,617.4867,480,617.4867,0 S,0,216930,218930,0.2217839,0.2459828 R,0,216930,218930,0,0.8726646 F,0,218730,218930,1,0 F,0,219055,219255,0,1 M,0,219055,221055,319.7046,480,319.7046,0 S,0,219055,221055,0.2472131,0.2327896 R,0,219055,221055,0,0.8726646 F,0,220855,221055,1,0 F,0,221180,221380,0,1 M,0,221180,223180,323.4876,480,323.4876,0 S,0,221180,223180,0.2195985,0.2318182 R,0,221180,223180,0,0.8726646 F,0,222980,223180,1,0 F,0,223305,223505,0,1 M,0,223305,225305,425.0033,480,425.0033,0 S,0,223305,225305,0.2299619,0.2243565 R,0,223305,225305,0,0.8726646 F,0,225105,225305,1,0 F,0,225430,225630,0,1 M,0,225430,227430,22.38179,480,22.38179,0 S,0,225430,227430,0.2460035,0.2429356 R,0,225430,227430,0,0.8726646 F,0,227230,227430,1,0
Sprite,Background,Centre,"sb\visual\donutS.png",0,0 C,0,137044,,115,18,110 F,0,137044,137244,0,1 M,0,137044,139044,566.5446,480,566.5446,0 S,0,137044,139044,0.2250524,0.228281 R,0,137044,139044,0,0.8726646 P,0,137044,158169,A F,0,138844,139044,1,0 F,0,139169,139369,0,1 M,0,139169,141169,13.56971,480,13.56971,0 S,0,139169,141169,0.2485668,0.2116675 R,0,139169,141169,0,0.8726646 F,0,140969,141169,1,0 F,0,141294,141494,0,1 M,0,141294,143294,278.7994,480,278.7994,0 S,0,141294,143294,0.2069805,0.2210449 R,0,141294,143294,0,0.8726646 F,0,143094,143294,1,0 F,0,143419,143619,0,1 M,0,143419,145419,689.2656,480,689.2656,0 S,0,143419,145419,0.2255504,0.2317445 R,0,143419,145419,0,0.8726646 F,0,145219,145419,1,0 F,0,145544,145744,0,1 M,0,145544,147544,315.394,480,315.394,0 S,0,145544,147544,0.2475591,0.2146794 R,0,145544,147544,0,0.8726646 F,0,147344,147544,1,0 F,0,147669,147869,0,1 M,0,147669,149669,631.4557,480,631.4557,0 S,0,147669,149669,0.2133047,0.2214838 R,0,147669,149669,0,0.8726646 F,0,149469,149669,1,0 F,0,149794,149994,0,1 M,0,149794,151794,431.7023,480,431.7023,0 S,0,149794,151794,0.2222291,0.2276997 R,0,149794,151794,0,0.8726646 F,0,151594,151794,1,0 F,0,151919,152119,0,1 M,0,151919,153919,117.7728,480,117.7728,0 S,0,151919,153919,0.2360205,0.2229214 R,0,151919,153919,0,0.8726646 F,0,153719,153919,1,0 F,0,154044,154244,0,1 M,0,154044,156044,279.0181,480,279.0181,0 S,0,154044,156044,0.2225567,0.231411 R,0,154044,156044,0,0.8726646 F,0,155844,156044,1,0 F,0,156169,156369,0,1 M,0,156169,158169,592.1977,480,592.1977,0 S,0,156169,158169,0.2156126,0.2051416 R,0,156169,158169,0,0.8726646 F,0,157969,158169,1,0
Sprite,Background,Centre,"sb\visual\donutS.png",0,0 C,0,137169,,115,18,110 F,0,137169,137369,0,1 M,0,137169,139169,536.2778,480,536.2778,0 S,0,137169,139169,0.225159,0.2169223 R,0,137169,139169,0,0.8726646 P,0,137169,158294,A F,0,138969,139169,1,0 F,0,139294,139494,0,1 M,0,139294,141294,541.3175,480,541.3175,0 S,0,139294,141294,0.2147957,0.2354072 R,0,139294,141294,0,0.8726646 F,0,141094,141294,1,0 F,0,141419,141619,0,1 M,0,141419,143419,411.7789,480,411.7789,0 S,0,141419,143419,0.2228564,0.2199074 R,0,141419,143419,0,0.8726646 F,0,143219,143419,1,0 F,0,143544,143744,0,1 M,0,143544,145544,-24.02957,480,-24.02957,0 S,0,143544,145544,0.2344304,0.2158037 R,0,143544,145544,0,0.8726646 F,0,145344,145544,1,0 F,0,145669,145869,0,1 M,0,145669,147669,-84.30592,480,-84.30592,0 S,0,145669,147669,0.2468468,0.2468126 R,0,145669,147669,0,0.8726646 F,0,147469,147669,1,0 F,0,147794,147994,0,1 M,0,147794,149794,546.6697,480,546.6697,0 S,0,147794,149794,0.2079367,0.2109335 R,0,147794,149794,0,0.8726646 F,0,149594,149794,1,0 F,0,149919,150119,0,1 M,0,149919,151919,700.2181,480,700.2181,0 S,0,149919,151919,0.2093309,0.2140559 R,0,149919,151919,0,0.8726646 F,0,151719,151919,1,0 F,0,152044,152244,0,1 M,0,152044,154044,-102.305,480,-102.305,0 S,0,152044,154044,0.2046131,0.2323413 R,0,152044,154044,0,0.8726646 F,0,153844,154044,1,0 F,0,154169,154369,0,1 M,0,154169,156169,634.4207,480,634.4207,0 S,0,154169,156169,0.2235331,0.2146974 R,0,154169,156169,0,0.8726646 F,0,155969,156169,1,0 F,0,156294,156494,0,1 M,0,156294,158294,30.61634,480,30.61634,0 S,0,156294,158294,0.2427723,0.2440028 R,0,156294,158294,0,0.8726646 F,0,158094,158294,1,0
Sprite,Background,Centre,"sb\visual\donutS.png",0,0 C,0,137294,,115,18,110 F,0,137294,137494,0,1 M,0,137294,139294,305.1689,480,305.1689,0 S,0,137294,139294,0.2389529,0.2360445 R,0,137294,139294,0,0.8726646 P,0,137294,158419,A F,0,139094,139294,1,0 F,0,139419,139619,0,1 M,0,139419,141419,180.098,480,180.098,0 S,0,139419,141419,0.2472831,0.2170147 R,0,139419,141419,0,0.8726646 F,0,141219,141419,1,0 F,0,141544,141744,0,1 M,0,141544,143544,301.1262,480,301.1262,0 S,0,141544,143544,0.2065285,0.2464411 R,0,141544,143544,0,0.8726646 F,0,143344,143544,1,0 F,0,143669,143869,0,1 M,0,143669,145669,556.521,480,556.521,0 S,0,143669,145669,0.243711,0.2154334 R,0,143669,145669,0,0.8726646 F,0,145469,145669,1,0 F,0,145794,145994,0,1 M,0,145794,147794,574.6793,480,574.6793,0 S,0,145794,147794,0.2087858,0.2041329 R,0,145794,147794,0,0.8726646 F,0,147594,147794,1,0 F,0,147919,148119,0,1 M,0,147919,149919,198.9191,480,198.9191,0 S,0,147919,149919,0.2133764,0.2102162 R,0,147919,149919,0,0.8726646 F,0,149719,149919,1,0 F,0,150044,150244,0,1 M,0,150044,152044,386.4106,480,386.4106,0 S,0,150044,152044,0.2127519,0.2394593 R,0,150044,152044,0,0.8726646 F,0,151844,152044,1,0 F,0,152169,152369,0,1 M,0,152169,154169,606.8152,480,606.8152,0 S,0,152169,154169,0.2349622,0.2005363 R,0,152169,154169,0,0.8726646 F,0,153969,154169,1,0 F,0,154294,154494,0,1 M,0,154294,156294,2.329032,480,2.329032,0 S,0,154294,156294,0.2405266,0.2478368 R,0,154294,156294,0,0.8726646 F,0,156094,156294,1,0 F,0,156419,156619,0,1 M,0,156419,158419,205.9736,480,205.9736,0 S,0,156419,158419,0.2454489,0.2366699 R,0,156419,158419,0,0.8726646 F,0,158219,158419,1,0
Sprite,Background,Centre,"sb\visual\donutS.png",0,0 C,0,137419,,115,18,110 F,0,137419,137619,0,1 M,0,137419,139419,726.5689,480,726.5689,0 S,0,137419,139419,0.2319006,0.2305102 R,0,137419,139419,0,0.8726646 P,0,137419,158544,A F,0,139219,139419,1,0 F,0,139544,139744,0,1 M,0,139544,141544,361.4748,480,361.4748,0 S,0,139544,141544,0.2454077,0.2494822 R,0,139544,141544,0,0.8726646 F,0,141344,141544,1,0 F,0,141669,141869,0,1 M,0,141669,143669,45.44582,480,45.44582,0 S,0,141669,143669,0.2058156,0.2283665 R,0,141669,143669,0,0.8726646 F,0,143469,143669,1,0 F,0,143794,143994,0,1 M,0,143794,145794,-14.42393,480,-14.42393,0 S,0,143794,145794,0.2473507,0.2155696 R,0,143794,145794,0,0.8726646 F,0,145594,145794,1,0 F,0,145919,146119,0,1 M,0,145919,147919,410.9772,480,410.9772,0 S,0,145919,147919,0.2472656,0.2261842 R,0,145919,147919,0,0.8726646 F,0,147719,147919,1,0 F,0,148044,148244,0,1 M,0,148044,150044,546.2216,480,546.2216,0 S,0,148044,150044,0.2394085,0.2384225 R,0,148044,150044,0,0.8726646 F,0,149844,150044,1,0 F,0,150169,150369,0,1 M,0,150169,152169,268.2036,480,268.2036,0 S,0,150169,152169,0.2267473,0.2139138 R,0,150169,152169,0,0.8726646 F,0,151969,152169,1,0 F,0,152294,152494,0,1 M,0,152294,154294,481.9942,480,481.9942,0 S,0,152294,154294,0.2066886,0.2474361 R,0,152294,154294,0,0.8726646 F,0,154094,154294,1,0 F,0,154419,154619,0,1 M,0,154419,156419,284.1338,480,284.1338,0 S,0,154419,156419,0.2343747,0.2145741 R,0,154419,156419,0,0.8726646 F,0,156219,156419,1,0 F,0,156544,156744,0,1 M,0,156544,158544,74.60282,480,74.60282,0 S,0,156544,158544,0.2353062,0.249325 R,0,156544,158544,0,0.8726646 F,0,158344,158544,1,0
Sprite,Background,Centre,"sb\visual\donutS.png",0,0 C,0,137544,,115,18,110 F,0,137544,137744,0,1 M,0,137544,139544,642.0683,480,642.0683,0 S,0,137544,139544,0.2260283,0.2488262 R,0,137544,139544,0,0.8726646 P,0,137544,158669,A F,0,139344,139544,1,0 F,0,139669,139869,0,1 M,0,139669,141669,262.0461,480,262.0461,0 S,0,139669,141669,0.2000626,0.225166 R,0,139669,141669,0,0.8726646 F,0,141469,141669,1,0 F,0,141794,141994,0,1 M,0,141794,143794,269.7542,480,269.7542,0 S,0,141794,143794,0.2077406,0.2492255 R,0,141794,143794,0,0.8726646 F,0,143594,143794,1,0 F,0,143919,144119,0,1 M,0,143919,145919,283.9929,480,283.9929,0 S,0,143919,145919,0.241992,0.2209889 R,0,143919,145919,0,0.8726646 F,0,145719,145919,1,0 F,0,146044,146244,0,1 M,0,146044,148044,17.17029,480,17.17029,0 S,0,146044,148044,0.2148435,0.2261792 R,0,146044,148044,0,0.8726646 F,0,147844,148044,1,0 F,0,148169,148369,0,1 M,0,148169,150169,586.2498,480,586.2498,0 S,0,148169,150169,0.2265977,0.2083963 R,0,148169,150169,0,0.8726646 F,0,149969,150169,1,0 F,0,150294,150494,0,1 M,0,150294,152294,734.0465,480,734.0465,0 S,0,150294,152294,0.2055348,0.2435238 R,0,150294,152294,0,0.8726646 F,0,152094,152294,1,0 F,0,152419,152619,0,1 M,0,152419,154419,568.9237,480,568.9237,0 S,0,152419,154419,0.2222585,0.2402579 R,0,152419,154419,0,0.8726646 F,0,154219,154419,1,0 F,0,154544,154744,0,1 M,0,154544,156544,241.0444,480,241.0444,0 S,0,154544,156544,0.2121491,0.2346904 R,0,154544,156544,0,0.8726646 F,0,156344,156544,1,0 F,0,156669,156869,0,1 M,0,156669,158669,102.9948,480,102.9948,0 S,0,156669,158669,0.2342463,0.2159433 R,0,156669,158669,0,0.8726646 F,0,158469,158669,1,0
Sprite,Background,Centre,"sb\visual\donutS.png",0,0 C,0,137669,,115,18,110 F,0,137669,137869,0,1 M,0,137669,139669,-51.1025,480,-51.1025,0 S,0,137669,139669,0.2467092,0.2497606 R,0,137669,139669,0,0.8726646 P,0,137669,158794,A F,0,139469,139669,1,0 F,0,139794,139994,0,1 M,0,139794,141794,-11.55575,480,-11.55575,0 S,0,139794,141794,0.2060101,0.2021072 R,0,139794,141794,0,0.8726646 F,0,141594,141794,1,0 F,0,141919,142119,0,1 M,0,141919,143919,16.47293,480,16.47293,0 S,0,141919,143919,0.203039,0.2418698 R,0,141919,143919,0,0.8726646 F,0,143719,143919,1,0 F,0,144044,144244,0,1 M,0,144044,146044,556.1197,480,556.1197,0 S,0,144044,146044,0.2019301,0.2203216 R,0,144044,146044,0,0.8726646 F,0,145844,146044,1,0 F,0,146169,146369,0,1 M,0,146169,148169,-45.41811,480,-45.41811,0 S,0,146169,148169,0.203758,0.2462896 R,0,146169,148169,0,0.8726646 F,0,147969,148169,1,0 F,0,148294,148494,0,1 M,0,148294,150294,646.7323,480,646.7323,0 S,0,148294,150294,0.2028163,0.2103769 R,0,148294,150294,0,0.8726646 F,0,150094,150294,1,0 F,0,150419,150619,0,1 M,0,150419,152419,103.8074,480,103.8074,0 S,0,150419,152419,0.2465085,0.2402869 R,0,150419,152419,0,0.8726646 F,0,152219,152419,1,0 F,0,152544,152744,0,1 M,0,152544,154544,-11.57677,480,-11.57677,0 S,0,152544,154544,0.2156572,0.2177744 R,0,152544,154544,0,0.8726646 F,0,154344,154544,1,0 F,0,154669,154869,0,1 M,0,154669,156669,266.6477,480,266.6477,0 S,0,154669,156669,0.2243283,0.2033245 R,0,154669,156669,0,0.8726646 F,0,156469,156669,1,0 F,0,156794,156994,0,1 M,0,156794,158794,-58.51612,480,-58.51612,0 S,0,156794,158794,0.230933,0.236182 R,0,156794,158794,0,0.8726646 F,0,158594,158794,1,0
Sprite,Background,Centre,"sb\visual\donutS.png",0,0 C,0,137794,,115,18,110 F,0,137794,137994,0,1 M,0,137794,139794,669.0653,480,669.0653,0 S,0,137794,139794,0.2377784,0.2195508 R,0,137794,139794,0,0.8726646 P,0,137794,158919,A F,0,139594,139794,1,0 F,0,139919,140119,0,1 M,0,139919,141919,280.7523,480,280.7523,0 S,0,139919,141919,0.2117145,0.2126708 R,0,139919,141919,0,0.8726646 F,0,141719,141919,1,0 F,0,142044,142244,0,1 M,0,142044,144044,456.6702,480,456.6702,0 S,0,142044,144044,0.2199812,0.217919 R,0,142044,144044,0,0.8726646 F,0,143844,144044,1,0 F,0,144169,144369,0,1 M,0,144169,146169,575.796,480,575.796,0 S,0,144169,146169,0.2071045,0.2473115 R,0,144169,146169,0,0.8726646 F,0,145969,146169,1,0 F,0,146294,146494,0,1 M,0,146294,148294,546.9489,480,546.9489,0 S,0,146294,148294,0.2257293,0.2210606 R,0,146294,148294,0,0.8726646 F,0,148094,148294,1,0 F,0,148419,148619,0,1 M,0,148419,150419,703.1605,480,703.1605,0 S,0,148419,150419,0.2418988,0.2290792 R,0,148419,150419,0,0.8726646 F,0,150219,150419,1,0 F,0,150544,150744,0,1 M,0,150544,152544,186.2333,480,186.2333,0 S,0,150544,152544,0.2070405,0.2246314 R,0,150544,152544,0,0.8726646 F,0,152344,152544,1,0 F,0,152669,152869,0,1 M,0,152669,154669,407.6505,480,407.6505,0 S,0,152669,154669,0.2145925,0.2363443 R,0,152669,154669,0,0.8726646 F,0,154469,154669,1,0 F,0,154794,154994,0,1 M,0,154794,156794,67.40569,480,67.40569,0 S,0,154794,156794,0.2478338,0.230281 R,0,154794,156794,0,0.8726646 F,0,156594,156794,1,0 F,0,156919,157119,0,1 M,0,156919,158919,144.9493,480,144.9493,0 S,0,156919,158919,0.2402223,0.2448219 R,0,156919,158919,0,0.8726646 F,0,158719,158919,1,0
Sprite,Background,Centre,"sb\visual\donutS.png",0,0 C,0,137919,,115,18,110 F,0,137919,138119,0,1 M,0,137919,139919,-34.74416,480,-34.74416,0 S,0,137919,139919,0.2396452,0.2450901 R,0,137919,139919,0,0.8726646 P,0,137919,159044,A F,0,139719,139919,1,0 F,0,140044,140244,0,1 M,0,140044,142044,403.9577,480,403.9577,0 S,0,140044,142044,0.2286594,0.2355625 R,0,140044,142044,0,0.8726646 F,0,141844,142044,1,0 F,0,142169,142369,0,1 M,0,142169,144169,12.87071,480,12.87071,0 S,0,142169,144169,0.2411768,0.2098927 R,0,142169,144169,0,0.8726646 F,0,143969,144169,1,0 F,0,144294,144494,0,1 M,0,144294,146294,635.4083,480,635.4083,0 S,0,144294,146294,0.2287379,0.2216555 R,0,144294,146294,0,0.8726646 F,0,146094,146294,1,0 F,0,146419,146619,0,1 M,0,146419,148419,450.9522,480,450.9522,0 S,0,146419,148419,0.2366256,0.2325903 R,0,146419,148419,0,0.8726646 F,0,148219,148419,1,0 F,0,148544,148744,0,1 M,0,148544,150544,-63.17312,480,-63.17312,0 S,0,148544,150544,0.2492488,0.200372 R,0,148544,150544,0,0.8726646 F,0,150344,150544,1,0 F,0,150669,150869,0,1 M,0,150669,152669,510.4944,480,510.4944,0 S,0,150669,152669,0.2398878,0.2194922 R,0,150669,152669,0,0.8726646 F,0,152469,152669,1,0 F,0,152794,152994,0,1 M,0,152794,154794,519.718,480,519.718,0 S,0,152794,154794,0.2213231,0.2293224 R,0,152794,154794,0,0.8726646 F,0,154594,154794,1,0 F,0,154919,155119,0,1 M,0,154919,156919,155.5682,480,155.5682,0 S,0,154919,156919,0.228554,0.249735 R,0,154919,156919,0,0.8726646 F,0,156719,156919,1,0 F,0,157044,157244,0,1 M,0,157044,159044,611.6666,480,611.6666,0 S,0,157044,159044,0.2040174,0.2448535 R,0,157044,159044,0,0.8726646 F,0,158844,159044,1,0
Sprite,Background,Centre,"sb\visual\donutS.png",0,0 C,0,138044,,115,18,110 F,0,138044,138244,0,1 M,0,138044,140044,489.8737,480,489.8737,0 S,0,138044,140044,0.2081443,0.2443506 R,0,138044,140044,0,0.8726646 P,0,138044,159169,A F,0,139844,140044,1,0 F,0,140169,140369,0,1 M,0,140169,142169,652.8247,480,652.8247,0 S,0,140169,142169,0.2183547,0.2443326 R,0,140169,142169,0,0.8726646 F,0,141969,142169,1,0 F,0,142294,142494,0,1 M,0,142294,144294,304.3627,480,304.3627,0 S,0,142294,144294,0.207423,0.2253276 R,0,142294,144294,0,0.8726646 F,0,144094,144294,1,0 F,0,144419,144619,0,1 M,0,144419,146419,126.0327,480,126.0327,0 S,0,144419,146419,0.2302975,0.2461302 R,0,144419,146419,0,0.8726646 F,0,146219,146419,1,0 F,0,146544,146744,0,1 M,0,146544,148544,144.1629,480,144.1629,0 S,0,146544,148544,0.2366306,0.2350574 R,0,146544,148544,0,0.8726646 F,0,148344,148544,1,0 F,0,148669,148869,0,1 M,0,148669,150669,-89.52731,480,-89.52731,0 S,0,148669,150669,0.2184774,0.2329009 R,0,148669,150669,0,0.8726646 F,0,150469,150669,1,0 F,0,150794,150994,0,1 M,0,150794,152794,443.3731,480,443.3731,0 S,0,150794,152794,0.2087946,0.2485403 R,0,150794,152794,0,0.8726646 F,0,152594,152794,1,0 F,0,152919,153119,0,1 M,0,152919,154919,589.89,480,589.89,0 S,0,152919,154919,0.2067763,0.2052414 R,0,152919,154919,0,0.8726646 F,0,154719,154919,1,0 F,0,155044,155244,0,1 M,0,155044,157044,556.6881,480,556.6881,0 S,0,155044,157044,0.2368632,0.2253299 R,0,155044,157044,0,0.8726646 F,0,156844,157044,1,0 F,0,157169,157369,0,1 M,0,157169,159169,141.8294,480,141.8294,0 S,0,157169,159169,0.2493168,0.2143396 R,0,157169,159169,0,0.8726646 F,0,158969,159169,1,0
Sprite,Background,Centre,"sb\visual\donutS.png",0,0 C,0,138169,,115,18,110 F,0,138169,138369,0,1 M,0,138169,140169,226.7328,480,226.7328,0 S,0,138169,140169,0.2394707,0.2076514 R,0,138169,140169,0,0.8726646 P,0,138169,159294,A F,0,139969,140169,1,0 F,0,140294,140494,0,1 M,0,140294,142294,279.4285,480,279.4285,0 S,0,140294,142294,0.2189166,0.2390729 R,0,140294,142294,0,0.8726646 F,0,142094,142294,1,0 F,0,142419,142619,0,1 M,0,142419,144419,255.8766,480,255.8766,0 S,0,142419,144419,0.240959,0.2193329 R,0,142419,144419,0,0.8726646 F,0,144219,144419,1,0 F,0,144544,144744,0,1 M,0,144544,146544,509.8175,480,509.8175,0 S,0,144544,146544,0.2175268,0.2227034 R,0,144544,146544,0,0.8726646 F,0,146344,146544,1,0 F,0,146669,146869,0,1 M,0,146669,148669,393.777,480,393.777,0 S,0,146669,148669,0.2203634,0.2447213 R,0,146669,148669,0,0.8726646 F,0,148469,148669,1,0 F,0,148794,148994,0,1 M,0,148794,150794,655.7634,480,655.7634,0 S,0,148794,150794,0.2494626,0.2094578 R,0,148794,150794,0,0.8726646 F,0,150594,150794,1,0 F,0,150919,151119,0,1 M,0,150919,152919,500.652,480,500.652,0 S,0,150919,152919,0.2153159,0.2290333 R,0,150919,152919,0,0.8726646 F,0,152719,152919,1,0 F,0,153044,153244,0,1 M,0,153044,155044,339.9348,480,339.9348,0 S,0,153044,155044,0.2203882,0.2209136 R,0,153044,155044,0,0.8726646 F,0,154844,155044,1,0 F,0,155169,155369,0,1 M,0,155169,157169,605.3588,480,605.3588,0 S,0,155169,157169,0.2412016,0.2101316 R,0,155169,157169,0,0.8726646 F,0,156969,157169,1,0 F,0,157294,157494,0,1 M,0,157294,159294,418.175,480,418.175,0 S,0,157294,159294,0.2005145,0.2400422 R,0,157294,159294,0,0.8726646 F,0,159094,159294,1,0
Sprite,Background,Centre,"sb\visual\donutS.png",0,0 C,0,138294,,115,18,110 F,0,138294,138494,0,1 M,0,138294,140294,727.6373,480,727.6373,0 S,0,138294,140294,0.2067346,0.2360983 R,0,138294,140294,0,0.8726646 P,0,138294,159419,A F,0,140094,140294,1,0 F,0,140419,140619,0,1 M,0,140419,142419,493.6834,480,493.6834,0 S,0,140419,142419,0.2461823,0.2067113 R,0,140419,142419,0,0.8726646 F,0,142219,142419,1,0 F,0,142544,142744,0,1 M,0,142544,144544,-91.33087,480,-91.33087,0 S,0,142544,144544,0.2348267,0.2171909 R,0,142544,144544,0,0.8726646 F,0,144344,144544,1,0 F,0,144669,144869,0,1 M,0,144669,146669,239.1038,480,239.1038,0 S,0,144669,146669,0.2211716,0.2191751 R,0,144669,146669,0,0.8726646 F,0,146469,146669,1,0 F,0,146794,146994,0,1 M,0,146794,148794,11.26653,480,11.26653,0 S,0,146794,148794,0.2388693,0.2203137 R,0,146794,148794,0,0.8726646 F,0,148594,148794,1,0 F,0,148919,149119,0,1 M,0,148919,150919,640.7553,480,640.7553,0 S,0,148919,150919,0.2458847,0.2007648 R,0,148919,150919,0,0.8726646 F,0,150719,150919,1,0 F,0,151044,151244,0,1 M,0,151044,153044,648.3792,480,648.3792,0 S,0,151044,153044,0.2364895,0.2195007 R,0,151044,153044,0,0.8726646 F,0,152844,153044,1,0 F,0,153169,153369,0,1 M,0,153169,155169,689.5005,480,689.5005,0 S,0,153169,155169,0.2219982,0.2193124 R,0,153169,155169,0,0.8726646 F,0,154969,155169,1,0 F,0,155294,155494,0,1 M,0,155294,157294,15.06075,480,15.06075,0 S,0,155294,157294,0.2184314,0.2174127 R,0,155294,157294,0,0.8726646 F,0,157094,157294,1,0 F,0,157419,157619,0,1 M,0,157419,159419,38.42196,480,38.42196,0 S,0,157419,159419,0.2219536,0.2013284 R,0,157419,159419,0,0.8726646 F,0,159219,159419,1,0
Sprite,Background,Centre,"sb\visual\donutS.png",0,0 C,0,138419,,115,18,110 F,0,138419,138619,0,1 M,0,138419,140419,744.7211,480,744.7211,0 S,0,138419,140419,0.2239211,0.2215284 R,0,138419,140419,0,0.8726646 P,0,138419,159544,A F,0,140219,140419,1,0 F,0,140544,140744,0,1 M,0,140544,142544,313.9524,480,313.9524,0 S,0,140544,142544,0.2081928,0.2081678 R,0,140544,142544,0,0.8726646 F,0,142344,142544,1,0 F,0,142669,142869,0,1 M,0,142669,144669,302.72,480,302.72,0 S,0,142669,144669,0.237419,0.2392018 R,0,142669,144669,0,0.8726646 F,0,144469,144669,1,0 F,0,144794,144994,0,1 M,0,144794,146794,348.1797,480,348.1797,0 S,0,144794,146794,0.2457024,0.2092763 R,0,144794,146794,0,0.8726646 F,0,146594,146794,1,0 F,0,146919,147119,0,1 M,0,146919,148919,65.27232,480,65.27232,0 S,0,146919,148919,0.2044666,0.2236125 R,0,146919,148919,0,0.8726646 F,0,148719,148919,1,0 F,0,149044,149244,0,1 M,0,149044,151044,526.6143,480,526.6143,0 S,0,149044,151044,0.2363108,0.2255646 R,0,149044,151044,0,0.8726646 F,0,150844,151044,1,0 F,0,151169,151369,0,1 M,0,151169,153169,147.4707,480,147.4707,0 S,0,151169,153169,0.2377604,0.2236556 R,0,151169,153169,0,0.8726646 F,0,152969,153169,1,0 F,0,153294,153494,0,1 M,0,153294,155294,130.4512,480,130.4512,0 S,0,153294,155294,0.2189341,0.200469 R,0,153294,155294,0,0.8726646 F,0,155094,155294,1,0 F,0,155419,155619,0,1 M,0,155419,157419,-84.62021,480,-84.62021,0 S,0,155419,157419,0.2259671,0.2494415 R,0,155419,157419,0,0.8726646 F,0,157219,157419,1,0 F,0,157544,157744,0,1 M,0,157544,159544,101.1149,480,101.1149,0 S,0,157544,159544,0.2337902,0.2028188 R,0,157544,159544,0,0.8726646 F,0,159344,159544,1,0
Sprite,Background,Centre,"sb\visual\donutS.png",0,0 C,0,138544,,115,18,110 F,0,138544,138744,0,1 M,0,138544,140544,148.9818,480,148.9818,0 S,0,138544,140544,0.2340384,0.2296762 R,0,138544,140544,0,0.8726646 P,0,138544,159669,A F,0,140344,140544,1,0 F,0,140669,140869,0,1 M,0,140669,142669,329.7231,480,329.7231,0 S,0,140669,142669,0.2380911,0.2091254 R,0,140669,142669,0,0.8726646 F,0,142469,142669,1,0 F,0,142794,142994,0,1 M,0,142794,144794,137.8184,480,137.8184,0 S,0,142794,144794,0.2057275,0.2353363 R,0,142794,144794,0,0.8726646 F,0,144594,144794,1,0 F,0,144919,145119,0,1 M,0,144919,146919,141.5762,480,141.5762,0 S,0,144919,146919,0.2308695,0.2029886 R,0,144919,146919,0,0.8726646 F,0,146719,146919,1,0 F,0,147044,147244,0,1 M,0,147044,149044,670.2137,480,670.2137,0 S,0,147044,149044,0.2246788,0.2488556 R,0,147044,149044,0,0.8726646 F,0,148844,149044,1,0 F,0,149169,149369,0,1 M,0,149169,151169,-87.01562,480,-87.01562,0 S,0,149169,151169,0.2281849,0.24653 R,0,149169,151169,0,0.8726646 F,0,150969,151169,1,0 F,0,151294,151494,0,1 M,0,151294,153294,353.0478,480,353.0478,0 S,0,151294,153294,0.2101642,0.22698 R,0,151294,153294,0,0.8726646 F,0,153094,153294,1,0 F,0,153419,153619,0,1 M,0,153419,155419,-48.57469,480,-48.57469,0 S,0,153419,155419,0.2353761,0.2331472 R,0,153419,155419,0,0.8726646 F,0,155219,155419,1,0 F,0,155544,155744,0,1 M,0,155544,157544,99.64381,480,99.64381,0 S,0,155544,157544,0.2295064,0.245401 R,0,155544,157544,0,0.8726646 F,0,157344,157544,1,0 F,0,157669,157869,0,1 M,0,157669,159669,537.4092,480,537.4092,0 S,0,157669,159669,0.2067469,0.2331948 R,0,157669,159669,0,0.8726646 F,0,159469,159669,1,0
Sprite,Background,Centre,"sb\visual\donutS.png",0,0 C,0,138669,,115,18,110 F,0,138669,138869,0,1 M,0,138669,140669,304.5675,480,304.5675,0 S,0,138669,140669,0.2022159,0.214037 R,0,138669,140669,0,0.8726646 P,0,138669,159794,A F,0,140469,140669,1,0 F,0,140794,140994,0,1 M,0,140794,142794,130.0514,480,130.0514,0 S,0,140794,142794,0.2018218,0.2367553 R,0,140794,142794,0,0.8726646 F,0,142594,142794,1,0 F,0,142919,143119,0,1 M,0,142919,144919,93.51311,480,93.51311,0 S,0,142919,144919,0.2483257,0.2315626 R,0,142919,144919,0,0.8726646 F,0,144719,144919,1,0 F,0,145044,145244,0,1 M,0,145044,147044,347.3607,480,347.3607,0 S,0,145044,147044,0.2245142,0.2120166 R,0,145044,147044,0,0.8726646 F,0,146844,147044,1,0 F,0,147169,147369,0,1 M,0,147169,149169,534.1193,480,534.1193,0 S,0,147169,149169,0.2253573,0.2220836 R,0,147169,149169,0,0.8726646 F,0,148969,149169,1,0 F,0,149294,149494,0,1 M,0,149294,151294,530.4438,480,530.4438,0 S,0,149294,151294,0.2224066,0.2113024 R,0,149294,151294,0,0.8726646 F,0,151094,151294,1,0 F,0,151419,151619,0,1 M,0,151419,153419,550.4312,480,550.4312,0 S,0,151419,153419,0.2277182,0.2154329 R,0,151419,153419,0,0.8726646 F,0,153219,153419,1,0 F,0,153544,153744,0,1 M,0,153544,155544,41.35201,480,41.35201,0 S,0,153544,155544,0.2148576,0.2252019 R,0,153544,155544,0,0.8726646 F,0,155344,155544,1,0 F,0,155669,155869,0,1 M,0,155669,157669,136.022,480,136.022,0 S,0,155669,157669,0.2029803,0.2448495 R,0,155669,157669,0,0.8726646 F,0,157469,157669,1,0 F,0,157794,157994,0,1 M,0,157794,159794,654.1061,480,654.1061,0 S,0,157794,159794,0.2062254,0.2340575 R,0,157794,159794,0,0.8726646 F,0,159594,159794,1,0
Sprite,Background,Centre,"sb\visual\donutS.png",0,0 C,0,138794,,115,18,110 F,0,138794,138994,0,1 M,0,138794,140794,278.754,480,278.754,0 S,0,138794,140794,0.2453126,0.2177147 R,0,138794,140794,0,0.8726646 P,0,138794,159919,A F,0,140594,140794,1,0 F,0,140919,141119,0,1 M,0,140919,142919,530.7426,480,530.7426,0 S,0,140919,142919,0.2033318,0.2068082 R,0,140919,142919,0,0.8726646 F,0,142719,142919,1,0 F,0,143044,143244,0,1 M,0,143044,145044,530.3518,480,530.3518,0 S,0,143044,145044,0.2450465,0.2460062 R,0,143044,145044,0,0.8726646 F,0,144844,145044,1,0 F,0,145169,145369,0,1 M,0,145169,147169,407.0587,480,407.0587,0 S,0,145169,147169,0.2436805,0.200975 R,0,145169,147169,0,0.8726646 F,0,146969,147169,1,0 F,0,147294,147494,0,1 M,0,147294,149294,-87.45462,480,-87.45462,0 S,0,147294,149294,0.2037246,0.2272486 R,0,147294,149294,0,0.8726646 F,0,149094,149294,1,0 F,0,149419,149619,0,1 M,0,149419,151419,87.0386,480,87.0386,0 S,0,149419,151419,0.2007086,0.2359488 R,0,149419,151419,0,0.8726646 F,0,151219,151419,1,0 F,0,151544,151744,0,1 M,0,151544,153544,626.2331,480,626.2331,0 S,0,151544,153544,0.2346464,0.2456593 R,0,151544,153544,0,0.8726646 F,0,153344,153544,1,0 F,0,153669,153869,0,1 M,0,153669,155669,295.3414,480,295.3414,0 S,0,153669,155669,0.2459932,0.2210295 R,0,153669,155669,0,0.8726646 F,0,155469,155669,1,0 F,0,155794,155994,0,1 M,0,155794,157794,143.8984,480,143.8984,0 S,0,155794,157794,0.2142144,0.2304829 R,0,155794,157794,0,0.8726646 F,0,157594,157794,1,0 F,0,157919,158119,0,1 M,0,157919,159919,597.8731,480,597.8731,0 S,0,157919,159919,0.246404,0.2176741 R,0,157919,159919,0,0.8726646 F,0,159719,159919,1,0
Sprite,Background,Centre,"sb\visual\donutS.png",0,0 C,0,138919,,115,18,110 F,0,138919,139119,0,1 M,0,138919,140919,-41.03093,480,-41.03093,0 S,0,138919,140919,0.2190714,0.2295194 R,0,138919,140919,0,0.8726646 P,0,138919,160044,A F,0,140719,140919,1,0 F,0,141044,141244,0,1 M,0,141044,143044,498.4038,480,498.4038,0 S,0,141044,143044,0.2490218,0.24525 R,0,141044,143044,0,0.8726646 F,0,142844,143044,1,0 F,0,143169,143369,0,1 M,0,143169,145169,603.7205,480,603.7205,0 S,0,143169,145169,0.2347196,0.2455913 R,0,143169,145169,0,0.8726646 F,0,144969,145169,1,0 F,0,145294,145494,0,1 M,0,145294,147294,473.839,480,473.839,0 S,0,145294,147294,0.2355762,0.2030545 R,0,145294,147294,0,0.8726646 F,0,147094,147294,1,0 F,0,147419,147619,0,1 M,0,147419,149419,134.9834,480,134.9834,0 S,0,147419,149419,0.2271728,0.228837 R,0,147419,149419,0,0.8726646 F,0,149219,149419,1,0 F,0,149544,149744,0,1 M,0,149544,151544,172.0678,480,172.0678,0 S,0,149544,151544,0.2394441,0.2271269 R,0,149544,151544,0,0.8726646 F,0,151344,151544,1,0 F,0,151669,151869,0,1 M,0,151669,153669,-62.39722,480,-62.39722,0 S,0,151669,153669,0.237881,0.2451738 R,0,151669,153669,0,0.8726646 F,0,153469,153669,1,0 F,0,153794,153994,0,1 M,0,153794,155794,439.6133,480,439.6133,0 S,0,153794,155794,0.2466446,0.2123878 R,0,153794,155794,0,0.8726646 F,0,155594,155794,1,0 F,0,155919,156119,0,1 M,0,155919,157919,565.4766,480,565.4766,0 S,0,155919,157919,0.246821,0.2338441 R,0,155919,157919,0,0.8726646 F,0,157719,157919,1,0 F,0,158044,158244,0,1 M,0,158044,160044,-30.5578,480,-30.5578,0 S,0,158044,160044,0.2476052,0.2299681 R,0,158044,160044,0,0.8726646 F,0,159844,160044,1,0
Sprite,Background,Centre,"sb\visual\donutS.png",0,0 C,0,139044,,115,18,110 F,0,139044,139244,0,1 M,0,139044,141044,161.5259,480,161.5259,0 S,0,139044,141044,0.2327594,0.2322973 R,0,139044,141044,0,0.8726646 P,0,139044,160169,A F,0,140844,141044,1,0 F,0,141169,141369,0,1 M,0,141169,143169,20.26888,480,20.26888,0 S,0,141169,143169,0.2017257,0.2130612 R,0,141169,143169,0,0.8726646 F,0,142969,143169,1,0 F,0,143294,143494,0,1 M,0,143294,145294,617.4867,480,617.4867,0 S,0,143294,145294,0.2217839,0.2459828 R,0,143294,145294,0,0.8726646 F,0,145094,145294,1,0 F,0,145419,145619,0,1 M,0,145419,147419,319.7046,480,319.7046,0 S,0,145419,147419,0.2472131,0.2327896 R,0,145419,147419,0,0.8726646 F,0,147219,147419,1,0 F,0,147544,147744,0,1 M,0,147544,149544,323.4876,480,323.4876,0 S,0,147544,149544,0.2195985,0.2318182 R,0,147544,149544,0,0.8726646 F,0,149344,149544,1,0 F,0,149669,149869,0,1 M,0,149669,151669,425.0033,480,425.0033,0 S,0,149669,151669,0.2299619,0.2243565 R,0,149669,151669,0,0.8726646 F,0,151469,151669,1,0 F,0,151794,151994,0,1 M,0,151794,153794,22.38179,480,22.38179,0 S,0,151794,153794,0.2460035,0.2429356 R,0,151794,153794,0,0.8726646 F,0,153594,153794,1,0 F,0,153919,154119,0,1 M,0,153919,155919,654.7432,480,654.7432,0 S,0,153919,155919,0.2029754,0.2222239 R,0,153919,155919,0,0.8726646 F,0,155719,155919,1,0 F,0,156044,156244,0,1 M,0,156044,158044,126.327,480,126.327,0 S,0,156044,158044,0.2398732,0.2223163 R,0,156044,158044,0,0.8726646 F,0,157844,158044,1,0 F,0,158169,158369,0,1 M,0,158169,160169,498.6635,480,498.6635,0 S,0,158169,160169,0.2134665,0.215888 R,0,158169,160169,0,0.8726646 F,0,159969,160169,1,0
Sprite,Background,Centre,"sb\visual\donutS.png",0,0 C,0,63408,,180,112,32 F,0,63408,63608,0,1 M,0,63408,65408,-80.33359,480,-80.33359,0 S,0,63408,65408,0.2079594,0.2333411 R,0,63408,65408,0,0.8726646 P,0,63408,84533,A F,0,65208,65408,1,0 F,0,65533,65733,0,1 M,0,65533,67533,73.3885,480,73.3885,0 S,0,65533,67533,0.2147792,0.243033 R,0,65533,67533,0,0.8726646 F,0,67333,67533,1,0 F,0,67658,67858,0,1 M,0,67658,69658,670.7213,480,670.7213,0 S,0,67658,69658,0.2016812,0.241056 R,0,67658,69658,0,0.8726646 F,0,69458,69658,1,0 F,0,69783,69983,0,1 M,0,69783,71783,48.30239,480,48.30239,0 S,0,69783,71783,0.2393611,0.2224644 R,0,69783,71783,0,0.8726646 F,0,71583,71783,1,0 F,0,71908,72108,0,1 M,0,71908,73908,581.2021,480,581.2021,0 S,0,71908,73908,0.212396,0.2269658 R,0,71908,73908,0,0.8726646 F,0,73708,73908,1,0 F,0,74033,74233,0,1 M,0,74033,76033,414.8075,480,414.8075,0 S,0,74033,76033,0.2459767,0.2417827 R,0,74033,76033,0,0.8726646 F,0,75833,76033,1,0 F,0,76158,76358,0,1 M,0,76158,78158,111.3626,480,111.3626,0 S,0,76158,78158,0.2326054,0.2279094 R,0,76158,78158,0,0.8726646 F,0,77958,78158,1,0 F,0,78283,78483,0,1 M,0,78283,80283,292.5528,480,292.5528,0 S,0,78283,80283,0.2227108,0.217997 R,0,78283,80283,0,0.8726646 F,0,80083,80283,1,0 F,0,80408,80608,0,1 M,0,80408,82408,733.0967,480,733.0967,0 S,0,80408,82408,0.2452013,0.2308919 R,0,80408,82408,0,0.8726646 F,0,82208,82408,1,0 F,0,82533,82733,0,1 M,0,82533,84533,292.802,480,292.802,0 S,0,82533,84533,0.225325,0.2110066 R,0,82533,84533,0,0.8726646 F,0,84333,84533,1,0
Sprite,Background,Centre,"sb\visual\donutS.png",0,0 C,0,63533,,180,112,32 F,0,63533,63733,0,1 M,0,63533,65533,-23.69593,480,-23.69593,0 S,0,63533,65533,0.2177304,0.2474333 R,0,63533,65533,0,0.8726646 P,0,63533,84658,A F,0,65333,65533,1,0 F,0,65658,65858,0,1 M,0,65658,67658,560.9307,480,560.9307,0 S,0,65658,67658,0.2293527,0.2133392 R,0,65658,67658,0,0.8726646 F,0,67458,67658,1,0 F,0,67783,67983,0,1 M,0,67783,69783,182.8313,480,182.8313,0 S,0,67783,69783,0.2130913,0.2324563 R,0,67783,69783,0,0.8726646 F,0,69583,69783,1,0 F,0,69908,70108,0,1 M,0,69908,71908,1.712054,480,1.712054,0 S,0,69908,71908,0.2064174,0.2490516 R,0,69908,71908,0,0.8726646 F,0,71708,71908,1,0 F,0,72033,72233,0,1 M,0,72033,74033,538.8517,480,538.8517,0 S,0,72033,74033,0.207233,0.2482 R,0,72033,74033,0,0.8726646 F,0,73833,74033,1,0 F,0,74158,74358,0,1 M,0,74158,76158,716.3533,480,716.3533,0 S,0,74158,76158,0.2254578,0.216651 R,0,74158,76158,0,0.8726646 F,0,75958,76158,1,0 F,0,76283,76483,0,1 M,0,76283,78283,-3.225199,480,-3.225199,0 S,0,76283,78283,0.2456823,0.2324157 R,0,76283,78283,0,0.8726646 F,0,78083,78283,1,0 F,0,78408,78608,0,1 M,0,78408,80408,486.5499,480,486.5499,0 S,0,78408,80408,0.2170289,0.2138724 R,0,78408,80408,0,0.8726646 F,0,80208,80408,1,0 F,0,80533,80733,0,1 M,0,80533,82533,86.08217,480,86.08217,0 S,0,80533,82533,0.2316232,0.2121687 R,0,80533,82533,0,0.8726646 F,0,82333,82533,1,0 F,0,82658,82858,0,1 M,0,82658,84658,467.4141,480,467.4141,0 S,0,82658,84658,0.2198857,0.2349759 R,0,82658,84658,0,0.8726646 F,0,84458,84658,1,0
Sprite,Background,Centre,"sb\visual\donutS.png",0,0 C,0,63658,,180,112,32 F,0,63658,63858,0,1 M,0,63658,65658,139.2109,480,139.2109,0 S,0,63658,65658,0.2305309,0.217461 R,0,63658,65658,0,0.8726646 P,0,63658,84783,A F,0,65458,65658,1,0 F,0,65783,65983,0,1 M,0,65783,67783,149.5343,480,149.5343,0 S,0,65783,67783,0.2200971,0.2255011 R,0,65783,67783,0,0.8726646 F,0,67583,67783,1,0 F,0,67908,68108,0,1 M,0,67908,69908,661.3412,480,661.3412,0 S,0,67908,69908,0.2306137,0.226948 R,0,67908,69908,0,0.8726646 F,0,69708,69908,1,0 F,0,70033,70233,0,1 M,0,70033,72033,431.2722,480,431.2722,0 S,0,70033,72033,0.2211087,0.2346594 R,0,70033,72033,0,0.8726646 F,0,71833,72033,1,0 F,0,72158,72358,0,1 M,0,72158,74158,219.5595,480,219.5595,0 S,0,72158,74158,0.2466861,0.2300961 R,0,72158,74158,0,0.8726646 F,0,73958,74158,1,0 F,0,74283,74483,0,1 M,0,74283,76283,512.613,480,512.613,0 S,0,74283,76283,0.2267674,0.2416142 R,0,74283,76283,0,0.8726646 F,0,76083,76283,1,0 F,0,76408,76608,0,1 M,0,76408,78408,-103.4463,480,-103.4463,0 S,0,76408,78408,0.2178249,0.244565 R,0,76408,78408,0,0.8726646 F,0,78208,78408,1,0 F,0,78533,78733,0,1 M,0,78533,80533,96.0881,480,96.0881,0 S,0,78533,80533,0.2364011,0.2199916 R,0,78533,80533,0,0.8726646 F,0,80333,80533,1,0 F,0,80658,80858,0,1 M,0,80658,82658,331.0217,480,331.0217,0 S,0,80658,82658,0.2486362,0.2370457 R,0,80658,82658,0,0.8726646 F,0,82458,82658,1,0 F,0,82783,82983,0,1 M,0,82783,84783,-29.2077,480,-29.2077,0 S,0,82783,84783,0.2354794,0.227952 R,0,82783,84783,0,0.8726646 F,0,84583,84783,1,0
Sprite,Background,Centre,"sb\visual\donutS.png",0,0 C,0,63783,,180,112,32 F,0,63783,63983,0,1 M,0,63783,65783,619.9127,480,619.9127,0 S,0,63783,65783,0.248248,0.226938 R,0,63783,65783,0,0.8726646 P,0,63783,84908,A F,0,65583,65783,1,0 F,0,65908,66108,0,1 M,0,65908,67908,714.4196,480,714.4196,0 S,0,65908,67908,0.203164,0.2221252 R,0,65908,67908,0,0.8726646 F,0,67708,67908,1,0 F,0,68033,68233,0,1 M,0,68033,70033,-76.45435,480,-76.45435,0 S,0,68033,70033,0.2181546,0.2380093 R,0,68033,70033,0,0.8726646 F,0,69833,70033,1,0 F,0,70158,70358,0,1 M,0,70158,72158,147.251,480,147.251,0 S,0,70158,72158,0.2275695,0.2031261 R,0,70158,72158,0,0.8726646 F,0,71958,72158,1,0 F,0,72283,72483,0,1 M,0,72283,74283,68.76173,480,68.76173,0 S,0,72283,74283,0.2360457,0.2276243 R,0,72283,74283,0,0.8726646 F,0,74083,74283,1,0 F,0,74408,74608,0,1 M,0,74408,76408,501.2247,480,501.2247,0 S,0,74408,76408,0.2391576,0.2298836 R,0,74408,76408,0,0.8726646 F,0,76208,76408,1,0 F,0,76533,76733,0,1 M,0,76533,78533,455.3616,480,455.3616,0 S,0,76533,78533,0.2413862,0.2390371 R,0,76533,78533,0,0.8726646 F,0,78333,78533,1,0 F,0,78658,78858,0,1 M,0,78658,80658,563.5194,480,563.5194,0 S,0,78658,80658,0.2059078,0.2140585 R,0,78658,80658,0,0.8726646 F,0,80458,80658,1,0 F,0,80783,80983,0,1 M,0,80783,82783,192.8553,480,192.8553,0 S,0,80783,82783,0.2265619,0.2002985 R,0,80783,82783,0,0.8726646 F,0,82583,82783,1,0 F,0,82908,83108,0,1 M,0,82908,84908,249.697,480,249.697,0 S,0,82908,84908,0.2056764,0.2342483 R,0,82908,84908,0,0.8726646 F,0,84708,84908,1,0
Sprite,Background,Centre,"sb\visual\donutS.png",0,0 C,0,63908,,180,112,32 F,0,63908,64108,0,1 M,0,63908,65908,424.3887,480,424.3887,0 S,0,63908,65908,0.2247519,0.2489669 R,0,63908,65908,0,0.8726646 P,0,63908,85033,A F,0,65708,65908,1,0 F,0,66033,66233,0,1 M,0,66033,68033,121.7432,480,121.7432,0 S,0,66033,68033,0.2021958,0.2085475 R,0,66033,68033,0,0.8726646 F,0,67833,68033,1,0 F,0,68158,68358,0,1 M,0,68158,70158,725.8801,480,725.8801,0 S,0,68158,70158,0.2075717,0.216553 R,0,68158,70158,0,0.8726646 F,0,69958,70158,1,0 F,0,70283,70483,0,1 M,0,70283,72283,668.1399,480,668.1399,0 S,0,70283,72283,0.2103808,0.224316 R,0,70283,72283,0,0.8726646 F,0,72083,72283,1,0 F,0,72408,72608,0,1 M,0,72408,74408,697.3544,480,697.3544,0 S,0,72408,74408,0.2151808,0.244143 R,0,72408,74408,0,0.8726646 F,0,74208,74408,1,0 F,0,74533,74733,0,1 M,0,74533,76533,390.2818,480,390.2818,0 S,0,74533,76533,0.213274,0.2194215 R,0,74533,76533,0,0.8726646 F,0,76333,76533,1,0 F,0,76658,76858,0,1 M,0,76658,78658,44.25367,480,44.25367,0 S,0,76658,78658,0.2227494,0.2031525 R,0,76658,78658,0,0.8726646 F,0,78458,78658,1,0 F,0,78783,78983,0,1 M,0,78783,80783,-41.12897,480,-41.12897,0 S,0,78783,80783,0.2003934,0.2405341 R,0,78783,80783,0,0.8726646 F,0,80583,80783,1,0 F,0,80908,81108,0,1 M,0,80908,82908,725.945,480,725.945,0 S,0,80908,82908,0.2082076,0.2069778 R,0,80908,82908,0,0.8726646 F,0,82708,82908,1,0 F,0,83033,83233,0,1 M,0,83033,85033,727.8287,480,727.8287,0 S,0,83033,85033,0.237927,0.2027322 R,0,83033,85033,0,0.8726646 F,0,84833,85033,1,0
Sprite,Background,Centre,"sb\visual\donutS.png",0,0 C,0,64033,,180,112,32 F,0,64033,64233,0,1 M,0,64033,66033,334.9821,480,334.9821,0 S,0,64033,66033,0.2449139,0.249764 R,0,64033,66033,0,0.8726646 P,0,64033,85158,A F,0,65833,66033,1,0 F,0,66158,66358,0,1 M,0,66158,68158,722.0711,480,722.0711,0 S,0,66158,68158,0.2441079,0.2467239 R,0,66158,68158,0,0.8726646 F,0,67958,68158,1,0 F,0,68283,68483,0,1 M,0,68283,70283,138.4055,480,138.4055,0 S,0,68283,70283,0.2071546,0.2363894 R,0,68283,70283,0,0.8726646 F,0,70083,70283,1,0 F,0,70408,70608,0,1 M,0,70408,72408,-62.59303,480,-62.59303,0 S,0,70408,72408,0.2008287,0.2177018 R,0,70408,72408,0,0.8726646 F,0,72208,72408,1,0 F,0,72533,72733,0,1 M,0,72533,74533,15.99061,480,15.99061,0 S,0,72533,74533,0.2052055,0.2134574 R,0,72533,74533,0,0.8726646 F,0,74333,74533,1,0 F,0,74658,74858,0,1 M,0,74658,76658,658.5622,480,658.5622,0 S,0,74658,76658,0.2170042,0.2049547 R,0,74658,76658,0,0.8726646 F,0,76458,76658,1,0 F,0,76783,76983,0,1 M,0,76783,78783,739.6821,480,739.6821,0 S,0,76783,78783,0.2235789,0.2062877 R,0,76783,78783,0,0.8726646 F,0,78583,78783,1,0 F,0,78908,79108,0,1 M,0,78908,80908,-1.41102,480,-1.41102,0 S,0,78908,80908,0.2388194,0.2183244 R,0,78908,80908,0,0.8726646 F,0,80708,80908,1,0 F,0,81033,81233,0,1 M,0,81033,83033,62.66312,480,62.66312,0 S,0,81033,83033,0.2066141,0.2103189 R,0,81033,83033,0,0.8726646 F,0,82833,83033,1,0 F,0,83158,83358,0,1 M,0,83158,85158,33.08585,480,33.08585,0 S,0,83158,85158,0.2005863,0.2064869 R,0,83158,85158,0,0.8726646 F,0,84958,85158,1,0
Sprite,Background,Centre,"sb\visual\donutS.png",0,0 C,0,64158,,180,112,32 F,0,64158,64358,0,1 M,0,64158,66158,418.8763,480,418.8763,0 S,0,64158,66158,0.201754,0.2051981 R,0,64158,66158,0,0.8726646 P,0,64158,85283,A F,0,65958,66158,1,0 F,0,66283,66483,0,1 M,0,66283,68283,-6.716979,480,-6.716979,0 S,0,66283,68283,0.2308566,0.2183695 R,0,66283,68283,0,0.8726646 F,0,68083,68283,1,0 F,0,68408,68608,0,1 M,0,68408,70408,172.665,480,172.665,0 S,0,68408,70408,0.2190141,0.2302216 R,0,68408,70408,0,0.8726646 F,0,70208,70408,1,0 F,0,70533,70733,0,1 M,0,70533,72533,206.8763,480,206.8763,0 S,0,70533,72533,0.2401948,0.2107326 R,0,70533,72533,0,0.8726646 F,0,72333,72533,1,0 F,0,72658,72858,0,1 M,0,72658,74658,408.1576,480,408.1576,0 S,0,72658,74658,0.2292551,0.244056 R,0,72658,74658,0,0.8726646 F,0,74458,74658,1,0 F,0,74783,74983,0,1 M,0,74783,76783,352.2392,480,352.2392,0 S,0,74783,76783,0.209438,0.2179806 R,0,74783,76783,0,0.8726646 F,0,76583,76783,1,0 F,0,76908,77108,0,1 M,0,76908,78908,-86.05894,480,-86.05894,0 S,0,76908,78908,0.2245141,0.232896 R,0,76908,78908,0,0.8726646 F,0,78708,78908,1,0 F,0,79033,79233,0,1 M,0,79033,81033,-102.7777,480,-102.7777,0 S,0,79033,81033,0.2488827,0.2201969 R,0,79033,81033,0,0.8726646 F,0,80833,81033,1,0 F,0,81158,81358,0,1 M,0,81158,83158,535.3292,480,535.3292,0 S,0,81158,83158,0.2165958,0.2017432 R,0,81158,83158,0,0.8726646 F,0,82958,83158,1,0 F,0,83283,83483,0,1 M,0,83283,85283,691.5032,480,691.5032,0 S,0,83283,85283,0.2469665,0.2057803 R,0,83283,85283,0,0.8726646 F,0,85083,85283,1,0
Sprite,Background,Centre,"sb\visual\donutS.png",0,0 C,0,64283,,180,112,32 F,0,64283,64483,0,1 M,0,64283,66283,421.0098,480,421.0098,0 S,0,64283,66283,0.2446202,0.2483607 R,0,64283,66283,0,0.8726646 P,0,64283,85408,A F,0,66083,66283,1,0 F,0,66408,66608,0,1 M,0,66408,68408,296.9872,480,296.9872,0 S,0,66408,68408,0.2323228,0.2380178 R,0,66408,68408,0,0.8726646 F,0,68208,68408,1,0 F,0,68533,68733,0,1 M,0,68533,70533,-73.67034,480,-73.67034,0 S,0,68533,70533,0.2026296,0.2225708 R,0,68533,70533,0,0.8726646 F,0,70333,70533,1,0 F,0,70658,70858,0,1 M,0,70658,72658,171.8415,480,171.8415,0 S,0,70658,72658,0.2411612,0.2415838 R,0,70658,72658,0,0.8726646 F,0,72458,72658,1,0 F,0,72783,72983,0,1 M,0,72783,74783,162.0222,480,162.0222,0 S,0,72783,74783,0.2457449,0.2132429 R,0,72783,74783,0,0.8726646 F,0,74583,74783,1,0 F,0,74908,75108,0,1 M,0,74908,76908,341.0605,480,341.0605,0 S,0,74908,76908,0.2135611,0.2419908 R,0,74908,76908,0,0.8726646 F,0,76708,76908,1,0 F,0,77033,77233,0,1 M,0,77033,79033,402.2154,480,402.2154,0 S,0,77033,79033,0.218733,0.2397998 R,0,77033,79033,0,0.8726646 F,0,78833,79033,1,0 F,0,79158,79358,0,1 M,0,79158,81158,-21.32208,480,-21.32208,0 S,0,79158,81158,0.2105421,0.2436423 R,0,79158,81158,0,0.8726646 F,0,80958,81158,1,0 F,0,81283,81483,0,1 M,0,81283,83283,218.7442,480,218.7442,0 S,0,81283,83283,0.2102254,0.2354465 R,0,81283,83283,0,0.8726646 F,0,83083,83283,1,0 F,0,83408,83608,0,1 M,0,83408,85408,715.1008,480,715.1008,0 S,0,83408,85408,0.2464204,0.2137284 R,0,83408,85408,0,0.8726646 F,0,85208,85408,1,0
Sprite,Background,Centre,"sb\visual\donutS.png",0,0 C,0,64408,,180,112,32 F,0,64408,64608,0,1 M,0,64408,66408,319.5616,480,319.5616,0 S,0,64408,66408,0.2422293,0.2455257 R,0,64408,66408,0,0.8726646 P,0,64408,85533,A F,0,66208,66408,1,0 F,0,66533,66733,0,1 M,0,66533,68533,229.8129,480,229.8129,0 S,0,66533,68533,0.2024047,0.2151276 R,0,66533,68533,0,0.8726646 F,0,68333,68533,1,0 F,0,68658,68858,0,1 M,0,68658,70658,543.3676,480,543.3676,0 S,0,68658,70658,0.2284318,0.2473422 R,0,68658,70658,0,0.8726646 F,0,70458,70658,1,0 F,0,70783,70983,0,1 M,0,70783,72783,-54.8892,480,-54.8892,0 S,0,70783,72783,0.2263212,0.2093421 R,0,70783,72783,0,0.8726646 F,0,72583,72783,1,0 F,0,72908,73108,0,1 M,0,72908,74908,142.039,480,142.039,0 S,0,72908,74908,0.2156188,0.2338103 R,0,72908,74908,0,0.8726646 F,0,74708,74908,1,0 F,0,75033,75233,0,1 M,0,75033,77033,166.8023,480,166.8023,0 S,0,75033,77033,0.2308929,0.2495762 R,0,75033,77033,0,0.8726646 F,0,76833,77033,1,0 F,0,77158,77358,0,1 M,0,77158,79158,618.5063,480,618.5063,0 S,0,77158,79158,0.2256907,0.2216732 R,0,77158,79158,0,0.8726646 F,0,78958,79158,1,0 F,0,79283,79483,0,1 M,0,79283,81283,463.2556,480,463.2556,0 S,0,79283,81283,0.2299832,0.2314283 R,0,79283,81283,0,0.8726646 F,0,81083,81283,1,0 F,0,81408,81608,0,1 M,0,81408,83408,692.0699,480,692.0699,0 S,0,81408,83408,0.2036713,0.2330526 R,0,81408,83408,0,0.8726646 F,0,83208,83408,1,0 F,0,83533,83733,0,1 M,0,83533,85533,519.7803,480,519.7803,0 S,0,83533,85533,0.2305779,0.2031422 R,0,83533,85533,0,0.8726646 F,0,85333,85533,1,0
Sprite,Background,Centre,"sb\visual\donutS.png",0,0 C,0,64533,,180,112,32 F,0,64533,64733,0,1 M,0,64533,66533,193.2525,480,193.2525,0 S,0,64533,66533,0.2084057,0.2308535 R,0,64533,66533,0,0.8726646 P,0,64533,85658,A F,0,66333,66533,1,0 F,0,66658,66858,0,1 M,0,66658,68658,459.6141,480,459.6141,0 S,0,66658,68658,0.2320877,0.2242646 R,0,66658,68658,0,0.8726646 F,0,68458,68658,1,0 F,0,68783,68983,0,1 M,0,68783,70783,278.2282,480,278.2282,0 S,0,68783,70783,0.2274876,0.2223309 R,0,68783,70783,0,0.8726646 F,0,70583,70783,1,0 F,0,70908,71108,0,1 M,0,70908,72908,192.9331,480,192.9331,0 S,0,70908,72908,0.2434843,0.2317528 R,0,70908,72908,0,0.8726646 F,0,72708,72908,1,0 F,0,73033,73233,0,1 M,0,73033,75033,34.37214,480,34.37214,0 S,0,73033,75033,0.2168025,0.209211 R,0,73033,75033,0,0.8726646 F,0,74833,75033,1,0 F,0,75158,75358,0,1 M,0,75158,77158,365.4886,480,365.4886,0 S,0,75158,77158,0.2377303,0.2004698 R,0,75158,77158,0,0.8726646 F,0,76958,77158,1,0 F,0,77283,77483,0,1 M,0,77283,79283,-2.540721,480,-2.540721,0 S,0,77283,79283,0.2037664,0.2484216 R,0,77283,79283,0,0.8726646 F,0,79083,79283,1,0 F,0,79408,79608,0,1 M,0,79408,81408,549.7659,480,549.7659,0 S,0,79408,81408,0.2361027,0.2187588 R,0,79408,81408,0,0.8726646 F,0,81208,81408,1,0 F,0,81533,81733,0,1 M,0,81533,83533,427.9742,480,427.9742,0 S,0,81533,83533,0.2143878,0.2359232 R,0,81533,83533,0,0.8726646 F,0,83333,83533,1,0 F,0,83658,83858,0,1 M,0,83658,85658,-82.61311,480,-82.61311,0 S,0,83658,85658,0.2365337,0.2135916 R,0,83658,85658,0,0.8726646 F,0,85458,85658,1,0
Sprite,Background,Centre,"sb\visual\donutS.png",0,0 C,0,64658,,180,112,32 F,0,64658,64858,0,1 M,0,64658,66658,657.4165,480,657.4165,0 S,0,64658,66658,0.2397005,0.2254784 R,0,64658,66658,0,0.8726646 P,0,64658,85783,A F,0,66458,66658,1,0 F,0,66783,66983,0,1 M,0,66783,68783,-10.25612,480,-10.25612,0 S,0,66783,68783,0.236611,0.2364932 R,0,66783,68783,0,0.8726646 F,0,68583,68783,1,0 F,0,68908,69108,0,1 M,0,68908,70908,100.8503,480,100.8503,0 S,0,68908,70908,0.2438386,0.2406093 R,0,68908,70908,0,0.8726646 F,0,70708,70908,1,0 F,0,71033,71233,0,1 M,0,71033,73033,406.5399,480,406.5399,0 S,0,71033,73033,0.2334265,0.210327 R,0,71033,73033,0,0.8726646 F,0,72833,73033,1,0 F,0,73158,73358,0,1 M,0,73158,75158,295.4819,480,295.4819,0 S,0,73158,75158,0.2166242,0.2224465 R,0,73158,75158,0,0.8726646 F,0,74958,75158,1,0 F,0,75283,75483,0,1 M,0,75283,77283,35.78429,480,35.78429,0 S,0,75283,77283,0.2360051,0.2294551 R,0,75283,77283,0,0.8726646 F,0,77083,77283,1,0 F,0,77408,77608,0,1 M,0,77408,79408,462.0804,480,462.0804,0 S,0,77408,79408,0.200852,0.2452192 R,0,77408,79408,0,0.8726646 F,0,79208,79408,1,0 F,0,79533,79733,0,1 M,0,79533,81533,703.7058,480,703.7058,0 S,0,79533,81533,0.24893,0.2239919 R,0,79533,81533,0,0.8726646 F,0,81333,81533,1,0 F,0,81658,81858,0,1 M,0,81658,83658,-13.35149,480,-13.35149,0 S,0,81658,83658,0.2238297,0.2085002 R,0,81658,83658,0,0.8726646 F,0,83458,83658,1,0 F,0,83783,83983,0,1 M,0,83783,85783,511.7948,480,511.7948,0 S,0,83783,85783,0.2006922,0.2022295 R,0,83783,85783,0,0.8726646 F,0,85583,85783,1,0
Sprite,Background,Centre,"sb\visual\donutS.png",0,0 C,0,64783,,180,112,32 F,0,64783,64983,0,1 M,0,64783,66783,323.7524,480,323.7524,0 S,0,64783,66783,0.228028,0.2048383 R,0,64783,66783,0,0.8726646 P,0,64783,85908,A F,0,66583,66783,1,0 F,0,66908,67108,0,1 M,0,66908,68908,243.9435,480,243.9435,0 S,0,66908,68908,0.2158063,0.2249213 R,0,66908,68908,0,0.8726646 F,0,68708,68908,1,0 F,0,69033,69233,0,1 M,0,69033,71033,740.0344,480,740.0344,0 S,0,69033,71033,0.2398699,0.2349298 R,0,69033,71033,0,0.8726646 F,0,70833,71033,1,0 F,0,71158,71358,0,1 M,0,71158,73158,-96.95013,480,-96.95013,0 S,0,71158,73158,0.2469234,0.2044774 R,0,71158,73158,0,0.8726646 F,0,72958,73158,1,0 F,0,73283,73483,0,1 M,0,73283,75283,133.7855,480,133.7855,0 S,0,73283,75283,0.2102261,0.2210305 R,0,73283,75283,0,0.8726646 F,0,75083,75283,1,0 F,0,75408,75608,0,1 M,0,75408,77408,-60.98998,480,-60.98998,0 S,0,75408,77408,0.2069863,0.2206475 R,0,75408,77408,0,0.8726646 F,0,77208,77408,1,0 F,0,77533,77733,0,1 M,0,77533,79533,707.2891,480,707.2891,0 S,0,77533,79533,0.204425,0.2033997 R,0,77533,79533,0,0.8726646 F,0,79333,79533,1,0 F,0,79658,79858,0,1 M,0,79658,81658,71.84036,480,71.84036,0 S,0,79658,81658,0.2400745,0.2281412 R,0,79658,81658,0,0.8726646 F,0,81458,81658,1,0 F,0,81783,81983,0,1 M,0,81783,83783,735.9597,480,735.9597,0 S,0,81783,83783,0.2017208,0.2037286 R,0,81783,83783,0,0.8726646 F,0,83583,83783,1,0 F,0,83908,84108,0,1 M,0,83908,85908,-80.99514,480,-80.99514,0 S,0,83908,85908,0.2179247,0.2485047 R,0,83908,85908,0,0.8726646 F,0,85708,85908,1,0
Sprite,Background,Centre,"sb\visual\donutS.png",0,0 C,0,64908,,180,112,32 F,0,64908,65108,0,1 M,0,64908,66908,8.012527,480,8.012527,0 S,0,64908,66908,0.2265443,0.2234166 R,0,64908,66908,0,0.8726646 P,0,64908,86033,A F,0,66708,66908,1,0 F,0,67033,67233,0,1 M,0,67033,69033,192.8315,480,192.8315,0 S,0,67033,69033,0.2138863,0.2486753 R,0,67033,69033,0,0.8726646 F,0,68833,69033,1,0 F,0,69158,69358,0,1 M,0,69158,71158,-29.06657,480,-29.06657,0 S,0,69158,71158,0.246422,0.2027151 R,0,69158,71158,0,0.8726646 F,0,70958,71158,1,0 F,0,71283,71483,0,1 M,0,71283,73283,437.0847,480,437.0847,0 S,0,71283,73283,0.2067727,0.2334525 R,0,71283,73283,0,0.8726646 F,0,73083,73283,1,0 F,0,73408,73608,0,1 M,0,73408,75408,177.1918,480,177.1918,0 S,0,73408,75408,0.2372249,0.2396905 R,0,73408,75408,0,0.8726646 F,0,75208,75408,1,0 F,0,75533,75733,0,1 M,0,75533,77533,223.2633,480,223.2633,0 S,0,75533,77533,0.2341082,0.2347683 R,0,75533,77533,0,0.8726646 F,0,77333,77533,1,0 F,0,77658,77858,0,1 M,0,77658,79658,720.5978,480,720.5978,0 S,0,77658,79658,0.203382,0.211304 R,0,77658,79658,0,0.8726646 F,0,79458,79658,1,0 F,0,79783,79983,0,1 M,0,79783,81783,282.0458,480,282.0458,0 S,0,79783,81783,0.2370761,0.2373961 R,0,79783,81783,0,0.8726646 F,0,81583,81783,1,0 F,0,81908,82108,0,1 M,0,81908,83908,10.85175,480,10.85175,0 S,0,81908,83908,0.2008338,0.2084512 R,0,81908,83908,0,0.8726646 F,0,83708,83908,1,0 F,0,84033,84233,0,1 M,0,84033,86033,-64.19151,480,-64.19151,0 S,0,84033,86033,0.2342772,0.2318351 R,0,84033,86033,0,0.8726646 F,0,85833,86033,1,0
Sprite,Background,Centre,"sb\visual\donutS.png",0,0 C,0,65033,,180,112,32 F,0,65033,65233,0,1 M,0,65033,67033,116.9504,480,116.9504,0 S,0,65033,67033,0.2137362,0.2249178 R,0,65033,67033,0,0.8726646 P,0,65033,86158,A F,0,66833,67033,1,0 F,0,67158,67358,0,1 M,0,67158,69158,38.19593,480,38.19593,0 S,0,67158,69158,0.2082858,0.2064473 R,0,67158,69158,0,0.8726646 F,0,68958,69158,1,0 F,0,69283,69483,0,1 M,0,69283,71283,21.69791,480,21.69791,0 S,0,69283,71283,0.2274303,0.2332726 R,0,69283,71283,0,0.8726646 F,0,71083,71283,1,0 F,0,71408,71608,0,1 M,0,71408,73408,134.1997,480,134.1997,0 S,0,71408,73408,0.2269519,0.2253133 R,0,71408,73408,0,0.8726646 F,0,73208,73408,1,0 F,0,73533,73733,0,1 M,0,73533,75533,639.7805,480,639.7805,0 S,0,73533,75533,0.2372643,0.2100866 R,0,73533,75533,0,0.8726646 F,0,75333,75533,1,0 F,0,75658,75858,0,1 M,0,75658,77658,672.1984,480,672.1984,0 S,0,75658,77658,0.2196382,0.2104575 R,0,75658,77658,0,0.8726646 F,0,77458,77658,1,0 F,0,77783,77983,0,1 M,0,77783,79783,93.99954,480,93.99954,0 S,0,77783,79783,0.2308718,0.2162833 R,0,77783,79783,0,0.8726646 F,0,79583,79783,1,0 F,0,79908,80108,0,1 M,0,79908,81908,71.87297,480,71.87297,0 S,0,79908,81908,0.2134362,0.2169809 R,0,79908,81908,0,0.8726646 F,0,81708,81908,1,0 F,0,82033,82233,0,1 M,0,82033,84033,474.1893,480,474.1893,0 S,0,82033,84033,0.2028674,0.23844 R,0,82033,84033,0,0.8726646 F,0,83833,84033,1,0 F,0,84158,84358,0,1 M,0,84158,86158,426.7036,480,426.7036,0 S,0,84158,86158,0.2476546,0.2153545 R,0,84158,86158,0,0.8726646 F,0,85958,86158,1,0
Sprite,Background,Centre,"sb\visual\donutS.png",0,0 C,0,65158,,180,112,32 F,0,65158,65358,0,1 M,0,65158,67158,462.082,480,462.082,0 S,0,65158,67158,0.2294926,0.2315348 R,0,65158,67158,0,0.8726646 P,0,65158,86283,A F,0,66958,67158,1,0 F,0,67283,67483,0,1 M,0,67283,69283,-71.39742,480,-71.39742,0 S,0,67283,69283,0.2349806,0.2105722 R,0,67283,69283,0,0.8726646 F,0,69083,69283,1,0 F,0,69408,69608,0,1 M,0,69408,71408,375.8965,480,375.8965,0 S,0,69408,71408,0.2432875,0.2401313 R,0,69408,71408,0,0.8726646 F,0,71208,71408,1,0 F,0,71533,71733,0,1 M,0,71533,73533,438.6101,480,438.6101,0 S,0,71533,73533,0.2073509,0.2498608 R,0,71533,73533,0,0.8726646 F,0,73333,73533,1,0 F,0,73658,73858,0,1 M,0,73658,75658,689.6724,480,689.6724,0 S,0,73658,75658,0.2461687,0.2409062 R,0,73658,75658,0,0.8726646 F,0,75458,75658,1,0 F,0,75783,75983,0,1 M,0,75783,77783,-74.14247,480,-74.14247,0 S,0,75783,77783,0.2418878,0.2481067 R,0,75783,77783,0,0.8726646 F,0,77583,77783,1,0 F,0,77908,78108,0,1 M,0,77908,79908,60.32774,480,60.32774,0 S,0,77908,79908,0.2373046,0.2282521 R,0,77908,79908,0,0.8726646 F,0,79708,79908,1,0 F,0,80033,80233,0,1 M,0,80033,82033,41.38342,480,41.38342,0 S,0,80033,82033,0.2274895,0.224964 R,0,80033,82033,0,0.8726646 F,0,81833,82033,1,0 F,0,82158,82358,0,1 M,0,82158,84158,741.0148,480,741.0148,0 S,0,82158,84158,0.2070833,0.2368743 R,0,82158,84158,0,0.8726646 F,0,83958,84158,1,0 F,0,84283,84483,0,1 M,0,84283,86283,226.0724,480,226.0724,0 S,0,84283,86283,0.2368564,0.2471911 R,0,84283,86283,0,0.8726646 F,0,86083,86283,1,0
Sprite,Background,Centre,"sb\visual\donutS.png",0,0 C,0,65283,,180,112,32 F,0,65283,65483,0,1 M,0,65283,67283,13.61963,480,13.61963,0 S,0,65283,67283,0.2179647,0.2011899 R,0,65283,67283,0,0.8726646 P,0,65283,86408,A F,0,67083,67283,1,0 F,0,67408,67608,0,1 M,0,67408,69408,699.3014,480,699.3014,0 S,0,67408,69408,0.2300738,0.2272968 R,0,67408,69408,0,0.8726646 F,0,69208,69408,1,0 F,0,69533,69733,0,1 M,0,69533,71533,432.0802,480,432.0802,0 S,0,69533,71533,0.246679,0.2274089 R,0,69533,71533,0,0.8726646 F,0,71333,71533,1,0 F,0,71658,71858,0,1 M,0,71658,73658,232.0977,480,232.0977,0 S,0,71658,73658,0.2171103,0.2329066 R,0,71658,73658,0,0.8726646 F,0,73458,73658,1,0 F,0,73783,73983,0,1 M,0,73783,75783,-67.52788,480,-67.52788,0 S,0,73783,75783,0.215149,0.24217 R,0,73783,75783,0,0.8726646 F,0,75583,75783,1,0 F,0,75908,76108,0,1 M,0,75908,77908,231.1329,480,231.1329,0 S,0,75908,77908,0.2324713,0.2328947 R,0,75908,77908,0,0.8726646 F,0,77708,77908,1,0 F,0,78033,78233,0,1 M,0,78033,80033,381.1396,480,381.1396,0 S,0,78033,80033,0.2069319,0.2191384 R,0,78033,80033,0,0.8726646 F,0,79833,80033,1,0 F,0,80158,80358,0,1 M,0,80158,82158,708.9996,480,708.9996,0 S,0,80158,82158,0.2440599,0.2369113 R,0,80158,82158,0,0.8726646 F,0,81958,82158,1,0 F,0,82283,82483,0,1 M,0,82283,84283,462.0648,480,462.0648,0 S,0,82283,84283,0.2400797,0.2192818 R,0,82283,84283,0,0.8726646 F,0,84083,84283,1,0 F,0,84408,84608,0,1 M,0,84408,86408,675.4067,480,675.4067,0 S,0,84408,86408,0.249228,0.2191563 R,0,84408,86408,0,0.8726646 F,0,86208,86408,1,0
Sprite,Background,Centre,"sb\visual\donutS.png",0,0 C,0,65408,,180,112,32 F,0,65408,65608,0,1 M,0,65408,67408,-35.43135,480,-35.43135,0 S,0,65408,67408,0.2219126,0.2014005 R,0,65408,67408,0,0.8726646 P,0,65408,86533,A F,0,67208,67408,1,0 F,0,67533,67733,0,1 M,0,67533,69533,354.3769,480,354.3769,0 S,0,67533,69533,0.2414784,0.2238567 R,0,67533,69533,0,0.8726646 F,0,69333,69533,1,0 F,0,69658,69858,0,1 M,0,69658,71658,-4.847008,480,-4.847008,0 S,0,69658,71658,0.2171607,0.2229193 R,0,69658,71658,0,0.8726646 F,0,71458,71658,1,0 F,0,71783,71983,0,1 M,0,71783,73783,476.8752,480,476.8752,0 S,0,71783,73783,0.2210379,0.2458503 R,0,71783,73783,0,0.8726646 F,0,73583,73783,1,0 F,0,73908,74108,0,1 M,0,73908,75908,649.3395,480,649.3395,0 S,0,73908,75908,0.2373474,0.2119048 R,0,73908,75908,0,0.8726646 F,0,75708,75908,1,0 F,0,76033,76233,0,1 M,0,76033,78033,380.041,480,380.041,0 S,0,76033,78033,0.2425111,0.2481448 R,0,76033,78033,0,0.8726646 F,0,77833,78033,1,0 F,0,78158,78358,0,1 M,0,78158,80158,-20.8168,480,-20.8168,0 S,0,78158,80158,0.2297745,0.2088923 R,0,78158,80158,0,0.8726646 F,0,79958,80158,1,0 F,0,80283,80483,0,1 M,0,80283,82283,102.7774,480,102.7774,0 S,0,80283,82283,0.2276024,0.2181125 R,0,80283,82283,0,0.8726646 F,0,82083,82283,1,0 F,0,82408,82608,0,1 M,0,82408,84408,439.7967,480,439.7967,0 S,0,82408,84408,0.2121583,0.2374458 R,0,82408,84408,0,0.8726646 F,0,84208,84408,1,0 F,0,84533,84733,0,1 M,0,84533,86533,163.8538,480,163.8538,0 S,0,84533,86533,0.2248841,0.2394934 R,0,84533,86533,0,0.8726646 F,0,86333,86533,1,0
Sprite,Background,Centre,"sb\sprites\InterntalLightXPanty\sunflowerP.png",0,0 F,0,210680,210880,0,1 M,0,210680,212680,23.22733,480,23.22733,0 S,0,210680,212680,0.1976513,0.2434844 R,0,210680,212680,0,1.745329 P,0,210680,227555,A F,0,212480,212680,1,0 F,0,212805,213005,0,1 M,0,212805,214805,530.2979,480,530.2979,0 S,0,212805,214805,0.2915413,0.2348627 R,0,212805,214805,0,1.745329 F,0,214605,214805,1,0 F,0,214930,215130,0,1 M,0,214930,216930,12.68226,480,12.68226,0 S,0,214930,216930,0.2961261,0.1042462 R,0,214930,216930,0,1.745329 F,0,216730,216930,1,0 F,0,217055,217255,0,1 M,0,217055,219055,581.8208,480,581.8208,0 S,0,217055,219055,0.2850659,0.1712971 R,0,217055,219055,0,1.745329 F,0,218855,219055,1,0 F,0,219180,219380,0,1 M,0,219180,221180,287.1062,480,287.1062,0 S,0,219180,221180,0.2792577,0.2324362 R,0,219180,221180,0,1.745329 F,0,220980,221180,1,0 F,0,221305,221505,0,1 M,0,221305,223305,733.4833,480,733.4833,0 S,0,221305,223305,0.2492509,0.1077289 R,0,221305,223305,0,1.745329 F,0,223105,223305,1,0 F,0,223430,223630,0,1 M,0,223430,225430,-48.80726,480,-48.80726,0 S,0,223430,225430,0.251174,0.1120567 R,0,223430,225430,0,1.745329 F,0,225230,225430,1,0 F,0,225555,225755,0,1 M,0,225555,227555,-47.05724,480,-47.05724,0 S,0,225555,227555,0.2642237,0.2621394 R,0,225555,227555,0,1.745329 F,0,227355,227555,1,0
Sprite,Background,Centre,"sb\sprites\InterntalLightXPanty\sunflowerP.png",0,0 F,0,210805,211005,0,1 M,0,210805,212805,550.3172,480,550.3172,0 S,0,210805,212805,0.256064,0.150755 R,0,210805,212805,0,1.745329 P,0,210805,227680,A F,0,212605,212805,1,0 F,0,212930,213130,0,1 M,0,212930,214930,570.7373,480,570.7373,0 S,0,212930,214930,0.2465245,0.1092207 R,0,212930,214930,0,1.745329 F,0,214730,214930,1,0 F,0,215055,215255,0,1 M,0,215055,217055,68.35749,480,68.35749,0 S,0,215055,217055,0.1328347,0.1549231 R,0,215055,217055,0,1.745329 F,0,216855,217055,1,0 F,0,217180,217380,0,1 M,0,217180,219180,14.58287,480,14.58287,0 S,0,217180,219180,0.2696433,0.2627022 R,0,217180,219180,0,1.745329 F,0,218980,219180,1,0 F,0,219305,219505,0,1 M,0,219305,221305,-3.569548,480,-3.569548,0 S,0,219305,221305,0.2497043,0.1955746 R,0,219305,221305,0,1.745329 F,0,221105,221305,1,0 F,0,221430,221630,0,1 M,0,221430,223430,-52.80492,480,-52.80492,0 S,0,221430,223430,0.2368738,0.1780392 R,0,221430,223430,0,1.745329 F,0,223230,223430,1,0 F,0,223555,223755,0,1 M,0,223555,225555,499.0532,480,499.0532,0 S,0,223555,225555,0.1554318,0.2663822 R,0,223555,225555,0,1.745329 F,0,225355,225555,1,0 F,0,225680,225880,0,1 M,0,225680,227680,-73.02269,480,-73.02269,0 S,0,225680,227680,0.1929469,0.1185518 R,0,225680,227680,0,1.745329 F,0,227480,227680,1,0
Sprite,Background,Centre,"sb\sprites\InterntalLightXPanty\sunflowerP.png",0,0 F,0,210930,211130,0,1 M,0,210930,212930,483.2319,480,483.2319,0 S,0,210930,212930,0.2052796,0.132677 R,0,210930,212930,0,1.745329 P,0,210930,227805,A F,0,212730,212930,1,0 F,0,213055,213255,0,1 M,0,213055,215055,561.2524,480,561.2524,0 S,0,213055,215055,0.226016,0.1189771 R,0,213055,215055,0,1.745329 F,0,214855,215055,1,0 F,0,215180,215380,0,1 M,0,215180,217180,-12.55121,480,-12.55121,0 S,0,215180,217180,0.1706252,0.1688057 R,0,215180,217180,0,1.745329 F,0,216980,217180,1,0 F,0,217305,217505,0,1 M,0,217305,219305,368.6477,480,368.6477,0 S,0,217305,219305,0.1392301,0.2770898 R,0,217305,219305,0,1.745329 F,0,219105,219305,1,0 F,0,219430,219630,0,1 M,0,219430,221430,41.99955,480,41.99955,0 S,0,219430,221430,0.262545,0.2723108 R,0,219430,221430,0,1.745329 F,0,221230,221430,1,0 F,0,221555,221755,0,1 M,0,221555,223555,242.46,480,242.46,0 S,0,221555,223555,0.2338516,0.2292528 R,0,221555,223555,0,1.745329 F,0,223355,223555,1,0 F,0,223680,223880,0,1 M,0,223680,225680,78.62533,480,78.62533,0 S,0,223680,225680,0.2814454,0.2884713 R,0,223680,225680,0,1.745329 F,0,225480,225680,1,0 F,0,225805,226005,0,1 M,0,225805,227805,694.7245,480,694.7245,0 S,0,225805,227805,0.2484824,0.2188769 R,0,225805,227805,0,1.745329 F,0,227605,227805,1,0
Sprite,Background,Centre,"sb\sprites\InterntalLightXPanty\sunflowerP.png",0,0 F,0,211055,211255,0,1 M,0,211055,213055,139.5845,480,139.5845,0 S,0,211055,213055,0.1256865,0.2006074 R,0,211055,213055,0,1.745329 P,0,211055,227930,A F,0,212855,213055,1,0 F,0,213180,213380,0,1 M,0,213180,215180,463.8919,480,463.8919,0 S,0,213180,215180,0.2281687,0.1337866 R,0,213180,215180,0,1.745329 F,0,214980,215180,1,0 F,0,215305,215505,0,1 M,0,215305,217305,289.5956,480,289.5956,0 S,0,215305,217305,0.2972961,0.271323 R,0,215305,217305,0,1.745329 F,0,217105,217305,1,0 F,0,217430,217630,0,1 M,0,217430,219430,228.0884,480,228.0884,0 S,0,217430,219430,0.1707155,0.2876175 R,0,217430,219430,0,1.745329 F,0,219230,219430,1,0 F,0,219555,219755,0,1 M,0,219555,221555,-102.346,480,-102.346,0 S,0,219555,221555,0.1217431,0.2133776 R,0,219555,221555,0,1.745329 F,0,221355,221555,1,0 F,0,221680,221880,0,1 M,0,221680,223680,51.72622,480,51.72622,0 S,0,221680,223680,0.2561288,0.2024566 R,0,221680,223680,0,1.745329 F,0,223480,223680,1,0 F,0,223805,224005,0,1 M,0,223805,225805,121.9406,480,121.9406,0 S,0,223805,225805,0.1948223,0.1063951 R,0,223805,225805,0,1.745329 F,0,225605,225805,1,0 F,0,225930,226130,0,1 M,0,225930,227930,604.282,480,604.282,0 S,0,225930,227930,0.2220697,0.1894786 R,0,225930,227930,0,1.745329 F,0,227730,227930,1,0
Sprite,Background,Centre,"sb\sprites\InterntalLightXPanty\sunflowerP.png",0,0 F,0,211180,211380,0,1 M,0,211180,213180,742.549,480,742.549,0 S,0,211180,213180,0.1964551,0.2961489 R,0,211180,213180,0,1.745329 P,0,211180,228055,A F,0,212980,213180,1,0 F,0,213305,213505,0,1 M,0,213305,215305,51.59182,480,51.59182,0 S,0,213305,215305,0.1130495,0.2009529 R,0,213305,215305,0,1.745329 F,0,215105,215305,1,0 F,0,215430,215630,0,1 M,0,215430,217430,99.9431,480,99.9431,0 S,0,215430,217430,0.229949,0.1008672 R,0,215430,217430,0,1.745329 F,0,217230,217430,1,0 F,0,217555,217755,0,1 M,0,217555,219555,6.213336,480,6.213336,0 S,0,217555,219555,0.278301,0.2039182 R,0,217555,219555,0,1.745329 F,0,219355,219555,1,0 F,0,219680,219880,0,1 M,0,219680,221680,183.4465,480,183.4465,0 S,0,219680,221680,0.161398,0.1124996 R,0,219680,221680,0,1.745329 F,0,221480,221680,1,0 F,0,221805,222005,0,1 M,0,221805,223805,719.2979,480,719.2979,0 S,0,221805,223805,0.2264486,0.1997362 R,0,221805,223805,0,1.745329 F,0,223605,223805,1,0 F,0,223930,224130,0,1 M,0,223930,225930,553.3572,480,553.3572,0 S,0,223930,225930,0.2254268,0.1318675 R,0,223930,225930,0,1.745329 F,0,225730,225930,1,0 F,0,226055,226255,0,1 M,0,226055,228055,507.8447,480,507.8447,0 S,0,226055,228055,0.1578432,0.2626891 R,0,226055,228055,0,1.745329 F,0,227855,228055,1,0
Sprite,Background,Centre,"sb\sprites\InterntalLightXPanty\sunflowerP.png",0,0 F,0,211305,211505,0,1 M,0,211305,213305,528.0243,480,528.0243,0 S,0,211305,213305,0.2760647,0.2990627 R,0,211305,213305,0,1.745329 P,0,211305,228180,A F,0,213105,213305,1,0 F,0,213430,213630,0,1 M,0,213430,215430,661.8846,480,661.8846,0 S,0,213430,215430,0.2526274,0.1761293 R,0,213430,215430,0,1.745329 F,0,215230,215430,1,0 F,0,215555,215755,0,1 M,0,215555,217555,199.3718,480,199.3718,0 S,0,215555,217555,0.2368495,0.2345971 R,0,215555,217555,0,1.745329 F,0,217355,217555,1,0 F,0,217680,217880,0,1 M,0,217680,219680,55.0506,480,55.0506,0 S,0,217680,219680,0.1011121,0.2655677 R,0,217680,219680,0,1.745329 F,0,219480,219680,1,0 F,0,219805,220005,0,1 M,0,219805,221805,473.695,480,473.695,0 S,0,219805,221805,0.223717,0.1881652 R,0,219805,221805,0,1.745329 F,0,221605,221805,1,0 F,0,221930,222130,0,1 M,0,221930,223930,664.4771,480,664.4771,0 S,0,221930,223930,0.1963924,0.2089746 R,0,221930,223930,0,1.745329 F,0,223730,223930,1,0 F,0,224055,224255,0,1 M,0,224055,226055,203.6194,480,203.6194,0 S,0,224055,226055,0.2484567,0.1571527 R,0,224055,226055,0,1.745329 F,0,225855,226055,1,0 F,0,226180,226380,0,1 M,0,226180,228180,3.671853,480,3.671853,0 S,0,226180,228180,0.1016021,0.1743978 R,0,226180,228180,0,1.745329 F,0,227980,228180,1,0
Sprite,Background,Centre,"sb\sprites\InterntalLightXPanty\sunflowerP.png",0,0 F,0,211430,211630,0,1 M,0,211430,213430,720.7818,480,720.7818,0 S,0,211430,213430,0.2349672,0.192087 R,0,211430,213430,0,1.745329 P,0,211430,228305,A F,0,213230,213430,1,0 F,0,213555,213755,0,1 M,0,213555,215555,703.5484,480,703.5484,0 S,0,213555,215555,0.2617104,0.1848757 R,0,213555,215555,0,1.745329 F,0,215355,215555,1,0 F,0,215680,215880,0,1 M,0,215680,217680,30.6624,480,30.6624,0 S,0,215680,217680,0.1741221,0.2454917 R,0,215680,217680,0,1.745329 F,0,217480,217680,1,0 F,0,217805,218005,0,1 M,0,217805,219805,449.4164,480,449.4164,0 S,0,217805,219805,0.12696,0.1697726 R,0,217805,219805,0,1.745329 F,0,219605,219805,1,0 F,0,219930,220130,0,1 M,0,219930,221930,-88.23809,480,-88.23809,0 S,0,219930,221930,0.1240722,0.1222148 R,0,219930,221930,0,1.745329 F,0,221730,221930,1,0 F,0,222055,222255,0,1 M,0,222055,224055,176.7786,480,176.7786,0 S,0,222055,224055,0.1728304,0.1497251 R,0,222055,224055,0,1.745329 F,0,223855,224055,1,0 F,0,224180,224380,0,1 M,0,224180,226180,204.795,480,204.795,0 S,0,224180,226180,0.2330037,0.148113 R,0,224180,226180,0,1.745329 F,0,225980,226180,1,0 F,0,226305,226505,0,1 M,0,226305,228305,496.0082,480,496.0082,0 S,0,226305,228305,0.2641109,0.2484929 R,0,226305,228305,0,1.745329 F,0,228105,228305,1,0
Sprite,Background,Centre,"sb\sprites\InterntalLightXPanty\sunflowerP.png",0,0 F,0,211555,211755,0,1 M,0,211555,213555,648.8868,480,648.8868,0 S,0,211555,213555,0.1884305,0.1999838 R,0,211555,213555,0,1.745329 P,0,211555,226305,A F,0,213355,213555,1,0 F,0,213680,213880,0,1 M,0,213680,215680,670.502,480,670.502,0 S,0,213680,215680,0.2366183,0.2569819 R,0,213680,215680,0,1.745329 F,0,215480,215680,1,0 F,0,215805,216005,0,1 M,0,215805,217805,737.0591,480,737.0591,0 S,0,215805,217805,0.1334238,0.2156391 R,0,215805,217805,0,1.745329 F,0,217605,217805,1,0 F,0,217930,218130,0,1 M,0,217930,219930,367.0581,480,367.0581,0 S,0,217930,219930,0.1894913,0.2061916 R,0,217930,219930,0,1.745329 F,0,219730,219930,1,0 F,0,220055,220255,0,1 M,0,220055,222055,17.55719,480,17.55719,0 S,0,220055,222055,0.2012185,0.1142769 R,0,220055,222055,0,1.745329 F,0,221855,222055,1,0 F,0,222180,222380,0,1 M,0,222180,224180,116.1773,480,116.1773,0 S,0,222180,224180,0.2828687,0.1512008 R,0,222180,224180,0,1.745329 F,0,223980,224180,1,0 F,0,224305,224505,0,1 M,0,224305,226305,348.0759,480,348.0759,0 S,0,224305,226305,0.2326223,0.2998142 R,0,224305,226305,0,1.745329 F,0,226105,226305,1,0
Sprite,Background,Centre,"sb\sprites\InterntalLightXPanty\sunflowerP.png",0,0 F,0,211680,211880,0,1 M,0,211680,213680,234.4056,480,234.4056,0 S,0,211680,213680,0.2370869,0.2844534 R,0,211680,213680,0,1.745329 P,0,211680,226430,A F,0,213480,213680,1,0 F,0,213805,214005,0,1 M,0,213805,215805,18.30705,480,18.30705,0 S,0,213805,215805,0.1777188,0.2021002 R,0,213805,215805,0,1.745329 F,0,215605,215805,1,0 F,0,215930,216130,0,1 M,0,215930,217930,235.87,480,235.87,0 S,0,215930,217930,0.1557449,0.2333981 R,0,215930,217930,0,1.745329 F,0,217730,217930,1,0 F,0,218055,218255,0,1 M,0,218055,220055,708.6498,480,708.6498,0 S,0,218055,220055,0.2973325,0.2637922 R,0,218055,220055,0,1.745329 F,0,219855,220055,1,0 F,0,220180,220380,0,1 M,0,220180,222180,567.977,480,567.977,0 S,0,220180,222180,0.1204514,0.232747 R,0,220180,222180,0,1.745329 F,0,221980,222180,1,0 F,0,222305,222505,0,1 M,0,222305,224305,721.9672,480,721.9672,0 S,0,222305,224305,0.2484025,0.2316553 R,0,222305,224305,0,1.745329 F,0,224105,224305,1,0 F,0,224430,224630,0,1 M,0,224430,226430,279.0729,480,279.0729,0 S,0,224430,226430,0.236555,0.2329588 R,0,224430,226430,0,1.745329 F,0,226230,226430,1,0
Sprite,Background,Centre,"sb\sprites\InterntalLightXPanty\sunflowerP.png",0,0 F,0,211805,212005,0,1 M,0,211805,213805,176.5124,480,176.5124,0 S,0,211805,213805,0.1714931,0.1698179 R,0,211805,213805,0,1.745329 P,0,211805,226555,A F,0,213605,213805,1,0 F,0,213930,214130,0,1 M,0,213930,215930,549.7069,480,549.7069,0 S,0,213930,215930,0.2546931,0.1674415 R,0,213930,215930,0,1.745329 F,0,215730,215930,1,0 F,0,216055,216255,0,1 M,0,216055,218055,289.4041,480,289.4041,0 S,0,216055,218055,0.1830078,0.1953193 R,0,216055,218055,0,1.745329 F,0,217855,218055,1,0 F,0,218180,218380,0,1 M,0,218180,220180,461.4909,480,461.4909,0 S,0,218180,220180,0.2258525,0.1451101 R,0,218180,220180,0,1.745329 F,0,219980,220180,1,0 F,0,220305,220505,0,1 M,0,220305,222305,708.6697,480,708.6697,0 S,0,220305,222305,0.1600883,0.2658232 R,0,220305,222305,0,1.745329 F,0,222105,222305,1,0 F,0,222430,222630,0,1 M,0,222430,224430,647.3512,480,647.3512,0 S,0,222430,224430,0.2274566,0.1839032 R,0,222430,224430,0,1.745329 F,0,224230,224430,1,0 F,0,224555,224755,0,1 M,0,224555,226555,599.8629,480,599.8629,0 S,0,224555,226555,0.1919668,0.232463 R,0,224555,226555,0,1.745329 F,0,226355,226555,1,0
Sprite,Background,Centre,"sb\sprites\InterntalLightXPanty\sunflowerP.png",0,0 F,0,211930,212130,0,1 M,0,211930,213930,195.306,480,195.306,0 S,0,211930,213930,0.2247337,0.180674 R,0,211930,213930,0,1.745329 P,0,211930,226680,A F,0,213730,213930,1,0 F,0,214055,214255,0,1 M,0,214055,216055,164.7741,480,164.7741,0 S,0,214055,216055,0.2273016,0.2055364 R,0,214055,216055,0,1.745329 F,0,215855,216055,1,0 F,0,216180,216380,0,1 M,0,216180,218180,196.9409,480,196.9409,0 S,0,216180,218180,0.193378,0.1092739 R,0,216180,218180,0,1.745329 F,0,217980,218180,1,0 F,0,218305,218505,0,1 M,0,218305,220305,490.258,480,490.258,0 S,0,218305,220305,0.1582159,0.2236116 R,0,218305,220305,0,1.745329 F,0,220105,220305,1,0 F,0,220430,220630,0,1 M,0,220430,222430,437.5896,480,437.5896,0 S,0,220430,222430,0.222007,0.1940514 R,0,220430,222430,0,1.745329 F,0,222230,222430,1,0 F,0,222555,222755,0,1 M,0,222555,224555,587.2988,480,587.2988,0 S,0,222555,224555,0.2242613,0.2752012 R,0,222555,224555,0,1.745329 F,0,224355,224555,1,0 F,0,224680,224880,0,1 M,0,224680,226680,368.9311,480,368.9311,0 S,0,224680,226680,0.2321332,0.1323135 R,0,224680,226680,0,1.745329 F,0,226480,226680,1,0
Sprite,Background,Centre,"sb\sprites\InterntalLightXPanty\sunflowerP.png",0,0 F,0,212055,212255,0,1 M,0,212055,214055,540.268,480,540.268,0 S,0,212055,214055,0.1203257,0.2859729 R,0,212055,214055,0,1.745329 P,0,212055,226805,A F,0,213855,214055,1,0 F,0,214180,214380,0,1 M,0,214180,216180,635.9391,480,635.9391,0 S,0,214180,216180,0.1784524,0.2331923 R,0,214180,216180,0,1.745329 F,0,215980,216180,1,0 F,0,216305,216505,0,1 M,0,216305,218305,104.6916,480,104.6916,0 S,0,216305,218305,0.2643813,0.2311755 R,0,216305,218305,0,1.745329 F,0,218105,218305,1,0 F,0,218430,218630,0,1 M,0,218430,220430,534.4849,480,534.4849,0 S,0,218430,220430,0.1901358,0.208312 R,0,218430,220430,0,1.745329 F,0,220230,220430,1,0 F,0,220555,220755,0,1 M,0,220555,222555,595.0421,480,595.0421,0 S,0,220555,222555,0.2524235,0.1789583 R,0,220555,222555,0,1.745329 F,0,222355,222555,1,0 F,0,222680,222880,0,1 M,0,222680,224680,499.2079,480,499.2079,0 S,0,222680,224680,0.169296,0.2727561 R,0,222680,224680,0,1.745329 F,0,224480,224680,1,0 F,0,224805,225005,0,1 M,0,224805,226805,560.1984,480,560.1984,0 S,0,224805,226805,0.151029,0.2730873 R,0,224805,226805,0,1.745329 F,0,226605,226805,1,0
Sprite,Background,Centre,"sb\sprites\InterntalLightXPanty\sunflowerP.png",0,0 F,0,212180,212380,0,1 M,0,212180,214180,364.5279,480,364.5279,0 S,0,212180,214180,0.1911891,0.2811475 R,0,212180,214180,0,1.745329 P,0,212180,226930,A F,0,213980,214180,1,0 F,0,214305,214505,0,1 M,0,214305,216305,124.3857,480,124.3857,0 S,0,214305,216305,0.1071357,0.1738013 R,0,214305,216305,0,1.745329 F,0,216105,216305,1,0 F,0,216430,216630,0,1 M,0,216430,218430,314.491,480,314.491,0 S,0,216430,218430,0.1670769,0.1456177 R,0,216430,218430,0,1.745329 F,0,218230,218430,1,0 F,0,218555,218755,0,1 M,0,218555,220555,157.8389,480,157.8389,0 S,0,218555,220555,0.2788973,0.294738 R,0,218555,220555,0,1.745329 F,0,220355,220555,1,0 F,0,220680,220880,0,1 M,0,220680,222680,-69.31918,480,-69.31918,0 S,0,220680,222680,0.1739919,0.2404315 R,0,220680,222680,0,1.745329 F,0,222480,222680,1,0 F,0,222805,223005,0,1 M,0,222805,224805,378.4027,480,378.4027,0 S,0,222805,224805,0.1482794,0.1155497 R,0,222805,224805,0,1.745329 F,0,224605,224805,1,0 F,0,224930,225130,0,1 M,0,224930,226930,50.37292,480,50.37292,0 S,0,224930,226930,0.2999638,0.1138641 R,0,224930,226930,0,1.745329 F,0,226730,226930,1,0
Sprite,Background,Centre,"sb\sprites\InterntalLightXPanty\sunflowerP.png",0,0 F,0,212305,212505,0,1 M,0,212305,214305,450.1418,480,450.1418,0 S,0,212305,214305,0.2779853,0.2214329 R,0,212305,214305,0,1.745329 P,0,212305,227055,A F,0,214105,214305,1,0 F,0,214430,214630,0,1 M,0,214430,216430,-7.731786,480,-7.731786,0 S,0,214430,216430,0.1460713,0.2651731 R,0,214430,216430,0,1.745329 F,0,216230,216430,1,0 F,0,216555,216755,0,1 M,0,216555,218555,412.7903,480,412.7903,0 S,0,216555,218555,0.2679304,0.2365104 R,0,216555,218555,0,1.745329 F,0,218355,218555,1,0 F,0,218680,218880,0,1 M,0,218680,220680,27.61923,480,27.61923,0 S,0,218680,220680,0.1126831,0.1278468 R,0,218680,220680,0,1.745329 F,0,220480,220680,1,0 F,0,220805,221005,0,1 M,0,220805,222805,692.6111,480,692.6111,0 S,0,220805,222805,0.2728713,0.1163523 R,0,220805,222805,0,1.745329 F,0,222605,222805,1,0 F,0,222930,223130,0,1 M,0,222930,224930,743.0757,480,743.0757,0 S,0,222930,224930,0.1730162,0.2401403 R,0,222930,224930,0,1.745329 F,0,224730,224930,1,0 F,0,225055,225255,0,1 M,0,225055,227055,719.7838,480,719.7838,0 S,0,225055,227055,0.2297945,0.1668339 R,0,225055,227055,0,1.745329 F,0,226855,227055,1,0
Sprite,Background,Centre,"sb\sprites\InterntalLightXPanty\sunflowerP.png",0,0 F,0,212430,212630,0,1 M,0,212430,214430,126.7461,480,126.7461,0 S,0,212430,214430,0.2863303,0.1537794 R,0,212430,214430,0,1.745329 P,0,212430,227180,A F,0,214230,214430,1,0 F,0,214555,214755,0,1 M,0,214555,216555,54.53255,480,54.53255,0 S,0,214555,216555,0.1032202,0.1498166 R,0,214555,216555,0,1.745329 F,0,216355,216555,1,0 F,0,216680,216880,0,1 M,0,216680,218680,725.6688,480,725.6688,0 S,0,216680,218680,0.1696317,0.1487752 R,0,216680,218680,0,1.745329 F,0,218480,218680,1,0 F,0,218805,219005,0,1 M,0,218805,220805,454.3857,480,454.3857,0 S,0,218805,220805,0.2567443,0.1972149 R,0,218805,220805,0,1.745329 F,0,220605,220805,1,0 F,0,220930,221130,0,1 M,0,220930,222930,651.236,480,651.236,0 S,0,220930,222930,0.2695632,0.29094 R,0,220930,222930,0,1.745329 F,0,222730,222930,1,0 F,0,223055,223255,0,1 M,0,223055,225055,699.267,480,699.267,0 S,0,223055,225055,0.1499099,0.1167425 R,0,223055,225055,0,1.745329 F,0,224855,225055,1,0 F,0,225180,225380,0,1 M,0,225180,227180,631.3751,480,631.3751,0 S,0,225180,227180,0.1545351,0.2781939 R,0,225180,227180,0,1.745329 F,0,226980,227180,1,0
Sprite,Background,Centre,"sb\sprites\InterntalLightXPanty\sunflowerP.png",0,0 F,0,212555,212755,0,1 M,0,212555,214555,40.9449,480,40.9449,0 S,0,212555,214555,0.1696454,0.1481007 R,0,212555,214555,0,1.745329 P,0,212555,227305,A F,0,214355,214555,1,0 F,0,214680,214880,0,1 M,0,214680,216680,372.7502,480,372.7502,0 S,0,214680,216680,0.2823995,0.2732808 R,0,214680,216680,0,1.745329 F,0,216480,216680,1,0 F,0,216805,217005,0,1 M,0,216805,218805,-80.73995,480,-80.73995,0 S,0,216805,218805,0.1106348,0.1732712 R,0,216805,218805,0,1.745329 F,0,218605,218805,1,0 F,0,218930,219130,0,1 M,0,218930,220930,111.227,480,111.227,0 S,0,218930,220930,0.1315093,0.1913307 R,0,218930,220930,0,1.745329 F,0,220730,220930,1,0 F,0,221055,221255,0,1 M,0,221055,223055,258.2165,480,258.2165,0 S,0,221055,223055,0.2365482,0.1953463 R,0,221055,223055,0,1.745329 F,0,222855,223055,1,0 F,0,223180,223380,0,1 M,0,223180,225180,260.6655,480,260.6655,0 S,0,223180,225180,0.1159396,0.1431146 R,0,223180,225180,0,1.745329 F,0,224980,225180,1,0 F,0,225305,225505,0,1 M,0,225305,227305,175.9081,480,175.9081,0 S,0,225305,227305,0.2658291,0.224483 R,0,225305,227305,0,1.745329 F,0,227105,227305,1,0
Sprite,Background,Centre,"sb\sprites\InterntalLightXPanty\sunflowerP.png",0,0 F,0,212680,212880,0,1 M,0,212680,214680,720.09,480,720.09,0 S,0,212680,214680,0.2659567,0.1438083 R,0,212680,214680,0,1.745329 P,0,212680,227430,A F,0,214480,214680,1,0 F,0,214805,215005,0,1 M,0,214805,216805,94.4309,480,94.4309,0 S,0,214805,216805,0.2454191,0.217018 R,0,214805,216805,0,1.745329 F,0,216605,216805,1,0 F,0,216930,217130,0,1 M,0,216930,218930,537.9861,480,537.9861,0 S,0,216930,218930,0.2593962,0.14555 R,0,216930,218930,0,1.745329 F,0,218730,218930,1,0 F,0,219055,219255,0,1 M,0,219055,221055,128.4606,480,128.4606,0 S,0,219055,221055,0.1318011,0.1095227 R,0,219055,221055,0,1.745329 F,0,220855,221055,1,0 F,0,221180,221380,0,1 M,0,221180,223180,385.2654,480,385.2654,0 S,0,221180,223180,0.1848871,0.2077923 R,0,221180,223180,0,1.745329 F,0,222980,223180,1,0 F,0,223305,223505,0,1 M,0,223305,225305,357.5598,480,357.5598,0 S,0,223305,225305,0.195143,0.1401558 R,0,223305,225305,0,1.745329 F,0,225105,225305,1,0 F,0,225430,225630,0,1 M,0,225430,227430,-42.4161,480,-42.4161,0 S,0,225430,227430,0.2866402,0.1674829 R,0,225430,227430,0,1.745329 F,0,227230,227430,1,0
Sprite,Background,Centre,"sb\sprites\InterntalLightXPanty\sunflowerP.png",0,0 F,0,137044,137244,0,1 M,0,137044,139044,406.2517,480,406.2517,0 S,0,137044,139044,0.2239768,0.2475325 R,0,137044,139044,0,1.745329 P,0,137044,158169,A F,0,138844,139044,1,0 F,0,139169,139369,0,1 M,0,139169,141169,542.2617,480,542.2617,0 S,0,139169,141169,0.1845112,0.2199551 R,0,139169,141169,0,1.745329 F,0,140969,141169,1,0 F,0,141294,141494,0,1 M,0,141294,143294,-79.73337,480,-79.73337,0 S,0,141294,143294,0.1318866,0.1602551 R,0,141294,143294,0,1.745329 F,0,143094,143294,1,0 F,0,143419,143619,0,1 M,0,143419,145419,282.8282,480,282.8282,0 S,0,143419,145419,0.2161145,0.2838729 R,0,143419,145419,0,1.745329 F,0,145219,145419,1,0 F,0,145544,145744,0,1 M,0,145544,147544,511.0678,480,511.0678,0 S,0,145544,147544,0.2511272,0.2422653 R,0,145544,147544,0,1.745329 F,0,147344,147544,1,0 F,0,147669,147869,0,1 M,0,147669,149669,6.953664,480,6.953664,0 S,0,147669,149669,0.1153885,0.123968 R,0,147669,149669,0,1.745329 F,0,149469,149669,1,0 F,0,149794,149994,0,1 M,0,149794,151794,570.3248,480,570.3248,0 S,0,149794,151794,0.299475,0.1122244 R,0,149794,151794,0,1.745329 F,0,151594,151794,1,0 F,0,151919,152119,0,1 M,0,151919,153919,158.6987,480,158.6987,0 S,0,151919,153919,0.1735759,0.1781999 R,0,151919,153919,0,1.745329 F,0,153719,153919,1,0 F,0,154044,154244,0,1 M,0,154044,156044,111.5518,480,111.5518,0 S,0,154044,156044,0.2042104,0.1221141 R,0,154044,156044,0,1.745329 F,0,155844,156044,1,0 F,0,156169,156369,0,1 M,0,156169,158169,339.4251,480,339.4251,0 S,0,156169,158169,0.2884951,0.1204483 R,0,156169,158169,0,1.745329 F,0,157969,158169,1,0
Sprite,Background,Centre,"sb\sprites\InterntalLightXPanty\sunflowerP.png",0,0 F,0,137169,137369,0,1 M,0,137169,139169,-74.07754,480,-74.07754,0 S,0,137169,139169,0.2501211,0.2551638 R,0,137169,139169,0,1.745329 P,0,137169,158294,A F,0,138969,139169,1,0 F,0,139294,139494,0,1 M,0,139294,141294,574.66,480,574.66,0 S,0,139294,141294,0.13817,0.2115663 R,0,139294,141294,0,1.745329 F,0,141094,141294,1,0 F,0,141419,141619,0,1 M,0,141419,143419,534.968,480,534.968,0 S,0,141419,143419,0.1250225,0.2849622 R,0,141419,143419,0,1.745329 F,0,143219,143419,1,0 F,0,143544,143744,0,1 M,0,143544,145544,702.9312,480,702.9312,0 S,0,143544,145544,0.2872328,0.2493005 R,0,143544,145544,0,1.745329 F,0,145344,145544,1,0 F,0,145669,145869,0,1 M,0,145669,147669,121.062,480,121.062,0 S,0,145669,147669,0.1780133,0.1966845 R,0,145669,147669,0,1.745329 F,0,147469,147669,1,0 F,0,147794,147994,0,1 M,0,147794,149794,493.5318,480,493.5318,0 S,0,147794,149794,0.2508907,0.1426132 R,0,147794,149794,0,1.745329 F,0,149594,149794,1,0 F,0,149919,150119,0,1 M,0,149919,151919,358.3645,480,358.3645,0 S,0,149919,151919,0.2245129,0.1610701 R,0,149919,151919,0,1.745329 F,0,151719,151919,1,0 F,0,152044,152244,0,1 M,0,152044,154044,44.74828,480,44.74828,0 S,0,152044,154044,0.1228795,0.1037766 R,0,152044,154044,0,1.745329 F,0,153844,154044,1,0 F,0,154169,154369,0,1 M,0,154169,156169,300.0452,480,300.0452,0 S,0,154169,156169,0.2891455,0.1415945 R,0,154169,156169,0,1.745329 F,0,155969,156169,1,0 F,0,156294,156494,0,1 M,0,156294,158294,-80.82752,480,-80.82752,0 S,0,156294,158294,0.1354603,0.1946284 R,0,156294,158294,0,1.745329 F,0,158094,158294,1,0
Sprite,Background,Centre,"sb\sprites\InterntalLightXPanty\sunflowerP.png",0,0 F,0,137294,137494,0,1 M,0,137294,139294,450.0403,480,450.0403,0 S,0,137294,139294,0.198542,0.2378101 R,0,137294,139294,0,1.745329 P,0,137294,158419,A F,0,139094,139294,1,0 F,0,139419,139619,0,1 M,0,139419,141419,555.1396,480,555.1396,0 S,0,139419,141419,0.1642671,0.2857662 R,0,139419,141419,0,1.745329 F,0,141219,141419,1,0 F,0,141544,141744,0,1 M,0,141544,143544,571.8918,480,571.8918,0 S,0,141544,143544,0.1898934,0.1532112 R,0,141544,143544,0,1.745329 F,0,143344,143544,1,0 F,0,143669,143869,0,1 M,0,143669,145669,685.1979,480,685.1979,0 S,0,143669,145669,0.1211482,0.2124706 R,0,143669,145669,0,1.745329 F,0,145469,145669,1,0 F,0,145794,145994,0,1 M,0,145794,147794,141.7756,480,141.7756,0 S,0,145794,147794,0.1328652,0.2130814 R,0,145794,147794,0,1.745329 F,0,147594,147794,1,0 F,0,147919,148119,0,1 M,0,147919,149919,475.9988,480,475.9988,0 S,0,147919,149919,0.2445645,0.2143713 R,0,147919,149919,0,1.745329 F,0,149719,149919,1,0 F,0,150044,150244,0,1 M,0,150044,152044,-19.34603,480,-19.34603,0 S,0,150044,152044,0.1255038,0.2125558 R,0,150044,152044,0,1.745329 F,0,151844,152044,1,0 F,0,152169,152369,0,1 M,0,152169,154169,592.5791,480,592.5791,0 S,0,152169,154169,0.1296335,0.2344411 R,0,152169,154169,0,1.745329 F,0,153969,154169,1,0 F,0,154294,154494,0,1 M,0,154294,156294,-36.69341,480,-36.69341,0 S,0,154294,156294,0.2372513,0.1579675 R,0,154294,156294,0,1.745329 F,0,156094,156294,1,0 F,0,156419,156619,0,1 M,0,156419,158419,318.5654,480,318.5654,0 S,0,156419,158419,0.1940028,0.1273977 R,0,156419,158419,0,1.745329 F,0,158219,158419,1,0
Sprite,Background,Centre,"sb\sprites\InterntalLightXPanty\sunflowerP.png",0,0 F,0,137419,137619,0,1 M,0,137419,139419,459.8533,480,459.8533,0 S,0,137419,139419,0.1787644,0.2777496 R,0,137419,139419,0,1.745329 P,0,137419,158544,A F,0,139219,139419,1,0 F,0,139544,139744,0,1 M,0,139544,141544,705.2809,480,705.2809,0 S,0,139544,141544,0.1143738,0.2319009 R,0,139544,141544,0,1.745329 F,0,141344,141544,1,0 F,0,141669,141869,0,1 M,0,141669,143669,606.8156,480,606.8156,0 S,0,141669,143669,0.1871673,0.2790372 R,0,141669,143669,0,1.745329 F,0,143469,143669,1,0 F,0,143794,143994,0,1 M,0,143794,145794,431.2234,480,431.2234,0 S,0,143794,145794,0.1548905,0.1176627 R,0,143794,145794,0,1.745329 F,0,145594,145794,1,0 F,0,145919,146119,0,1 M,0,145919,147919,170.8109,480,170.8109,0 S,0,145919,147919,0.1127672,0.2145297 R,0,145919,147919,0,1.745329 F,0,147719,147919,1,0 F,0,148044,148244,0,1 M,0,148044,150044,725.9268,480,725.9268,0 S,0,148044,150044,0.2559281,0.1556255 R,0,148044,150044,0,1.745329 F,0,149844,150044,1,0 F,0,150169,150369,0,1 M,0,150169,152169,500.9722,480,500.9722,0 S,0,150169,152169,0.1265334,0.1264937 R,0,150169,152169,0,1.745329 F,0,151969,152169,1,0 F,0,152294,152494,0,1 M,0,152294,154294,278.987,480,278.987,0 S,0,152294,154294,0.1014451,0.2427765 R,0,152294,154294,0,1.745329 F,0,154094,154294,1,0 F,0,154419,154619,0,1 M,0,154419,156419,641.3604,480,641.3604,0 S,0,154419,156419,0.124372,0.2212223 R,0,154419,156419,0,1.745329 F,0,156219,156419,1,0 F,0,156544,156744,0,1 M,0,156544,158544,543.063,480,543.063,0 S,0,156544,158544,0.199742,0.2147786 R,0,156544,158544,0,1.745329 F,0,158344,158544,1,0
Sprite,Background,Centre,"sb\sprites\InterntalLightXPanty\sunflowerP.png",0,0 F,0,137544,137744,0,1 M,0,137544,139544,528.213,480,528.213,0 S,0,137544,139544,0.115434,0.2962615 R,0,137544,139544,0,1.745329 P,0,137544,158669,A F,0,139344,139544,1,0 F,0,139669,139869,0,1 M,0,139669,141669,365.1313,480,365.1313,0 S,0,139669,141669,0.1147561,0.1076581 R,0,139669,141669,0,1.745329 F,0,141469,141669,1,0 F,0,141794,141994,0,1 M,0,141794,143794,191.1683,480,191.1683,0 S,0,141794,143794,0.1498139,0.2747292 R,0,141794,143794,0,1.745329 F,0,143594,143794,1,0 F,0,143919,144119,0,1 M,0,143919,145919,595.4427,480,595.4427,0 S,0,143919,145919,0.1730121,0.1665798 R,0,143919,145919,0,1.745329 F,0,145719,145919,1,0 F,0,146044,146244,0,1 M,0,146044,148044,-22.11666,480,-22.11666,0 S,0,146044,148044,0.2016679,0.2868706 R,0,146044,148044,0,1.745329 F,0,147844,148044,1,0 F,0,148169,148369,0,1 M,0,148169,150169,167.7043,480,167.7043,0 S,0,148169,150169,0.2157896,0.2885563 R,0,148169,150169,0,1.745329 F,0,149969,150169,1,0 F,0,150294,150494,0,1 M,0,150294,152294,586.1987,480,586.1987,0 S,0,150294,152294,0.2391985,0.1395705 R,0,150294,152294,0,1.745329 F,0,152094,152294,1,0 F,0,152419,152619,0,1 M,0,152419,154419,727.4341,480,727.4341,0 S,0,152419,154419,0.1803511,0.1429101 R,0,152419,154419,0,1.745329 F,0,154219,154419,1,0 F,0,154544,154744,0,1 M,0,154544,156544,40.57538,480,40.57538,0 S,0,154544,156544,0.1217945,0.1503163 R,0,154544,156544,0,1.745329 F,0,156344,156544,1,0 F,0,156669,156869,0,1 M,0,156669,158669,140.4124,480,140.4124,0 S,0,156669,158669,0.282014,0.2339379 R,0,156669,158669,0,1.745329 F,0,158469,158669,1,0
Sprite,Background,Centre,"sb\sprites\InterntalLightXPanty\sunflowerP.png",0,0 F,0,137669,137869,0,1 M,0,137669,139669,92.84122,480,92.84122,0 S,0,137669,139669,0.1946284,0.2190654 R,0,137669,139669,0,1.745329 P,0,137669,158794,A F,0,139469,139669,1,0 F,0,139794,139994,0,1 M,0,139794,141794,296.21,480,296.21,0 S,0,139794,141794,0.2031057,0.2918228 R,0,139794,141794,0,1.745329 F,0,141594,141794,1,0 F,0,141919,142119,0,1 M,0,141919,143919,736.1583,480,736.1583,0 S,0,141919,143919,0.1201419,0.1102128 R,0,141919,143919,0,1.745329 F,0,143719,143919,1,0 F,0,144044,144244,0,1 M,0,144044,146044,614.5081,480,614.5081,0 S,0,144044,146044,0.1802309,0.1834719 R,0,144044,146044,0,1.745329 F,0,145844,146044,1,0 F,0,146169,146369,0,1 M,0,146169,148169,656.7767,480,656.7767,0 S,0,146169,148169,0.264875,0.1218994 R,0,146169,148169,0,1.745329 F,0,147969,148169,1,0 F,0,148294,148494,0,1 M,0,148294,150294,325.2431,480,325.2431,0 S,0,148294,150294,0.2477427,0.2846368 R,0,148294,150294,0,1.745329 F,0,150094,150294,1,0 F,0,150419,150619,0,1 M,0,150419,152419,501.5943,480,501.5943,0 S,0,150419,152419,0.1901131,0.1699533 R,0,150419,152419,0,1.745329 F,0,152219,152419,1,0 F,0,152544,152744,0,1 M,0,152544,154544,347.305,480,347.305,0 S,0,152544,154544,0.2001319,0.2148378 R,0,152544,154544,0,1.745329 F,0,154344,154544,1,0 F,0,154669,154869,0,1 M,0,154669,156669,90.67393,480,90.67393,0 S,0,154669,156669,0.2368568,0.1408599 R,0,154669,156669,0,1.745329 F,0,156469,156669,1,0 F,0,156794,156994,0,1 M,0,156794,158794,438.8072,480,438.8072,0 S,0,156794,158794,0.2173748,0.182801 R,0,156794,158794,0,1.745329 F,0,158594,158794,1,0
Sprite,Background,Centre,"sb\sprites\InterntalLightXPanty\sunflowerP.png",0,0 F,0,137794,137994,0,1 M,0,137794,139794,329.144,480,329.144,0 S,0,137794,139794,0.2861477,0.2606048 R,0,137794,139794,0,1.745329 P,0,137794,158919,A F,0,139594,139794,1,0 F,0,139919,140119,0,1 M,0,139919,141919,-37.14548,480,-37.14548,0 S,0,139919,141919,0.2770241,0.2294346 R,0,139919,141919,0,1.745329 F,0,141719,141919,1,0 F,0,142044,142244,0,1 M,0,142044,144044,657.0613,480,657.0613,0 S,0,142044,144044,0.2533484,0.2953338 R,0,142044,144044,0,1.745329 F,0,143844,144044,1,0 F,0,144169,144369,0,1 M,0,144169,146169,34.03247,480,34.03247,0 S,0,144169,146169,0.2334322,0.1005095 R,0,144169,146169,0,1.745329 F,0,145969,146169,1,0 F,0,146294,146494,0,1 M,0,146294,148294,54.80365,480,54.80365,0 S,0,146294,148294,0.1668929,0.1406111 R,0,146294,148294,0,1.745329 F,0,148094,148294,1,0 F,0,148419,148619,0,1 M,0,148419,150419,448.1943,480,448.1943,0 S,0,148419,150419,0.2668618,0.1408462 R,0,148419,150419,0,1.745329 F,0,150219,150419,1,0 F,0,150544,150744,0,1 M,0,150544,152544,-20.46348,480,-20.46348,0 S,0,150544,152544,0.2069825,0.2747247 R,0,150544,152544,0,1.745329 F,0,152344,152544,1,0 F,0,152669,152869,0,1 M,0,152669,154669,223.1226,480,223.1226,0 S,0,152669,154669,0.171543,0.235575 R,0,152669,154669,0,1.745329 F,0,154469,154669,1,0 F,0,154794,154994,0,1 M,0,154794,156794,179.6756,480,179.6756,0 S,0,154794,156794,0.1389169,0.2270672 R,0,154794,156794,0,1.745329 F,0,156594,156794,1,0 F,0,156919,157119,0,1 M,0,156919,158919,732.4909,480,732.4909,0 S,0,156919,158919,0.2867502,0.2738047 R,0,156919,158919,0,1.745329 F,0,158719,158919,1,0
Sprite,Background,Centre,"sb\sprites\InterntalLightXPanty\sunflowerP.png",0,0 F,0,137919,138119,0,1 M,0,137919,139919,569.2376,480,569.2376,0 S,0,137919,139919,0.1124105,0.2026003 R,0,137919,139919,0,1.745329 P,0,137919,159044,A F,0,139719,139919,1,0 F,0,140044,140244,0,1 M,0,140044,142044,649.1078,480,649.1078,0 S,0,140044,142044,0.199549,0.1789461 R,0,140044,142044,0,1.745329 F,0,141844,142044,1,0 F,0,142169,142369,0,1 M,0,142169,144169,719.7509,480,719.7509,0 S,0,142169,144169,0.1825861,0.1457815 R,0,142169,144169,0,1.745329 F,0,143969,144169,1,0 F,0,144294,144494,0,1 M,0,144294,146294,615.9447,480,615.9447,0 S,0,144294,146294,0.11943,0.1421342 R,0,144294,146294,0,1.745329 F,0,146094,146294,1,0 F,0,146419,146619,0,1 M,0,146419,148419,301.3712,480,301.3712,0 S,0,146419,148419,0.2085139,0.178799 R,0,146419,148419,0,1.745329 F,0,148219,148419,1,0 F,0,148544,148744,0,1 M,0,148544,150544,538.624,480,538.624,0 S,0,148544,150544,0.2543184,0.1444959 R,0,148544,150544,0,1.745329 F,0,150344,150544,1,0 F,0,150669,150869,0,1 M,0,150669,152669,668.0201,480,668.0201,0 S,0,150669,152669,0.2956984,0.2760603 R,0,150669,152669,0,1.745329 F,0,152469,152669,1,0 F,0,152794,152994,0,1 M,0,152794,154794,112.3499,480,112.3499,0 S,0,152794,154794,0.1319815,0.1946651 R,0,152794,154794,0,1.745329 F,0,154594,154794,1,0 F,0,154919,155119,0,1 M,0,154919,156919,262.9674,480,262.9674,0 S,0,154919,156919,0.109582,0.2217781 R,0,154919,156919,0,1.745329 F,0,156719,156919,1,0 F,0,157044,157244,0,1 M,0,157044,159044,-66.49536,480,-66.49536,0 S,0,157044,159044,0.16441,0.2677632 R,0,157044,159044,0,1.745329 F,0,158844,159044,1,0
Sprite,Background,Centre,"sb\sprites\InterntalLightXPanty\sunflowerP.png",0,0 F,0,138044,138244,0,1 M,0,138044,140044,200.3432,480,200.3432,0 S,0,138044,140044,0.2643549,0.2453935 R,0,138044,140044,0,1.745329 P,0,138044,159169,A F,0,139844,140044,1,0 F,0,140169,140369,0,1 M,0,140169,142169,104.5047,480,104.5047,0 S,0,140169,142169,0.2849588,0.1787362 R,0,140169,142169,0,1.745329 F,0,141969,142169,1,0 F,0,142294,142494,0,1 M,0,142294,144294,625.2709,480,625.2709,0 S,0,142294,144294,0.2125519,0.2110098 R,0,142294,144294,0,1.745329 F,0,144094,144294,1,0 F,0,144419,144619,0,1 M,0,144419,146419,-10.73452,480,-10.73452,0 S,0,144419,146419,0.1741515,0.1143616 R,0,144419,146419,0,1.745329 F,0,146219,146419,1,0 F,0,146544,146744,0,1 M,0,146544,148544,738.3522,480,738.3522,0 S,0,146544,148544,0.263642,0.1917494 R,0,146544,148544,0,1.745329 F,0,148344,148544,1,0 F,0,148669,148869,0,1 M,0,148669,150669,602.4331,480,602.4331,0 S,0,148669,150669,0.1383349,0.2849955 R,0,148669,150669,0,1.745329 F,0,150469,150669,1,0 F,0,150794,150994,0,1 M,0,150794,152794,484.8995,480,484.8995,0 S,0,150794,152794,0.2900718,0.2514652 R,0,150794,152794,0,1.745329 F,0,152594,152794,1,0 F,0,152919,153119,0,1 M,0,152919,154919,630.8115,480,630.8115,0 S,0,152919,154919,0.2649119,0.2790367 R,0,152919,154919,0,1.745329 F,0,154719,154919,1,0 F,0,155044,155244,0,1 M,0,155044,157044,701.4372,480,701.4372,0 S,0,155044,157044,0.2617477,0.293834 R,0,155044,157044,0,1.745329 F,0,156844,157044,1,0 F,0,157169,157369,0,1 M,0,157169,159169,357.3459,480,357.3459,0 S,0,157169,159169,0.2698428,0.221216 R,0,157169,159169,0,1.745329 F,0,158969,159169,1,0
Sprite,Background,Centre,"sb\sprites\InterntalLightXPanty\sunflowerP.png",0,0 F,0,138169,138369,0,1 M,0,138169,140169,511.4164,480,511.4164,0 S,0,138169,140169,0.2666411,0.1483795 R,0,138169,140169,0,1.745329 P,0,138169,159294,A F,0,139969,140169,1,0 F,0,140294,140494,0,1 M,0,140294,142294,73.34405,480,73.34405,0 S,0,140294,142294,0.1852299,0.1555948 R,0,140294,142294,0,1.745329 F,0,142094,142294,1,0 F,0,142419,142619,0,1 M,0,142419,144419,-47.72559,480,-47.72559,0 S,0,142419,144419,0.1722307,0.1177177 R,0,142419,144419,0,1.745329 F,0,144219,144419,1,0 F,0,144544,144744,0,1 M,0,144544,146544,739.714,480,739.714,0 S,0,144544,146544,0.2066185,0.2323496 R,0,144544,146544,0,1.745329 F,0,146344,146544,1,0 F,0,146669,146869,0,1 M,0,146669,148669,-46.41128,480,-46.41128,0 S,0,146669,148669,0.2772397,0.2774149 R,0,146669,148669,0,1.745329 F,0,148469,148669,1,0 F,0,148794,148994,0,1 M,0,148794,150794,589.2963,480,589.2963,0 S,0,148794,150794,0.2180707,0.1767129 R,0,148794,150794,0,1.745329 F,0,150594,150794,1,0 F,0,150919,151119,0,1 M,0,150919,152919,-13.17565,480,-13.17565,0 S,0,150919,152919,0.1827273,0.2079736 R,0,150919,152919,0,1.745329 F,0,152719,152919,1,0 F,0,153044,153244,0,1 M,0,153044,155044,696.6476,480,696.6476,0 S,0,153044,155044,0.2084112,0.2690021 R,0,153044,155044,0,1.745329 F,0,154844,155044,1,0 F,0,155169,155369,0,1 M,0,155169,157169,389.205,480,389.205,0 S,0,155169,157169,0.1224727,0.2159095 R,0,155169,157169,0,1.745329 F,0,156969,157169,1,0 F,0,157294,157494,0,1 M,0,157294,159294,-91.56475,480,-91.56475,0 S,0,157294,159294,0.1069882,0.2403045 R,0,157294,159294,0,1.745329 F,0,159094,159294,1,0
Sprite,Background,Centre,"sb\sprites\InterntalLightXPanty\sunflowerP.png",0,0 F,0,138294,138494,0,1 M,0,138294,140294,522.8619,480,522.8619,0 S,0,138294,140294,0.1711064,0.1721782 R,0,138294,140294,0,1.745329 P,0,138294,159419,A F,0,140094,140294,1,0 F,0,140419,140619,0,1 M,0,140419,142419,63.98623,480,63.98623,0 S,0,140419,142419,0.1396445,0.2293619 R,0,140419,142419,0,1.745329 F,0,142219,142419,1,0 F,0,142544,142744,0,1 M,0,142544,144544,64.57711,480,64.57711,0 S,0,142544,144544,0.1205875,0.2480086 R,0,142544,144544,0,1.745329 F,0,144344,144544,1,0 F,0,144669,144869,0,1 M,0,144669,146669,11.34519,480,11.34519,0 S,0,144669,146669,0.1680199,0.2965331 R,0,144669,146669,0,1.745329 F,0,146469,146669,1,0 F,0,146794,146994,0,1 M,0,146794,148794,665.2327,480,665.2327,0 S,0,146794,148794,0.1242109,0.1157576 R,0,146794,148794,0,1.745329 F,0,148594,148794,1,0 F,0,148919,149119,0,1 M,0,148919,150919,466.3046,480,466.3046,0 S,0,148919,150919,0.2163576,0.2981535 R,0,148919,150919,0,1.745329 F,0,150719,150919,1,0 F,0,151044,151244,0,1 M,0,151044,153044,-9.92869,480,-9.92869,0 S,0,151044,153044,0.2836232,0.2328883 R,0,151044,153044,0,1.745329 F,0,152844,153044,1,0 F,0,153169,153369,0,1 M,0,153169,155169,372.0495,480,372.0495,0 S,0,153169,155169,0.2511288,0.2890702 R,0,153169,155169,0,1.745329 F,0,154969,155169,1,0 F,0,155294,155494,0,1 M,0,155294,157294,564.5599,480,564.5599,0 S,0,155294,157294,0.1904341,0.149046 R,0,155294,157294,0,1.745329 F,0,157094,157294,1,0 F,0,157419,157619,0,1 M,0,157419,159419,-10.84418,480,-10.84418,0 S,0,157419,159419,0.2232367,0.2714413 R,0,157419,159419,0,1.745329 F,0,159219,159419,1,0
Sprite,Background,Centre,"sb\sprites\InterntalLightXPanty\sunflowerP.png",0,0 F,0,138419,138619,0,1 M,0,138419,140419,114.4742,480,114.4742,0 S,0,138419,140419,0.1236112,0.1126208 R,0,138419,140419,0,1.745329 P,0,138419,159544,A F,0,140219,140419,1,0 F,0,140544,140744,0,1 M,0,140544,142544,451.1373,480,451.1373,0 S,0,140544,142544,0.1045433,0.2865951 R,0,140544,142544,0,1.745329 F,0,142344,142544,1,0 F,0,142669,142869,0,1 M,0,142669,144669,533.7545,480,533.7545,0 S,0,142669,144669,0.266342,0.1077579 R,0,142669,144669,0,1.745329 F,0,144469,144669,1,0 F,0,144794,144994,0,1 M,0,144794,146794,445.459,480,445.459,0 S,0,144794,146794,0.1511127,0.204473 R,0,144794,146794,0,1.745329 F,0,146594,146794,1,0 F,0,146919,147119,0,1 M,0,146919,148919,608.7447,480,608.7447,0 S,0,146919,148919,0.2170311,0.2168927 R,0,146919,148919,0,1.745329 F,0,148719,148919,1,0 F,0,149044,149244,0,1 M,0,149044,151044,552.487,480,552.487,0 S,0,149044,151044,0.1458363,0.1088224 R,0,149044,151044,0,1.745329 F,0,150844,151044,1,0 F,0,151169,151369,0,1 M,0,151169,153169,159.762,480,159.762,0 S,0,151169,153169,0.1243607,0.2168826 R,0,151169,153169,0,1.745329 F,0,152969,153169,1,0 F,0,153294,153494,0,1 M,0,153294,155294,457.8127,480,457.8127,0 S,0,153294,155294,0.1394912,0.2100473 R,0,153294,155294,0,1.745329 F,0,155094,155294,1,0 F,0,155419,155619,0,1 M,0,155419,157419,541.7657,480,541.7657,0 S,0,155419,157419,0.2389935,0.1469184 R,0,155419,157419,0,1.745329 F,0,157219,157419,1,0 F,0,157544,157744,0,1 M,0,157544,159544,730.9278,480,730.9278,0 S,0,157544,159544,0.2472752,0.201939 R,0,157544,159544,0,1.745329 F,0,159344,159544,1,0
Sprite,Background,Centre,"sb\sprites\InterntalLightXPanty\sunflowerP.png",0,0 F,0,138544,138744,0,1 M,0,138544,140544,-5.26595,480,-5.26595,0 S,0,138544,140544,0.2651938,0.1961398 R,0,138544,140544,0,1.745329 P,0,138544,159669,A F,0,140344,140544,1,0 F,0,140669,140869,0,1 M,0,140669,142669,97.00741,480,97.00741,0 S,0,140669,142669,0.2077718,0.2854412 R,0,140669,142669,0,1.745329 F,0,142469,142669,1,0 F,0,142794,142994,0,1 M,0,142794,144794,451.914,480,451.914,0 S,0,142794,144794,0.1196325,0.2795208 R,0,142794,144794,0,1.745329 F,0,144594,144794,1,0 F,0,144919,145119,0,1 M,0,144919,146919,46.14057,480,46.14057,0 S,0,144919,146919,0.1396198,0.2791092 R,0,144919,146919,0,1.745329 F,0,146719,146919,1,0 F,0,147044,147244,0,1 M,0,147044,149044,515.2764,480,515.2764,0 S,0,147044,149044,0.2240288,0.2730994 R,0,147044,149044,0,1.745329 F,0,148844,149044,1,0 F,0,149169,149369,0,1 M,0,149169,151169,-71.94146,480,-71.94146,0 S,0,149169,151169,0.2730181,0.2661403 R,0,149169,151169,0,1.745329 F,0,150969,151169,1,0 F,0,151294,151494,0,1 M,0,151294,153294,-46.91706,480,-46.91706,0 S,0,151294,153294,0.2545381,0.2213233 R,0,151294,153294,0,1.745329 F,0,153094,153294,1,0 F,0,153419,153619,0,1 M,0,153419,155419,513.4802,480,513.4802,0 S,0,153419,155419,0.2730647,0.1014813 R,0,153419,155419,0,1.745329 F,0,155219,155419,1,0 F,0,155544,155744,0,1 M,0,155544,157544,34.0973,480,34.0973,0 S,0,155544,157544,0.2630521,0.1503457 R,0,155544,157544,0,1.745329 F,0,157344,157544,1,0 F,0,157669,157869,0,1 M,0,157669,159669,624.888,480,624.888,0 S,0,157669,159669,0.1541936,0.2035332 R,0,157669,159669,0,1.745329 F,0,159469,159669,1,0
Sprite,Background,Centre,"sb\sprites\InterntalLightXPanty\sunflowerP.png",0,0 F,0,138669,138869,0,1 M,0,138669,140669,-99.78159,480,-99.78159,0 S,0,138669,140669,0.2072015,0.1101375 R,0,138669,140669,0,1.745329 P,0,138669,159794,A F,0,140469,140669,1,0 F,0,140794,140994,0,1 M,0,140794,142794,315.4971,480,315.4971,0 S,0,140794,142794,0.2312425,0.2009267 R,0,140794,142794,0,1.745329 F,0,142594,142794,1,0 F,0,142919,143119,0,1 M,0,142919,144919,740.0273,480,740.0273,0 S,0,142919,144919,0.2112141,0.1178785 R,0,142919,144919,0,1.745329 F,0,144719,144919,1,0 F,0,145044,145244,0,1 M,0,145044,147044,497.387,480,497.387,0 S,0,145044,147044,0.1546333,0.2984842 R,0,145044,147044,0,1.745329 F,0,146844,147044,1,0 F,0,147169,147369,0,1 M,0,147169,149169,713.7433,480,713.7433,0 S,0,147169,149169,0.122397,0.1067547 R,0,147169,149169,0,1.745329 F,0,148969,149169,1,0 F,0,149294,149494,0,1 M,0,149294,151294,429.8266,480,429.8266,0 S,0,149294,151294,0.2908015,0.2794643 R,0,149294,151294,0,1.745329 F,0,151094,151294,1,0 F,0,151419,151619,0,1 M,0,151419,153419,116.0974,480,116.0974,0 S,0,151419,153419,0.1123174,0.2475142 R,0,151419,153419,0,1.745329 F,0,153219,153419,1,0 F,0,153544,153744,0,1 M,0,153544,155544,264.0377,480,264.0377,0 S,0,153544,155544,0.2497649,0.2249046 R,0,153544,155544,0,1.745329 F,0,155344,155544,1,0 F,0,155669,155869,0,1 M,0,155669,157669,454.7064,480,454.7064,0 S,0,155669,157669,0.1711537,0.1358134 R,0,155669,157669,0,1.745329 F,0,157469,157669,1,0 F,0,157794,157994,0,1 M,0,157794,159794,96.72185,480,96.72185,0 S,0,157794,159794,0.1666202,0.1690493 R,0,157794,159794,0,1.745329 F,0,159594,159794,1,0
Sprite,Background,Centre,"sb\sprites\InterntalLightXPanty\sunflowerP.png",0,0 F,0,138794,138994,0,1 M,0,138794,140794,505.0117,480,505.0117,0 S,0,138794,140794,0.2336743,0.2448355 R,0,138794,140794,0,1.745329 P,0,138794,159919,A F,0,140594,140794,1,0 F,0,140919,141119,0,1 M,0,140919,142919,275.7045,480,275.7045,0 S,0,140919,142919,0.2885392,0.1928277 R,0,140919,142919,0,1.745329 F,0,142719,142919,1,0 F,0,143044,143244,0,1 M,0,143044,145044,182.3777,480,182.3777,0 S,0,143044,145044,0.1682245,0.1440752 R,0,143044,145044,0,1.745329 F,0,144844,145044,1,0 F,0,145169,145369,0,1 M,0,145169,147169,460.696,480,460.696,0 S,0,145169,147169,0.2276806,0.1563236 R,0,145169,147169,0,1.745329 F,0,146969,147169,1,0 F,0,147294,147494,0,1 M,0,147294,149294,465.0614,480,465.0614,0 S,0,147294,149294,0.2235185,0.141866 R,0,147294,149294,0,1.745329 F,0,149094,149294,1,0 F,0,149419,149619,0,1 M,0,149419,151419,496.2308,480,496.2308,0 S,0,149419,151419,0.1028533,0.1664688 R,0,149419,151419,0,1.745329 F,0,151219,151419,1,0 F,0,151544,151744,0,1 M,0,151544,153544,518.194,480,518.194,0 S,0,151544,153544,0.1166617,0.2642681 R,0,151544,153544,0,1.745329 F,0,153344,153544,1,0 F,0,153669,153869,0,1 M,0,153669,155669,-50.98718,480,-50.98718,0 S,0,153669,155669,0.1381474,0.1108724 R,0,153669,155669,0,1.745329 F,0,155469,155669,1,0 F,0,155794,155994,0,1 M,0,155794,157794,134.1964,480,134.1964,0 S,0,155794,157794,0.188366,0.2253929 R,0,155794,157794,0,1.745329 F,0,157594,157794,1,0 F,0,157919,158119,0,1 M,0,157919,159919,649.012,480,649.012,0 S,0,157919,159919,0.1206924,0.2714117 R,0,157919,159919,0,1.745329 F,0,159719,159919,1,0
Sprite,Background,Centre,"sb\sprites\InterntalLightXPanty\sunflowerP.png",0,0 F,0,138919,139119,0,1 M,0,138919,140919,564.275,480,564.275,0 S,0,138919,140919,0.2087601,0.2854371 R,0,138919,140919,0,1.745329 P,0,138919,160044,A F,0,140719,140919,1,0 F,0,141044,141244,0,1 M,0,141044,143044,412.9297,480,412.9297,0 S,0,141044,143044,0.2672411,0.2189182 R,0,141044,143044,0,1.745329 F,0,142844,143044,1,0 F,0,143169,143369,0,1 M,0,143169,145169,226.532,480,226.532,0 S,0,143169,145169,0.2802023,0.2387253 R,0,143169,145169,0,1.745329 F,0,144969,145169,1,0 F,0,145294,145494,0,1 M,0,145294,147294,746.0787,480,746.0787,0 S,0,145294,147294,0.1967365,0.2952124 R,0,145294,147294,0,1.745329 F,0,147094,147294,1,0 F,0,147419,147619,0,1 M,0,147419,149419,388.5143,480,388.5143,0 S,0,147419,149419,0.1869291,0.1260127 R,0,147419,149419,0,1.745329 F,0,149219,149419,1,0 F,0,149544,149744,0,1 M,0,149544,151544,101.6786,480,101.6786,0 S,0,149544,151544,0.2303613,0.1077288 R,0,149544,151544,0,1.745329 F,0,151344,151544,1,0 F,0,151669,151869,0,1 M,0,151669,153669,93.81542,480,93.81542,0 S,0,151669,153669,0.1210698,0.1636547 R,0,151669,153669,0,1.745329 F,0,153469,153669,1,0 F,0,153794,153994,0,1 M,0,153794,155794,726.77,480,726.77,0 S,0,153794,155794,0.1490024,0.2363107 R,0,153794,155794,0,1.745329 F,0,155594,155794,1,0 F,0,155919,156119,0,1 M,0,155919,157919,731.2767,480,731.2767,0 S,0,155919,157919,0.1214432,0.116353 R,0,155919,157919,0,1.745329 F,0,157719,157919,1,0 F,0,158044,158244,0,1 M,0,158044,160044,230.1818,480,230.1818,0 S,0,158044,160044,0.1014558,0.206352 R,0,158044,160044,0,1.745329 F,0,159844,160044,1,0
Sprite,Background,Centre,"sb\sprites\InterntalLightXPanty\sunflowerP.png",0,0 F,0,139044,139244,0,1 M,0,139044,141044,680.6986,480,680.6986,0 S,0,139044,141044,0.1372792,0.2790909 R,0,139044,141044,0,1.745329 P,0,139044,160169,A F,0,140844,141044,1,0 F,0,141169,141369,0,1 M,0,141169,143169,161.2525,480,161.2525,0 S,0,141169,143169,0.2372213,0.1056544 R,0,141169,143169,0,1.745329 F,0,142969,143169,1,0 F,0,143294,143494,0,1 M,0,143294,145294,242.7194,480,242.7194,0 S,0,143294,145294,0.1756976,0.2470992 R,0,143294,145294,0,1.745329 F,0,145094,145294,1,0 F,0,145419,145619,0,1 M,0,145419,147419,-10.90527,480,-10.90527,0 S,0,145419,147419,0.1908609,0.1999713 R,0,145419,147419,0,1.745329 F,0,147219,147419,1,0 F,0,147544,147744,0,1 M,0,147544,149544,450.4358,480,450.4358,0 S,0,147544,149544,0.2790862,0.2318615 R,0,147544,149544,0,1.745329 F,0,149344,149544,1,0 F,0,149669,149869,0,1 M,0,149669,151669,519.3674,480,519.3674,0 S,0,149669,151669,0.2851824,0.2391864 R,0,149669,151669,0,1.745329 F,0,151469,151669,1,0 F,0,151794,151994,0,1 M,0,151794,153794,632.1442,480,632.1442,0 S,0,151794,153794,0.1936571,0.1402483 R,0,151794,153794,0,1.745329 F,0,153594,153794,1,0 F,0,153919,154119,0,1 M,0,153919,155919,228.8014,480,228.8014,0 S,0,153919,155919,0.1593652,0.2209378 R,0,153919,155919,0,1.745329 F,0,155719,155919,1,0 F,0,156044,156244,0,1 M,0,156044,158044,61.42552,480,61.42552,0 S,0,156044,158044,0.1510314,0.2121456 R,0,156044,158044,0,1.745329 F,0,157844,158044,1,0 F,0,158169,158369,0,1 M,0,158169,160169,-70.51303,480,-70.51303,0 S,0,158169,160169,0.231506,0.2040684 R,0,158169,160169,0,1.745329 F,0,159969,160169,1,0
Sprite,Background,Centre,"sb\sprites\InterntalLightXPanty\sunflowerP.png",0,0 F,0,63408,63608,0,1 M,0,63408,65408,126.7882,480,126.7882,0 S,0,63408,65408,0.2634651,0.2536045 R,0,63408,65408,0,1.745329 P,0,63408,84533,A F,0,65208,65408,1,0 F,0,65533,65733,0,1 M,0,65533,67533,133.2073,480,133.2073,0 S,0,65533,67533,0.2239661,0.1975936 R,0,65533,67533,0,1.745329 F,0,67333,67533,1,0 F,0,67658,67858,0,1 M,0,67658,69658,208.6432,480,208.6432,0 S,0,67658,69658,0.2855275,0.1442684 R,0,67658,69658,0,1.745329 F,0,69458,69658,1,0 F,0,69783,69983,0,1 M,0,69783,71783,261.3392,480,261.3392,0 S,0,69783,71783,0.1126873,0.1527368 R,0,69783,71783,0,1.745329 F,0,71583,71783,1,0 F,0,71908,72108,0,1 M,0,71908,73908,-6.989759,480,-6.989759,0 S,0,71908,73908,0.2089314,0.2570091 R,0,71908,73908,0,1.745329 F,0,73708,73908,1,0 F,0,74033,74233,0,1 M,0,74033,76033,198.1592,480,198.1592,0 S,0,74033,76033,0.2145949,0.1483268 R,0,74033,76033,0,1.745329 F,0,75833,76033,1,0 F,0,76158,76358,0,1 M,0,76158,78158,645.0229,480,645.0229,0 S,0,76158,78158,0.2719266,0.212476 R,0,76158,78158,0,1.745329 F,0,77958,78158,1,0 F,0,78283,78483,0,1 M,0,78283,80283,467.3327,480,467.3327,0 S,0,78283,80283,0.1376043,0.1522906 R,0,78283,80283,0,1.745329 F,0,80083,80283,1,0 F,0,80408,80608,0,1 M,0,80408,82408,333.1754,480,333.1754,0 S,0,80408,82408,0.171384,0.2214912 R,0,80408,82408,0,1.745329 F,0,82208,82408,1,0 F,0,82533,82733,0,1 M,0,82533,84533,-6.593589,480,-6.593589,0 S,0,82533,84533,0.2401501,0.1674863 R,0,82533,84533,0,1.745329 F,0,84333,84533,1,0
Sprite,Background,Centre,"sb\sprites\InterntalLightXPanty\sunflowerP.png",0,0 F,0,63533,63733,0,1 M,0,63533,65533,270.3304,480,270.3304,0 S,0,63533,65533,0.1412066,0.211777 R,0,63533,65533,0,1.745329 P,0,63533,84658,A F,0,65333,65533,1,0 F,0,65658,65858,0,1 M,0,65658,67658,580.5439,480,580.5439,0 S,0,65658,67658,0.2756383,0.2650846 R,0,65658,67658,0,1.745329 F,0,67458,67658,1,0 F,0,67783,67983,0,1 M,0,67783,69783,-46.11632,480,-46.11632,0 S,0,67783,69783,0.1133043,0.2800209 R,0,67783,69783,0,1.745329 F,0,69583,69783,1,0 F,0,69908,70108,0,1 M,0,69908,71908,27.45368,480,27.45368,0 S,0,69908,71908,0.2136172,0.229198 R,0,69908,71908,0,1.745329 F,0,71708,71908,1,0 F,0,72033,72233,0,1 M,0,72033,74033,308.0092,480,308.0092,0 S,0,72033,74033,0.1704767,0.2983494 R,0,72033,74033,0,1.745329 F,0,73833,74033,1,0 F,0,74158,74358,0,1 M,0,74158,76158,32.03685,480,32.03685,0 S,0,74158,76158,0.2719162,0.1894743 R,0,74158,76158,0,1.745329 F,0,75958,76158,1,0 F,0,76283,76483,0,1 M,0,76283,78283,147.3315,480,147.3315,0 S,0,76283,78283,0.2281346,0.1031018 R,0,76283,78283,0,1.745329 F,0,78083,78283,1,0 F,0,78408,78608,0,1 M,0,78408,80408,221.4047,480,221.4047,0 S,0,78408,80408,0.2177783,0.2816139 R,0,78408,80408,0,1.745329 F,0,80208,80408,1,0 F,0,80533,80733,0,1 M,0,80533,82533,391.7436,480,391.7436,0 S,0,80533,82533,0.2588537,0.13856 R,0,80533,82533,0,1.745329 F,0,82333,82533,1,0 F,0,82658,82858,0,1 M,0,82658,84658,50.2118,480,50.2118,0 S,0,82658,84658,0.2879964,0.2037962 R,0,82658,84658,0,1.745329 F,0,84458,84658,1,0
Sprite,Background,Centre,"sb\sprites\InterntalLightXPanty\sunflowerP.png",0,0 F,0,63658,63858,0,1 M,0,63658,65658,-26.74711,480,-26.74711,0 S,0,63658,65658,0.1884356,0.29551 R,0,63658,65658,0,1.745329 P,0,63658,84783,A F,0,65458,65658,1,0 F,0,65783,65983,0,1 M,0,65783,67783,118.9705,480,118.9705,0 S,0,65783,67783,0.2716438,0.2359498 R,0,65783,67783,0,1.745329 F,0,67583,67783,1,0 F,0,67908,68108,0,1 M,0,67908,69908,167.5563,480,167.5563,0 S,0,67908,69908,0.1187956,0.1298195 R,0,67908,69908,0,1.745329 F,0,69708,69908,1,0 F,0,70033,70233,0,1 M,0,70033,72033,306.0233,480,306.0233,0 S,0,70033,72033,0.2940255,0.1155418 R,0,70033,72033,0,1.745329 F,0,71833,72033,1,0 F,0,72158,72358,0,1 M,0,72158,74158,718.4396,480,718.4396,0 S,0,72158,74158,0.2383455,0.1242372 R,0,72158,74158,0,1.745329 F,0,73958,74158,1,0 F,0,74283,74483,0,1 M,0,74283,76283,-27.69299,480,-27.69299,0 S,0,74283,76283,0.2606337,0.1920489 R,0,74283,76283,0,1.745329 F,0,76083,76283,1,0 F,0,76408,76608,0,1 M,0,76408,78408,260.6969,480,260.6969,0 S,0,76408,78408,0.1915914,0.2986826 R,0,76408,78408,0,1.745329 F,0,78208,78408,1,0 F,0,78533,78733,0,1 M,0,78533,80533,439.361,480,439.361,0 S,0,78533,80533,0.2513602,0.2577875 R,0,78533,80533,0,1.745329 F,0,80333,80533,1,0 F,0,80658,80858,0,1 M,0,80658,82658,659.7144,480,659.7144,0 S,0,80658,82658,0.1269828,0.2050181 R,0,80658,82658,0,1.745329 F,0,82458,82658,1,0 F,0,82783,82983,0,1 M,0,82783,84783,589.611,480,589.611,0 S,0,82783,84783,0.2020394,0.1769362 R,0,82783,84783,0,1.745329 F,0,84583,84783,1,0
Sprite,Background,Centre,"sb\sprites\InterntalLightXPanty\sunflowerP.png",0,0 F,0,63783,63983,0,1 M,0,63783,65783,513.2564,480,513.2564,0 S,0,63783,65783,0.1583813,0.1934629 R,0,63783,65783,0,1.745329 P,0,63783,84908,A F,0,65583,65783,1,0 F,0,65908,66108,0,1 M,0,65908,67908,213.3643,480,213.3643,0 S,0,65908,67908,0.1436814,0.2790725 R,0,65908,67908,0,1.745329 F,0,67708,67908,1,0 F,0,68033,68233,0,1 M,0,68033,70033,655.6455,480,655.6455,0 S,0,68033,70033,0.221974,0.2906086 R,0,68033,70033,0,1.745329 F,0,69833,70033,1,0 F,0,70158,70358,0,1 M,0,70158,72158,308.9259,480,308.9259,0 S,0,70158,72158,0.1311531,0.2627305 R,0,70158,72158,0,1.745329 F,0,71958,72158,1,0 F,0,72283,72483,0,1 M,0,72283,74283,580.5462,480,580.5462,0 S,0,72283,74283,0.1993034,0.2162579 R,0,72283,74283,0,1.745329 F,0,74083,74283,1,0 F,0,74408,74608,0,1 M,0,74408,76408,456.2278,480,456.2278,0 S,0,74408,76408,0.2556271,0.1853789 R,0,74408,76408,0,1.745329 F,0,76208,76408,1,0 F,0,76533,76733,0,1 M,0,76533,78533,642.5197,480,642.5197,0 S,0,76533,78533,0.1241,0.1566417 R,0,76533,78533,0,1.745329 F,0,78333,78533,1,0 F,0,78658,78858,0,1 M,0,78658,80658,645.0446,480,645.0446,0 S,0,78658,80658,0.1205081,0.2227234 R,0,78658,80658,0,1.745329 F,0,80458,80658,1,0 F,0,80783,80983,0,1 M,0,80783,82783,101.5768,480,101.5768,0 S,0,80783,82783,0.1749967,0.2440916 R,0,80783,82783,0,1.745329 F,0,82583,82783,1,0 F,0,82908,83108,0,1 M,0,82908,84908,424.7913,480,424.7913,0 S,0,82908,84908,0.2041862,0.1766866 R,0,82908,84908,0,1.745329 F,0,84708,84908,1,0
Sprite,Background,Centre,"sb\sprites\InterntalLightXPanty\sunflowerP.png",0,0 F,0,63908,64108,0,1 M,0,63908,65908,206.7092,480,206.7092,0 S,0,63908,65908,0.1939024,0.2964303 R,0,63908,65908,0,1.745329 P,0,63908,85033,A F,0,65708,65908,1,0 F,0,66033,66233,0,1 M,0,66033,68033,-18.55959,480,-18.55959,0 S,0,66033,68033,0.117316,0.2677158 R,0,66033,68033,0,1.745329 F,0,67833,68033,1,0 F,0,68158,68358,0,1 M,0,68158,70158,328.0061,480,328.0061,0 S,0,68158,70158,0.1296113,0.2355223 R,0,68158,70158,0,1.745329 F,0,69958,70158,1,0 F,0,70283,70483,0,1 M,0,70283,72283,198.2868,480,198.2868,0 S,0,70283,72283,0.2150787,0.2105724 R,0,70283,72283,0,1.745329 F,0,72083,72283,1,0 F,0,72408,72608,0,1 M,0,72408,74408,523.5386,480,523.5386,0 S,0,72408,74408,0.1620726,0.1484272 R,0,72408,74408,0,1.745329 F,0,74208,74408,1,0 F,0,74533,74733,0,1 M,0,74533,76533,194.3138,480,194.3138,0 S,0,74533,76533,0.2998012,0.2217864 R,0,74533,76533,0,1.745329 F,0,76333,76533,1,0 F,0,76658,76858,0,1 M,0,76658,78658,208.4608,480,208.4608,0 S,0,76658,78658,0.2598561,0.1511249 R,0,76658,78658,0,1.745329 F,0,78458,78658,1,0 F,0,78783,78983,0,1 M,0,78783,80783,202.8183,480,202.8183,0 S,0,78783,80783,0.2141129,0.2632417 R,0,78783,80783,0,1.745329 F,0,80583,80783,1,0 F,0,80908,81108,0,1 M,0,80908,82908,356.8456,480,356.8456,0 S,0,80908,82908,0.1170648,0.2170613 R,0,80908,82908,0,1.745329 F,0,82708,82908,1,0 F,0,83033,83233,0,1 M,0,83033,85033,498.6626,480,498.6626,0 S,0,83033,85033,0.2664308,0.2580846 R,0,83033,85033,0,1.745329 F,0,84833,85033,1,0
Sprite,Background,Centre,"sb\sprites\InterntalLightXPanty\sunflowerP.png",0,0 F,0,64033,64233,0,1 M,0,64033,66033,721.0666,480,721.0666,0 S,0,64033,66033,0.272474,0.2990694 R,0,64033,66033,0,1.745329 P,0,64033,85158,A F,0,65833,66033,1,0 F,0,66158,66358,0,1 M,0,66158,68158,601.698,480,601.698,0 S,0,66158,68158,0.2288231,0.2653629 R,0,66158,68158,0,1.745329 F,0,67958,68158,1,0 F,0,68283,68483,0,1 M,0,68283,70283,260.3381,480,260.3381,0 S,0,68283,70283,0.1450806,0.2236364 R,0,68283,70283,0,1.745329 F,0,70083,70283,1,0 F,0,70408,70608,0,1 M,0,70408,72408,172.6942,480,172.6942,0 S,0,70408,72408,0.2989093,0.1603281 R,0,70408,72408,0,1.745329 F,0,72208,72408,1,0 F,0,72533,72733,0,1 M,0,72533,74533,77.39933,480,77.39933,0 S,0,72533,74533,0.126612,0.2225008 R,0,72533,74533,0,1.745329 F,0,74333,74533,1,0 F,0,74658,74858,0,1 M,0,74658,76658,670.3921,480,670.3921,0 S,0,74658,76658,0.2247682,0.2981302 R,0,74658,76658,0,1.745329 F,0,76458,76658,1,0 F,0,76783,76983,0,1 M,0,76783,78783,521.5566,480,521.5566,0 S,0,76783,78783,0.1025976,0.1891544 R,0,76783,78783,0,1.745329 F,0,78583,78783,1,0 F,0,78908,79108,0,1 M,0,78908,80908,8.754726,480,8.754726,0 S,0,78908,80908,0.1479266,0.1754979 R,0,78908,80908,0,1.745329 F,0,80708,80908,1,0 F,0,81033,81233,0,1 M,0,81033,83033,712.6786,480,712.6786,0 S,0,81033,83033,0.2555998,0.1692532 R,0,81033,83033,0,1.745329 F,0,82833,83033,1,0 F,0,83158,83358,0,1 M,0,83158,85158,124.6878,480,124.6878,0 S,0,83158,85158,0.1809588,0.2071668 R,0,83158,85158,0,1.745329 F,0,84958,85158,1,0
Sprite,Background,Centre,"sb\sprites\InterntalLightXPanty\sunflowerP.png",0,0 F,0,64158,64358,0,1 M,0,64158,66158,168.6873,480,168.6873,0 S,0,64158,66158,0.1629184,0.2633816 R,0,64158,66158,0,1.745329 P,0,64158,85283,A F,0,65958,66158,1,0 F,0,66283,66483,0,1 M,0,66283,68283,559.8137,480,559.8137,0 S,0,66283,68283,0.2999945,0.1962731 R,0,66283,68283,0,1.745329 F,0,68083,68283,1,0 F,0,68408,68608,0,1 M,0,68408,70408,742.6598,480,742.6598,0 S,0,68408,70408,0.1721878,0.270097 R,0,68408,70408,0,1.745329 F,0,70208,70408,1,0 F,0,70533,70733,0,1 M,0,70533,72533,691.9565,480,691.9565,0 S,0,70533,72533,0.1931406,0.1966148 R,0,70533,72533,0,1.745329 F,0,72333,72533,1,0 F,0,72658,72858,0,1 M,0,72658,74658,269.3662,480,269.3662,0 S,0,72658,74658,0.2311239,0.1682056 R,0,72658,74658,0,1.745329 F,0,74458,74658,1,0 F,0,74783,74983,0,1 M,0,74783,76783,1.317937,480,1.317937,0 S,0,74783,76783,0.2079088,0.1275279 R,0,74783,76783,0,1.745329 F,0,76583,76783,1,0 F,0,76908,77108,0,1 M,0,76908,78908,495.6489,480,495.6489,0 S,0,76908,78908,0.2679509,0.2646421 R,0,76908,78908,0,1.745329 F,0,78708,78908,1,0 F,0,79033,79233,0,1 M,0,79033,81033,240.7941,480,240.7941,0 S,0,79033,81033,0.2326912,0.1161982 R,0,79033,81033,0,1.745329 F,0,80833,81033,1,0 F,0,81158,81358,0,1 M,0,81158,83158,149.2527,480,149.2527,0 S,0,81158,83158,0.2414313,0.1928219 R,0,81158,83158,0,1.745329 F,0,82958,83158,1,0 F,0,83283,83483,0,1 M,0,83283,85283,384.057,480,384.057,0 S,0,83283,85283,0.1148434,0.1669548 R,0,83283,85283,0,1.745329 F,0,85083,85283,1,0
Sprite,Background,Centre,"sb\sprites\InterntalLightXPanty\sunflowerP.png",0,0 F,0,64283,64483,0,1 M,0,64283,66283,22.76378,480,22.76378,0 S,0,64283,66283,0.2983804,0.106525 R,0,64283,66283,0,1.745329 P,0,64283,85408,A F,0,66083,66283,1,0 F,0,66408,66608,0,1 M,0,66408,68408,190.0167,480,190.0167,0 S,0,66408,68408,0.2439452,0.2618925 R,0,66408,68408,0,1.745329 F,0,68208,68408,1,0 F,0,68533,68733,0,1 M,0,68533,70533,693.7886,480,693.7886,0 S,0,68533,70533,0.1563295,0.2409952 R,0,68533,70533,0,1.745329 F,0,70333,70533,1,0 F,0,70658,70858,0,1 M,0,70658,72658,562.2747,480,562.2747,0 S,0,70658,72658,0.1143379,0.1460481 R,0,70658,72658,0,1.745329 F,0,72458,72658,1,0 F,0,72783,72983,0,1 M,0,72783,74783,727.0922,480,727.0922,0 S,0,72783,74783,0.1194572,0.2755821 R,0,72783,74783,0,1.745329 F,0,74583,74783,1,0 F,0,74908,75108,0,1 M,0,74908,76908,745.2941,480,745.2941,0 S,0,74908,76908,0.2114931,0.2344385 R,0,74908,76908,0,1.745329 F,0,76708,76908,1,0 F,0,77033,77233,0,1 M,0,77033,79033,293.9363,480,293.9363,0 S,0,77033,79033,0.2903126,0.1404294 R,0,77033,79033,0,1.745329 F,0,78833,79033,1,0 F,0,79158,79358,0,1 M,0,79158,81158,291.6379,480,291.6379,0 S,0,79158,81158,0.2990443,0.1318491 R,0,79158,81158,0,1.745329 F,0,80958,81158,1,0 F,0,81283,81483,0,1 M,0,81283,83283,281.9202,480,281.9202,0 S,0,81283,83283,0.2675878,0.1846319 R,0,81283,83283,0,1.745329 F,0,83083,83283,1,0 F,0,83408,83608,0,1 M,0,83408,85408,-35.46513,480,-35.46513,0 S,0,83408,85408,0.2552937,0.230413 R,0,83408,85408,0,1.745329 F,0,85208,85408,1,0
Sprite,Background,Centre,"sb\sprites\InterntalLightXPanty\sunflowerP.png",0,0 F,0,64408,64608,0,1 M,0,64408,66408,149.2495,480,149.2495,0 S,0,64408,66408,0.2052568,0.2868037 R,0,64408,66408,0,1.745329 P,0,64408,85533,A F,0,66208,66408,1,0 F,0,66533,66733,0,1 M,0,66533,68533,660.8011,480,660.8011,0 S,0,66533,68533,0.2458188,0.2436901 R,0,66533,68533,0,1.745329 F,0,68333,68533,1,0 F,0,68658,68858,0,1 M,0,68658,70658,-71.62762,480,-71.62762,0 S,0,68658,70658,0.2977625,0.1774274 R,0,68658,70658,0,1.745329 F,0,70458,70658,1,0 F,0,70783,70983,0,1 M,0,70783,72783,618.1889,480,618.1889,0 S,0,70783,72783,0.18938,0.1902159 R,0,70783,72783,0,1.745329 F,0,72583,72783,1,0 F,0,72908,73108,0,1 M,0,72908,74908,139.915,480,139.915,0 S,0,72908,74908,0.2784278,0.2302529 R,0,72908,74908,0,1.745329 F,0,74708,74908,1,0 F,0,75033,75233,0,1 M,0,75033,77033,423.132,480,423.132,0 S,0,75033,77033,0.2732336,0.1650058 R,0,75033,77033,0,1.745329 F,0,76833,77033,1,0 F,0,77158,77358,0,1 M,0,77158,79158,-60.36054,480,-60.36054,0 S,0,77158,79158,0.2703472,0.2792247 R,0,77158,79158,0,1.745329 F,0,78958,79158,1,0 F,0,79283,79483,0,1 M,0,79283,81283,336.6212,480,336.6212,0 S,0,79283,81283,0.1127602,0.130461 R,0,79283,81283,0,1.745329 F,0,81083,81283,1,0 F,0,81408,81608,0,1 M,0,81408,83408,-26.54829,480,-26.54829,0 S,0,81408,83408,0.1819175,0.2631013 R,0,81408,83408,0,1.745329 F,0,83208,83408,1,0 F,0,83533,83733,0,1 M,0,83533,85533,43.73122,480,43.73122,0 S,0,83533,85533,0.1473562,0.2677791 R,0,83533,85533,0,1.745329 F,0,85333,85533,1,0
Sprite,Background,Centre,"sb\sprites\InterntalLightXPanty\sunflowerP.png",0,0 F,0,64533,64733,0,1 M,0,64533,66533,159.7723,480,159.7723,0 S,0,64533,66533,0.2093631,0.116222 R,0,64533,66533,0,1.745329 P,0,64533,85658,A F,0,66333,66533,1,0 F,0,66658,66858,0,1 M,0,66658,68658,639.7997,480,639.7997,0 S,0,66658,68658,0.2810353,0.1378248 R,0,66658,68658,0,1.745329 F,0,68458,68658,1,0 F,0,68783,68983,0,1 M,0,68783,70783,300.5799,480,300.5799,0 S,0,68783,70783,0.1560651,0.2013152 R,0,68783,70783,0,1.745329 F,0,70583,70783,1,0 F,0,70908,71108,0,1 M,0,70908,72908,730.0486,480,730.0486,0 S,0,70908,72908,0.1777676,0.263209 R,0,70908,72908,0,1.745329 F,0,72708,72908,1,0 F,0,73033,73233,0,1 M,0,73033,75033,528.9673,480,528.9673,0 S,0,73033,75033,0.1529666,0.1948025 R,0,73033,75033,0,1.745329 F,0,74833,75033,1,0 F,0,75158,75358,0,1 M,0,75158,77158,75.21381,480,75.21381,0 S,0,75158,77158,0.203992,0.2659273 R,0,75158,77158,0,1.745329 F,0,76958,77158,1,0 F,0,77283,77483,0,1 M,0,77283,79283,348.2665,480,348.2665,0 S,0,77283,79283,0.2688679,0.1712396 R,0,77283,79283,0,1.745329 F,0,79083,79283,1,0 F,0,79408,79608,0,1 M,0,79408,81408,-94.4031,480,-94.4031,0 S,0,79408,81408,0.1072686,0.1664164 R,0,79408,81408,0,1.745329 F,0,81208,81408,1,0 F,0,81533,81733,0,1 M,0,81533,83533,250.5897,480,250.5897,0 S,0,81533,83533,0.2502962,0.1468595 R,0,81533,83533,0,1.745329 F,0,83333,83533,1,0 F,0,83658,83858,0,1 M,0,83658,85658,270.5988,480,270.5988,0 S,0,83658,85658,0.1902111,0.2485638 R,0,83658,85658,0,1.745329 F,0,85458,85658,1,0
Sprite,Background,Centre,"sb\sprites\InterntalLightXPanty\sunflowerP.png",0,0 F,0,64658,64858,0,1 M,0,64658,66658,587.1956,480,587.1956,0 S,0,64658,66658,0.1906654,0.1594344 R,0,64658,66658,0,1.745329 P,0,64658,85783,A F,0,66458,66658,1,0 F,0,66783,66983,0,1 M,0,66783,68783,339.8044,480,339.8044,0 S,0,66783,68783,0.208159,0.1651001 R,0,66783,68783,0,1.745329 F,0,68583,68783,1,0 F,0,68908,69108,0,1 M,0,68908,70908,293.0315,480,293.0315,0 S,0,68908,70908,0.1114017,0.1561107 R,0,68908,70908,0,1.745329 F,0,70708,70908,1,0 F,0,71033,71233,0,1 M,0,71033,73033,573.976,480,573.976,0 S,0,71033,73033,0.2827258,0.1059154 R,0,71033,73033,0,1.745329 F,0,72833,73033,1,0 F,0,73158,73358,0,1 M,0,73158,75158,579.6973,480,579.6973,0 S,0,73158,75158,0.2775169,0.1983169 R,0,73158,75158,0,1.745329 F,0,74958,75158,1,0 F,0,75283,75483,0,1 M,0,75283,77283,284.8133,480,284.8133,0 S,0,75283,77283,0.2045021,0.1325818 R,0,75283,77283,0,1.745329 F,0,77083,77283,1,0 F,0,77408,77608,0,1 M,0,77408,79408,275.7817,480,275.7817,0 S,0,77408,79408,0.1608583,0.1837505 R,0,77408,79408,0,1.745329 F,0,79208,79408,1,0 F,0,79533,79733,0,1 M,0,79533,81533,717.9111,480,717.9111,0 S,0,79533,81533,0.2034469,0.2146856 R,0,79533,81533,0,1.745329 F,0,81333,81533,1,0 F,0,81658,81858,0,1 M,0,81658,83658,-41.76373,480,-41.76373,0 S,0,81658,83658,0.2169121,0.298351 R,0,81658,83658,0,1.745329 F,0,83458,83658,1,0 F,0,83783,83983,0,1 M,0,83783,85783,131.1677,480,131.1677,0 S,0,83783,85783,0.2177229,0.1125227 R,0,83783,85783,0,1.745329 F,0,85583,85783,1,0
Sprite,Background,Centre,"sb\sprites\InterntalLightXPanty\sunflowerP.png",0,0 F,0,64783,64983,0,1 M,0,64783,66783,-97.21638,480,-97.21638,0 S,0,64783,66783,0.2285395,0.2525927 R,0,64783,66783,0,1.745329 P,0,64783,85908,A F,0,66583,66783,1,0 F,0,66908,67108,0,1 M,0,66908,68908,173.9347,480,173.9347,0 S,0,66908,68908,0.1936795,0.2666994 R,0,66908,68908,0,1.745329 F,0,68708,68908,1,0 F,0,69033,69233,0,1 M,0,69033,71033,323.3488,480,323.3488,0 S,0,69033,71033,0.2692831,0.2226316 R,0,69033,71033,0,1.745329 F,0,70833,71033,1,0 F,0,71158,71358,0,1 M,0,71158,73158,311.92,480,311.92,0 S,0,71158,73158,0.2925779,0.2987143 R,0,71158,73158,0,1.745329 F,0,72958,73158,1,0 F,0,73283,73483,0,1 M,0,73283,75283,202.2986,480,202.2986,0 S,0,73283,75283,0.1639424,0.1737944 R,0,73283,75283,0,1.745329 F,0,75083,75283,1,0 F,0,75408,75608,0,1 M,0,75408,77408,205.4057,480,205.4057,0 S,0,75408,77408,0.2106468,0.162922 R,0,75408,77408,0,1.745329 F,0,77208,77408,1,0 F,0,77533,77733,0,1 M,0,77533,79533,413.1075,480,413.1075,0 S,0,77533,79533,0.1843582,0.2325756 R,0,77533,79533,0,1.745329 F,0,79333,79533,1,0 F,0,79658,79858,0,1 M,0,79658,81658,13.22949,480,13.22949,0 S,0,79658,81658,0.1448597,0.123254 R,0,79658,81658,0,1.745329 F,0,81458,81658,1,0 F,0,81783,81983,0,1 M,0,81783,83783,702.5397,480,702.5397,0 S,0,81783,83783,0.209898,0.1320629 R,0,81783,83783,0,1.745329 F,0,83583,83783,1,0 F,0,83908,84108,0,1 M,0,83908,85908,590.8948,480,590.8948,0 S,0,83908,85908,0.1082366,0.276762 R,0,83908,85908,0,1.745329 F,0,85708,85908,1,0
Sprite,Background,Centre,"sb\sprites\InterntalLightXPanty\sunflowerP.png",0,0 F,0,64908,65108,0,1 M,0,64908,66908,721.0433,480,721.0433,0 S,0,64908,66908,0.1762009,0.1686284 R,0,64908,66908,0,1.745329 P,0,64908,86033,A F,0,66708,66908,1,0 F,0,67033,67233,0,1 M,0,67033,69033,55.93995,480,55.93995,0 S,0,67033,69033,0.2587261,0.2529012 R,0,67033,69033,0,1.745329 F,0,68833,69033,1,0 F,0,69158,69358,0,1 M,0,69158,71158,658.0485,480,658.0485,0 S,0,69158,71158,0.2484658,0.1803752 R,0,69158,71158,0,1.745329 F,0,70958,71158,1,0 F,0,71283,71483,0,1 M,0,71283,73283,732.5931,480,732.5931,0 S,0,71283,73283,0.2307037,0.1556659 R,0,71283,73283,0,1.745329 F,0,73083,73283,1,0 F,0,73408,73608,0,1 M,0,73408,75408,538.1699,480,538.1699,0 S,0,73408,75408,0.2990841,0.2221012 R,0,73408,75408,0,1.745329 F,0,75208,75408,1,0 F,0,75533,75733,0,1 M,0,75533,77533,533.5422,480,533.5422,0 S,0,75533,77533,0.2601261,0.1920263 R,0,75533,77533,0,1.745329 F,0,77333,77533,1,0 F,0,77658,77858,0,1 M,0,77658,79658,234.148,480,234.148,0 S,0,77658,79658,0.2863995,0.2825122 R,0,77658,79658,0,1.745329 F,0,79458,79658,1,0 F,0,79783,79983,0,1 M,0,79783,81783,612.6664,480,612.6664,0 S,0,79783,81783,0.2551047,0.2665799 R,0,79783,81783,0,1.745329 F,0,81583,81783,1,0 F,0,81908,82108,0,1 M,0,81908,83908,-77.94032,480,-77.94032,0 S,0,81908,83908,0.188645,0.1860061 R,0,81908,83908,0,1.745329 F,0,83708,83908,1,0 F,0,84033,84233,0,1 M,0,84033,86033,188.2078,480,188.2078,0 S,0,84033,86033,0.14723,0.2219015 R,0,84033,86033,0,1.745329 F,0,85833,86033,1,0
Sprite,Background,Centre,"sb\sprites\InterntalLightXPanty\sunflowerP.png",0,0 F,0,65033,65233,0,1 M,0,65033,67033,-70.66671,480,-70.66671,0 S,0,65033,67033,0.2010258,0.2431945 R,0,65033,67033,0,1.745329 P,0,65033,86158,A F,0,66833,67033,1,0 F,0,67158,67358,0,1 M,0,67158,69158,-53.6595,480,-53.6595,0 S,0,67158,69158,0.1589994,0.2045571 R,0,67158,69158,0,1.745329 F,0,68958,69158,1,0 F,0,69283,69483,0,1 M,0,69283,71283,-50.11728,480,-50.11728,0 S,0,69283,71283,0.1261397,0.2399305 R,0,69283,71283,0,1.745329 F,0,71083,71283,1,0 F,0,71408,71608,0,1 M,0,71408,73408,-78.96126,480,-78.96126,0 S,0,71408,73408,0.2175585,0.2544403 R,0,71408,73408,0,1.745329 F,0,73208,73408,1,0 F,0,73533,73733,0,1 M,0,73533,75533,745.4417,480,745.4417,0 S,0,73533,75533,0.2966854,0.2923582 R,0,73533,75533,0,1.745329 F,0,75333,75533,1,0 F,0,75658,75858,0,1 M,0,75658,77658,-40.04705,480,-40.04705,0 S,0,75658,77658,0.1674794,0.1384505 R,0,75658,77658,0,1.745329 F,0,77458,77658,1,0 F,0,77783,77983,0,1 M,0,77783,79783,491.5679,480,491.5679,0 S,0,77783,79783,0.2361018,0.1685347 R,0,77783,79783,0,1.745329 F,0,79583,79783,1,0 F,0,79908,80108,0,1 M,0,79908,81908,102.3939,480,102.3939,0 S,0,79908,81908,0.1480592,0.1350393 R,0,79908,81908,0,1.745329 F,0,81708,81908,1,0 F,0,82033,82233,0,1 M,0,82033,84033,-41.64345,480,-41.64345,0 S,0,82033,84033,0.1110183,0.228122 R,0,82033,84033,0,1.745329 F,0,83833,84033,1,0 F,0,84158,84358,0,1 M,0,84158,86158,199.3011,480,199.3011,0 S,0,84158,86158,0.2563352,0.2866056 R,0,84158,86158,0,1.745329 F,0,85958,86158,1,0
Sprite,Background,Centre,"sb\sprites\InterntalLightXPanty\sunflowerP.png",0,0 F,0,65158,65358,0,1 M,0,65158,67158,645.4101,480,645.4101,0 S,0,65158,67158,0.1546903,0.2814196 R,0,65158,67158,0,1.745329 P,0,65158,86283,A F,0,66958,67158,1,0 F,0,67283,67483,0,1 M,0,67283,69283,180.4625,480,180.4625,0 S,0,67283,69283,0.1665178,0.1573445 R,0,67283,69283,0,1.745329 F,0,69083,69283,1,0 F,0,69408,69608,0,1 M,0,69408,71408,221.4411,480,221.4411,0 S,0,69408,71408,0.2661136,0.2370253 R,0,69408,71408,0,1.745329 F,0,71208,71408,1,0 F,0,71533,71733,0,1 M,0,71533,73533,470.1614,480,470.1614,0 S,0,71533,73533,0.1840851,0.2949866 R,0,71533,73533,0,1.745329 F,0,73333,73533,1,0 F,0,73658,73858,0,1 M,0,73658,75658,612.7995,480,612.7995,0 S,0,73658,75658,0.2544514,0.1182551 R,0,73658,75658,0,1.745329 F,0,75458,75658,1,0 F,0,75783,75983,0,1 M,0,75783,77783,618.6765,480,618.6765,0 S,0,75783,77783,0.2322684,0.1410583 R,0,75783,77783,0,1.745329 F,0,77583,77783,1,0 F,0,77908,78108,0,1 M,0,77908,79908,348.4224,480,348.4224,0 S,0,77908,79908,0.2598517,0.1433795 R,0,77908,79908,0,1.745329 F,0,79708,79908,1,0 F,0,80033,80233,0,1 M,0,80033,82033,641.4254,480,641.4254,0 S,0,80033,82033,0.135943,0.2155937 R,0,80033,82033,0,1.745329 F,0,81833,82033,1,0 F,0,82158,82358,0,1 M,0,82158,84158,484.1313,480,484.1313,0 S,0,82158,84158,0.2998087,0.2730626 R,0,82158,84158,0,1.745329 F,0,83958,84158,1,0 F,0,84283,84483,0,1 M,0,84283,86283,708.2717,480,708.2717,0 S,0,84283,86283,0.2092353,0.206832 R,0,84283,86283,0,1.745329 F,0,86083,86283,1,0
Sprite,Background,Centre,"sb\sprites\InterntalLightXPanty\sunflowerP.png",0,0 F,0,65283,65483,0,1 M,0,65283,67283,68.27018,480,68.27018,0 S,0,65283,67283,0.1674321,0.1914418 R,0,65283,67283,0,1.745329 P,0,65283,86408,A F,0,67083,67283,1,0 F,0,67408,67608,0,1 M,0,67408,69408,46.199,480,46.199,0 S,0,67408,69408,0.1445036,0.1373743 R,0,67408,69408,0,1.745329 F,0,69208,69408,1,0 F,0,69533,69733,0,1 M,0,69533,71533,260.4399,480,260.4399,0 S,0,69533,71533,0.1345535,0.1369065 R,0,69533,71533,0,1.745329 F,0,71333,71533,1,0 F,0,71658,71858,0,1 M,0,71658,73658,-9.643645,480,-9.643645,0 S,0,71658,73658,0.2945774,0.1510349 R,0,71658,73658,0,1.745329 F,0,73458,73658,1,0 F,0,73783,73983,0,1 M,0,73783,75783,583.9609,480,583.9609,0 S,0,73783,75783,0.1125005,0.1220124 R,0,73783,75783,0,1.745329 F,0,75583,75783,1,0 F,0,75908,76108,0,1 M,0,75908,77908,290.1981,480,290.1981,0 S,0,75908,77908,0.201994,0.2546502 R,0,75908,77908,0,1.745329 F,0,77708,77908,1,0 F,0,78033,78233,0,1 M,0,78033,80033,-29.32352,480,-29.32352,0 S,0,78033,80033,0.2039308,0.2724123 R,0,78033,80033,0,1.745329 F,0,79833,80033,1,0 F,0,80158,80358,0,1 M,0,80158,82158,124.3859,480,124.3859,0 S,0,80158,82158,0.2659007,0.1457388 R,0,80158,82158,0,1.745329 F,0,81958,82158,1,0 F,0,82283,82483,0,1 M,0,82283,84283,358.6531,480,358.6531,0 S,0,82283,84283,0.2333537,0.1188782 R,0,82283,84283,0,1.745329 F,0,84083,84283,1,0 F,0,84408,84608,0,1 M,0,84408,86408,527.3711,480,527.3711,0 S,0,84408,86408,0.1034031,0.1333779 R,0,84408,86408,0,1.745329 F,0,86208,86408,1,0
Sprite,Background,Centre,"sb\sprites\InterntalLightXPanty\sunflowerP.png",0,0 F,0,65408,65608,0,1 M,0,65408,67408,621.6114,480,621.6114,0 S,0,65408,67408,0.144263,0.1820147 R,0,65408,67408,0,1.745329 P,0,65408,86533,A F,0,67208,67408,1,0 F,0,67533,67733,0,1 M,0,67533,69533,688.4849,480,688.4849,0 S,0,67533,69533,0.2249245,0.238609 R,0,67533,69533,0,1.745329 F,0,69333,69533,1,0 F,0,69658,69858,0,1 M,0,69658,71658,226.8193,480,226.8193,0 S,0,69658,71658,0.1501497,0.2994229 R,0,69658,71658,0,1.745329 F,0,71458,71658,1,0 F,0,71783,71983,0,1 M,0,71783,73783,634.046,480,634.046,0 S,0,71783,73783,0.2794507,0.1356442 R,0,71783,73783,0,1.745329 F,0,73583,73783,1,0 F,0,73908,74108,0,1 M,0,73908,75908,121.1914,480,121.1914,0 S,0,73908,75908,0.1203848,0.2679655 R,0,73908,75908,0,1.745329 F,0,75708,75908,1,0 F,0,76033,76233,0,1 M,0,76033,78033,335.0786,480,335.0786,0 S,0,76033,78033,0.1202415,0.1877323 R,0,76033,78033,0,1.745329 F,0,77833,78033,1,0 F,0,78158,78358,0,1 M,0,78158,80158,-64.0154,480,-64.0154,0 S,0,78158,80158,0.1541823,0.1993964 R,0,78158,80158,0,1.745329 F,0,79958,80158,1,0 F,0,80283,80483,0,1 M,0,80283,82283,404.8116,480,404.8116,0 S,0,80283,82283,0.1089176,0.1560041 R,0,80283,82283,0,1.745329 F,0,82083,82283,1,0 F,0,82408,82608,0,1 M,0,82408,84408,-100.7336,480,-100.7336,0 S,0,82408,84408,0.2377734,0.1103009 R,0,82408,84408,0,1.745329 F,0,84208,84408,1,0 F,0,84533,84733,0,1 M,0,84533,86533,683.0441,480,683.0441,0 S,0,84533,86533,0.2452072,0.1523948 R,0,84533,86533,0,1.745329 F,0,86333,86533,1,0
Sprite,Background,Centre,"sb\sprites\InterntalLightXPanty\kiaiShinobu.png",320,240 F,0,63408,,0.63 S,0,63408,,0.7 C,0,63408,,0,0,0 M,1,63408,68862,320,240,285.6727,241.1636 R,1,63408,68862,0,-0.05818176 M,2,68862,74317,285.6727,241.1636,291.4909,246.9818 R,2,68862,79771,-0.05818176,0.01163635 M,1,74317,79771,291.4909,246.9818,296.7273,236.5091 M,1,79771,86590,296.7273,236.5091,249.0182,230.6909 R,1,79771,86590,0.01163635,-0.1512726
Sprite,Background,Centre,"sb\sprites\InterntalLightXPanty\kiaiShinobu.png",320,240 S,0,63408,,0.651 M,1,63408,68862,320,240,285.6727,241.1636 R,1,63408,68862,0,-0.05818176 M,2,68862,74317,285.6727,241.1636,291.4909,246.9818 R,2,68862,79771,-0.05818176,0.01163635 M,1,74317,79771,291.4909,246.9818,296.7273,236.5091 M,1,79771,81135,296.7273,236.5091,277.8043,235.5779 R,1,79771,86590,0.01163635,-0.1512726 M,0,81135,86590,277.8043,235.5779,249.0182,230.6909 F,0,86590,,1
Sprite,Background,Centre,"sb\sprites\InterntalLightXPanty\kiaiShinobu.png",320,240 F,0,137044,,0.63 S,0,137044,,0.7 C,0,137044,,0,0,0 M,1,137044,142499,320,240,243.2,238.2545 R,1,137044,142499,0,-0.08145447 M,2,142499,147953,243.2,238.2545,279.2728,243.4909 R,2,142499,147953,-0.08145447,0.0232727 M,1,147953,153408,279.2728,243.4909,343.2728,244.6546 R,1,147953,153408,0.0232727,-0.1512732 M,2,153408,160226,343.2728,244.6546,301.9637,242.3273 R,2,153408,160226,-0.1512732,-0.09309143 F,0,160226,,1
Sprite,Background,Centre,"sb\sprites\InterntalLightXPanty\kiaiShinobu.png",320,240 S,0,137044,,0.651 M,1,137044,142499,320,240,243.2,238.2545 R,1,137044,142499,0,-0.08145447 M,2,142499,147953,243.2,238.2545,279.2728,243.4909 R,2,142499,147953,-0.08145447,0.0232727 M,1,147953,153408,279.2728,243.4909,343.2728,244.6546 R,1,147953,153408,0.0232727,-0.1512732 M,2,153408,160226,343.2728,244.6546,301.9637,242.3273 R,2,153408,160226,-0.1512732,-0.09309143 F,0,160226,,1
Sprite,Background,Centre,"sb\sprites\InterntalLightXPanty\kiaiShinobu.png",320,240 M,0,205226,,320,240 S,0,205226,,0.7381818 C,0,205226,,0,0,0 F,0,205226,210681,1
Sprite,Background,Centre,"sb\sprites\InterntalLightXPanty\kiaiShinobu.png",320,240 F,0,210681,,0.63 S,0,210681,,0.7 C,0,210681,,0,0,0 M,1,210681,216135,320,240,293.2364,243.4909 R,1,210681,216135,0,-0.1047278 M,2,216135,221590,293.2364,243.4909,224.6112,241.1598 R,2,216135,221590,-0.1047278,-0.01163696 M,1,221590,228408,224.6112,241.1598,265.9203,242.9053 R,1,221590,228408,-0.01163696,0.01154981
Sprite,Background,Centre,"sb\sprites\InterntalLightXPanty\kiaiShinobu.png",320,240 F,0,210681,,1 S,0,210681,,0.651 M,1,210681,216135,320,240,293.2364,243.4909 R,1,210681,216135,0,-0.1047278 M,2,216135,221590,293.2364,243.4909,224.6112,241.1598 R,2,216135,221590,-0.1047278,-0.01163696 M,1,221590,228408,224.6112,241.1598,265.9203,242.9053 R,1,221590,228408,-0.01163696,0.01154981
Sprite,Background,Centre,"sb\visual\square.jpg",320,240 M,0,64431,,320,240 F,0,64431,,0.63 C,0,64431,,0,0,0 V,19,64431,64771,0,0.53,5.5,0.53 V,0,64771,69885,5.5,0.53 V,1,69885,70226,5.5,0.53,6.8,0.53 F,0,86590,,0.63
Sprite,Background,Centre,"sb\lyrics\39.png",320,240 S,0,64431,,0.8487 M,1,64431,64771,320,256.8727,320,240 F,0,64431,64771,0,1 F,0,64771,66817,1 F,0,66817,67158,1,0
Sprite,Background,Centre,"sb\lyrics\40.png",320,240 M,0,67158,,320,240 S,0,67158,,0.8487 F,0,67158,67499,0,1 F,0,67499,69544,1 F,0,69544,69885,1,0
Sprite,Background,Centre,"sb\lyrics\41.png",320,240 M,0,69885,,88.43636,241.1636 S,0,69885,,0.82 F,0,69885,70226,0,1 F,0,70226,74317,1
Sprite,Background,Centre,"sb\lyrics\42.png",320,240 M,0,71590,,497.4545,240 S,0,71590,,0.82 F,0,71590,71931,0,1 F,0,71931,74317,1
Sprite,Background,Centre,"sb\lyrics\43.png",320,240 S,0,74317,,0.82 F,0,74317,74658,0,1 M,0,74317,77044,434.6182,240,208.2909,240 F,0,74658,76703,1 F,0,76703,77044,1,0
Sprite,Background,Centre,"sb\lyrics\44.png",320,240 S,0,77044,,0.82 F,0,77044,77385,0,1 M,0,77044,79771,384.5818,240,260.6545,240 F,0,77385,79431,1 F,0,79431,79771,1,0
Sprite,Background,Centre,"sb\lyrics\6.png",320,240 S,0,79771,,0.87 F,0,79771,80112,0,1 M,0,79771,81135,466.6181,240,139.6364,240 F,0,80112,80794,1 F,0,80794,81135,1,0
Sprite,Background,Centre,"sb\lyrics\45.png",320,240 S,0,81135,,0.87 F,0,81135,81476,0,1 M,0,81135,83181,493.3818,240,114.6182,240 F,0,81476,82840,1 F,0,82840,83181,1,0
Sprite,Background,Centre,"sb\lyrics\46.png",320,240 S,0,83181,,0.87 F,0,83181,83521,0,1 M,0,83181,86590,445.0909,240,162.9091,240
Sprite,Background,Centre,"sb\visual\square.jpg",320,240 M,0,138067,,320,240 F,0,138067,,0.63 C,0,138067,,0,0,0 V,19,138067,138408,0,0.53,3.1,0.53 V,0,138408,140794,3.1,0.53 V,0,140794,141135,3.1,0.53,3.705091,0.53 V,0,141135,143521,3.7,0.53 V,0,143521,147953,3.7,0.53 V,0,147953,148294,3.7,0.53,5.2,0.53 F,0,160227,,0.63
Sprite,Background,Centre,"sb\lyrics\68.png",320,240 S,0,138067,,0.8487 M,1,138067,138408,320,256.8727,320,240 F,0,138067,138408,0,1 F,0,138408,140453,1 F,0,140453,140794,1,0
Sprite,Background,Centre,"sb\lyrics\69.png",320,240 M,0,140794,,320,240 S,0,140794,,0.8487 F,0,140794,141135,0,1 F,0,141135,143181,1 F,0,143181,143521,1,0
Sprite,Background,Centre,"sb\lyrics\70.png",320,240 M,0,143521,,320,240 S,0,143521,,0.82 F,0,143521,143862,0,1 F,0,143862,147953,1
Sprite,Background,Centre,"sb\lyrics\71.png",320,240 M,0,147953,,320,240 S,0,147953,,0.82 F,0,147953,148294,0,1 F,0,148294,150340,1 F,0,150340,150681,1,0
Sprite,Background,Centre,"sb\lyrics\72.png",320,240 S,0,150681,,0.82 F,0,150681,151021,0,1 F,0,151021,153067,1 F,0,153067,153408,1,0
Sprite,Background,Centre,"sb\lyrics\6.png",320,240 S,0,153408,,0.87 F,0,153408,153749,0,1 M,0,153408,154771,469.5273,240,170.4727,241.1636 F,0,153749,154431,1 F,0,154431,154771,1,0
Sprite,Background,Centre,"sb\lyrics\45.png",320,240 S,0,154771,,0.87 F,0,154771,155112,0,1 M,0,154771,156817,492.8,240,146.6182,240 F,0,155112,156476,1 F,0,156476,156817,1,0
Sprite,Background,Centre,"sb\lyrics\46.png",320,240 S,0,156817,,0.87 F,0,156817,157158,0,1 M,0,156817,160226,442.1818,240,197.2364,240
Sprite,Background,Centre,"sb\lyrics\39.png",320,240 M,0,206249,,320,240 S,0,206249,,0.8429089 F,0,206249,206590,0,1 F,0,206590,208635,1 F,0,208635,208976,1,0
Sprite,Background,Centre,"sb\visual\square.jpg",320,240 M,0,210681,,320,240 F,0,210681,,0.63 C,0,210681,,0,0,0 V,0,210681,,5.5,0.53 V,1,211703,212044,5.5,0.53,6.8,0.53 F,0,228408,,0.63
Sprite,Background,Centre,"sb\lyrics\40.png",320,240 M,0,208976,,320,240 S,0,208976,,0.8487 F,0,208976,209317,0,1 F,0,209317,211362,1 F,0,211362,211703,1,0
Sprite,Background,Centre,"sb\lyrics\41.png",320,240 M,0,211703,,88.43636,241.1636 S,0,211703,,0.82 F,0,211703,212044,0,1 F,0,212044,216135,1
Sprite,Background,Centre,"sb\lyrics\42.png",320,240 M,0,213408,,497.4545,240 S,0,213408,,0.82 F,0,213408,213749,0,1 F,0,213749,216135,1
Sprite,Background,Centre,"sb\lyrics\43.png",320,240 S,0,216135,,0.82 F,0,216135,216476,0,1 M,0,216135,218862,434.6182,240,208.2909,240 F,0,216476,218521,1 F,0,218521,218862,1,0
Sprite,Background,Centre,"sb\lyrics\44.png",320,240 S,0,218862,,0.82 F,0,218862,219203,0,1 M,0,218862,221590,384.5818,240,260.6545,240 F,0,219203,221249,1 F,0,221249,221590,1,0
Sprite,Background,Centre,"sb\lyrics\6.png",320,240 S,0,221590,,0.87 F,0,221590,221931,0,1 M,0,221590,222952,466.6181,240,139.6364,240 F,0,221931,222621,1 F,0,222621,222952,1,0
Sprite,Background,Centre,"sb\lyrics\45.png",320,240 S,0,222952,,0.87 F,0,222952,223249,0,1 M,0,222952,224658,493.3818,240,114.6182,240 F,0,223249,224372,1 F,0,224372,224658,1,0
Sprite,Background,Centre,"sb\lyrics\46.png",320,240 S,0,224999,,0.87 F,0,224999,225340,0,1 M,0,224999,228408,445.0909,240,162.9091,240
Sprite,Background,Centre,"sb\visual\circleB.png",369,296 C,0,11590,,204,165,89 F,2,11590,11790,1,0 S,2,11590,11790,1,0.2 P,0,11590,11790,A
Sprite,Background,Centre,"sb\visual\circleB.png",457,198 C,0,11760,,204,165,89 F,2,11760,11960,1,0 S,2,11760,11960,1,0.2 P,0,11760,11960,A
Sprite,Background,Centre,"sb\visual\circleB.png",549,403 C,0,11931,,204,165,89 F,2,11931,12131,1,0 S,2,11931,12131,1,0.2 P,0,11931,12131,A
Sprite,Background,Centre,"sb\visual\circleB.png",475,307 C,0,12101,,204,165,89 F,2,12101,12301,1,0 S,2,12101,12301,1,0.2 P,0,12101,12301,A
Sprite,Background,Centre,"sb\visual\circleB.png",270,359 C,0,12271,,204,165,89 F,2,12271,12471,1,0 S,2,12271,12471,1,0.2 P,0,12271,12471,A
Sprite,Background,Centre,"sb\visual\circleB.png",410,424 C,0,12442,,204,165,89 F,2,12442,12642,1,0 S,2,12442,12642,1,0.2 P,0,12442,12642,A
Sprite,Background,Centre,"sb\visual\circleB.png",345,141 C,0,12612,,204,165,89 F,2,12612,12812,1,0 S,2,12612,12812,1,0.2 P,0,12612,12812,A
Sprite,Background,Centre,"sb\visual\circleB.png",369,296 C,0,12783,,204,165,89 F,2,12783,12983,1,0 S,2,12783,12983,1,0.2 P,0,12783,12983,A
Sprite,Background,Centre,"sb\visual\circleB.png",0,0 C,0,14317,,204,165,89 M,0,14317,14359,487,100,486.798,119.999 F,2,14317,14687,1,0 S,2,14317,14687,1,0.2 P,0,14317,14687,A M,0,14359,14402,486.798,119.999,486.596,139.998 M,0,14402,14444,486.596,139.998,486.394,159.9969 M,0,14444,14487,486.394,159.9969,486.192,179.9959
Sprite,Background,Centre,"sb\visual\circleB.png",557,283 C,0,14658,,204,165,89 F,2,14658,14858,1,0 S,2,14658,14858,1,0.2 P,0,14658,14858,A
Sprite,Background,Centre,"sb\visual\circleB.png",0,0 C,0,14828,,204,165,89 M,0,14828,14870,307,336,302.9055,316.4481 F,2,14828,15198,1,0 S,2,14828,15198,1,0.2 P,0,14828,15198,A M,0,14870,14913,302.9055,316.4481,301.2502,296.5503 M,0,14913,14955,301.2502,296.5503,302.0573,276.6049 M,0,14955,14998,302.0573,276.6049,305.2324,256.8973
Sprite,Background,Centre,"sb\visual\circleB.png",351,151 C,0,15169,,204,165,89 F,2,15169,15369,1,0 S,2,15169,15369,1,0.2 P,0,15169,15369,A
Sprite,Background,Centre,"sb\visual\circleB.png",414,406 C,0,15340,,204,165,89 F,2,15340,15540,1,0 S,2,15340,15540,1,0.2 P,0,15340,15540,A
Sprite,Background,Centre,"sb\visual\circleB.png",185,314 C,0,15510,,204,165,89 F,2,15510,15710,1,0 S,2,15510,15710,1,0.2 P,0,15510,15710,A
Sprite,Background,Centre,"sb\visual\circleB.png",449,286 C,0,15681,,204,165,89 F,2,15681,15881,1,0 S,2,15681,15881,1,0.2 P,0,15681,15881,A
Sprite,Background,Centre,"sb\visual\circleB.png",225,398 C,0,15851,,204,165,89 F,2,15851,16051,1,0 S,2,15851,16051,1,0.2 P,0,15851,16051,A
Sprite,Background,Centre,"sb\visual\circleB.png",467,288 C,0,16021,,204,165,89 F,2,16021,16221,1,0 S,2,16021,16221,1,0.2 P,0,16021,16221,A
Sprite,Background,Centre,"sb\visual\circleB.png",214,179 C,0,16192,,204,165,89 F,2,16192,16392,1,0 S,2,16192,16392,1,0.2 P,0,16192,16392,A
Sprite,Background,Centre,"sb\visual\circleB.png",0,0 C,0,16362,,204,165,89 M,0,16362,16404,414,406,433.5943,401.9921 F,2,16362,16732,1,0 S,2,16362,16732,1,0.2 P,0,16362,16732,A M,0,16404,16447,433.5943,401.9921,453.1886,397.9842 M,0,16447,16489,453.1886,397.9842,472.7829,393.9762 M,0,16489,16532,472.7829,393.9762,492.3772,389.9683
Sprite,Background,Centre,"sb\visual\circleB.png",459,141 C,0,16703,,204,165,89 F,2,16703,16903,1,0 S,2,16703,16903,1,0.2 P,0,16703,16903,A
Sprite,Background,Centre,"sb\visual\circleB.png",285,268 C,0,16874,,204,165,89 F,2,16874,17074,1,0 S,2,16874,17074,1,0.2 P,0,16874,17074,A
Sprite,Background,Centre,"sb\visual\circleB.png",285,268 C,0,16959,,204,165,89 F,2,16959,17159,1,0 S,2,16959,17159,1,0.2 P,0,16959,17159,A
Sprite,Background,Centre,"sb\visual\circleB.png",416,300 C,0,55226,,204,165,89 F,2,55226,55426,1,0 S,2,55226,55426,1,0.2 P,0,55226,55426,A
Sprite,Background,Centre,"sb\visual\circleB.png",0,0 C,0,56249,,204,165,89 M,0,56249,56291,354,127,344,127 F,2,56249,56619,1,0 S,2,56249,56619,1,0.2 P,0,56249,56619,A M,0,56291,56334,344,127,334,127 M,0,56334,56376,334,127,324,127 M,0,56376,56419,324,127,314,127
Sprite,Background,Centre,"sb\visual\circleB.png",0,0 C,0,56590,,204,165,89 M,0,56590,56632,181,135,177.8362,149.6257 F,2,56590,57130,1,0 S,2,56590,57130,1,0.2 P,0,56590,57130,A M,0,56632,56675,177.8362,149.6257,176.4873,164.5048 M,0,56675,56717,176.4873,164.5048,177.2954,179.4301 M,0,56717,56760,177.2954,179.4301,180.2467,194.0938 M,0,56760,56803,180.2467,194.0938,185.2841,208.1925 M,0,56803,56845,185.2841,208.1925,192.6097,221.2385 M,0,56845,56888,192.6097,221.2385,201.5284,233.2209 M,0,56888,56930,201.5284,233.2209,212.0828,243.7974
Sprite,Background,Centre,"sb\visual\circleB.png",0,0 C,0,57101,,204,165,89 M,0,57101,57143,94,343,109.6959,336.5654 F,2,57101,57982,1,0 S,2,57101,57982,1,0.2 P,0,57101,57982,A M,0,57143,57186,109.6959,336.5654,126.4965,334.4068 M,0,57186,57228,126.4965,334.4068,143.3009,336.7371 M,0,57228,57271,143.3009,336.7371,159.6787,341.2878 M,0,57271,57314,159.6787,341.2878,176.2205,345.1618 M,0,57314,57356,176.2205,345.1618,193.1595,346.1216 M,0,57356,57399,193.1595,346.1216,209.902,343.3711 M,0,57399,57441,209.902,343.3711,225.8341,337.4967 M,0,57441,57484,225.8341,337.4967,209.9021,343.3711 M,0,57484,57527,209.9021,343.3711,193.1595,346.1216 M,0,57527,57569,193.1595,346.1216,176.2205,345.1618 M,0,57569,57612,176.2205,345.1618,159.6787,341.2878 M,0,57612,57654,159.6787,341.2878,143.3009,336.7371 M,0,57654,57697,143.3009,336.7371,126.4965,334.4068 M,0,57697,57740,126.4965,334.4068,109.6959,336.5654 M,0,57740,57782,109.6959,336.5654,94,343
Sprite,Background,Centre,"sb\visual\circleB.png",212,244 C,0,57953,,204,165,89 F,2,57953,58153,1,0 S,2,57953,58153,1,0.2 P,0,57953,58153,A
Sprite,Background,Centre,"sb\visual\circleB.png",327,279 C,0,58124,,204,165,89 F,2,58124,58324,1,0 S,2,58124,58324,1,0.2 P,0,58124,58324,A
Sprite,Background,Centre,"sb\visual\circleB.png",225,337 C,0,58294,,204,165,89 F,2,58294,58494,1,0 S,2,58294,58494,1,0.2 P,0,58294,58494,A
Sprite,Background,Centre,"sb\visual\circleB.png",285,188 C,0,58465,,204,165,89 F,2,58465,58665,1,0 S,2,58465,58665,1,0.2 P,0,58465,58665,A
Sprite,Background,Centre,"sb\visual\circleB.png",423,297 C,0,58635,,204,165,89 F,2,58635,58835,1,0 S,2,58635,58835,1,0.2 P,0,58635,58835,A
Sprite,Background,Centre,"sb\visual\circleB.png",289,392 C,0,58806,,204,165,89 F,2,58806,59006,1,0 S,2,58806,59006,1,0.2 P,0,58806,59006,A
Sprite,Background,Centre,"sb\visual\circleB.png",361,135 C,0,58976,,204,165,89 F,2,58976,59176,1,0 S,2,58976,59176,1,0.2 P,0,58976,59176,A
Sprite,Background,Centre,"sb\visual\circleB.png",552,299 C,0,59146,,204,165,89 F,2,59146,59346,1,0 S,2,59146,59346,1,0.2 P,0,59146,59346,A
Sprite,Background,Centre,"sb\visual\circleB.png",375,404 C,0,59317,,204,165,89 F,2,59317,59517,1,0 S,2,59317,59517,1,0.2 P,0,59317,59517,A
Sprite,Background,Centre,"sb\visual\circleB.png",448,69 C,0,59487,,204,165,89 F,2,59487,59687,1,0 S,2,59487,59687,1,0.2 P,0,59487,59687,A
Sprite,Background,Centre,"sb\visual\circleB.png",483,427 C,0,59658,,204,165,89 F,2,59658,59858,1,0 S,2,59658,59858,1,0.2 P,0,59658,59858,A
Sprite,Background,Centre,"sb\visual\circleB.png",555,128 C,0,59828,,204,165,89 F,2,59828,60028,1,0 S,2,59828,60028,1,0.2 P,0,59828,60028,A
Sprite,Background,Centre,"sb\visual\circleB.png",323,215 C,0,59999,,204,165,89 F,2,59999,60199,1,0 S,2,59999,60199,1,0.2 P,0,59999,60199,A
Sprite,Background,Centre,"sb\visual\circleB.png",572,223 C,0,60169,,204,165,89 F,2,60169,60369,1,0 S,2,60169,60369,1,0.2 P,0,60169,60369,A
Sprite,Background,Centre,"sb\visual\circleB.png",325,119 C,0,60340,,204,165,89 F,2,60340,60540,1,0 S,2,60340,60540,1,0.2 P,0,60340,60540,A
Sprite,Background,Centre,"sb\visual\circleB.png",442,294 C,0,60510,,204,165,89 F,2,60510,60710,1,0 S,2,60510,60710,1,0.2 P,0,60510,60710,A
Sprite,Background,Centre,"sb\visual\circleB.png",448,69 C,0,60681,,204,165,89 F,2,60681,60881,1,0 S,2,60681,60881,1,0.2 P,0,60681,60881,A
Sprite,Background,Centre,"sb\visual\circleB.png",300,309 C,0,60851,,204,165,89 F,2,60851,61051,1,0 S,2,60851,61051,1,0.2 P,0,60851,61051,A
Sprite,Background,Centre,"sb\visual\circleB.png",572,223 C,0,61021,,204,165,89 F,2,61021,61221,1,0 S,2,61021,61221,1,0.2 P,0,61021,61221,A
Sprite,Background,Centre,"sb\visual\circleB.png",203,209 C,0,61192,,204,165,89 F,2,61192,61392,1,0 S,2,61192,61392,1,0.2 P,0,61192,61392,A
Sprite,Background,Centre,"sb\visual\circleB.png",514,154 C,0,61362,,204,165,89 F,2,61362,61562,1,0 S,2,61362,61562,1,0.2 P,0,61362,61562,A
Sprite,Background,Centre,"sb\visual\circleB.png",326,314 M,0,61533,,390.5818,372.7636 C,0,61533,,204,165,89 F,2,61533,61733,1,0 S,2,61533,61733,1,0.2 P,0,61533,61733,A
Sprite,Background,Centre,"sb\visual\circleB.png",214,89 C,0,61703,,204,165,89 F,2,61703,61903,1,0 S,2,61703,61903,1,0.2 P,0,61703,61903,A
Sprite,Background,Centre,"sb\visual\circleB.png",548,76 C,0,61874,,204,165,89 F,2,61874,62074,1,0 S,2,61874,62074,1,0.2 P,0,61874,62074,A
Sprite,Background,Centre,"sb\visual\circleB.png",548,76 C,0,61959,,204,165,89 F,2,61959,62159,1,0 S,2,61959,62159,1,0.2 P,0,61959,62159,A
Sprite,Background,Centre,"sb\visual\circleB.png",552,216 C,0,128862,,204,165,89 F,2,128862,129062,1,0 S,2,128862,129062,1,0.2 P,0,128862,129062,A
Sprite,Background,Centre,"sb\visual\circleB.png",0,0 C,0,129885,,204,165,89 M,0,129885,129927,164,75,164,85 F,2,129885,130255,1,0 S,2,129885,130255,1,0.2 P,0,129885,130255,A M,0,129927,129970,164,85,164,95 M,0,129970,130012,164,95,164,105 M,0,130012,130055,164,105,164,115
Sprite,Background,Centre,"sb\visual\circleB.png",0,0 C,0,130226,,204,165,89 M,0,130226,130268,104,232,116.9905,239.4234 F,2,130226,130766,1,0 S,2,130226,130766,1,0.2 P,0,130226,130766,A M,0,130268,130311,116.9905,239.4234,130.7841,245.1556 M,0,130311,130353,130.7841,245.1556,145.2793,248.7952 M,0,130353,130396,145.2793,248.7952,160.1644,250.2606 M,0,130396,130439,160.1644,250.2606,175.1188,249.5156 M,0,130439,130481,175.1188,249.5156,189.7055,246.1928 M,0,130481,130524,189.7055,246.1928,203.7158,241.0204 M,0,130524,130566,203.7158,241.0204,216.9248,233.991
Sprite,Background,Centre,"sb\visual\circleB.png",0,0 C,0,130737,,204,165,89 M,0,130737,130779,280,304,288.6208,289.3674 F,2,130737,131618,1,0 S,2,130737,131618,1,0.2 P,0,130737,131618,A M,0,130779,130822,288.6208,289.3674,295.1512,273.694 M,0,130822,130864,295.1512,273.694,299.4687,257.2762 M,0,130864,130907,299.4687,257.2762,301.4926,240.4248 M,0,130907,130950,301.4926,240.4248,301.1855,223.4581 M,0,130950,130992,301.1855,223.4581,298.554,206.6969 M,0,130992,131035,298.554,206.6969,293.6485,190.4577 M,0,131035,131077,293.6485,190.4577,286.5625,175.0474 M,0,131077,131120,286.5625,175.0474,293.6485,190.4577 M,0,131120,131163,293.6485,190.4577,298.554,206.6969 M,0,131163,131205,298.554,206.6969,301.1855,223.4581 M,0,131205,131248,301.1855,223.4581,301.4926,240.4248 M,0,131248,131290,301.4926,240.4248,299.4687,257.2762 M,0,131290,131333,299.4687,257.2762,295.1512,273.694 M,0,131333,131376,295.1512,273.694,288.6208,289.3674 M,0,131376,131418,288.6208,289.3674,280,304
Sprite,Background,Centre,"sb\visual\circleB.png",380,216 C,0,131590,,204,165,89 F,2,131590,131790,1,0 S,2,131590,131790,1,0.2 P,0,131590,131790,A
Sprite,Background,Centre,"sb\visual\circleB.png",204,144 C,0,131760,,204,165,89 F,2,131760,131960,1,0 S,2,131760,131960,1,0.2 P,0,131760,131960,A
Sprite,Background,Centre,"sb\visual\circleB.png",396,72 C,0,131931,,204,165,89 F,2,131931,132131,1,0 S,2,131931,132131,1,0.2 P,0,131931,132131,A
Sprite,Background,Centre,"sb\visual\circleB.png",280,260 C,0,132101,,204,165,89 F,2,132101,132301,1,0 S,2,132101,132301,1,0.2 P,0,132101,132301,A
Sprite,Background,Centre,"sb\visual\circleB.png",557,189 C,0,132271,,204,165,89 F,2,132271,132471,1,0 S,2,132271,132471,1,0.2 P,0,132271,132471,A
Sprite,Background,Centre,"sb\visual\circleB.png",300,112 C,0,132442,,204,165,89 F,2,132442,132642,1,0 S,2,132442,132642,1,0.2 P,0,132442,132642,A
Sprite,Background,Centre,"sb\visual\circleB.png",475,314 C,0,132612,,204,165,89 F,2,132612,132812,1,0 S,2,132612,132812,1,0.2 P,0,132612,132812,A
Sprite,Background,Centre,"sb\visual\circleB.png",160,272 C,0,132783,,204,165,89 F,2,132783,132983,1,0 S,2,132783,132983,1,0.2 P,0,132783,132983,A
Sprite,Background,Centre,"sb\visual\circleB.png",447,184 C,0,132953,,204,165,89 F,2,132953,133153,1,0 S,2,132953,133153,1,0.2 P,0,132953,133153,A
Sprite,Background,Centre,"sb\visual\circleB.png",237,368 C,0,133124,,204,165,89 F,2,133124,133324,1,0 S,2,133124,133324,1,0.2 P,0,133124,133324,A
Sprite,Background,Centre,"sb\visual\circleB.png",281,130 C,0,133294,,204,165,89 F,2,133294,133494,1,0 S,2,133294,133494,1,0.2 P,0,133294,133494,A
Sprite,Background,Centre,"sb\visual\circleB.png",563,369 C,0,133465,,204,165,89 F,2,133465,133665,1,0 S,2,133465,133665,1,0.2 P,0,133465,133665,A
Sprite,Background,Centre,"sb\visual\circleB.png",367,323 C,0,133635,,204,165,89 F,2,133635,133835,1,0 S,2,133635,133835,1,0.2 P,0,133635,133835,A
Sprite,Background,Centre,"sb\visual\circleB.png",470,427 C,0,133806,,204,165,89 F,2,133806,134006,1,0 S,2,133806,134006,1,0.2 P,0,133806,134006,A
Sprite,Background,Centre,"sb\visual\circleB.png",447,184 C,0,133976,,204,165,89 F,2,133976,134176,1,0 S,2,133976,134176,1,0.2 P,0,133976,134176,A
Sprite,Background,Centre,"sb\visual\circleB.png",484,327 C,0,134146,,204,165,89 F,2,134146,134346,1,0 S,2,134146,134346,1,0.2 P,0,134146,134346,A
Sprite,Background,Centre,"sb\visual\circleB.png",547,102 C,0,134317,,204,165,89 F,2,134317,134517,1,0 S,2,134317,134517,1,0.2 P,0,134317,134517,A
Sprite,Background,Centre,"sb\visual\circleB.png",275,193 C,0,134487,,204,165,89 F,2,134487,134687,1,0 S,2,134487,134687,1,0.2 P,0,134487,134687,A
Sprite,Background,Centre,"sb\visual\circleB.png",563,236 C,0,134658,,204,165,89 F,2,134658,134858,1,0 S,2,134658,134858,1,0.2 P,0,134658,134858,A
Sprite,Background,Centre,"sb\visual\circleB.png",134,113 C,0,134828,,204,165,89 F,2,134828,135028,1,0 S,2,134828,135028,1,0.2 P,0,134828,135028,A
Sprite,Background,Centre,"sb\visual\circleB.png",447,184 C,0,134999,,204,165,89 F,2,134999,135199,1,0 S,2,134999,135199,1,0.2 P,0,134999,135199,A
Sprite,Background,Centre,"sb\visual\circleB.png",182,339 C,0,135169,,204,165,89 F,2,135169,135369,1,0 S,2,135169,135369,1,0.2 P,0,135169,135369,A
Sprite,Background,Centre,"sb\visual\circleB.png",285,61 C,0,135340,,204,165,89 F,2,135340,135540,1,0 S,2,135340,135540,1,0.2 P,0,135340,135540,A
Sprite,Background,Centre,"sb\visual\circleB.png",493,375 C,0,135510,,204,165,89 F,2,135510,135710,1,0 S,2,135510,135710,1,0.2 P,0,135510,135710,A
Sprite,Background,Centre,"sb\visual\circleB.png",502,387 C,0,135595,,204,165,89 F,2,135595,135795,1,0 S,2,135595,135795,1,0.2 P,0,135595,135795,A
Sprite,Background,Centre,"sb\visual\circleB.png",368,244 C,0,199771,,204,165,89 F,2,199771,199971,1,0 S,2,199771,199971,1,0.2 P,0,199771,199971,A
Sprite,Background,Centre,"sb\visual\circleB.png",200,136 C,0,200112,,204,165,89 F,2,200112,200312,1,0 S,2,200112,200312,1,0.2 P,0,200112,200312,A
Sprite,Background,Centre,"sb\visual\circleB.png",302,291 C,0,200283,,204,165,89 F,2,200283,200483,1,0 S,2,200283,200483,1,0.2 P,0,200283,200483,A
Sprite,Background,Centre,"sb\visual\circleB.png",432,172 C,0,200453,,204,165,89 F,2,200453,200653,1,0 S,2,200453,200653,1,0.2 P,0,200453,200653,A
Sprite,Background,Centre,"sb\visual\circleB.png",138,209 C,0,200624,,204,165,89 F,2,200624,200824,1,0 S,2,200624,200824,1,0.2 P,0,200624,200824,A
Sprite,Background,Centre,"sb\visual\circleB.png",375,103 C,0,200794,,204,165,89 F,2,200794,200994,1,0 S,2,200794,200994,1,0.2 P,0,200794,200994,A
Sprite,Background,Centre,"sb\visual\circleB.png",155,295 C,0,200965,,204,165,89 F,2,200965,201165,1,0 S,2,200965,201165,1,0.2 P,0,200965,201165,A
Sprite,Background,Centre,"sb\visual\circleB.png",292,56 C,0,201135,,204,165,89 F,2,201135,201335,1,0 S,2,201135,201335,1,0.2 P,0,201135,201335,A
Sprite,Background,Centre,"sb\visual\circleB.png",220,360 C,0,201306,,204,165,89 F,2,201306,201506,1,0 S,2,201306,201506,1,0.2 P,0,201306,201506,A
Sprite,Background,Centre,"sb\visual\circleB.png",204,99 C,0,201476,,204,165,89 F,2,201476,201676,1,0 S,2,201476,201676,1,0.2 P,0,201476,201676,A
Sprite,Background,Centre,"sb\visual\circleB.png",310,401 C,0,201646,,204,165,89 F,2,201646,201846,1,0 S,2,201646,201846,1,0.2 P,0,201646,201846,A
Sprite,Background,Centre,"sb\visual\circleB.png",375,123 C,0,201817,,204,165,89 F,2,201817,202017,1,0 S,2,201817,202017,1,0.2 P,0,201817,202017,A
Sprite,Background,Centre,"sb\visual\circleB.png",330,417 C,0,201987,,204,165,89 F,2,201987,202187,1,0 S,2,201987,202187,1,0.2 P,0,201987,202187,A
Sprite,Background,Centre,"sb\visual\circleB.png",285,152 C,0,202158,,204,165,89 F,2,202158,202358,1,0 S,2,202158,202358,1,0.2 P,0,202158,202358,A
Sprite,Background,Centre,"sb\visual\circleB.png",347,434 C,0,202328,,204,165,89 F,2,202328,202528,1,0 S,2,202328,202528,1,0.2 P,0,202328,202528,A
Sprite,Background,Centre,"sb\visual\circleB.png",480,144 C,0,202499,,204,165,89 F,2,202499,202699,1,0 S,2,202499,202699,1,0.2 P,0,202499,202699,A
Sprite,Background,Centre,"sb\visual\circleB.png",0,0 C,0,202669,,204,165,89 M,0,202669,202711,452,248,446.5056,267.2305 F,2,202669,203039,1,0 S,2,202669,203039,1,0.2 P,0,202669,203039,A M,0,202711,202754,446.5056,267.2305,441.0112,286.4609 M,0,202754,202796,441.0112,286.4609,435.5167,305.6914 M,0,202796,202839,435.5167,305.6914,430.0223,324.9219
Sprite,Background,Centre,"sb\visual\circleB.png",360,60 C,0,203010,,204,165,89 F,2,203010,203210,1,0 S,2,203010,203210,1,0.2 P,0,203010,203210,A
Sprite,Background,Centre,"sb\visual\circleB.png",0,0 C,0,203180,,204,165,89 M,0,203180,203222,324,164,318.5056,183.2305 F,2,203180,203550,1,0 S,2,203180,203550,1,0.2 P,0,203180,203550,A M,0,203222,203265,318.5056,183.2305,313.0112,202.461 M,0,203265,203307,313.0112,202.461,307.5167,221.6914 M,0,203307,203350,307.5167,221.6914,302.0223,240.9219
Sprite,Background,Centre,"sb\visual\circleB.png",292,280 C,0,203436,,204,165,89 F,2,203436,203636,1,0 S,2,203436,203636,1,0.2 P,0,203436,203636,A
Sprite,Background,Centre,"sb\visual\circleB.png",0,0 C,0,203521,,204,165,89 M,0,203521,203563,292,280,272.1766,282.5439 F,2,203521,203806,1,0 S,2,203521,203806,1,0.2 P,0,203521,203806,A M,0,203563,203606,272.1766,282.5439,252.6752,286.8956
Sprite,Background,Centre,"sb\visual\circleB.png",0,0 C,0,203692,,204,165,89 M,0,203692,203734,88,140,100.4243,155.6557 F,2,203692,203977,1,0 S,2,203692,203977,1,0.2 P,0,203692,203977,A M,0,203734,203777,100.4243,155.6557,111.3842,172.3634
//Storyboard Layer 1 (Fail)
//Storyboard Layer 2 (Pass)
//Storyboard Layer 3 (Foreground)
Sprite,Foreground,Centre,"sb\titles\InternalLight.png",320,240 S,0,229793,,0.3534546 M,0,229793,235226,604.5091,230.1091,605.6727,262.6909
Sprite,Foreground,Centre,"sb\titles\and.png",320,240 S,0,229793,,0.4 M,0,229797,,565.5264,245.8422 M,0,229797,235226,565.5264,245.8422,566.6908,278.9818
Sprite,Foreground,Centre,"sb\titles\PantyDev.png",320,240 S,0,229793,,0.3359998 M,0,229793,235226,631.8546,249.8909,631.8546,282.4727
Sprite,Foreground,TopLeft,"sb\titles\InternalLight.png",320,240 M,0,0,,568,378 C,0,0,,0,0,0 F,0,0,681,0,1 S,1,0,681,0.3,0.55 R,1,0,681,-0.5,0 F,0,27271,27953,1,0 S,2,27271,27953,0.55,0.3 R,2,27271,27953,0,-0.5 F,0,57953,58635,0,1 S,1,57953,58635,0.3,0.55 R,1,57953,58635,-0.5,0 F,0,100908,101590,1,0 S,2,100908,101590,0.55,0.3 R,2,100908,101590,0,-0.5 F,0,131590,132271,0,1 S,1,131590,132271,0.3,0.55 R,1,131590,132271,-0.5,0 F,0,159544,160226,1,0 S,2,159544,160226,0.55,0.3 R,2,159544,160226,0,-0.5 F,0,207953,208635,0,1 S,1,207953,208635,0.3,0.55 R,1,207953,208635,-0.5,0 F,0,227726,228408,1,0 S,2,227726,228408,0.55,0.3 R,2,227726,228408,0,-0.5
Sprite,Foreground,TopLeft,"sb\titles\PantyDev.png",320,240 M,0,0,,568,378 C,0,0,,0,0,0 F,0,27953,28635,0,1 S,1,27953,28635,0.3,0.55 R,1,27953,28635,-0.5,0 F,0,57271,57953,1,0 S,2,57271,57953,0.55,0.3 R,2,57271,57953,0,-0.5 F,0,101590,102271,0,1 S,1,101590,102271,0.3,0.55 R,1,101590,102271,-0.5,0 F,0,130908,131590,1,0 S,2,130908,131590,0.55,0.3 R,2,130908,131590,0,-0.5 F,0,160226,160908,0,1 S,1,160226,160908,0.3,0.55 R,1,160226,160908,-0.5,0 F,0,207271,207953,1,0 S,2,207271,207953,0.55,0.3 R,2,207271,207953,0,-0.5 F,0,228408,229090,0,1 S,1,228408,229090,0.3,0.55 R,1,228408,229090,-0.5,0 F,0,243408,244090,1,0 S,2,243408,244090,0.55,0.3 R,2,243408,244090,0,-0.5
Sprite,Foreground,TopLeft,"sb\titles\InternalLight.png",320,240 M,0,0,,570,380 F,0,0,681,0,1 S,1,0,681,0.3,0.55 R,1,0,681,-0.5,0 F,0,27271,27953,1,0 S,2,27271,27953,0.55,0.3 R,2,27271,27953,0,-0.5 F,0,57953,58635,0,1 S,1,57953,58635,0.3,0.55 R,1,57953,58635,-0.5,0 F,0,100908,101590,1,0 S,2,100908,101590,0.55,0.3 R,2,100908,101590,0,-0.5 F,0,131590,132271,0,1 S,1,131590,132271,0.3,0.55 R,1,131590,132271,-0.5,0 F,0,159544,160226,1,0 S,2,159544,160226,0.55,0.3 R,2,159544,160226,0,-0.5 F,0,207953,208635,0,1 S,1,207953,208635,0.3,0.55 R,1,207953,208635,-0.5,0 F,0,227726,228408,1,0 S,2,227726,228408,0.55,0.3 R,2,227726,228408,0,-0.5
Sprite,Foreground,TopLeft,"sb\titles\PantyDev.png",320,240 M,0,0,,570,380 F,0,27953,28635,0,1 S,1,27953,28635,0.3,0.55 R,1,27953,28635,-0.5,0 F,0,57271,57953,1,0 S,2,57271,57953,0.55,0.3 R,2,57271,57953,0,-0.5 F,0,101590,102271,0,1 S,1,101590,102271,0.3,0.55 R,1,101590,102271,-0.5,0 F,0,130908,131590,1,0 S,2,130908,131590,0.55,0.3 R,2,130908,131590,0,-0.5 F,0,160226,160908,0,1 S,1,160226,160908,0.3,0.55 R,1,160226,160908,-0.5,0 F,0,207271,207953,1,0 S,2,207271,207953,0.55,0.3 R,2,207271,207953,0,-0.5 F,0,228408,229090,0,1 S,1,228408,229090,0.3,0.55 R,1,228408,229090,-0.5,0 F,0,243408,244090,1,0 S,2,243408,244090,0.55,0.3 R,2,243408,244090,0,-0.5
//Storyboard Sound Samples

[TimingPoints]
681,340.909090909091,4,2,1,55,1,0
681,-133.333333333333,4,2,1,55,0,0
851,-133.333333333333,4,2,2,55,0,0
1021,-133.333333333333,4,2,3,55,0,0
1192,-133.333333333333,4,2,2,55,0,0
1362,-133.333333333333,4,2,4,55,0,0
1533,-133.333333333333,4,2,2,55,0,0
1703,-133.333333333333,4,2,3,55,0,0
1874,-133.333333333333,4,2,2,55,0,0
2044,-133.333333333333,4,2,5,55,0,0
2215,-133.333333333333,4,2,2,55,0,0
2385,-133.333333333333,4,2,3,55,0,0
2556,-133.333333333333,4,2,2,55,0,0
2726,-133.333333333333,4,2,6,55,0,0
2896,-133.333333333333,4,2,2,55,0,0
3067,-133.333333333333,4,2,3,55,0,0
3237,-133.333333333333,4,2,2,55,0,0
3408,-133.333333333333,4,2,1,55,0,0
3578,-133.333333333333,4,2,2,55,0,0
3749,-133.333333333333,4,2,3,55,0,0
3919,-133.333333333333,4,2,2,55,0,0
4090,-133.333333333333,4,2,4,55,0,0
4260,-133.333333333333,4,2,2,55,0,0
4431,-133.333333333333,4,2,3,55,0,0
4601,-133.333333333333,4,2,2,55,0,0
4771,-133.333333333333,4,2,7,55,0,0
4942,-133.333333333333,4,2,2,55,0,0
5112,-133.333333333333,4,2,3,55,0,0
5283,-133.333333333333,4,2,2,55,0,0
5453,-133.333333333333,4,2,6,55,0,0
5624,-133.333333333333,4,2,2,55,0,0
5794,-133.333333333333,4,2,3,55,0,0
5965,-133.333333333333,4,2,2,55,0,0
6135,-133.333333333333,4,2,91,60,0,0
11931,-100,4,2,91,50,0,0
12101,-100,4,2,91,55,0,0
12271,-100,4,2,91,60,0,0
12442,-100,4,2,91,65,0,0
12612,-100,4,2,91,70,0,0
12783,-100,4,2,91,75,0,0
12953,-100,4,2,91,80,0,0
13294,-100,4,2,91,40,0,0
13976,-100,4,2,91,45,0,0
14317,-100,4,2,91,50,0,0
14658,-100,4,2,91,55,0,0
14999,-100,4,2,91,60,0,0
15340,-100,4,2,91,65,0,0
15681,-100,4,2,91,70,0,0
16021,-100,4,2,91,85,0,0
16362,-100,4,2,91,90,0,0
16703,-100,4,2,91,95,0,0
17044,-100,4,2,91,60,0,0
38862,-133.333333333333,4,2,91,45,0,0
53862,-100,4,2,91,40,0,0
55226,-100,4,2,91,30,0,0
56249,-200,4,2,91,30,0,0
56590,-133.333333333333,4,2,91,30,0,0
57101,-117.647058823529,4,2,91,30,0,0
57953,-100,4,2,91,45,0,0
58294,-100,4,2,91,50,0,0
58635,-100,4,2,91,55,0,0
58976,-100,4,2,91,60,0,0
59317,-100,4,2,91,65,0,0
59658,-100,4,2,91,70,0,0
59999,-100,4,2,91,75,0,0
60340,-100,4,2,91,80,0,0
60681,-100,4,2,91,85,0,0
61021,-100,4,2,91,90,0,0
61362,-100,4,2,91,95,0,0
61703,-100,4,2,91,100,0,0
62556,-200,4,2,91,50,0,0
63067,-200,4,2,91,60,0,0
63408,-100,4,2,91,70,0,1
73806,-100,4,2,91,80,0,1
73891,-100,4,2,91,70,0,1
73976,-100,4,2,91,60,0,1
74061,-100,4,2,91,50,0,1
74146,-100,4,2,91,40,0,1
74232,-100,4,2,91,30,0,1
74317,-100,4,2,91,70,0,1
85226,-100,4,2,91,60,0,1
85567,-100,4,2,91,65,0,1
85908,-100,4,2,91,70,0,1
86249,-100,4,2,91,75,0,1
86590,-100,4,2,91,80,0,0
87953,-100,4,2,91,40,0,0
89317,-100,4,2,91,45,0,0
89658,-100,4,2,91,50,0,0
89999,-100,4,2,91,55,0,0
90340,-100,4,2,91,60,0,0
90681,-133.333333333333,4,2,91,50,0,0
90766,-133.333333333333,4,2,91,50,0,0
100226,-133.333333333333,4,2,91,40,0,0
100908,-111.111111111111,4,2,91,45,0,0
101590,-100,4,2,91,60,0,0
112499,-133.333333333333,4,2,91,45,0,0
127499,-100,4,2,91,40,0,0
128862,-100,4,2,91,30,0,0
129885,-200,4,2,91,30,0,0
130226,-133.333333333333,4,2,91,30,0,0
130737,-117.647058823529,4,2,91,30,0,0
131590,-100,4,2,91,45,0,0
131931,-100,4,2,91,50,0,0
132271,-100,4,2,91,55,0,0
132612,-100,4,2,91,60,0,0
132953,-100,4,2,91,65,0,0
133294,-100,4,2,91,70,0,0
133635,-100,4,2,91,75,0,0
133976,-100,4,2,91,80,0,0
134317,-100,4,2,91,85,0,0
134658,-100,4,2,91,90,0,0
134999,-100,4,2,91,95,0,0
135340,-100,4,2,91,100,0,0
136192,-200,4,2,91,50,0,0
136703,-200,4,2,91,60,0,0
137044,-100,4,2,91,70,0,1
147442,-100,4,2,91,80,0,1
147527,-100,4,2,91,70,0,1
147612,-100,4,2,91,60,0,1
147698,-100,4,2,91,50,0,1
147783,-100,4,2,91,40,0,1
147868,-100,4,2,91,30,0,1
147953,-100,4,2,91,70,0,1
158862,-100,4,2,91,60,0,1
159203,-100,4,2,91,65,0,1
159544,-100,4,2,91,70,0,1
159885,-100,4,2,91,75,0,1
160226,-200,4,2,91,80,0,0
161249,-200,4,2,91,40,0,0
166703,-66.6666666666667,4,2,91,50,0,0
167044,-100,4,2,91,50,0,0
172499,-100,4,2,91,60,0,0
182044,-100,4,2,91,55,0,0
182385,-100,4,2,91,50,0,0
182726,-100,4,2,91,45,0,0
183067,-100,4,2,91,40,0,0
183408,-133.333333333333,4,2,33,35,0,0
184260,-133.333333333333,4,2,31,15,0,0
184431,-133.333333333333,4,2,32,35,0,0
185453,-133.333333333333,4,2,33,35,0,0
186646,-133.333333333333,4,2,35,35,0,0
186987,-133.333333333333,4,2,36,35,0,0
187158,-133.333333333333,4,2,32,35,0,0
188181,-133.333333333333,4,2,33,35,0,0
188862,-133.333333333333,4,2,34,35,0,0
189374,-133.333333333333,4,2,35,35,0,0
189715,-133.333333333333,4,2,36,35,0,0
189885,-133.333333333333,4,2,32,35,0,0
190226,-133.333333333333,4,2,35,35,0,0
190908,-133.333333333333,4,2,37,35,0,0
191590,-133.333333333333,4,2,38,35,0,0
192101,-133.333333333333,4,2,39,15,0,0
192442,-133.333333333333,4,2,40,25,0,0
192612,-133.333333333333,4,2,41,30,0,0
192783,-133.333333333333,4,2,42,35,0,0
192953,-133.333333333333,4,2,36,35,0,0
193294,-117.647058823529,4,2,43,35,0,0
193635,-105.263157894737,4,2,33,35,0,0
193976,-105.263157894737,4,2,32,35,0,0
194317,-133.333333333333,4,2,91,45,0,0
198408,-100,4,2,91,55,0,0
198749,-100,4,2,91,50,0,0
199090,-100,4,2,91,45,0,0
199431,-100,4,2,91,40,0,0
199771,-100,4,2,91,55,0,0
200112,-100,4,2,91,25,0,0
200453,-100,4,2,91,30,0,0
200794,-100,4,2,91,35,0,0
201135,-100,4,2,91,40,0,0
201476,-100,4,2,91,45,0,0
201817,-100,4,2,91,50,0,0
202158,-100,4,2,91,55,0,0
202499,-100,4,2,91,60,0,0
202840,-100,4,2,91,65,0,0
203181,-100,4,2,91,70,0,0
203521,-100,4,2,91,75,0,0
203862,-100,4,2,91,80,0,0
204374,-166.666666666667,4,2,91,40,0,0
204885,-133.333333333333,4,2,91,50,0,0
205226,-111.111111111111,4,2,91,60,0,0
205311,-111.111111111111,4,2,91,60,0,0
207953,-200,4,2,91,30,0,0
208209,-200,4,2,91,5,0,0
208294,-100,4,2,91,35,0,0
208635,-100,4,2,91,40,0,0
208976,-100,4,2,91,45,0,0
209317,-100,4,2,91,50,0,0
210340,-66.6666666666667,4,2,91,60,0,0
210681,-100,4,2,91,70,0,1
226874,-66.6666666666667,4,2,91,60,0,1
227044,-66.6666666666667,4,2,91,65,0,1
227385,-66.6666666666667,4,2,91,70,0,1
227726,-66.6666666666667,4,2,91,75,0,1
228067,-66.6666666666667,4,2,91,80,0,1
228408,-133.333333333333,4,2,91,60,0,0
229260,309.278350515464,4,2,91,60,1,0
229260,-133.333333333333,4,2,91,60,0,0
229771,340.909090909091,4,2,91,60,1,0
241021,-100,4,2,91,55,0,0
241362,-100,4,2,91,50,0,0
241703,-100,4,2,91,45,0,0
242044,-100,4,2,91,40,0,0
242385,-100,4,2,91,35,0,0
242726,-100,4,2,91,30,0,0
243067,-100,4,2,91,25,0,0
243408,-100,4,2,91,40,0,0

[Colours]
Combo1 : 132,43,116
Combo2 : 225,199,77
Combo3 : 201,149,39
Combo4 : 191,176,68
Combo5 : 147,134,19
Combo6 : 200,91,179
SliderBorder : 222,157,0
SliderTrackOverride : 20,20,20

[HitObjects]
70,26,511,5,0,0:0:0:0:
38,114,681,6,0,P|71:117|99:113,1,60.0000022888184,10|2,0:0|0:0,0:0:0:0:
190,58,1021,2,0,P|219:54|249:57,1,60.0000022888184,2|2,0:0|0:0,0:0:0:0:
349,98,1362,1,2,0:0:0:0:
349,98,1533,1,2,0:0:0:0:
432,36,1703,1,2,0:0:0:0:
432,36,1874,1,2,0:0:0:0:
478,131,2044,2,0,P|480:169|489:208,2,60.0000022888184,10|2|2,0:0|0:0|0:0,0:0:0:0:
374,198,2556,2,0,P|344:203|314:204,1,60.0000022888184,2|10,0:0|0:0,0:0:0:0:
452,295,2896,2,0,P|481:300|511:301,1,60.0000022888184,2|2,0:0|0:0,0:0:0:0:
344,346,3237,1,2,0:0:0:0:
344,346,3408,70,0,P|341:309|331:283,1,60.0000022888184,10|2,0:0|0:0,0:0:0:0:
227,210,3749,2,0,P|217:238|216:268,1,60.0000022888184,2|2,0:0|0:0,0:0:0:0:
151,347,4090,2,0,P|119:340|84:339,2,60.0000022888184,2|2|2,0:0|0:0|0:0,0:0:0:0:
255,362,4601,1,2,0:0:0:0:
216,268,4771,2,0,P|172:256|77:249,1,120.000004577637,10|2,0:0|0:0,0:0:0:0:
11,173,5283,2,0,P|13:141|0:99,1,60.0000022888184,2|10,0:0|0:0,0:0:0:0:
118,31,5624,2,0,P|111:61|114:91,1,60.0000022888184,2|2,0:0|0:0,0:0:0:0:
196,201,5965,1,2,0:0:0:0:
198,75,6135,6,0,B|316:111|305:22|429:52,1,240.000009155274,12|2,0:3|0:0,0:0:0:0:
433,67,7499,70,0,P|442:133|456:191,1,120.000004577637,12|2,3:3|0:0,0:0:0:0:
315,300,8010,2,0,P|310:264|303:233,1,60.0000022888184,10|0,0:3|0:0,0:0:0:0:
455,384,8351,1,10,0:3:0:0:
500,306,8521,2,0,P|505:270|512:239,1,60.0000022888184,10|2,0:3|0:0,0:0:0:0:
349,156,8862,6,0,P|247:170|221:301,1,240.000009155274,8|0,3:3|0:0,0:0:0:0:
305,240,9715,1,2,0:0:0:0:
166,360,9885,2,0,P|129:363|86:356,1,60.0000022888184,2|2,0:0|0:0,0:0:0:0:
33,58,10226,70,0,B|48:101|48:101|33:131|33:131|73:184|58:238,1,180.000006866455,12|10,3:3|0:3,0:0:0:0:
60,225,11078,1,10,0:3:0:0:
305,240,11249,1,10,0:3:0:0:
305,240,11590,5,12,0:0:0:0:
393,142,11760,1,2,0:0:0:0:
485,347,11931,69,10,0:0:0:0:
411,251,12101,1,10,0:0:0:0:
206,303,12271,5,10,0:0:0:0:
346,368,12442,1,10,0:0:0:0:
281,85,12612,69,10,0:0:0:0:
305,240,12783,1,10,0:0:0:0:
473,47,12953,5,10,0:3:0:0:
473,47,13976,1,2,0:3:0:0:
461,47,14061,1,2,0:3:0:0:
449,46,14146,1,2,0:3:0:0:
436,45,14232,1,2,0:3:0:0:
423,44,14317,70,0,L|422:143,1,80,14|2,0:0|0:3,0:0:0:0:
493,227,14658,1,2,0:3:0:0:
243,280,14828,6,0,P|237:237|245:187,1,80,14|2,0:0|0:3,0:0:0:0:
287,95,15169,1,2,0:3:0:0:
350,350,15340,69,14,0:0:0:0:
121,258,15510,1,2,0:3:0:0:
385,230,15681,1,2,0:3:0:0:
161,342,15851,5,14,0:0:0:0:
403,232,16021,1,8,0:0:0:0:
150,123,16192,1,2,0:3:0:0:
350,350,16362,70,0,L|438:332,1,80,8|8,0:0|0:0,0:0:0:0:
395,85,16703,1,8,0:0:0:0:
221,212,16874,1,8,0:0:0:0:
221,212,16959,1,8,0:0:0:0:
221,212,17044,6,0,P|230:268|262:365,1,160,4|2,0:1|0:3,0:0:0:0:
320,274,17556,1,0,0:0:0:0:
161,342,17726,2,0,P|117:352|71:343,1,80,2|0,0:3|0:0,0:0:0:0:
92,195,18067,1,2,0:3:0:0:
114,275,18237,1,8,0:0:0:0:
229,162,18408,70,0,P|222:122|210:82,1,80,2|0,0:3|0:0,0:0:0:0:
382,19,18749,2,0,P|370:57|363:96,1,80,2|0,0:3|0:0,0:0:0:0:
424,225,19090,2,0,P|384:218|346:206,1,80,2|8,0:3|0:3,0:0:0:0:
210,84,19431,1,2,0:3:0:0:
229,162,19601,1,8,0:3:0:0:
276,26,19771,6,0,P|201:3|123:53,1,160,2|2,0:3|0:3,0:0:0:0:
19,57,20283,1,0,0:0:0:0:
85,175,20453,2,0,P|160:198|238:148,1,160,2|2,0:3|0:3,0:0:0:0:
315,105,20965,1,8,0:0:0:0:
424,225,21135,70,0,P|434:275|458:386,2,160,2|2|2,0:3|0:3|0:3,0:0:0:0:
458,127,21987,1,8,0:3:0:0:
330,303,22158,1,2,0:3:0:0:
512,237,22328,1,8,0:3:0:0:
343,220,22499,6,0,B|289:212|257:241|277:251|244:279|191:272,1,160,2|2,0:3|0:3,0:0:0:0:
206,184,23010,1,0,0:0:0:0:
330,303,23181,2,0,P|343:350|333:407,1,80,2|0,0:3|0:0,0:0:0:0:
172,363,23521,1,2,0:3:0:0:
67,211,23692,1,8,0:0:0:0:
46,299,23862,70,0,B|104:301|104:301|140:271|140:271|230:274,2,160,2|2|2,0:3|0:3|0:3,0:0:0:0:
67,211,24715,1,8,0:3:0:0:
172,363,24885,1,8,0:3:0:0:
282,263,25056,1,8,0:3:0:0:
160,116,25226,6,0,P|176:190|202:305,1,160,2|2,0:3|0:3,0:0:0:0:
282,263,25737,1,0,0:0:0:0:
172,363,25908,1,2,0:3:0:0:
257,174,26078,1,0,0:0:0:0:
380,340,26249,1,2,0:3:0:0:
488,271,26419,1,8,0:0:0:0:
410,169,26590,70,0,B|361:145|321:162|338:178|298:194|250:171,1,160,2|2,0:3|0:3,0:0:0:0:
288,60,27101,1,0,0:0:0:0:
376,248,27271,2,0,L|368:336,1,80,2|8,0:3|0:0,0:0:0:0:
480,224,27612,1,2,0:3:0:0:
260,320,27783,1,8,0:3:0:0:
240,320,27868,1,8,0:3:0:0:
220,320,27953,6,0,B|188:308|156:320|156:320|128:256|180:208,1,160,4|2,0:1|0:3,0:0:0:0:
148,72,28465,1,0,0:0:0:0:
36,180,28635,2,0,P|16:216|12:272,2,80,2|0|2,0:3|0:0|0:3,0:0:0:0:
148,56,29146,1,8,0:0:0:0:
260,164,29317,70,0,L|352:180,1,80,2|0,0:3|0:0,0:0:0:0:
456,20,29658,2,0,L|364:36,1,80,2|0,0:3|0:0,0:0:0:0:
432,248,29999,2,0,P|448:208|452:160,1,80,2|8,0:3|0:3,0:0:0:0:
224,52,30340,2,0,P|229:91|244:128,1,80,10|8,0:3|0:3,0:0:0:0:
325,334,30681,6,0,P|341:278|333:158,1,160,2|2,0:3|0:3,0:0:0:0:
211,119,31192,1,0,0:0:0:0:
139,265,31362,2,0,L|151:344,1,80,2|0,0:3|0:0,0:0:0:0:
32,258,31703,1,2,0:3:0:0:
252,186,31874,1,8,0:0:0:0:
44,136,32044,70,0,B|116:168|132:84|224:136,1,160,2|2,0:3|0:3,0:0:0:0:
252,24,32556,1,0,0:0:0:0:
168,212,32726,2,0,L|164:304,1,80,2|8,0:3|0:3,0:0:0:0:
348,120,33067,2,0,L|344:40,1,80,8|10,0:3|0:3,0:0:0:0:
456,192,33408,6,0,P|424:244|328:260,1,160,2|2,0:3|0:3,0:0:0:0:
164,308,33919,1,0,0:0:0:0:
276,160,34090,2,0,L|364:172,1,80,2|0,0:3|0:0,0:0:0:0:
248,40,34431,1,2,0:3:0:0:
232,260,34601,1,8,0:0:0:0:
140,60,34771,70,0,B|128:116|128:116|148:164|148:164|132:232,1,160,2|2,0:3|0:3,0:0:0:0:
16,76,35283,1,0,0:0:0:0:
24,280,35453,2,0,L|44:196,1,80,2|8,0:3|0:0,0:0:0:0:
236,28,35794,2,0,L|217:105,1,80,8|8,0:3|0:3,0:0:0:0:
156,304,36135,5,12,0:2:0:0:
156,320,36476,1,2,0:3:0:0:
336,296,36646,2,0,P|292:292|256:300,1,80,0|2,3:0|0:3,0:0:0:0:
436,264,36987,2,0,P|407:230|376:210,1,80,0|2,3:0|0:3,0:0:0:0:
420,368,37328,1,8,0:0:0:0:
296,112,37499,69,2,3:0:0:0:
244,280,37669,1,8,0:0:0:0:
452,156,37840,1,0,3:0:0:0:
161,231,38010,1,8,3:0:0:0:
409,257,38181,5,0,3:0:0:0:
137,147,38351,1,8,0:3:0:0:
137,147,38521,1,8,0:3:0:0:
241,5,38692,1,8,0:3:0:0:
312,124,38862,70,0,L|292:264,1,120.000004577637,4|0,0:1|0:0,0:0:0:0:
432,368,39374,2,0,L|452:228,1,120.000004577637,2|2,0:3|0:3,0:0:0:0:
248,356,39885,1,8,0:3:0:0:
248,356,40056,1,8,0:3:0:0:
179,254,40226,6,0,P|241:234|311:250,1,120.000004577637,2|0,0:3|0:0,0:0:0:0:
136,152,40737,2,0,L|124:88,1,60.0000022888184,2|0,0:3|0:0,0:0:0:0:
92,300,41078,1,2,0:3:0:0:
232,152,41249,2,0,L|213:52,1,90.0000034332277,8|2,0:3|0:0,0:0:0:0:
208,36,41590,70,0,P|260:36|320:84,1,120.000004577637,2|0,0:3|0:0,0:0:0:0:
468,152,42101,2,0,P|416:152|356:200,1,120.000004577637,2|0,0:3|0:3,0:0:0:0:
468,304,42612,1,8,0:3:0:0:
468,304,42783,1,8,0:3:0:0:
240,360,42953,6,0,B|288:344|288:344|376:368,1,120.000004577637,2|0,0:3|0:0,0:0:0:0:
208,232,43465,2,0,L|136:256,1,60.0000022888184,2|0,0:3|0:0,0:0:0:0:
156,76,43806,1,2,0:3:0:0:
300,232,43976,70,0,P|292:188|244:144,1,90.0000034332277,8|2,0:3|0:0,0:0:0:0:
240,136,44317,2,0,L|115:177,1,120.000004577637,4|0,0:1|0:0,0:0:0:0:
52,332,44828,2,0,P|92:360|180:348,1,120.000004577637,2|2,0:3|0:3,0:0:0:0:
120,184,45340,1,8,0:3:0:0:
128,272,45510,1,8,0:3:0:0:
28,88,45681,6,0,L|40:216,1,120.000004577637,2|0,0:3|0:0,0:0:0:0:
168,108,46192,2,0,L|160:29,1,60.0000022888184,2|0,0:3|0:0,0:0:0:0:
212,208,46533,1,2,0:3:0:0:
312,112,46703,2,0,P|340:144|356:208,1,90.0000034332277,8|2,0:3|0:0,0:0:0:0:
360,220,47044,70,0,B|416:248|416:248|484:228,1,120.000004577637,2|0,0:3|0:0,0:0:0:0:
360,344,47556,2,0,B|304:372|304:372|236:352,1,120.000004577637,2|2,0:3|0:3,0:0:0:0:
236,212,48067,1,8,0:3:0:0:
152,336,48237,1,8,0:3:0:0:
68,212,48408,6,0,P|44:252|40:344,1,120.000004577637,2|0,0:3|0:0,0:0:0:0:
148,132,48919,1,2,0:3:0:0:
148,132,49004,1,0,0:0:0:0:
148,132,49090,2,0,P|145:91|126:56,1,60.0000022888184,8|2,0:0|0:3,0:0:0:0:
236,208,49431,70,0,P|220:254|219:303,1,90.0000034332277,8|2,0:0|0:0,0:0:0:0:
224,328,49771,2,0,P|288:336|360:328,1,120.000004577637,4|0,0:1|0:0,0:0:0:0:
436,156,50283,2,0,P|384:156|328:204,1,120.000004577637,2|2,0:3|0:3,0:0:0:0:
428,280,50794,1,8,0:3:0:0:
428,280,50965,1,8,0:3:0:0:
260,136,51135,6,0,L|280:4,1,120.000004577637,2|0,0:3|0:0,0:0:0:0:
144,180,51646,2,0,L|157:93,1,60.0000022888184,2|0,0:3|0:0,0:0:0:0:
240,260,51987,1,2,0:3:0:0:
116,364,52158,2,0,B|152:376|152:376|216:360,1,90.0000034332277,8|2,0:3|0:0,0:0:0:0:
227,347,52499,70,0,P|232:316|224:268,1,60.0000022888184,2|0,0:3|0:0,0:0:0:0:
364,20,52840,2,0,P|360:59|367:99,1,80.0000030517579,8|8,0:0|0:0,0:0:0:0:
396,168,53181,5,8,0:0:0:0:
440,228,53294,1,8,0:0:0:0:
432,304,53408,1,8,0:3:0:0:
368,344,53521,2,0,L|308:328,2,40.000001525879,8|8|8,0:3|0:3|0:3,0:0:0:0:
480,376,53862,69,4,0:1:0:0:
452,56,54544,5,4,0:1:0:0:
352,244,55226,69,2,0:3:0:0:
290,71,56249,6,0,L|234:71,1,40,2|0,0:0|0:0,0:0:0:0:
117,79,56590,2,0,P|113:123|157:195,1,120.000004577637,6|0,0:0|0:0,0:0:0:0:
30,287,57101,2,0,B|82:259|102:311|165:280,2,136.000002593994,2|2|2,0:0|0:0|0:0,0:0:0:0:
148,188,57953,69,8,0:0:0:0:
263,223,58124,1,2,0:3:0:0:
161,281,58294,1,2,0:3:0:0:
221,132,58465,5,8,0:0:0:0:
359,241,58635,1,2,0:3:0:0:
225,336,58806,1,2,0:3:0:0:
297,79,58976,69,8,0:0:0:0:
488,243,59146,1,2,0:3:0:0:
311,348,59317,1,2,0:3:0:0:
384,13,59487,5,8,0:0:0:0:
419,371,59658,1,2,0:3:0:0:
491,72,59828,1,2,0:3:0:0:
259,159,59999,69,8,0:0:0:0:
508,167,60169,1,2,0:3:0:0:
261,63,60340,1,2,0:3:0:0:
378,238,60510,5,8,0:0:0:0:
384,13,60681,1,12,0:1:0:0:
236,253,60851,1,2,0:3:0:0:
508,167,61021,69,2,0:3:0:0:
139,153,61192,1,8,0:1:0:0:
450,98,61362,1,2,0:3:0:0:
326,314,61533,5,8,0:1:0:0:
150,33,61703,1,8,0:1:0:0:
484,20,61874,1,2,0:0:0:0:
484,20,61959,1,2,0:0:0:0:
484,20,62044,69,12,0:1:0:0:
484,20,62556,2,0,L|357:20,1,120,2|2,0:0|0:3,0:0:0:0:
364,20,63408,22,0,L|380:214,1,160,4|8,0:1|0:0,0:0:0:0:
512,268,63919,1,0,0:0:0:0:
292,220,64090,1,2,0:3:0:0:
464,144,64260,1,2,0:3:0:0:
459,345,64431,2,0,P|411:355|349:347,1,80,10|2,0:0|0:0,0:0:0:0:
220,348,64771,5,2,0:3:0:0:
64,232,64942,1,2,0:3:0:0:
244,153,65112,1,8,0:0:0:0:
70,330,65283,2,0,P|58:287|47:237,1,80,0|2,0:0|0:3,0:0:0:0:
128,80,65624,1,2,0:3:0:0:
328,247,65794,2,0,P|248:257|197:233,1,120,10|2,0:0|0:0,0:0:0:0:
173,205,66135,70,0,L|206:364,1,160,2|8,0:3|0:0,0:0:0:0:
252,144,66646,1,0,0:0:0:0:
104,332,66817,1,2,0:3:0:0:
288,332,66987,1,2,0:3:0:0:
73,235,67158,2,0,L|94:332,1,80,8|2,0:0|0:0,0:0:0:0:
351,193,67499,5,2,0:3:0:0:
105,140,67669,1,2,0:3:0:0:
275,295,67840,1,8,0:0:0:0:
224,168,68010,2,0,L|204:120,1,40,0|0,0:0|0:0,0:0:0:0:
166,39,68181,1,2,0:3:0:0:
345,177,68351,1,2,0:3:0:0:
169,321,68521,2,0,L|58:310,1,80,8|2,0:0|0:0,0:0:0:0:
342,353,68862,70,0,B|431:360|408:281|526:315,1,160,4|8,0:1|0:0,0:0:0:0:
345,177,69374,1,0,0:0:0:0:
240,359,69544,1,2,0:3:0:0:
352,268,69715,1,2,0:3:0:0:
147,182,69885,2,0,P|147:225|162:276,1,80,8|2,0:0|0:0,0:0:0:0:
462,72,70226,6,0,P|425:70|375:58,1,80,4|2,0:1|0:3,0:0:0:0:
273,256,70567,2,0,P|310:258|360:270,1,80,8|0,0:0|0:0,0:0:0:0:
264,1,70908,2,0,P|284:74|300:179,1,160,2|8,0:3|0:0,0:0:0:0:
351,267,71419,1,2,0:0:0:0:
388,52,71590,69,4,0:1:0:0:
184,197,71760,1,2,0:3:0:0:
441,151,71931,5,8,0:0:0:0:
120,103,72101,1,0,0:0:0:0:
351,267,72271,69,2,0:3:0:0:
56,264,72442,1,2,0:3:0:0:
329,171,72612,5,8,0:0:0:0:
25,96,72783,1,2,0:0:0:0:
25,96,72868,1,2,0:0:0:0:
25,96,72953,70,0,L|39:191,1,80,12|2,0:1|0:3,0:0:0:0:
226,367,73294,2,0,L|237:287,1,80,12|2,0:1|0:3,0:0:0:0:
311,23,73635,1,8,0:1:0:0:
448,352,73806,1,8,0:0:0:0:
410,364,73891,1,8,0:0:0:0:
372,354,73976,1,8,0:0:0:0:
348,323,74061,1,8,0:0:0:0:
345,284,74146,1,8,0:0:0:0:
365,250,74232,1,8,0:0:0:0:
396,227,74317,6,0,P|396:183|390:133,1,80,4|2,0:1|0:3,0:0:0:0:
181,18,74658,2,0,P|177:57|177:97,1,80,8|0,0:0|0:0,0:0:0:0:
178,286,74999,1,2,0:3:0:0:
307,114,75169,1,2,0:3:0:0:
316,344,75340,1,8,0:0:0:0:
169,188,75510,1,2,0:0:0:0:
435,267,75681,69,2,0:3:0:0:
224,372,75851,1,2,0:3:0:0:
281,200,76021,1,8,0:0:0:0:
421,369,76192,2,0,L|473:376,2,40,0|0|2,0:0|0:0|0:3,0:0:0:0:
379,185,76533,1,2,0:3:0:0:
189,280,76703,1,8,0:0:0:0:
249,80,76874,1,2,0:0:0:0:
373,299,77044,5,2,0:3:0:0:
142,195,77215,1,2,0:3:0:0:
397,107,77385,2,0,P|385:154|374:219,1,80,8|0,0:0|0:0,0:0:0:0:
285,361,77726,1,2,0:3:0:0:
261,172,77896,1,2,0:3:0:0:
461,353,78067,1,8,0:0:0:0:
504,122,78237,1,2,0:0:0:0:
213,281,78408,69,2,0:3:0:0:
221,77,78578,1,2,0:3:0:0:
151,363,78749,5,8,0:0:0:0:
76,165,78919,1,0,0:0:0:0:
320,293,79090,69,2,0:3:0:0:
32,234,79260,1,2,0:3:0:0:
404,228,79431,5,8,0:0:0:0:
23,362,79601,2,0,L|14:321,1,40,8|8,0:0|0:0,0:0:0:0:
109,48,79771,70,0,L|118:222,2,160,4|8|2,0:1|0:0|0:3,0:0:0:0:
219,139,80624,1,2,0:3:0:0:
170,279,80794,2,0,P|125:295|68:278,1,80,10|2,0:0|0:0,0:0:0:0:
330,372,81135,6,0,P|301:316|315:217,2,160,4|8|2,0:1|0:0|0:3,0:0:0:0:
440,280,81987,1,2,0:3:0:0:
211,358,82158,2,0,P|170:347|122:341,1,80,8|2,0:0|0:0,0:0:0:0:
328,144,82499,70,0,P|317:185|311:233,1,80,2|2,0:3|0:3,0:0:0:0:
394,367,82840,2,0,P|433:372|472:383,1,80,8|0,0:0|0:0,0:0:0:0:
446,165,83181,1,2,0:3:0:0:
199,302,83351,1,2,0:3:0:0:
399,242,83521,1,8,0:0:0:0:
121,132,83692,1,2,0:0:0:0:
479,3,83862,6,0,P|482:48|499:115,1,80,4|2,0:1|0:3,0:0:0:0:
275,248,84203,2,0,P|282:208|284:168,1,80,8|0,0:0|3:0,0:0:0:0:
488,204,84544,2,0,P|477:231|477:258,1,40,2|8,0:3|0:0,0:0:0:0:
484,356,84715,1,2,0:3:0:0:
348,93,84885,1,8,0:0:0:0:
123,294,85056,1,8,0:0:0:0:
123,294,85141,1,8,0:0:0:0:
123,294,85226,69,12,0:1:0:0:
246,50,85396,1,2,0:3:0:0:
310,331,85567,5,8,0:0:0:0:
71,47,85737,1,2,0:3:0:0:
367,204,85908,69,8,0:0:0:0:
35,354,86078,1,8,0:0:0:0:
35,354,86163,1,8,0:0:0:0:
35,354,86249,6,0,L|27:301,1,40,8|8,0:2|0:0,0:0:0:0:
156,56,86419,2,0,L|150:95,1,40,8|8,0:0|0:2,0:0:0:0:
220,344,86590,37,12,0:1:0:0:
436,354,87953,6,0,P|375:345|272:341,1,160,4|0,0:1|0:0,0:0:0:0:
176,246,88465,1,2,0:3:0:0:
171,230,88550,1,2,0:3:0:0:
166,214,88635,69,8,0:0:0:0:
327,240,88806,1,8,0:3:0:0:
126,356,88976,5,8,0:3:0:0:
138,109,89146,1,8,0:3:0:0:
325,251,89317,69,8,0:0:0:0:
33,210,89487,1,2,0:3:0:0:
372,115,89658,5,8,0:0:0:0:
22,80,89828,1,2,0:3:0:0:
302,16,89999,69,8,0:0:0:0:
154,192,90169,1,2,0:3:0:0:
441,216,90340,5,8,0:0:0:0:
299,132,90510,1,2,0:0:0:0:
299,132,90595,1,2,0:0:0:0:
299,132,90681,70,0,P|299:171|298:273,1,120.000004577637,12|2,0:1|0:3,0:0:0:0:
204,360,91192,1,0,0:0:0:0:
80,336,91362,2,0,P|61:302|59:256,1,60.0000022888184,2|0,0:3|0:0,0:0:0:0:
220,252,91703,2,0,P|186:270|140:272,1,60.0000022888184,2|0,0:3|0:0,0:0:0:0:
228,152,92044,6,0,P|270:158|319:224,2,120.000004577637,6|2|2,0:3|0:3|0:3,0:0:0:0:
40,28,93067,2,0,P|33:65|27:110,1,60.0000022888184,2|0,0:3|0:0,0:0:0:0:
136,72,93408,70,0,P|199:58|257:50,1,120.000004577637,6|2,0:3|0:3,0:0:0:0:
432,80,93919,1,0,0:0:0:0:
348,20,94090,2,0,P|342:91|338:144,1,120.000004577637,2|2,0:3|0:3,0:0:0:0:
363,238,94601,1,0,0:0:0:0:
500,184,94771,6,0,P|463:182|425:171,1,60.0000022888184,6|0,0:3|0:0,0:0:0:0:
304,232,95112,2,0,P|340:233|378:244,1,60.0000022888184,2|0,0:3|0:0,0:0:0:0:
488,304,95453,2,0,P|465:249|491:178,1,120.000004577637,2|2,0:3|0:3,0:0:0:0:
464,80,95965,1,0,0:0:0:0:
348,32,96135,70,0,P|357:79|368:160,1,120.000004577637,6|2,0:3|0:3,0:0:0:0:
256,132,96646,1,0,0:0:0:0:
144,124,96817,2,0,P|149:150|155:197,1,60.0000022888184,2|0,0:3|0:0,0:0:0:0:
240,336,97158,2,0,P|244:306|249:276,1,60.0000022888184,2|0,0:3|0:0,0:0:0:0:
196,52,97499,6,0,P|160:36|83:55,2,120.000004577637,6|2|2,0:3|0:3|0:3,0:0:0:0:
440,240,98521,2,0,P|410:243|356:233,1,60.0000022888184,2|0,0:3|0:0,0:0:0:0:
312,164,98862,70,0,P|256:152|176:180,1,120.000004577637,6|2,0:3|0:3,0:0:0:0:
180,192,99544,2,0,L|192:276,1,60.0000022888184,2|0,0:3|0:0,0:0:0:0:
320,80,99885,2,0,L|328:20,1,60.0000022888184,2|2,0:3|0:3,0:0:0:0:
172,64,100226,6,0,P|112:76|60:224,1,210.000008010865,6|2,0:3|0:0,0:0:0:0:
76,304,100908,70,0,B|120:288|156:332|156:332|232:304|212:224,1,215.999993408203,8|8,0:0|0:3,0:0:0:0:
157,174,101504,1,8,0:3:0:0:
157,174,101590,6,0,P|200:152|296:204,1,160,4|2,0:1|0:3,0:0:0:0:
300,340,102101,1,0,0:0:0:0:
416,248,102271,2,0,P|444:220|460:168,1,80,2|0,0:3|0:0,0:0:0:0:
250,132,102612,2,0,P|264:168|292:197,1,80,2|8,0:3|0:0,0:0:0:0:
280,44,102953,70,0,B|228:8|228:8|180:36|148:96,2,160,2|2|2,0:3|0:3|0:3,0:0:0:0:
312,228,103806,1,8,0:3:0:0:
376,112,103976,1,10,0:3:0:0:
380,328,104146,1,8,0:3:0:0:
232,128,104317,6,0,P|224:212|224:316,1,160,2|2,0:3|0:3,0:0:0:0:
312,228,104828,1,0,0:0:0:0:
128,284,104999,2,0,P|128:244|132:204,1,80,2|0,0:3|0:0,0:0:0:0:
100,60,105340,1,2,0:3:0:0:
24,316,105510,1,8,0:0:0:0:
24,316,105595,1,0,0:0:0:0:
24,316,105680,69,2,0:3:0:0:
144,128,105851,1,8,0:0:0:0:
232,308,106021,2,0,P|268:320|328:316,1,80,2|0,0:3|0:0,0:0:0:0:
312,76,106362,2,0,P|272:75|234:88,1,80,2|8,0:3|0:3,0:0:0:0:
460,196,106703,2,0,L|312:196,1,120,10|2,0:3|0:0,0:0:0:0:
312,212,107044,6,0,B|304:252|304:252|320:300,1,80,2|0,0:3|0:0,0:0:0:0:
424,100,107385,2,0,B|432:60|432:60|416:12,1,80,2|0,0:3|0:0,0:0:0:0:
232,80,107726,2,0,L|312:80,1,80,2|0,0:3|0:0,0:0:0:0:
204,208,108067,1,2,0:3:0:0:
92,36,108237,1,8,0:0:0:0:
92,36,108323,1,0,0:0:0:0:
92,36,108408,70,0,P|76:96|84:212,1,160,2|2,0:3|0:3,0:0:0:0:
132,336,108919,1,8,0:0:0:0:
192,88,109090,2,0,P|183:120|187:183,1,80,2|8,0:3|0:0,0:0:0:0:
280,356,109431,2,0,P|278:316|288:277,1,80,8|8,0:3|0:3,0:0:0:0:
392,92,109771,5,12,0:2:0:0:
392,72,110112,1,2,0:3:0:0:
464,256,110283,2,0,L|436:172,1,80,0|2,3:0|0:3,0:0:0:0:
272,72,110624,2,0,L|297:147,1,80,0|2,3:0|0:3,0:0:0:0:
368,320,110965,1,8,0:0:0:0:
392,48,111135,69,2,3:0:0:0:
244,304,111306,1,8,0:0:0:0:
484,120,111476,1,0,3:0:0:0:
216,184,111646,1,8,3:0:0:0:
496,240,111817,5,0,3:0:0:0:
305,37,111987,1,8,0:3:0:0:
305,37,112158,1,8,0:3:0:0:
283,233,112328,1,8,0:3:0:0:
424,196,112499,70,0,P|432:152|412:72,1,120.000004577637,4|0,0:1|0:0,0:0:0:0:
280,8,113010,2,0,P|264:65|271:124,1,120.000004577637,2|2,0:3|0:3,0:0:0:0:
324,236,113521,1,8,0:3:0:0:
324,236,113692,1,8,0:3:0:0:
224,324,113862,6,0,B|184:344|184:344|84:324,1,120.000004577637,2|0,0:3|0:0,0:0:0:0:
144,196,114374,2,0,L|85:182,1,60.0000022888184,2|0,0:3|0:0,0:0:0:0:
272,140,114715,1,2,0:3:0:0:
188,52,114885,2,0,L|275:31,1,90.0000034332277,8|2,0:3|0:0,0:0:0:0:
304,24,115226,70,0,P|320:72|300:144,1,120.000004577637,2|0,0:3|0:0,0:0:0:0:
412,176,115737,2,0,P|389:221|324:258,1,120.000004577637,2|2,0:3|0:3,0:0:0:0:
460,320,116249,1,8,0:3:0:0:
460,320,116419,1,8,0:3:0:0:
296,356,116590,6,0,L|296:224,1,120.000004577637,2|0,0:3|0:0,0:0:0:0:
164,312,117101,2,0,L|164:224,2,60.0000022888184,2|0|2,0:3|0:0|0:3,0:0:0:0:
300,144,117612,1,8,0:3:0:0:
56,40,117953,70,0,P|84:68|160:80,1,120.000004577637,4|0,0:1|0:0,0:0:0:0:
376,164,118465,2,0,P|336:163|274:209,1,120.000004577637,2|2,0:3|0:3,0:0:0:0:
376,296,118976,1,8,0:3:0:0:
376,296,119146,1,8,0:3:0:0:
472,104,119317,6,0,P|468:148|472:236,1,120.000004577637,2|0,0:3|0:0,0:0:0:0:
372,100,119828,2,0,P|369:127|372:182,1,60.0000022888184,2|0,0:3|0:0,0:0:0:0:
376,328,120169,1,2,0:3:0:0:
240,236,120340,2,0,P|232:280|248:344,1,90.0000034332277,8|2,0:3|0:0,0:0:0:0:
248,348,120681,70,0,B|196:332|184:376|128:364,1,120.000004577637,2|0,0:3|0:0,0:0:0:0:
20,244,121192,2,0,B|72:228|84:272|140:260,1,120.000004577637,2|2,0:3|0:3,0:0:0:0:
28,340,121703,1,8,0:3:0:0:
124,168,121874,1,8,0:3:0:0:
239,324,122044,6,0,P|231:280|248:196,1,120.000004577637,2|0,0:3|0:0,0:0:0:0:
304,72,122556,1,2,0:3:0:0:
304,72,122641,1,8,0:0:0:0:
304,72,122726,1,8,0:0:0:0:
340,264,122896,1,10,0:3:0:0:
304,72,123067,1,8,0:0:0:0:
243,206,123237,1,8,0:3:0:0:
96,80,123408,70,0,P|156:64|216:96,1,120.000004577637,4|0,0:1|0:0,0:0:0:0:
144,184,123919,2,0,P|197:215|217:280,1,120.000004577637,2|2,0:3|0:3,0:0:0:0:
96,292,124431,1,8,0:3:0:0:
236,368,124601,1,8,0:3:0:0:
332,252,124771,6,0,L|348:176,1,60.0000022888184,2|0,0:3|0:0,0:0:0:0:
240,52,125112,2,0,L|252:110,1,60.0000022888184,0|2,0:0|0:3,0:0:0:0:
452,96,125453,2,0,L|393:83,1,60.0000022888184,0|8,0:0|0:0,0:0:0:0:
252,248,125794,2,0,L|345:267,1,90.0000034332277,8|2,0:3|0:0,0:0:0:0:
352,279,126135,70,0,P|360:311|352:351,1,60.0000022888184,2|0,0:3|0:0,0:0:0:0:
166,290,126476,2,0,P|156:254|166:210,1,60.0000022888184,8|8,0:0|0:0,0:0:0:0:
216,160,126817,1,8,0:0:0:0:
256,92,126931,1,8,0:0:0:0:
220,24,127044,1,8,0:3:0:0:
156,64,127158,2,0,P|132:76|100:76,2,40.000001525879,8|8|8,0:3|0:3|0:3,0:0:0:0:
297,22,127499,5,4,0:1:0:0:
216,160,127726,1,2,0:0:0:0:
393,229,127953,1,2,0:0:0:0:
251,343,128181,69,2,0:3:0:0:
488,160,128862,5,2,0:0:0:0:
100,19,129885,70,0,L|100:67,1,40,0|0,0:0|0:0,0:0:0:0:
40,176,130226,2,0,P|76:192|156:176,1,120.000004577637,6|2,0:0|0:0,0:0:0:0:
216,248,130737,2,0,P|235:204|216:108,2,136.000002593994,2|2|2,0:0|0:0|0:0,0:0:0:0:
316,160,131590,5,8,0:0:0:0:
140,88,131760,1,2,0:3:0:0:
332,16,131931,1,2,0:3:0:0:
216,204,132101,69,8,0:0:0:0:
493,133,132271,1,2,0:3:0:0:
236,56,132442,1,2,0:3:0:0:
411,258,132612,5,8,0:0:0:0:
96,216,132783,1,2,0:3:0:0:
383,128,132953,1,2,0:3:0:0:
173,312,133124,69,8,0:0:0:0:
217,74,133294,1,2,0:3:0:0:
499,313,133465,1,2,0:3:0:0:
303,267,133635,5,8,0:0:0:0:
406,371,133806,1,2,0:3:0:0:
383,128,133976,1,2,0:3:0:0:
420,271,134146,69,8,0:0:0:0:
483,46,134317,1,12,0:1:0:0:
211,137,134487,1,2,0:3:0:0:
499,180,134658,5,2,0:3:0:0:
70,57,134828,1,8,0:1:0:0:
383,128,134999,1,2,0:3:0:0:
118,283,135169,69,8,0:1:0:0:
221,5,135340,1,8,0:1:0:0:
429,319,135510,1,2,0:0:0:0:
438,331,135595,1,2,0:0:0:0:
446,344,135681,5,12,0:1:0:0:
454,353,136192,70,0,L|329:348,1,120,2|2,0:0|0:3,0:0:0:0:
192,299,137044,54,0,P|280:304|350:377,1,160,4|8,0:1|0:0,0:0:0:0:
347,231,137556,1,0,0:0:0:0:
151,202,137726,1,2,0:3:0:0:
125,367,137896,1,2,0:3:0:0:
274,185,138067,2,0,P|276:137|262:96,1,80,8|0,0:0|0:0,0:0:0:0:
44,11,138408,5,2,0:3:0:0:
242,9,138578,1,2,0:3:0:0:
52,152,138749,1,8,0:0:0:0:
267,106,138919,2,0,L|354:91,1,80,0|2,0:0|0:3,0:0:0:0:
456,20,139260,1,2,0:3:0:0:
242,9,139431,2,0,B|249:78|263:154,1,120,10|2,0:0|0:0,0:0:0:0:
306,216,139771,70,0,P|349:177|465:181,1,160,2|8,0:3|0:0,0:0:0:0:
497,86,140283,1,0,0:0:0:0:
402,274,140453,1,2,0:3:0:0:
258,127,140624,1,2,0:3:0:0:
131,253,140794,1,8,0:0:0:0:
279,47,140965,1,2,0:0:0:0:
262,303,141135,5,2,0:3:0:0:
124,145,141306,1,2,0:3:0:0:
365,141,141476,1,8,0:0:0:0:
228,204,141646,2,0,L|280:208,1,40,0|0,0:0|0:0,0:0:0:0:
348,240,141817,1,2,0:3:0:0:
157,49,141987,1,2,0:3:0:0:
29,211,142158,2,0,P|39:259|60:344,1,120,8|2,0:0|0:0,0:0:0:0:
68,344,142499,69,4,0:1:0:0:
205,162,142669,1,2,0:3:0:0:
341,305,142840,2,0,P|289:301|248:304,1,80,8|0,0:0|0:0,0:0:0:0:
344,77,143181,2,0,P|341:123|356:168,1,80,2|2,0:3|0:3,0:0:0:0:
481,368,143521,2,0,P|486:321|457:236,1,120,8|2,0:0|0:0,0:0:0:0:
451,242,143862,5,4,0:1:0:0:
481,128,144033,1,2,0:3:0:0:
227,275,144203,1,8,0:0:0:0:
341,305,144374,1,0,0:0:0:0:
344,77,144544,1,2,0:3:0:0:
314,191,144715,1,2,0:3:0:0:
402,366,144885,2,0,P|454:373|497:361,1,80,8|2,0:0|0:0,0:0:0:0:
314,191,145226,69,4,0:1:0:0:
128,366,145396,1,2,0:3:0:0:
49,156,145567,5,8,0:0:0:0:
227,275,145737,1,0,0:0:0:0:
273,11,145908,69,2,0:3:0:0:
225,117,146078,1,2,0:3:0:0:
405,92,146249,5,8,0:0:0:0:
485,350,146419,1,2,0:0:0:0:
485,350,146504,1,2,0:0:0:0:
485,350,146590,70,0,L|403:362,1,80,12|2,0:1|0:3,0:0:0:0:
147,263,146931,2,0,L|229:275,1,80,12|2,0:1|0:3,0:0:0:0:
465,192,147271,1,8,0:1:0:0:
204,12,147442,1,8,0:0:0:0:
188,48,147527,1,8,0:0:0:0:
196,87,147612,1,8,0:0:0:0:
222,117,147698,1,8,0:0:0:0:
260,126,147783,1,8,0:0:0:0:
299,119,147868,1,8,0:0:0:0:
332,97,147953,6,0,P|333:55|315:13,1,80,4|2,0:1|0:3,0:0:0:0:
465,192,148294,2,0,P|451:229|452:269,1,80,8|0,0:0|0:0,0:0:0:0:
260,357,148635,1,2,0:3:0:0:
317,203,148806,1,2,0:3:0:0:
444,363,148976,1,8,0:0:0:0:
206,283,149146,1,2,0:0:0:0:
409,117,149317,69,2,0:3:0:0:
156,183,149487,1,2,0:3:0:0:
363,277,149658,1,8,0:0:0:0:
258,73,149828,2,0,P|261:107|267:147,2,40,0|0|2,0:0|0:0|0:3,0:0:0:0:
444,205,150169,1,2,0:3:0:0:
206,283,150340,2,0,P|153:280|96:286,1,80,8|2,0:0|0:0,0:0:0:0:
326,377,150681,5,2,0:3:0:0:
445,284,150851,2,0,P|441:244|443:204,1,80,2|8,0:3|0:0,0:0:0:0:
373,69,151192,1,0,0:0:0:0:
179,158,151362,69,2,0:3:0:0:
334,177,151533,1,2,0:3:0:0:
207,21,151703,1,8,0:0:0:0:
70,223,151874,1,2,0:0:0:0:
334,177,152044,5,2,0:3:0:0:
164,330,152215,1,2,0:3:0:0:
348,100,152385,69,8,0:0:0:0:
261,352,152556,1,0,0:0:0:0:
416,36,152726,5,2,0:3:0:0:
365,376,152896,1,2,0:3:0:0:
504,24,153067,69,8,0:0:0:0:
216,218,153237,2,0,L|268:217,1,40,8|8,0:0|0:0,0:0:0:0:
479,371,153408,6,0,P|466:312|485:208,2,160,4|8|2,0:1|0:0|0:3,0:0:0:0:
367,257,154260,1,2,0:3:0:0:
253,364,154431,2,0,P|205:351|166:352,1,80,10|2,0:0|0:0,0:0:0:0:
11,187,154771,70,0,P|62:192|151:267,2,160,4|8|2,0:1|0:0|0:3,0:0:0:0:
32,300,155624,1,2,0:3:0:0:
176,162,155794,2,0,P|176:120|163:68,1,80,8|2,0:0|0:0,0:0:0:0:
367,1,156135,6,0,P|359:40|359:80,1,80,2|2,0:3|0:3,0:0:0:0:
424,252,156476,2,0,P|470:239|511:232,1,80,8|0,0:0|0:0,0:0:0:0:
286,194,156817,1,2,0:3:0:0:
436,347,156987,1,2,0:3:0:0:
452,130,157158,1,8,0:0:0:0:
221,290,157328,1,2,0:0:0:0:
146,36,157499,70,0,P|160:80|170:140,1,80,4|2,0:1|0:3,0:0:0:0:
335,339,157840,2,0,P|343:299|355:261,1,80,8|0,0:0|0:0,0:0:0:0:
386,14,158181,2,0,P|398:31|412:57,1,40,2|0,0:3|0:0,0:0:0:0:
464,160,158351,1,2,0:3:0:0:
221,290,158521,1,8,0:0:0:0:
65,7,158692,1,8,0:0:0:0:
69,22,158777,1,8,0:0:0:0:
73,37,158862,5,12,0:1:0:0:
41,265,159033,1,2,0:3:0:0:
181,115,159203,69,8,0:0:0:0:
196,359,159374,1,2,0:3:0:0:
288,23,159544,5,8,0:0:0:0:
317,294,159715,1,8,0:0:0:0:
504,61,159885,69,8,0:2:0:0:
449,377,160056,1,8,0:0:0:0:
398,0,160226,5,12,0:1:0:0:
148,240,161249,70,0,P|136:276|116:304,1,60,0|0,0:0|0:0,0:0:0:0:
112,312,161590,5,4,0:1:0:0:
364,80,166703,5,8,0:3:0:0:
406,120,166788,1,2,0:0:0:0:
418,178,166873,1,8,0:3:0:0:
396,233,166958,1,8,0:3:0:0:
346,265,167044,6,0,L|248:272,1,80,4|0,0:1|0:0,0:0:0:0:
136,92,167385,2,0,L|234:98,1,80,2|0,0:3|0:0,0:0:0:0:
176,332,167726,2,0,P|160:292|164:236,1,80,2|0,0:3|0:0,0:0:0:0:
320,72,168067,2,0,P|318:111|303:148,1,80,2|8,0:3|0:0,0:0:0:0:
284,176,168323,1,2,0:0:0:0:
284,176,168408,70,0,B|324:192|324:192|380:176,1,80,2|8,0:3|0:0,0:0:0:0:
504,312,168749,2,0,B|464:328|464:328|408:312,1,80,2|0,0:3|0:0,0:0:0:0:
460,176,169090,2,0,L|464:84,1,80,2|0,0:3|0:0,0:0:0:0:
464,64,169345,1,0,0:0:0:0:
464,64,169431,1,2,0:3:0:0:
324,288,169601,1,2,0:0:0:0:
324,288,169686,1,2,0:0:0:0:
324,288,169771,6,0,L|327:367,1,80,2|0,0:3|0:0,0:0:0:0:
192,216,170112,2,0,L|228:286,1,80,2|0,0:3|0:0,0:0:0:0:
41,206,170453,2,0,L|103:254,1,80,2|0,0:3|0:0,0:0:0:0:
140,112,170794,2,0,P|192:96|272:128,1,120,2|0,0:3|0:0,0:0:0:0:
276,128,171135,69,2,0:3:0:0:
257,300,171306,1,8,0:0:0:0:
80,236,171476,1,2,0:3:0:0:
204,24,171646,5,8,0:3:0:0:
204,212,171817,1,8,0:3:0:0:
68,100,171987,1,8,0:3:0:0:
320,28,172158,69,8,0:3:0:0:
268,312,172328,1,8,0:3:0:0:
268,312,172413,1,8,0:3:0:0:
268,312,172499,6,0,L|360:316,1,80,4|0,0:1|0:0,0:0:0:0:
472,320,172840,1,2,0:3:0:0:
360,200,173010,1,0,0:0:0:0:
476,120,173181,2,0,P|496:160|500:212,1,80,2|0,0:3|0:0,0:0:0:0:
312,100,173521,2,0,P|318:60|337:25,1,80,2|2,0:3|0:0,0:0:0:0:
152,188,173862,70,0,L|244:192,1,80,2|0,0:3|0:0,0:0:0:0:
360,200,174203,1,2,0:3:0:0:
192,320,174374,2,0,L|284:324,1,80,0|2,0:0|0:3,0:0:0:0:
400,332,174715,1,0,0:0:0:0:
436,136,174885,1,2,0:3:0:0:
240,204,175056,1,8,0:0:0:0:
88,35,175226,6,0,B|64:83|80:123|96:107|112:147|88:195,1,160,2|2,0:3|0:3,0:0:0:0:
56,328,175737,1,0,0:0:0:0:
192,256,175908,2,0,P|232:252|284:264,2,80,2|0|2,0:3|0:0|0:3,0:0:0:0:
56,340,176419,1,8,0:0:0:0:
336,336,176590,70,0,P|360:304|336:188,1,160,2|2,0:3|0:3,0:0:0:0:
193,87,177101,1,8,0:0:0:0:
193,87,177186,1,0,0:0:0:0:
193,87,177271,1,2,0:3:0:0:
280,260,177442,1,8,0:0:0:0:
384,48,177612,1,2,0:3:0:0:
452,164,177783,1,8,0:3:0:0:
312,176,177953,6,0,B|264:152|224:168|240:184|200:200|152:176,1,160,4|2,0:1|0:3,0:0:0:0:
8,128,178465,1,0,0:0:0:0:
28,236,178635,2,0,L|40:324,1,80,2|0,0:3|0:0,0:0:0:0:
272,256,178976,2,0,P|304:300|267:342,1,120,2|2,0:3|0:0,0:0:0:0:
180,360,179317,70,0,L|190:280,1,80,4|0,0:1|0:0,0:0:0:0:
212,88,179658,1,2,0:3:0:0:
412,228,179828,1,0,3:0:0:0:
415,205,179913,1,0,3:0:0:0:
418,182,179998,1,2,3:3:0:0:
320,44,180169,1,0,3:0:0:0:
323,67,180254,1,0,3:0:0:0:
326,90,180339,1,2,3:3:0:0:
452,44,180510,1,8,0:0:0:0:
232,172,180681,6,0,P|188:172|144:144,1,80,4|0,0:1|0:0,0:0:0:0:
332,264,181021,2,0,P|376:264|420:236,1,80,2|0,0:3|0:0,0:0:0:0:
232,332,181362,1,2,0:3:0:0:
220,80,181533,1,8,0:0:0:0:
420,164,181703,1,2,0:3:0:0:
144,252,181874,1,8,0:0:0:0:
144,252,181959,1,2,0:0:0:0:
144,252,182044,69,2,0:0:0:0:
292,32,182215,1,8,0:0:0:0:
216,340,182385,5,2,0:0:0:0:
156,24,182556,1,8,0:0:0:0:
280,252,182726,69,2,0:0:0:0:
44,104,182896,1,8,0:0:0:0:
364,104,183067,5,0,0:0:0:0:
24,224,183237,1,8,0:0:0:0:
152,168,183408,69,8,0:0:0:0:
132,300,184260,1,2,0:0:0:0:
132,300,184431,2,0,L|208:304,1,60.0000022888184,2|0,0:0|0:0,0:0:0:0:
272,348,184771,6,0,P|284:312|244:228,1,120.000004577637,2|0,0:0|0:0,0:0:0:0:
360,156,185453,2,0,P|348:120|388:36,1,120.000004577637,2|0,0:0|0:0,0:0:0:0:
375,45,186135,70,0,B|320:24|279:46|298:61|257:83|202:63,1,180.000006866455,8|2,0:0|0:0,0:0:0:0:
176,76,186987,1,2,0:0:0:0:
176,76,187158,2,0,L|184:144,1,60.0000022888184,2|0,0:0|0:0,0:0:0:0:
260,204,187499,6,0,P|216:228|128:216,1,120.000004577637,2|0,0:0|0:0,0:0:0:0:
276,344,188181,2,0,P|320:320|408:332,1,120.000004577637,2|0,0:0|0:0,0:0:0:0:
388,322,188862,70,0,B|380:290|408:254|408:254|416:212|384:184|384:184|352:204,1,180.000006866455,8|2,0:0|0:0,0:0:0:0:
328,200,189715,1,2,0:0:0:0:
328,200,189885,2,0,L|264:236,1,60.0000022888184,2|0,0:0|0:0,0:0:0:0:
196,160,190226,6,0,L|308:96,1,120.000004577637,8|0,0:0|0:0,0:0:0:0:
176,60,190908,2,0,L|71:118,1,120.000004577637,2|0,0:0|0:0,0:0:0:0:
71,118,191590,70,0,P|55:158|95:298,1,180.000006866455,2|2,0:0|0:0,0:0:0:0:
172,192,192442,1,2,0:0:0:0:
256,252,192612,1,2,0:0:0:0:
340,312,192783,1,2,0:0:0:0:
432,368,192953,6,0,P|448:336|436:268,1,90.0000034332277,8|0,0:0|0:0,0:0:0:0:
384,208,193294,70,0,P|368:176|380:108,1,102.000001945496,2|0,0:0|0:0,0:0:0:0:
452,156,193635,6,0,P|472:160|500:172,2,50.6666653137207,2|0|0,0:0|0:0|0:0,0:0:0:0:
360,24,193976,70,0,P|336:32|315:46,2,50.6666653137207,2|0|0,0:0|0:0|0:0,0:0:0:0:
504,32,194317,5,4,0:1:0:0:
296,216,194658,1,2,0:0:0:0:
132,28,194999,2,0,L|124:148,1,120.000004577637,8|2,0:0|0:0,0:0:0:0:
116,264,195510,1,8,0:0:0:0:
192,352,195681,70,0,P|212:332|228:296,1,60.0000022888184,2|8,0:0|0:0,0:0:0:0:
256,148,196021,2,0,P|269:174|290:196,1,60.0000022888184,2|0,0:3|0:0,0:0:0:0:
376,292,196362,2,0,P|412:256|408:168,1,120.000004577637,8|0,0:0|0:0,0:0:0:0:
204,68,197044,6,0,P|164:111|161:170,1,120.000004577637,4|2,0:1|0:0,0:0:0:0:
172,200,197726,2,0,L|100:216,1,60.0000022888184,8|0,0:0|0:0,0:0:0:0:
356,144,198067,2,0,L|428:160,1,60.0000022888184,8|0,0:0|0:0,0:0:0:0:
272,108,198408,70,0,P|266:132|292:212,1,106.666666666667,2|8,0:3|0:0,0:0:0:0:
340,336,198749,6,0,P|352:316|364:284,2,53.3333333333333,8|8|8,0:0|0:0|0:0,0:0:0:0:
204,324,199090,2,0,P|226:318|257:304,2,53.3333333333333,8|8|8,0:3|0:3|0:3,0:0:0:0:
152,264,199431,1,8,0:3:0:0:
168,192,199544,1,8,0:3:0:0:
236,156,199658,1,8,0:3:0:0:
304,188,199771,69,4,0:2:0:0:
136,80,200112,5,8,0:0:0:0:
238,235,200283,1,8,0:0:0:0:
368,116,200453,69,8,0:0:0:0:
74,153,200624,1,8,0:0:0:0:
311,47,200794,5,10,0:0:0:0:
91,239,200965,1,8,0:0:0:0:
228,0,201135,69,10,0:0:0:0:
156,304,201306,1,8,0:0:0:0:
140,43,201476,5,8,0:0:0:0:
246,345,201646,1,10,0:0:0:0:
311,67,201817,69,8,0:0:0:0:
266,361,201987,1,8,0:0:0:0:
221,96,202158,5,10,0:0:0:0:
283,378,202328,1,8,0:0:0:0:
416,88,202499,69,6,0:2:0:0:
388,192,202669,2,0,L|364:276,1,80,8|0,0:0|0:0,0:0:0:0:
296,4,203010,1,2,0:3:0:0:
260,108,203180,2,0,L|236:192,1,80,8|8,0:0|0:0,0:0:0:0:
228,224,203436,1,8,0:0:0:0:
228,224,203521,2,0,P|200:228|172:236,1,40,8|8,0:3|0:3,0:0:0:0:
24,84,203692,2,0,P|41:106|56:132,1,40,8|8,0:3|0:3,0:0:0:0:
48,332,203862,5,4,0:1:0:0:
444,32,204374,70,0,P|404:32|412:104,1,119.999996337891,2|0,0:0|0:0,0:0:0:0:
416,124,204885,2,0,B|380:148|380:148|316:128,1,90.0000034332277,2|0,0:0|0:0,0:0:0:0:
308,120,205226,6,0,L|316:212,1,71.9999978027344,4|0,0:1|0:0,0:0:0:0:
168,196,205567,1,0,0:0:0:0:
184,28,205737,2,0,L|176:120,1,71.9999978027344,2|0,0:0|0:0,0:0:0:0:
312,212,206078,1,0,0:0:0:0:
160,308,206249,2,0,P|144:284|144:256,3,35.9999989013672,2|2|2|2,0:0|0:0|0:0|0:0,0:0:0:0:
199,309,206590,70,0,B|260:284|288:352|352:312,1,143.999995605469,8|2,0:0|0:0,0:0:0:0:
456,360,207101,2,0,P|464:308|396:212,1,143.999995605469,2|0,0:0|0:0,0:0:0:0:
423,78,207612,2,0,L|345:88,1,71.9999978027344,2|2,0:0|0:0,0:0:0:0:
169,178,207953,6,0,L|237:169,1,60,4|0,0:1|3:0,0:0:0:0:
337,211,208294,1,8,0:0:0:0:
347,222,208379,1,0,3:0:0:0:
355,230,208465,1,0,3:0:0:0:
363,238,208550,1,0,3:0:0:0:
371,245,208635,2,0,L|365:301,1,40,8|0,0:0|3:0,0:0:0:0:
163,361,208806,2,0,L|158:321,1,40,0|0,3:0|3:0,0:0:0:0:
150,44,208976,1,8,0:0:0:0:
207,32,209061,1,8,0:0:0:0:
254,65,209146,1,8,0:0:0:0:
263,123,209231,1,8,0:0:0:0:
227,169,209316,69,8,0:0:0:0:
73,198,210340,6,0,B|87:242|89:328|89:328|103:286|138:275,1,180.000006866455,2|0,0:3|0:0,0:0:0:0:
80,188,210681,69,4,0:1:0:0:
13,378,210851,1,2,0:3:0:0:
251,305,211021,2,0,P|255:257|244:195,1,80,8|0,0:0|0:0,0:0:0:0:
68,95,211362,2,0,L|84:208,1,80,2|2,0:3|0:3,0:0:0:0:
353,143,211703,2,0,B|296:116|296:116|210:140,1,120,8|2,0:0|0:0,0:0:0:0:
216,144,212044,5,4,0:1:0:0:
387,34,212215,1,2,0:3:0:0:
201,248,212385,1,8,0:0:0:0:
454,119,212556,1,0,0:0:0:0:
177,48,212726,2,0,L|191:133,1,80,2|2,0:3|0:3,0:0:0:0:
369,317,213067,2,0,L|382:238,1,80,8|2,0:0|0:0,0:0:0:0:
208,337,213408,69,4,0:1:0:0:
486,340,213578,1,2,0:3:0:0:
298,162,213749,5,8,0:0:0:0:
119,371,213919,1,0,0:0:0:0:
162,138,214090,69,2,0:3:0:0:
288,273,214260,1,2,0:3:0:0:
455,119,214431,5,8,0:0:0:0:
54,65,214601,1,2,0:0:0:0:
54,65,214686,1,2,0:0:0:0:
54,65,214771,70,0,L|62:181,1,80,12|2,0:1|0:3,0:0:0:0:
282,352,215112,2,0,L|287:272,1,80,12|2,0:1|0:3,0:0:0:0:
416,26,215453,1,8,0:1:0:0:
506,356,215624,1,8,0:0:0:0:
450,360,215709,1,8,0:0:0:0:
398,339,215794,1,8,0:0:0:0:
369,291,215879,1,8,0:0:0:0:
370,234,215965,1,8,0:0:0:0:
408,193,216050,1,8,0:0:0:0:
463,191,216135,6,0,L|479:303,1,80,4|2,0:1|0:3,0:0:0:0:
222,326,216476,2,0,L|233:246,1,80,8|0,0:0|0:0,0:0:0:0:
296,45,216817,1,2,0:3:0:0:
370,234,216987,1,2,0:3:0:0:
169,143,217158,1,8,0:0:0:0:
448,86,217328,1,2,0:0:0:0:
150,29,217499,69,2,0:3:0:0:
49,225,217669,1,2,0:3:0:0:
269,160,217840,1,8,0:0:0:0:
115,124,218010,2,0,P|130:177|139:235,1,80,0|2,0:0|0:3,0:0:0:0:
156,297,218351,1,2,0:3:0:0:
28,217,218521,1,8,0:0:0:0:
253,164,218692,1,2,0:0:0:0:
5,378,218862,5,2,0:3:0:0:
274,353,219033,1,2,0:3:0:0:
49,225,219203,2,0,P|67:320|70:332,1,80,8|0,0:0|0:0,0:0:0:0:
286,266,219544,69,2,0:3:0:0:
317,151,219715,1,2,0:3:0:0:
140,212,219885,1,8,0:0:0:0:
154,51,220056,1,2,0:0:0:0:
282,283,220226,5,2,0:3:0:0:
18,221,220396,1,2,0:3:0:0:
389,220,220567,69,8,0:0:0:0:
107,319,220737,1,0,0:0:0:0:
176,134,220908,5,2,0:3:0:0:
408,368,221078,1,2,0:3:0:0:
484,16,221249,69,8,0:0:0:0:
68,120,221419,1,8,0:0:0:0:
59,163,221504,1,8,0:0:0:0:
82,196,221590,6,0,P|175:171|270:170,2,160,4|8|2,0:1|0:0|0:3,0:0:0:0:
216,292,222442,1,2,0:3:0:0:
220,80,222612,2,0,P|216:30|206:-20,1,80,10|2,0:0|0:0,0:0:0:0:
449,317,222953,70,0,P|371:244|309:258,2,160,4|8|2,0:1|0:0|0:3,0:0:0:0:
349,136,223806,1,2,0:3:0:0:
234,355,223976,2,0,P|177:357|122:368,1,80,8|2,0:0|0:0,0:0:0:0:
42,225,224317,6,0,P|40:168|29:113,1,80,2|2,0:3|0:3,0:0:0:0:
354,56,224658,2,0,P|349:95|348:135,1,80,8|0,0:0|0:0,0:0:0:0:
366,357,224999,1,2,0:3:0:0:
466,104,225169,1,2,0:3:0:0:
233,253,225340,1,8,0:0:0:0:
258,7,225510,1,2,0:0:0:0:
446,259,225681,70,0,P|497:244|533:216,1,80,4|2,0:1|0:3,0:0:0:0:
121,89,226021,2,0,P|70:104|34:132,1,80,8|0,0:0|3:0,0:0:0:0:
13,237,226277,1,0,3:0:0:0:
13,237,226362,2,0,P|36:248|62:247,1,40,2|8,0:3|0:0,0:0:0:0:
244,252,226533,1,2,0:3:0:0:
28,28,226703,1,8,0:0:0:0:
104,363,226874,2,0,L|191:346,1,60.0000022888184,8|8,0:0|0:0,0:0:0:0:
504,268,227044,5,12,0:1:0:0:
220,260,227215,1,2,0:3:0:0:
476,52,227385,69,8,0:0:0:0:
156,166,227556,1,2,0:3:0:0:
422,375,227726,5,8,0:0:0:0:
216,20,227896,1,8,0:0:0:0:
156,20,227981,1,8,0:0:0:0:
100,42,228066,1,8,0:0:0:0:
55,81,228151,1,8,0:0:0:0:
26,133,228236,1,8,0:0:0:0:
17,192,228322,1,8,0:0:0:0:
29,251,228407,69,8,0:0:0:0:
484,240,229090,1,2,0:0:0:0:
401,301,229260,2,0,P|376:248|400:172,1,120.000004577637,2|8,0:0|0:0,0:0:0:0:
464,160,229646,1,8,0:0:0:0:
464,160,229771,6,0,B|416:184|376:168|392:152|352:136|304:160,2,160,4|8|2,0:1|0:0|0:3,0:0:0:0:
352,256,230624,1,2,0:3:0:0:
426,85,230794,2,0,L|430:1,1,80,8|2,0:0|0:0,0:0:0:0:
220,120,231135,70,0,P|216:160|223:199,1,80,2|0,0:3|0:0,0:0:0:0:
276,352,231476,1,8,0:0:0:0:
76,364,231646,1,0,0:0:0:0:
76,364,231732,1,0,0:0:0:0:
76,364,231817,2,0,P|83:324|79:285,1,80,2|0,0:3|0:0,0:0:0:0:
244,348,232158,2,0,P|280:328|372:340,1,120,8|2,0:0|0:0,0:0:0:0:
380,344,232499,6,0,L|416:264,1,80,2|0,0:3|0:0,0:0:0:0:
304,44,232840,2,0,L|336:116,1,80,8|0,0:0|0:0,0:0:0:0:
436,60,233181,1,2,0:3:0:0:
312,252,233351,1,2,0:3:0:0:
224,108,233521,1,8,0:0:0:0:
200,332,233692,1,2,0:0:0:0:
152,44,233862,70,0,P|128:92|172:188,1,160,2|8,0:3|0:0,0:0:0:0:
124,352,234374,1,2,0:0:0:0:
124,352,234459,1,2,0:0:0:0:
124,352,234544,2,0,P|156:368|220:338,1,80,2|2,0:3|0:0,0:0:0:0:
420,224,234885,2,0,P|383:205|311:239,1,120,8|2,0:0|0:0,0:0:0:0:
308,260,235226,6,0,L|304:340,1,80,2|0,0:3|0:0,0:0:0:0:
208,88,235567,2,0,L|204:8,1,80,8|0,0:0|0:0,0:0:0:0:
380,108,235907,2,0,P|424:116|464:140,1,80,2|2,0:3|0:3,0:0:0:0:
304,28,236249,1,8,0:0:0:0:
216,212,236419,1,2,0:0:0:0:
216,212,236504,1,2,0:0:0:0:
216,212,236590,70,0,P|178:199|145:176,1,80,2|0,0:3|0:0,0:0:0:0:
344,236,236931,1,8,0:0:0:0:
117,336,237101,2,0,B|165:312|205:328|189:344|229:360|277:336,1,160,0|2,0:3|0:3,0:0:0:0:
448,288,237612,1,8,0:0:0:0:
360,104,237783,1,8,0:0:0:0:
360,104,237868,1,8,0:0:0:0:
360,104,237953,6,0,P|328:148|344:236,1,120,12|0,0:1|0:0,0:0:0:0:
344,236,238294,2,0,L|384:200,1,40,8|0,0:0|0:0,0:0:0:0:
468,24,238465,70,0,B|412:36|412:36|384:16|336:20,1,120,4|0,0:1|0:0,0:0:0:0:
324,28,238806,2,0,L|256:28,1,40,2|0,0:3|0:0,0:0:0:0:
168,28,238976,5,8,0:0:0:0:
280,136,239146,1,2,0:3:0:0:
64,76,239317,69,8,0:0:0:0:
264,108,239487,1,2,0:3:0:0:
48,192,239658,5,8,0:0:0:0:
240,64,239828,1,2,0:3:0:0:
112,352,239999,69,8,0:0:0:0:
340,180,240169,1,8,0:0:0:0:
288,200,240254,1,8,0:0:0:0:
235,195,240339,1,8,0:0:0:0:
183,175,240424,1,8,0:0:0:0:
133,156,240509,1,8,0:0:0:0:
78,151,240595,1,8,0:0:0:0:
27,164,240680,5,4,0:1:0:0:
256,192,240766,12,8,243408,0:3:0:0:
