osu file format v14

[General]
AudioFilename: audio.mp3
AudioLeadIn: 0
PreviewTime: 204374
Countdown: 0
SampleSet: Soft
StackLeniency: 0.7
Mode: 0
LetterboxInBreaks: 0
EpilepsyWarning: 1
WidescreenStoryboard: 1

[Editor]
Bookmarks: 36135,38862,74317,101590,112499,127499,161590,166703,172499,205226,228408,240681
DistanceSpacing: 0.9
BeatDivisor: 4
GridSize: 16
TimelineZoom: 1.7

[Metadata]
Title:SHIORI
TitleUnicode:SHIORI
Artist:ClariS
ArtistUnicode:ClariS
Creator:PantyDev
Version:Insane
Source:終物語
Tags:owarimonogatari ed ending araragi hitagi senjougahara hitagigahara bake monogatari shaft isin nisio TheMefisto piroshki _Hou InternalLight VOFAN keeVY Anime Japanese
BeatmapID:1577780
BeatmapSetID:747684

[Difficulty]
HPDrainRate:5.2
CircleSize:3.7
OverallDifficulty:7.5
ApproachRate:8.8
SliderMultiplier:1.4
SliderTickRate:1

[Events]
//Background and Video events
0,0,"bg.jpg",0,0
//Break Periods
2,161790,166074
//Storyboard Layer 0 (Background)
Sprite,Background,Centre,"sb\visual\square.jpg",320,240 V,0,63408,,7.5,4.5 M,0,63408,86590,320,240
Sprite,Background,Centre,"sb\visual\square.jpg",320,240 V,0,137044,,7.5,4.5 M,0,137044,160226,320,240
Sprite,Background,Centre,"sb\visual\square.jpg",320,240 V,0,205226,,7.5,4.5 M,0,205226,228408,320,240
Sprite,Background,Centre,"sb\sprites\KiaiPattern.png",320,240 S,0,63408,,0.686 C,0,63408,,208,245,244 M,0,63408,74317,320,240,-616,240
Sprite,Background,Centre,"sb\sprites\KiaiPattern.png",320,240 S,0,74317,,0.686 C,0,74317,,208,245,244 M,0,74317,86590,1256,240,320,240
Sprite,Background,Centre,"sb\sprites\KiaiPattern.png",320,240 S,0,63408,,0.686 C,0,63408,,208,245,244 M,0,63408,74317,1256,240,320,240 M,0,74317,86590,320,240,-616,240
Sprite,Background,Centre,"sb\visual\square.jpg",320,240 R,0,74316,,-0.2443634 C,0,74316,,150,200,200 V,1,74316,74999,0,0.5,8,0.5 M,1,74316,86590,483.4909,306.0728,483.4909,311.4364
Sprite,Background,Centre,"sb\lyrics\39.png",320,240 C,0,64431,,100,150,150 F,0,64431,64771,0,0.9832727 M,0,64431,74317,639.38,41.02,-196.6909,41.02 V,0,67372,,0.8952727,1
Sprite,Background,Centre,"sb\lyrics\40.png",320,240 C,0,67158,,100,150,150 V,0,67158,,0.9185,1 F,0,67158,67499,0,1 M,0,67158,74317,611.4545,140.5091,1.1273,141.0909
Sprite,Background,Centre,"sb\lyrics\41.png",320,240 C,0,69885,,100,150,150 V,0,69885,,0.9709091,1 F,0,69885,70226,0,1 M,0,69885,74317,647.5636,240,265.309,240 F,0,70226,74317,1
Sprite,Background,Centre,"sb\lyrics\42.png",320,240 C,0,71590,,100,150,150 V,0,71590,,0.9185452,1 F,0,71590,71931,0,1 M,0,71590,74317,660.9454,340.6545,422.4,339.4909
Sprite,Background,Centre,"sb\lyrics\43.png",320,240 R,0,74316,,-0.2443634 S,0,74317,,0.7614548 F,0,74317,74828,0,1 M,0,74317,77044,964.6546,185.8909,301.9637,354.0363 F,0,74828,76703,1 F,0,76703,77044,1,0
Sprite,Background,Centre,"sb\lyrics\6.png",320,240 S,0,79771,,0.7614548 R,0,79771,,-0.2443634 F,0,79771,80112,0,1 M,0,79771,81135,782.691,235.3454,491.6364,307.4908 F,0,80283,80965,1 F,0,80965,81135,1,0
Sprite,Background,Centre,"sb\lyrics\46.png",320,240 S,0,83181,,0.7614548 R,0,83181,,-0.2443634 F,0,83181,83521,0,1 M,0,83181,86590,782.691,235.3454,301.9637,354.0363 F,0,83521,86419,1 F,0,86419,86590,1,0
Sprite,Background,Centre,"sb\sprites\KiaiSejougahara.png",320,240 F,0,63408,,0.31 S,0,63408,,0.7556363 C,0,63408,,0,0,0 M,1,63408,68862,325,255.6,325,272 R,1,63408,68862,-0.0232724,0.04654571 M,2,68862,74317,325,272,321,262 R,2,68862,74317,0.04654571,0.1396368 M,1,74317,79771,321,262,305,287.6 R,1,74317,79771,0.1396368,0.02327297 M,2,79771,86590,305,287.6,298.7273,252 R,2,79771,86590,0.02327297,-0.04654515
Sprite,Background,Centre,"sb\sprites\KiaiSejougahara.png",320,240 S,0,63408,,0.7556363 C,0,63408,,225,240,255 M,1,63408,68862,323,253.6,323,270 R,1,63408,68862,-0.0232724,0.04654571 M,2,68862,74317,323,270,319,260 R,2,68862,74317,0.04654571,0.1396368 M,1,74317,79771,319,260,303,285.6 R,1,74317,79771,0.1396368,0.02327297 M,2,79771,84036,303,285.6,301.128,271.6733 R,2,79771,86590,0.02327297,-0.04654515 M,0,84036,86590,301.128,271.6733,296.7273,250 F,0,86590,,1
Sprite,Background,Centre,"sb\visual\square.jpg",320,240 R,0,63408,,-0.2443634 C,0,63408,,150,200,200 V,1,63408,64771,0,0.5,8,0.5 M,1,63408,86590,483.4909,436.0728,483.4909,456.4364
Sprite,Background,Centre,"sb\lyrics\44.png",320,240 S,0,77044,,0.7614548 R,0,77044,,-0.2443634 F,0,77044,77556,0,1 F,0,77044,79431,1 M,0,77044,79771,966.4001,329.8546,301.9637,499.0363 F,0,79431,79771,1,0
Sprite,Background,Centre,"sb\lyrics\45.png",320,240 S,0,81135,,0.7614548 R,0,81135,,-0.2443634 F,0,81135,81476,0,1 M,0,81135,83181,803.7092,375.2364,428.8001,468.7817 F,0,81476,83010,1 F,0,83010,83181,1,0
Sprite,Background,Centre,"sb\sprites\KiaiPattern.png",320,240 S,0,137044,,0.686 C,0,137044,,245,208,208 M,0,137044,147953,320,240,1256,240
Sprite,Background,Centre,"sb\sprites\KiaiPattern.png",320,240 S,0,137044,,0.686 C,0,137044,,245,208,208 M,0,137044,147953,-616,240,320,240 M,0,147953,160226,320,240,1256,240
Sprite,Background,Centre,"sb\sprites\KiaiPattern.png",320,240 S,0,147953,,0.686 C,0,147953,,245,208,208 M,0,147953,160226,-616,240,320,240
Sprite,Background,Centre,"sb\sprites\KiaiSejougahara.png",320,240 F,0,137044,,0.31 S,0,137044,,0.6683637 C,0,137044,,0,0,0 P,0,137044,,H M,2,137044,139771,322,242,331.891,244.9091 R,1,137044,139771,0,-0.08145478 M,1,139771,147953,331.891,244.9091,337.7092,247.2364 R,1,139771,147953,-0.08145478,0.0232727 M,1,147953,153408,337.7092,247.2364,310.3637,235.0182 R,1,147953,153408,0.0232727,-0.05818177 M,2,153408,160226,310.3637,235.0182,326.6546,244.9091 R,1,153408,160226,-0.05818177,0.01163635 F,0,160226,,1
Sprite,Background,Centre,"sb\sprites\KiaiSejougahara.png",320,240 S,0,137044,,0.6683637 C,0,137044,,255,217,217 P,0,137044,,H M,2,137044,139771,320,240,329.891,242.9091 R,1,137044,139771,0,-0.08145478 F,0,139165,160226,1 M,1,139771,147953,329.891,242.9091,335.7092,245.2364 R,1,139771,147953,-0.08145478,0.0232727 M,1,147953,153408,335.7092,245.2364,308.3637,233.0182 R,1,147953,153408,0.0232727,-0.05818177 M,2,153408,160226,308.3637,233.0182,324.6546,242.9091 R,1,153408,160226,-0.05818177,0.01163635
Sprite,Background,Centre,"sb\visual\square.jpg",320,240 M,0,137044,,-89.01817,397.6728 R,0,137044,,-0.8 C,0,137044,,180,99,99 V,1,137044,138408,0.6,0,0.6,8 F,0,137044,160226,1
Sprite,Background,Centre,"sb\visual\square.jpg",320,240 M,0,137044,,27.92729,290.0364 R,0,137044,,-0.8 C,0,137044,,180,99,99 V,1,137044,138408,0.8,0,0.8,8 F,0,137044,160226,1
Sprite,Background,Centre,"sb\lyrics\68.png",320,240 S,0,137044,,0.6392 R,0,137044,,0.7716364 C,0,137044,,180,99,99 M,0,137044,147953,68.65454,239.4182,141.3818,309.2364 F,0,137044,147953,1
Sprite,Background,Centre,"sb\lyrics\69.png",320,240 S,0,140794,,0.6392 R,0,140794,,0.7716364 C,0,140794,,255,255,255 F,0,140794,141135,0,1 M,0,140794,147953,50.03637,311.5636,117.5273,375.5637 F,0,141135,147953,1
Sprite,Background,Centre,"sb\lyrics\70.png",320,240 S,0,143521,,0.6392 R,0,143521,,0.7716364 C,0,143521,,180,99,99 F,0,143521,143862,0,1 M,0,143521,147953,2.9091,356.3636,23.27272,376.1455 F,0,143862,147953,1
Sprite,Background,Centre,"sb\lyrics\71.png",320,240 S,0,143521,,0.6392 R,0,147953,,0.7716364 F,0,147953,148294,0,1 M,0,147953,150681,415.9091,659.4909,-54.1091,210.3272 F,0,148294,150340,1 F,0,150340,150681,1,0
Sprite,Background,Centre,"sb\lyrics\72.png",320,240 S,0,150681,,0.6392 R,0,150681,,0.7716364 F,0,150681,151021,0,1 M,0,150681,153408,358.3091,610.8,-54.1091,210.3272 F,0,151021,153063,1 F,0,153063,153408,1,0
Sprite,Background,Centre,"sb\lyrics\6.png",320,240 S,0,153408,,0.5694547 R,0,153408,,0.7679996 C,0,153408,,180,99,99 F,0,153408,153749,0,1 M,0,153408,160226,-40.14545,137.0182,-8.145452,166.6909 F,0,153749,160226,1
Sprite,Background,Centre,"sb\lyrics\45.png",320,240 S,0,154771,,0.5694547 R,0,154771,,0.7679996 C,0,154771,,180,99,99 F,0,154771,155112,0,1 M,0,154771,160226,23.85455,198.1091,49.45456,221.9637 F,0,155112,160226,1
Sprite,Background,Centre,"sb\lyrics\46.png",320,240 S,0,156817,,0.5694547 R,0,156817,,0.7679996 C,0,156817,,180,99,99 F,0,156817,157158,0,1 M,0,156817,160226,102.9818,273.7455,117.5273,287.7091 F,0,157158,160226,1
Sprite,Background,Centre,"sb\sprites\KiaiPattern.png",320,240 C,0,205226,,200,200,200 F,0,205226,210681,1 S,0,205226,210681,0.65,0.75
Sprite,Background,Centre,"sb\sprites\KiaiSejougaharaBW.png",320,240 F,0,205226,,0.31 C,0,205226,,0,0,0 M,0,205226,210681,323,131.291,323,355.291 S,0,205226,210681,0.89,1 R,0,205226,210681,0,0.174
Sprite,Background,Centre,"sb\sprites\KiaiSejougaharaBW.png",320,240 M,0,205226,210681,320,128.291,320,352.291 S,0,205226,210681,0.89,1 R,0,205226,210681,0,0.174
Sprite,Background,Centre,"sb\lyrics\39.png",320,240 C,0,206249,,0,0,0 F,0,206249,206590,0,1 S,0,206249,208976,0.93,0.977 F,0,206590,208976,1 F,0,208976,,1 S,0,208976,,0.9767253
Sprite,Background,Centre,"sb\lyrics\40.png",320,240 F,0,208997,,1 C,0,208997,,0,0,0 S,0,208997,210681,0.977,1
Sprite,Background,Centre,"sb\sprites\KiaiPattern.png",320,240 S,0,210681,,0.686 C,0,210681,,222,155,201 M,0,210681,218862,320,240,-616,240
Sprite,Background,Centre,"sb\sprites\KiaiPattern.png",320,240 S,0,210681,,0.686 C,0,210681,,222,155,201 M,0,210681,218862,1256,240,320,240 M,0,218862,228408,320,240,-616,240
Sprite,Background,Centre,"sb\sprites\KiaiPattern.png",320,240 S,0,218862,,0.686 C,0,218862,,222,155,201 M,0,218862,228408,1256,240,320,240
Sprite,Background,Centre,"sb\lyrics\41.png",320,240 S,0,211703,,0.96 C,0,211703,,177,46,132 F,0,211703,211874,0,1 M,0,211703,216135,569.0182,139.3455,58.76365,139.3455
Sprite,Background,Centre,"sb\lyrics\42.png",320,240 S,0,213408,,0.913 C,0,213408,,177,46,132 F,0,213408,213578,0,1 M,0,213408,216135,741.2364,240,421.8182,240.5818
Sprite,Background,Centre,"sb\lyrics\46.png",320,240 S,0,224999,,0.82 R,0,224999,,-0.395 C,0,224999,,177,46,132 F,0,224999,225340,0,1 M,0,224999,228408,737.1638,203.3454,329.3091,373.2364
Sprite,Background,Centre,"sb\sprites\KiaiSejougahara.png",320,240 F,0,210681,,0.31 S,0,210681,,0.8138182 C,0,210681,,0,0,0 M,0,210681,216135,274.2909,243.7455,284.7636,261.7818 R,0,210681,216135,-0.2560004,-0.1047278 M,0,216135,221590,284.7636,261.7818,366.2124,275.7495 R,0,216135,221590,-0.1047278,0.1861816 M,0,221590,228408,366.2124,275.7495,362.7065,300.1833 R,0,221590,228408,0.1861816,0.1629086
Sprite,Background,Centre,"sb\sprites\KiaiSejougahara.png",320,240 S,0,210681,,0.8138182 C,0,210681,,244,223,238 M,0,210681,216135,272.2909,241.7455,282.7636,259.7818 R,0,210681,216135,-0.2560004,-0.1047278 M,0,216135,221590,282.7636,259.7818,364.2124,273.7495 R,0,216135,221590,-0.1047278,0.1861816 M,0,221590,222953,364.2124,273.7495,362.9297,278.6341 R,0,221590,228408,0.1861816,0.1629086 M,0,222953,228408,362.9297,278.6341,360.7065,298.1833 F,0,224999,,1
Sprite,Background,Centre,"sb\lyrics\43.png",320,240 C,0,216135,,177,46,132 F,0,216135,216476,0,1 M,0,216135,218862,851.7819,249.3091,424.1455,426.1818 S,0,216476,,0.877818 R,0,216476,,-0.395 F,0,216476,218521,1 F,0,218521,218862,1,0
Sprite,Background,Centre,"sb\lyrics\44.png",320,240 C,0,218862,,177,46,132 F,0,218862,219203,0,1 M,0,218862,221590,795.3455,272,357.8182,454.1091 F,0,219203,218521,1 S,0,219203,,0.877818 R,0,219203,,-0.395 F,0,221249,221590,1,0
Sprite,Background,Centre,"sb\lyrics\6.png",320,240 S,0,221590,,0.82 R,0,221590,,-0.395 C,0,221590,,177,46,132 F,0,221590,221931,0,1 M,0,221590,223294,693.5273,221.9636,403.2,344.1454 F,0,221931,222953,1 F,0,222953,223294,1,0
Sprite,Background,Centre,"sb\lyrics\45.png",320,240 S,0,222953,,0.82 R,0,222953,,-0.395 C,0,222953,,177,46,132 F,0,222953,223294,0.05745438,1 M,0,222953,224658,744.1454,305.1636,420.0727,441.8909 F,0,223294,224317,1 F,0,224317,224658,1,0
Sprite,Background,Centre,"sb\visual\square.jpg",320,240 C,0,216135,,177,46,132 M,1,216135,216476,320,425.0182,477.0909,355.2 R,1,216135,216476,1.84,-0.395 V,1,216135,216476,0,0.3,7,0.3 F,0,228408,,1
Sprite,Background,Centre,"sb\visual\square.jpg",320,240 C,0,216135,,177,46,132 M,1,216135,216476,320,525.0182,477.0909,455.2 R,1,216135,216476,1.84,-0.395 V,1,216135,216476,0,0.3,7,0.3 F,0,228408,,1
Sprite,Background,Centre,"sb\visual\circleB.png",0,0 C,0,11590,,204,114,165 M,0,11590,11632,429,367,443.4933,363.9743 F,2,11590,12045,1,0 S,2,11590,12045,1,0.2 P,0,11590,12045,A M,0,11632,11675,443.4933,363.9743,458.2464,363.2574 M,0,11675,11717,458.2464,363.2574,472.9058,365.3428 M,0,11717,11760,472.9058,365.3428,486.7096,370.6789 M,0,11760,11803,486.7096,370.6789,499.3767,378.2468 M,0,11803,11845,499.3767,378.2468,510.4067,388.084
Sprite,Background,Centre,"sb\visual\circleB.png",527,408 C,0,11931,,204,114,165 F,2,11931,12131,1,0 S,2,11931,12131,1,0.2 P,0,11931,12131,A
Sprite,Background,Centre,"sb\visual\circleB.png",561,313 C,0,12101,,204,114,165 F,2,12101,12301,1,0 S,2,12101,12301,1,0.2 P,0,12101,12301,A
Sprite,Background,Centre,"sb\visual\circleB.png",555,212 C,0,12271,,204,114,165 F,2,12271,12471,1,0 S,2,12271,12471,1,0.2 P,0,12271,12471,A
Sprite,Background,Centre,"sb\visual\circleB.png",487,136 C,0,12442,,204,114,165 F,2,12442,12642,1,0 S,2,12442,12642,1,0.2 P,0,12442,12642,A
Sprite,Background,Centre,"sb\visual\circleB.png",460,233 C,0,12612,,204,114,165 F,2,12612,12812,1,0 S,2,12612,12812,1,0.2 P,0,12612,12812,A
Sprite,Background,Centre,"sb\visual\circleB.png",575,129 C,0,12783,,204,114,165 F,2,12783,12983,1,0 S,2,12783,12983,1,0.2 P,0,12783,12983,A
Sprite,Background,Centre,"sb\visual\circleB.png",0,0 C,0,14317,,204,114,165 M,0,14317,14359,136,104,151.6037,102.043 F,2,14317,14687,1,0 S,2,14317,14687,1,0.2 P,0,14317,14687,A M,0,14359,14402,151.6037,102.043,167.3088,101.7167 M,0,14402,14444,167.3088,101.7167,182.9404,103.2819 M,0,14444,14487,182.9404,103.2819,198.2719,106.7163
Sprite,Background,Centre,"sb\visual\circleB.png",271,184 C,0,14658,,204,114,165 F,2,14658,14858,1,0 S,2,14658,14858,1,0.2 P,0,14658,14858,A
Sprite,Background,Centre,"sb\visual\circleB.png",0,0 C,0,14828,,204,114,165 M,0,14828,14870,271,184,280.5746,171.4944 F,2,14828,15198,1,0 S,2,14828,15198,1,0.2 P,0,14828,15198,A M,0,14870,14913,280.5746,171.4944,290.1492,158.9888 M,0,14913,14955,290.1492,158.9888,299.7238,146.4832 M,0,14955,14998,299.7238,146.4832,309.2983,133.9777
Sprite,Background,Centre,"sb\visual\circleB.png",388,61 C,0,15169,,204,114,165 F,2,15169,15369,1,0 S,2,15169,15369,1,0.2 P,0,15169,15369,A
Sprite,Background,Centre,"sb\visual\circleB.png",0,0 C,0,15340,,204,114,165 M,0,15340,15382,388,61,403.0404,65.58696 F,2,15340,15710,1,0 S,2,15340,15710,1,0.2 P,0,15340,15710,A M,0,15382,15425,403.0404,65.58696,417.4799,71.76537 M,0,15425,15467,417.4799,71.76537,431.0352,79.69981 M,0,15467,15510,431.0352,79.69981,443.494,89.26642
Sprite,Background,Centre,"sb\visual\circleB.png",453,196 C,0,15681,,204,114,165 F,2,15681,15881,1,0 S,2,15681,15881,1,0.2 P,0,15681,15881,A
Sprite,Background,Centre,"sb\visual\circleB.png",515,282 C,0,15851,,204,114,165 F,2,15851,16051,1,0 S,2,15851,16051,1,0.2 P,0,15851,16051,A
Sprite,Background,Centre,"sb\visual\circleB.png",464,375 C,0,16021,,204,114,165 F,2,16021,16221,1,0 S,2,16021,16221,1,0.2 P,0,16021,16221,A
Sprite,Background,Centre,"sb\visual\circleB.png",410,281 C,0,16192,,204,114,165 F,2,16192,16392,1,0 S,2,16192,16392,1,0.2 P,0,16192,16392,A
Sprite,Background,Centre,"sb\visual\circleB.png",553,367 C,0,16362,,204,114,165 F,2,16362,16562,1,0 S,2,16362,16562,1,0.2 P,0,16362,16562,A
Sprite,Background,Centre,"sb\visual\circleB.png",400,437 C,0,16533,,204,114,165 F,2,16533,16733,1,0 S,2,16533,16733,1,0.2 P,0,16533,16733,A
Sprite,Background,Centre,"sb\visual\circleB.png",0,0 C,0,16703,,204,114,165 M,0,16703,16745,322,297,321.2056,281.3019 F,2,16703,17158,1,0 S,2,16703,17158,1,0.2 P,0,16703,17158,A M,0,16745,16788,321.2056,281.3019,322.1661,265.6338 M,0,16788,16830,322.1661,265.6338,321.2056,281.3019 M,0,16830,16873,321.2056,281.3019,322,297 M,0,16873,16916,322,297,321.2056,281.3019 M,0,16916,16958,321.2056,281.3019,322.1661,265.6338
Sprite,Background,Centre,"sb\visual\circleB.png",423,353 C,0,55226,,204,114,165 F,2,55226,55426,1,0 S,2,55226,55426,1,0.2 P,0,55226,55426,A
Sprite,Background,Centre,"sb\visual\circleB.png",509,71 C,0,56249,,204,114,165 F,2,56249,56449,1,0 S,2,56249,56449,1,0.2 P,0,56249,56449,A
Sprite,Background,Centre,"sb\visual\circleB.png",0,0 C,0,56590,,204,114,165 M,0,56590,56632,528,56,522.6951,62.94826 F,2,56590,57301,1,0 S,2,56590,57301,1,0.2 P,0,56590,57301,A M,0,56632,56675,522.6951,62.94826,518.0449,70.34589 M,0,56675,56717,518.0449,70.34589,514.0869,78.13181 M,0,56717,56760,514.0869,78.13181,510.8532,86.24177 M,0,56760,56803,510.8532,86.24177,508.3699,94.60896 M,0,56803,56845,508.3699,94.60896,506.657,103.1645 M,0,56845,56888,506.657,103.1645,505.728,111.838 M,0,56888,56930,505.728,111.838,505.5903,120.5582 M,0,56930,56973,505.5903,120.5582,506.2448,129.2534 M,0,56973,57016,506.2448,129.2534,507.6857,137.8521 M,0,57016,57058,507.6857,137.8521,509.9013,146.2838 M,0,57058,57101,509.9013,146.2838,512.873,154.4791
Sprite,Background,Centre,"sb\visual\circleB.png",0,0 C,0,57442,,204,114,165 M,0,57442,57484,436,247,427.2703,246.4048 F,2,57442,58068,1,0 S,2,57442,58068,1,0.2 P,0,57442,58068,A M,0,57484,57527,427.2703,246.4048,418.5405,245.8096 M,0,57527,57569,418.5405,245.8096,409.8108,245.2144 M,0,57569,57612,409.8108,245.2144,401.0811,244.6192 M,0,57612,57655,401.0811,244.6192,392.3513,244.024 M,0,57655,57697,392.3513,244.024,383.6216,243.4287 M,0,57697,57740,383.6216,243.4287,374.8919,242.8335 M,0,57740,57782,374.8919,242.8335,366.1621,242.2383 M,0,57782,57825,366.1621,242.2383,357.4324,241.6431 M,0,57825,57868,357.4324,241.6431,348.7027,241.0479
Sprite,Background,Centre,"sb\visual\circleB.png",0,0 C,0,57953,,204,114,165 M,0,57953,57995,348,241,347.8569,258.4878 F,2,57953,58493,1,0 S,2,57953,58493,1,0.2 P,0,57953,58493,A M,0,57995,58038,347.8569,258.4878,349.4854,275.896 M,0,58038,58080,349.4854,275.896,352.8678,293.0462 M,0,58080,58123,352.8678,293.0462,357.8635,309.8034 M,0,58123,58166,357.8635,309.8034,352.8678,293.0462 M,0,58166,58208,352.8678,293.0462,349.4854,275.896 M,0,58208,58251,349.4854,275.896,347.8569,258.4878 M,0,58251,58293,347.8569,258.4878,348,241
Sprite,Background,Centre,"sb\visual\circleB.png",0,0 C,0,58465,,204,114,165 M,0,58465,58507,308,124,308.1431,106.5122 F,2,58465,59005,1,0 S,2,58465,59005,1,0.2 P,0,58465,59005,A M,0,58507,58550,308.1431,106.5122,306.5147,89.10402 M,0,58550,58592,306.5147,89.10402,303.1322,71.95378 M,0,58592,58635,303.1322,71.95378,298.1365,55.19664 M,0,58635,58678,298.1365,55.19664,303.1322,71.95378 M,0,58678,58720,303.1322,71.95378,306.5147,89.10402 M,0,58720,58763,306.5147,89.10402,308.1431,106.5122 M,0,58763,58805,308.1431,106.5122,308,124
Sprite,Background,Centre,"sb\visual\circleB.png",252,213 C,0,58976,,204,114,165 F,2,58976,59176,1,0 S,2,58976,59176,1,0.2 P,0,58976,59176,A
Sprite,Background,Centre,"sb\visual\circleB.png",153,178 C,0,59146,,204,114,165 F,2,59146,59346,1,0 S,2,59146,59346,1,0.2 P,0,59146,59346,A
Sprite,Background,Centre,"sb\visual\circleB.png",122,281 C,0,59317,,204,114,165 F,2,59317,59517,1,0 S,2,59317,59517,1,0.2 P,0,59317,59517,A
Sprite,Background,Centre,"sb\visual\circleB.png",228,125 C,0,59487,,204,114,165 F,2,59487,59687,1,0 S,2,59487,59687,1,0.2 P,0,59487,59687,A
Sprite,Background,Centre,"sb\visual\circleB.png",67,210 C,0,59658,,204,114,165 F,2,59658,59858,1,0 S,2,59658,59858,1,0.2 P,0,59658,59858,A
Sprite,Background,Centre,"sb\visual\circleB.png",0,0 C,0,59828,,204,114,165 M,0,59828,59870,190,349,194.9545,365.7744 F,2,59828,60368,1,0 S,2,59828,60368,1,0.2 P,0,59828,60368,A M,0,59870,59913,194.9545,365.7744,198.1064,382.9777 M,0,59913,59955,198.1064,382.9777,199.4207,400.4167 M,0,59955,59998,199.4207,400.4167,199,417 M,0,59998,60041,199,417,199.4207,400.4167 M,0,60041,60083,199.4207,400.4167,198.1064,382.9777 M,0,60083,60126,198.1064,382.9777,194.9545,365.7744 M,0,60126,60168,194.9545,365.7744,190,349
Sprite,Background,Centre,"sb\visual\circleB.png",0,0 C,0,60340,,204,114,165 M,0,60340,60382,290,284,307.2337,287.0413 F,2,60340,60710,1,0 S,2,60340,60710,1,0.2 P,0,60340,60710,A M,0,60382,60425,307.2337,287.0413,324.4674,290.0825 M,0,60425,60467,324.4674,290.0825,341.7011,293.1237 M,0,60467,60510,341.7011,293.1237,358,296
Sprite,Background,Centre,"sb\visual\circleB.png",0,0 C,0,60681,,204,114,165 M,0,60681,60723,395,406,414.04,408.66 F,2,60681,61221,1,0 S,2,60681,61221,1,0.2 P,0,60681,61221,A M,0,60723,60766,414.04,408.66,433.174,407.1611 M,0,60766,60808,433.174,407.1611,451.088,400.3108 M,0,60808,60851,451.088,400.3108,466.8825,389.3502 M,0,60851,60894,466.8825,389.3502,481.7056,377.0692 M,0,60894,60936,481.7056,377.0692,497.4445,366.0189 M,0,60936,60979,497.4445,366.0189,515.0313,358.3033 M,0,60979,61021,515.0313,358.3033,533.9233,354.8238
Sprite,Background,Centre,"sb\visual\circleB.png",0,0 C,0,61192,,204,114,165 M,0,61192,61234,547,239,549.2234,219.8788 F,2,61192,61562,1,0 S,2,61192,61562,1,0.2 P,0,61192,61562,A M,0,61234,61277,549.2234,219.8788,551.4468,200.7577 M,0,61277,61319,551.4468,200.7577,553.6702,181.6365 M,0,61319,61362,553.6702,181.6365,555.8936,162.5153
Sprite,Background,Centre,"sb\visual\circleB.png",465,90 C,0,61533,,204,114,165 F,2,61533,61733,1,0 S,2,61533,61733,1,0.2 P,0,61533,61733,A
Sprite,Background,Centre,"sb\visual\circleB.png",0,0 C,0,61703,,204,114,165 M,0,61703,61745,380,168,360.9878,165.3692 F,2,61703,62158,1,0 S,2,61703,62158,1,0.2 P,0,61703,62158,A M,0,61745,61788,360.9878,165.3692,342.9691,158.8202 M,0,61788,61830,342.9691,158.8202,360.9878,165.3692 M,0,61830,61873,360.9878,165.3692,380,168 M,0,61873,61916,380,168,360.9878,165.3692 M,0,61916,61958,360.9878,165.3692,342.9691,158.8202
Sprite,Background,Centre,"sb\visual\circleB.png",508,199 C,0,128862,,204,114,165 F,2,128862,129062,1,0 S,2,128862,129062,1,0.2 P,0,128862,129062,A
Sprite,Background,Centre,"sb\visual\circleB.png",144,403 C,0,129885,,204,114,165 F,2,129885,130085,1,0 S,2,129885,130085,1,0.2 P,0,129885,130085,A
Sprite,Background,Centre,"sb\visual\circleB.png",0,0 C,0,130226,,204,114,165 M,0,130226,130268,157,398,160.2423,388.0187 F,2,130226,130766,1,0 S,2,130226,130766,1,0.2 P,0,130226,130766,A M,0,130268,130311,160.2423,388.0187,162.9278,377.8761 M,0,130311,130353,162.9278,377.8761,165.0485,367.6025 M,0,130353,130396,165.0485,367.6025,166.5983,357.2287 M,0,130396,130439,166.5983,357.2287,167.7419,346.7979 M,0,130439,130481,167.7419,346.7979,168.0508,336.3088 M,0,130481,130524,168.0508,336.3088,167.7799,325.821 M,0,130524,130566,167.7799,325.821,166.9302,315.3659
Sprite,Background,Centre,"sb\visual\circleB.png",0,0 C,0,130737,,204,114,165 M,0,130737,130779,225,227,222.1738,218.7204 F,2,130737,131277,1,0 S,2,130737,131277,1,0.2 P,0,130737,131277,A M,0,130779,130822,222.1738,218.7204,219.7633,210.3108 M,0,130822,130864,219.7633,210.3108,217.7745,201.7919 M,0,130864,130907,217.7745,201.7919,216.2123,193.185 M,0,130907,130950,216.2123,193.185,215.0804,184.5113 M,0,130950,130992,215.0804,184.5113,214.3817,175.7924 M,0,130992,131035,214.3817,175.7924,214.1178,167.0498 M,0,131035,131077,214.1178,167.0498,214.2894,158.3053
Sprite,Background,Centre,"sb\visual\circleB.png",0,0 C,0,131590,,204,114,165 M,0,131590,131632,214,158,230.8152,153.3204 F,2,131590,132130,1,0 S,2,131590,132130,1,0.2 P,0,131590,132130,A M,0,131632,131675,230.8152,153.3204,248.2084,152.0841 M,0,131675,131717,248.2084,152.0841,265.4854,154.3346 M,0,131717,131760,265.4854,154.3346,281.9578,159.9776 M,0,131760,131803,281.9578,159.9776,265.4854,154.3346 M,0,131803,131845,265.4854,154.3346,248.2084,152.0841 M,0,131845,131888,248.2084,152.0841,230.8152,153.3204 M,0,131888,131930,230.8152,153.3204,214,158
Sprite,Background,Centre,"sb\visual\circleB.png",0,0 C,0,132101,,204,114,165 M,0,132101,132143,142,67,125.1848,71.6796 F,2,132101,132641,1,0 S,2,132101,132641,1,0.2 P,0,132101,132641,A M,0,132143,132186,125.1848,71.6796,107.7916,72.91589 M,0,132186,132228,107.7916,72.91589,90.51457,70.66537 M,0,132228,132271,90.51457,70.66537,74.04224,65.02242 M,0,132271,132314,74.04224,65.02242,90.51457,70.66537 M,0,132314,132356,90.51457,70.66537,107.7916,72.91589 M,0,132356,132399,107.7916,72.91589,125.1848,71.6796 M,0,132399,132441,125.1848,71.6796,142,67
Sprite,Background,Centre,"sb\visual\circleB.png",106,162 C,0,132612,,204,114,165 F,2,132612,132812,1,0 S,2,132612,132812,1,0.2 P,0,132612,132812,A
Sprite,Background,Centre,"sb\visual\circleB.png",159,264 C,0,132783,,204,114,165 F,2,132783,132983,1,0 S,2,132783,132983,1,0.2 P,0,132783,132983,A
Sprite,Background,Centre,"sb\visual\circleB.png",258,269 C,0,132953,,204,114,165 F,2,132953,133153,1,0 S,2,132953,133153,1,0.2 P,0,132953,133153,A
Sprite,Background,Centre,"sb\visual\circleB.png",64,249 C,0,133124,,204,114,165 F,2,133124,133324,1,0 S,2,133124,133324,1,0.2 P,0,133124,133324,A
Sprite,Background,Centre,"sb\visual\circleB.png",231,173 C,0,133294,,204,114,165 F,2,133294,133494,1,0 S,2,133294,133494,1,0.2 P,0,133294,133494,A
Sprite,Background,Centre,"sb\visual\circleB.png",0,0 C,0,133465,,204,114,165 M,0,133465,133507,87,333,84.67761,350.3358 F,2,133465,134005,1,0 S,2,133465,134005,1,0.2 P,0,133465,134005,A M,0,133507,133550,84.67761,350.3358,84.04929,367.8125 M,0,133550,133592,84.04929,367.8125,85.12043,385.2652 M,0,133592,133635,85.12043,385.2652,87.8166,402.5447 M,0,133635,133678,87.8166,402.5447,85.12043,385.2652 M,0,133678,133720,85.12043,385.2652,84.04929,367.8125 M,0,133720,133763,84.04929,367.8125,84.67761,350.3358 M,0,133763,133805,84.67761,350.3358,87,333
Sprite,Background,Centre,"sb\visual\circleB.png",0,0 C,0,133976,,204,114,165 M,0,133976,134018,209,357,226.4186,358.6857 F,2,133976,134346,1,0 S,2,133976,134346,1,0.2 P,0,133976,134346,A M,0,134018,134061,226.4186,358.6857,243.8372,360.3713 M,0,134061,134103,243.8372,360.3713,261.2559,362.057 M,0,134103,134146,261.2559,362.057,278.6745,363.7427
Sprite,Background,Centre,"sb\visual\circleB.png",0,0 C,0,134317,,204,114,165 M,0,134317,134359,404,419,408.4444,400.2701 F,2,134317,134857,1,0 S,2,134317,134857,1,0.2 P,0,134317,134857,A M,0,134359,134402,408.4444,400.2701,412.8888,381.5402 M,0,134402,134444,412.8888,381.5402,417.3332,362.8102 M,0,134444,134487,417.3332,362.8102,412.777,344.4943 M,0,134487,134530,412.777,344.4943,406.632,326.2514 M,0,134530,134572,406.632,326.2514,400.4871,308.0086 M,0,134572,134615,400.4871,308.0086,394.3421,289.7657 M,0,134615,134657,394.3421,289.7657,388.1972,271.5229
Sprite,Background,Centre,"sb\visual\circleB.png",0,0 C,0,134828,,204,114,165 M,0,134828,134870,309,178,312.3076,159.0363 F,2,134828,135198,1,0 S,2,134828,135198,1,0.2 P,0,134828,135198,A M,0,134870,134913,312.3076,159.0363,315.6152,140.0726 M,0,134913,134955,315.6152,140.0726,318.9229,121.1089 M,0,134955,134998,318.9229,121.1089,322.2305,102.1452
Sprite,Background,Centre,"sb\visual\circleB.png",445,84 C,0,135169,,204,114,165 F,2,135169,135369,1,0 S,2,135169,135369,1,0.2 P,0,135169,135369,A
Sprite,Background,Centre,"sb\visual\circleB.png",0,0 C,0,135340,,204,114,165 M,0,135340,135382,510,191,527.9572,197.8637 F,2,135340,135795,1,0 S,2,135340,135795,1,0.2 P,0,135340,135795,A M,0,135382,135425,527.9572,197.8637,546.6595,202.2669 M,0,135425,135467,546.6595,202.2669,527.9572,197.8637 M,0,135467,135510,527.9572,197.8637,510,191 M,0,135510,135553,510,191,527.9572,197.8637 M,0,135553,135595,527.9572,197.8637,546.6595,202.2669
Sprite,Background,Centre,"sb\visual\circleB.png",563,292 C,0,199771,,204,114,165 F,2,199771,199971,1,0 S,2,199771,199971,1,0.2 P,0,199771,199971,A
Sprite,Background,Centre,"sb\visual\circleB.png",0,0 C,0,200112,,204,114,165 M,0,200112,200154,550,121,536.3311,111.5369 F,2,200112,200482,1,0 S,2,200112,200482,1,0.2 P,0,200112,200482,A M,0,200154,200197,536.3311,111.5369,522.3772,103.1202 M,0,200197,200239,522.3772,103.1202,505.7976,104.3483 M,0,200239,200282,505.7976,104.3483,489.2181,105.5764
Sprite,Background,Centre,"sb\visual\circleB.png",0,0 C,0,200453,,204,114,165 M,0,200453,200495,376,201,389.6689,191.5369 F,2,200453,200823,1,0 S,2,200453,200823,1,0.2 P,0,200453,200823,A M,0,200495,200538,389.6689,191.5369,403.6228,183.1202 M,0,200538,200580,403.6228,183.1202,420.2024,184.3483 M,0,200580,200623,420.2024,184.3483,436.7819,185.5764
Sprite,Background,Centre,"sb\visual\circleB.png",0,0 C,0,200794,,204,114,165 M,0,200794,200836,563,292,546.4225,290.7441 F,2,200794,201164,1,0 S,2,200794,201164,1,0.2 P,0,200794,201164,A M,0,200836,200879,546.4225,290.7441,529.845,289.4883 M,0,200879,200921,529.845,289.4883,513.2675,288.2324 M,0,200921,200964,513.2675,288.2324,497,287
Sprite,Background,Centre,"sb\visual\circleB.png",0,0 C,0,201135,,204,114,165 M,0,201135,201177,383,391,399.5775,389.7441 F,2,201135,201505,1,0 S,2,201135,201505,1,0.2 P,0,201135,201505,A M,0,201177,201220,399.5775,389.7441,416.155,388.4883 M,0,201220,201262,416.155,388.4883,432.7325,387.2324 M,0,201262,201305,432.7325,387.2324,449,386
Sprite,Background,Centre,"sb\visual\circleB.png",398,291 C,0,201476,,204,114,165 F,2,201476,201676,1,0 S,2,201476,201676,1,0.2 P,0,201476,201676,A
Sprite,Background,Centre,"sb\visual\circleB.png",301,335 C,0,201646,,204,114,165 F,2,201646,201846,1,0 S,2,201646,201846,1,0.2 P,0,201646,201846,A
Sprite,Background,Centre,"sb\visual\circleB.png",194,328 C,0,201817,,204,114,165 F,2,201817,202017,1,0 S,2,201817,202017,1,0.2 P,0,201817,202017,A
Sprite,Background,Centre,"sb\visual\circleB.png",147,232 C,0,201987,,204,114,165 F,2,201987,202187,1,0 S,2,201987,202187,1,0.2 P,0,201987,202187,A
Sprite,Background,Centre,"sb\visual\circleB.png",242,413 C,0,202158,,204,114,165 F,2,202158,202358,1,0 S,2,202158,202358,1,0.2 P,0,202158,202358,A
Sprite,Background,Centre,"sb\visual\circleB.png",330,239 C,0,202328,,204,114,165 F,2,202328,202528,1,0 S,2,202328,202528,1,0.2 P,0,202328,202528,A
Sprite,Background,Centre,"sb\visual\circleB.png",118,364 C,0,202499,,204,114,165 F,2,202499,202699,1,0 S,2,202499,202699,1,0.2 P,0,202499,202699,A
Sprite,Background,Centre,"sb\visual\circleB.png",0,0 C,0,202669,,204,114,165 M,0,202669,202711,118,364,116.908,383.219 F,2,202669,203209,1,0 S,2,202669,203209,1,0.2 P,0,202669,203209,A M,0,202711,202754,116.908,383.219,115.816,402.438 M,0,202754,202796,115.816,402.438,114.724,421.657 M,0,202796,202839,114.724,421.657,113.632,440.876 M,0,202839,202882,113.632,440.876,114.724,421.657 M,0,202882,202924,114.724,421.657,115.816,402.438 M,0,202924,202967,115.816,402.438,116.908,383.219 M,0,202967,203009,116.908,383.219,118,364
Sprite,Background,Centre,"sb\visual\circleB.png",238,230 C,0,203181,,204,114,165 F,2,203181,203381,1,0 S,2,203181,203381,1,0.2 P,0,203181,203381,A
Sprite,Background,Centre,"sb\visual\circleB.png",0,0 C,0,203351,,204,114,165 M,0,203351,203393,238,230,236.7526,210.7905 F,2,203351,203891,1,0 S,2,203351,203891,1,0.2 P,0,203351,203891,A M,0,203393,203436,236.7526,210.7905,235.5052,191.5809 M,0,203436,203478,235.5052,191.5809,234.2579,172.3714 M,0,203478,203521,234.2579,172.3714,233.0105,153.1618 M,0,203521,203564,233.0105,153.1618,234.2579,172.3714 M,0,203564,203606,234.2579,172.3714,235.5052,191.5809 M,0,203606,203649,235.5052,191.5809,236.7526,210.7905 M,0,203649,203691,236.7526,210.7905,238,230
//Storyboard Layer 1 (Fail)
//Storyboard Layer 2 (Pass)
//Storyboard Layer 3 (Foreground)
Sprite,Foreground,Centre,"sb\titles\PantyDev.png",320,240 S,0,229793,,0.458909 M,0,229793,235226,598.6909,238.8364,597.5272,271.4182
//Storyboard Sound Samples

[TimingPoints]
681,340.909090909091,4,2,1,55,1,0
681,-125,4,2,1,55,0,0
851,-100,4,2,2,55,0,0
1021,-125,4,2,3,55,0,0
1192,-125,4,2,2,55,0,0
1362,-125,4,2,4,55,0,0
1533,-125,4,2,2,55,0,0
1703,-125,4,2,3,55,0,0
1874,-125,4,2,2,55,0,0
2044,-125,4,2,5,55,0,0
2215,-125,4,2,2,55,0,0
2385,-125,4,2,3,55,0,0
2556,-125,4,2,2,55,0,0
2726,-125,4,2,6,55,0,0
2896,-125,4,2,2,55,0,0
3067,-125,4,2,3,55,0,0
3237,-125,4,2,2,55,0,0
3408,-125,4,2,1,55,0,0
3578,-125,4,2,2,55,0,0
3749,-125,4,2,3,55,0,0
3919,-125,4,2,2,55,0,0
4090,-125,4,2,4,55,0,0
4260,-125,4,2,2,55,0,0
4431,-125,4,2,3,55,0,0
4601,-125,4,2,2,55,0,0
4771,-125,4,2,7,55,0,0
4942,-125,4,2,2,55,0,0
5112,-125,4,2,3,55,0,0
5283,-125,4,2,2,55,0,0
5453,-125,4,2,6,55,0,0
5624,-125,4,2,2,55,0,0
5794,-125,4,2,3,55,0,0
5965,-125,4,2,2,55,0,0
6135,-153.846153846154,4,2,91,60,0,0
7499,-142.857142857143,4,2,91,60,0,0
8862,-133.333333333333,4,2,91,60,0,0
10226,-125,4,2,91,60,0,0
11590,-117.647058823529,4,2,91,60,0,0
11931,-117.647058823529,4,2,91,50,0,0
12101,-117.647058823529,4,2,91,55,0,0
12271,-117.647058823529,4,2,91,60,0,0
12442,-117.647058823529,4,2,91,65,0,0
12612,-117.647058823529,4,2,91,70,0,0
12783,-117.647058823529,4,2,91,75,0,0
12953,-133.333333333333,4,2,91,80,0,0
13294,-133.333333333333,4,2,91,40,0,0
13976,-133.333333333333,4,2,91,45,0,0
14317,-111.111111111111,4,2,91,50,0,0
14658,-111.111111111111,4,2,91,55,0,0
14999,-111.111111111111,4,2,91,60,0,0
15340,-111.111111111111,4,2,91,65,0,0
15681,-111.111111111111,4,2,91,70,0,0
16021,-111.111111111111,4,2,91,85,0,0
16362,-111.111111111111,4,2,91,90,0,0
16703,-111.111111111111,4,2,91,95,0,0
17044,-111.111111111111,4,2,91,60,0,0
36135,-125,4,2,91,60,0,0
38862,-111.111111111111,4,2,91,45,0,0
53862,-166.666666666667,4,2,91,40,0,0
55226,-166.666666666667,4,2,91,30,0,0
56249,-200,4,2,91,30,0,0
57953,-100,4,2,91,45,0,0
58294,-100,4,2,91,50,0,0
58635,-100,4,2,91,55,0,0
58976,-100,4,2,91,60,0,0
59317,-100,4,2,91,65,0,0
59658,-100,4,2,91,70,0,0
59999,-100,4,2,91,75,0,0
60340,-100,4,2,91,80,0,0
60681,-90.9090909090909,4,2,91,85,0,0
61021,-90.9090909090909,4,2,91,90,0,0
61362,-90.9090909090909,4,2,91,95,0,0
61703,-90.9090909090909,4,2,91,100,0,0
62044,-133.333333333333,4,2,91,100,0,0
63408,-90.9090909090909,4,2,91,70,0,1
72953,-83.3333333333333,4,2,91,70,0,1
73806,-83.3333333333333,4,2,91,80,0,1
73891,-83.3333333333333,4,2,91,70,0,1
73976,-83.3333333333333,4,2,91,60,0,1
74061,-83.3333333333333,4,2,91,50,0,1
74146,-83.3333333333333,4,2,91,40,0,1
74232,-83.3333333333333,4,2,91,30,0,1
74317,-83.3333333333333,4,2,91,70,0,1
79771,-81.9672131147541,4,2,91,70,0,1
81135,-80.6451612903226,4,2,91,70,0,1
82499,-79.3650793650794,4,2,91,70,0,1
83862,-78.125,4,2,91,70,0,1
85226,-78.125,4,2,91,60,0,1
85567,-78.125,4,2,91,65,0,1
85908,-78.125,4,2,91,70,0,1
86249,-78.125,4,2,91,75,0,1
86590,-133.333333333333,4,2,91,80,0,0
87953,-117.647058823529,4,2,91,40,0,0
89317,-90.9090909090909,4,2,91,45,0,0
89658,-90.9090909090909,4,2,91,50,0,0
89999,-90.9090909090909,4,2,91,55,0,0
90340,-90.9090909090909,4,2,91,60,0,0
90681,-133.333333333333,4,2,91,50,0,0
90766,-133.333333333333,4,2,91,50,0,0
100226,-166.666666666667,4,2,91,40,0,0
100908,-133.333333333333,4,2,91,45,0,0
101590,-111.111111111111,4,2,91,60,0,0
109771,-125,4,2,91,60,0,0
112499,-111.111111111111,4,2,91,45,0,0
127499,-166.666666666667,4,2,91,40,0,0
128862,-166.666666666667,4,2,91,30,0,0
130737,-200,4,2,91,30,0,0
131590,-100,4,2,91,45,0,0
131931,-100,4,2,91,50,0,0
132271,-100,4,2,91,55,0,0
132612,-100,4,2,91,60,0,0
132953,-100,4,2,91,65,0,0
133294,-100,4,2,91,70,0,0
133635,-100,4,2,91,75,0,0
133976,-100,4,2,91,80,0,0
134317,-90.9090909090909,4,2,91,85,0,0
134658,-90.9090909090909,4,2,91,90,0,0
134999,-90.9090909090909,4,2,91,95,0,0
135340,-90.9090909090909,4,2,91,100,0,0
137044,-90.9090909090909,4,2,91,70,0,1
146590,-83.3333333333333,4,2,91,70,0,1
147442,-83.3333333333333,4,2,91,80,0,1
147527,-83.3333333333333,4,2,91,70,0,1
147612,-83.3333333333333,4,2,91,60,0,1
147698,-83.3333333333333,4,2,91,50,0,1
147783,-83.3333333333333,4,2,91,40,0,1
147868,-83.3333333333333,4,2,91,30,0,1
147953,-83.3333333333333,4,2,91,70,0,1
153408,-81.9672131147541,4,2,91,70,0,1
154771,-80.6451612903226,4,2,91,70,0,1
156135,-79.3650793650794,4,2,91,70,0,1
157499,-78.125,4,2,91,70,0,1
158862,-78.125,4,2,91,60,0,1
159203,-78.125,4,2,91,65,0,1
159544,-78.125,4,2,91,70,0,1
159885,-78.125,4,2,91,75,0,1
160226,-133.333333333333,4,2,91,80,0,0
161590,-133.333333333333,4,2,91,40,0,0
166703,-100,4,2,91,50,0,0
167044,-100,4,2,91,50,0,0
172499,-90.9090909090909,4,2,91,60,0,0
177953,-100,4,2,91,60,0,0
182044,-100,4,2,91,55,0,0
182385,-100,4,2,91,50,0,0
182726,-100,4,2,91,45,0,0
183067,-100,4,2,91,40,0,0
183408,-133.333333333333,4,2,33,35,0,0
184260,-133.333333333333,4,2,31,15,0,0
184431,-133.333333333333,4,2,32,35,0,0
185453,-133.333333333333,4,2,33,35,0,0
186646,-133.333333333333,4,2,35,35,0,0
186987,-133.333333333333,4,2,36,35,0,0
187158,-133.333333333333,4,2,32,35,0,0
188181,-133.333333333333,4,2,33,35,0,0
188862,-133.333333333333,4,2,34,35,0,0
189374,-133.333333333333,4,2,35,35,0,0
189715,-133.333333333333,4,2,36,35,0,0
189885,-133.333333333333,4,2,32,35,0,0
190226,-133.333333333333,4,2,35,35,0,0
190908,-133.333333333333,4,2,37,35,0,0
191590,-133.333333333333,4,2,38,35,0,0
192101,-133.333333333333,4,2,39,15,0,0
192442,-133.333333333333,4,2,40,25,0,0
192612,-133.333333333333,4,2,41,30,0,0
192783,-133.333333333333,4,2,42,35,0,0
192953,-100,4,2,36,35,0,0
193294,-105.263157894737,4,2,43,35,0,0
193635,-117.647058823529,4,2,33,35,0,0
193976,-133.333333333333,4,2,32,35,0,0
194317,-111.111111111111,4,2,91,45,0,0
198408,-105.263157894737,4,2,91,55,0,0
198749,-105.263157894737,4,2,91,50,0,0
199090,-105.263157894737,4,2,91,45,0,0
199431,-105.263157894737,4,2,91,40,0,0
199771,-105.263157894737,4,2,91,55,0,0
200112,-105.263157894737,4,2,91,25,0,0
200453,-105.263157894737,4,2,91,30,0,0
200794,-105.263157894737,4,2,91,35,0,0
201135,-105.263157894737,4,2,91,40,0,0
201476,-105.263157894737,4,2,91,45,0,0
201817,-105.263157894737,4,2,91,50,0,0
202158,-105.263157894737,4,2,91,55,0,0
202499,-90.9090909090909,4,2,91,60,0,0
202840,-90.9090909090909,4,2,91,65,0,0
203181,-90.9090909090909,4,2,91,70,0,0
203521,-90.9090909090909,4,2,91,75,0,0
203862,-90.9090909090909,4,2,91,80,0,0
205226,-100,4,2,91,60,0,0
207953,-95.2380952380952,4,2,91,30,0,0
208294,-95.2380952380952,4,2,91,35,0,0
208635,-95.2380952380952,4,2,91,40,0,0
208976,-95.2380952380952,4,2,91,45,0,0
209317,-95.2380952380952,4,2,91,50,0,0
210340,-117.647058823529,4,2,91,60,0,0
210681,-90.9090909090909,4,2,91,70,0,1
214771,-83.3333333333333,4,2,91,70,0,1
221590,-81.9672131147541,4,2,91,70,0,1
222953,-80.6451612903226,4,2,91,70,0,1
224317,-79.3650793650794,4,2,91,70,0,1
225681,-78.125,4,2,91,70,0,1
226874,-78.125,4,2,91,60,0,1
227044,-78.125,4,2,91,65,0,1
227385,-78.125,4,2,91,70,0,1
227726,-78.125,4,2,91,75,0,1
228067,-78.125,4,2,91,80,0,1
228408,-90.9090909090909,4,2,91,60,0,0
229260,309.278350515464,4,2,91,60,1,0
229771,340.909090909091,4,2,91,60,1,0
229771,-100,4,2,91,60,0,0
237953,-86.9565217391304,4,2,91,60,0,0
241021,-86.9565217391304,4,2,91,55,0,0
241362,-86.9565217391304,4,2,91,50,0,0
241703,-86.9565217391304,4,2,91,45,0,0
242044,-86.9565217391304,4,2,91,40,0,0
242385,-86.9565217391304,4,2,91,35,0,0
242726,-86.9565217391304,4,2,91,30,0,0
243067,-86.9565217391304,4,2,91,25,0,0
243408,-86.9565217391304,4,2,91,40,0,0

[Colours]
Combo1 : 204,63,63
Combo2 : 195,80,135
Combo3 : 145,35,130
Combo4 : 110,160,200
Combo5 : 80,110,160
Combo6 : 203,88,88
SliderBorder : 142,60,147
SliderTrackOverride : 20,20,20

[HitObjects]
29,75,681,6,0,P|59:77|91:90,1,56,10|2,0:0|0:0,0:0:0:0:
156,145,1021,1,2,0:0:0:0:
156,145,1192,1,2,0:0:0:0:
234,92,1362,2,0,B|245:68|245:68|249:21,1,56,2|2,0:0|0:0,0:0:0:0:
342,42,1703,2,0,B|344:71|344:71|355:95,1,56,2|2,0:0|0:0,0:0:0:0:
430,181,2044,2,0,L|422:250,1,56,10|2,0:0|0:0,0:0:0:0:
361,308,2385,1,2,0:0:0:0:
279,257,2556,1,2,0:0:0:0:
203,315,2726,2,0,L|124:315,1,56,10|2,0:0|0:0,0:0:0:0:
73,207,3067,2,0,L|152:207,1,56,2|2,0:0|0:0,0:0:0:0:
41,353,3408,6,0,L|50:290,1,56,10|2,0:0|0:0,0:0:0:0:
73,207,3749,1,2,0:0:0:0:
73,207,3919,1,2,0:0:0:0:
30,121,4090,2,0,P|25:85|31:49,1,56,2|2,0:0|0:0,0:0:0:0:
122,65,4431,2,0,P|123:92|118:120,1,56,2|2,0:0|0:0,0:0:0:0:
180,192,4771,2,0,B|221:212|221:212|295:197,1,112,10|2,0:0|0:0,0:0:0:0:
344,122,5283,2,0,P|398:121|459:164,1,112,2|2,0:0|0:0,0:0:0:0:
470,241,5794,1,2,0:0:0:0:
381,343,5965,1,2,0:0:0:0:
381,343,6050,1,0,0:0:0:0:
381,343,6135,70,0,B|279:349|318:275|210:265,1,181.999991668702,12|2,0:3|0:0,0:0:0:0:
146,260,6987,2,0,P|117:263|87:278,2,45.4999979171754,2|2|2,0:0|0:0|0:0,0:0:0:0:
212,137,7499,6,0,P|255:118|287:23,1,146.999995513916,12|10,3:3|0:3,0:0:0:0:
328,193,8351,1,10,0:3:0:0:
283,263,8521,2,0,L|291:347,1,73.4999977569581,10|0,0:3|0:0,0:0:0:0:
296,360,8862,70,0,B|337:342|337:342|409:366,1,105.000004005432,8|2,3:3|0:0,0:0:0:0:
467,308,9374,1,2,0:0:0:0:
452,220,9544,2,0,L|439:98,1,105.000004005432,0|2,0:0|0:0,0:0:0:0:
414,29,10056,1,2,0:0:0:0:
343,138,10226,6,0,B|301:151|301:151|212:131,1,112,12|2,3:3|0:0,0:0:0:0:
130,205,10737,2,0,L|136:278,1,56,10|2,0:3|0:0,0:0:0:0:
224,360,11078,2,0,L|228:304,1,56,10|10,0:3|0:3,0:0:0:0:
365,311,11590,70,0,P|415:311|455:343,1,89.2500017023087,12|0,0:0|0:0,0:0:0:0:
463,352,11931,1,10,0:0:0:0:
497,257,12101,1,10,0:0:0:0:
491,156,12271,5,10,0:0:0:0:
423,80,12442,1,10,0:0:0:0:
396,177,12612,69,10,0:0:0:0:
511,73,12783,1,10,0:0:0:0:
349,32,12953,5,10,0:3:0:0:
62,77,13976,70,0,P|58:93|49:120,3,26.2500010013581,2|2|2|2,0:3|0:3|0:3|0:3,0:0:0:0:
72,48,14317,6,0,P|111:46|160:61,1,62.9999980773926,14|2,0:0|0:3,0:0:0:0:
207,128,14658,1,2,0:3:0:0:
207,128,14828,70,0,L|256:64,1,62.9999980773926,14|2,0:0|0:3,0:0:0:0:
324,5,15169,1,2,0:3:0:0:
324,5,15340,6,0,P|360:19|398:53,1,62.9999980773926,14|0,0:0|0:0,0:0:0:0:
389,140,15681,1,2,0:3:0:0:
451,226,15851,69,14,0:0:0:0:
400,319,16021,1,8,0:0:0:0:
346,225,16192,1,2,0:3:0:0:
489,311,16362,5,8,0:0:0:0:
336,381,16533,1,8,0:0:0:0:
258,241,16703,2,0,P|257:220|260:198,3,31.4999990386963,8|8|8|8,0:0|0:0|0:0|0:0,0:0:0:0:
255,260,17044,70,0,B|193:240|193:240|113:271,1,125.999996154785,4|2,0:1|0:3,0:0:0:0:
56,343,17556,1,0,0:0:0:0:
40,234,17726,2,0,L|45:163,1,62.9999980773926,2|0,0:3|0:0,0:0:0:0:
167,38,18067,2,0,L|170:102,1,62.9999980773926,2|8,0:3|0:0,0:0:0:0:
19,88,18408,2,0,P|55:81|94:97,1,62.9999980773926,2|0,0:3|0:0,0:0:0:0:
145,179,18749,2,0,P|181:186|221:170,1,62.9999980773926,2|0,0:3|0:0,0:0:0:0:
322,74,19090,2,0,P|286:67|246:83,1,62.9999980773926,2|8,0:3|0:3,0:0:0:0:
301,177,19431,1,2,0:3:0:0:
401,125,19601,1,8,0:3:0:0:
182,224,19771,6,0,B|246:206|248:275|327:256,1,125.999996154785,2|2,0:3|0:3,0:0:0:0:
373,322,20283,1,0,0:0:0:0:
415,201,20453,2,0,L|390:63,1,125.999996154785,2|2,0:3|0:3,0:0:0:0:
492,91,20965,1,8,0:0:0:0:
318,166,21135,2,0,L|242:158,1,62.9999980773926,2|0,0:3|0:0,0:0:0:0:
144,267,21476,2,0,L|220:260,1,62.9999980773926,2|0,0:3|0:0,0:0:0:0:
176,111,21817,2,0,P|162:144|169:191,1,62.9999980773926,2|8,0:3|0:3,0:0:0:0:
293,245,22158,1,2,0:3:0:0:
400,92,22328,1,8,0:3:0:0:
400,92,22413,1,2,0:0:0:0:
400,92,22499,70,0,L|270:82,1,125.999996154785,2|2,0:3|0:3,0:0:0:0:
175,25,23010,1,0,0:0:0:0:
136,129,23181,2,0,L|146:202,1,62.9999980773926,2|0,0:3|0:0,0:0:0:0:
92,289,23521,1,2,0:3:0:0:
45,188,23692,1,8,0:0:0:0:
219,230,23862,2,0,L|292:238,1,62.9999980773926,2|0,0:3|0:0,0:0:0:0:
409,123,24203,2,0,L|337:130,1,62.9999980773926,2|0,0:3|0:0,0:0:0:0:
353,281,24544,2,0,P|364:248|361:204,1,62.9999980773926,2|8,0:3|0:3,0:0:0:0:
261,150,24885,1,8,0:3:0:0:
301,52,25056,1,8,0:3:0:0:
143,36,25226,6,0,B|150:80|150:80|144:100|144:100|160:175,1,125.999996154785,2|2,0:3|0:3,0:0:0:0:
118,266,25737,2,0,L|206:273,1,62.9999980773926,0|2,0:0|0:3,0:0:0:0:
289,242,26078,2,0,P|321:275|325:314,2,62.9999980773926,0|2|8,0:0|0:3|0:0,0:0:0:0:
261,134,26590,2,0,P|274:74|354:47,1,125.999996154785,2|2,0:3|0:3,0:0:0:0:
438,69,27101,1,0,0:0:0:0:
369,154,27271,1,2,0:3:0:0:
430,246,27442,1,8,0:0:0:0:
490,154,27612,1,2,0:3:0:0:
348,242,27783,1,8,0:3:0:0:
348,242,27868,1,8,0:3:0:0:
348,242,27953,70,0,P|281:244|212:237,1,125.999996154785,4|2,0:1|0:3,0:0:0:0:
243,132,28465,1,0,0:0:0:0:
160,313,28635,2,0,L|167:387,1,62.9999980773926,2|0,0:3|0:0,0:0:0:0:
18,299,28976,2,0,L|22:219,1,62.9999980773926,2|8,0:3|0:0,0:0:0:0:
185,203,29317,2,0,P|153:195|111:215,1,62.9999980773926,2|0,0:3|0:0,0:0:0:0:
0,126,29658,2,0,P|32:118|74:138,1,62.9999980773926,2|0,0:3|0:0,0:0:0:0:
129,44,29999,1,2,0:3:0:0:
205,118,30169,1,8,0:3:0:0:
249,25,30340,1,10,0:3:0:0:
162,207,30510,1,8,0:3:0:0:
300,183,30681,6,0,L|437:167,1,125.999996154785,2|2,0:3|0:3,0:0:0:0:
491,74,31192,2,0,P|487:51|469:2,2,62.9999980773926,0|2|0,0:0|0:3|0:0,0:0:0:0:
425,168,31703,1,2,0:3:0:0:
373,13,31874,1,8,0:0:0:0:
373,13,31959,1,0,0:0:0:0:
373,13,32044,2,0,P|362:42|356:73,1,62.9999980773926,2|0,0:3|0:0,0:0:0:0:
269,203,32385,2,0,P|263:172|252:142,1,62.9999980773926,2|0,0:3|0:0,0:0:0:0:
425,168,32726,2,0,L|359:173,1,62.9999980773926,2|8,0:3|0:3,0:0:0:0:
277,54,33067,1,10,0:3:0:0:
277,54,33237,1,8,0:3:0:0:
170,214,33408,70,0,P|157:148|134:85,1,125.999996154785,2|2,0:3|0:3,0:0:0:0:
235,42,33919,1,0,0:0:0:0:
70,174,34090,2,0,L|-5:169,1,62.9999980773926,2|0,0:3|0:0,0:0:0:0:
5,291,34431,2,0,L|80:286,1,62.9999980773926,2|8,0:3|0:0,0:0:0:0:
192,292,34771,2,0,B|207:323|207:323|205:364,1,62.9999980773926,2|0,0:3|0:0,0:0:0:0:
306,351,35112,2,0,B|305:323|305:323|320:292,1,62.9999980773926,2|0,0:3|0:0,0:0:0:0:
433,294,35453,1,2,0:3:0:0:
476,117,35624,1,8,0:0:0:0:
455,205,35794,1,8,0:3:0:0:
391,82,35965,1,8,0:3:0:0:
307,212,36135,6,0,L|189:205,1,112,12|2,0:2|0:3,0:0:0:0:
105,252,36646,2,0,P|99:282|110:320,1,56,0|2,3:0|0:3,0:0:0:0:
197,355,36987,2,0,L|261:358,2,56,0|2|8,3:0|0:3|0:0,0:0:0:0:
99,383,37499,69,2,3:0:0:0:
26,313,37669,1,8,0:0:0:0:
26,211,37840,5,0,3:0:0:0:
84,129,38010,1,8,3:0:0:0:
100,263,38181,69,0,3:0:0:0:
0,117,38351,1,8,0:3:0:0:
179,75,38521,6,0,L|281:91,1,84,8|2,0:3|0:0,0:0:0:0:
271,96,38862,70,0,P|280:127|282:158,1,62.9999980773926,4|0,0:1|0:0,0:0:0:0:
215,245,39203,1,0,0:0:0:0:
325,236,39374,2,0,L|466:244,1,125.999996154785,2|2,0:3|0:3,0:0:0:0:
492,144,39885,2,0,P|494:112|478:56,1,62.9999980773926,8|8,0:3|0:3,0:0:0:0:
323,112,40226,2,0,L|404:117,1,62.9999980773926,2|0,0:3|0:0,0:0:0:0:
220,73,40567,2,0,P|214:103|216:135,1,62.9999980773926,0|2,0:0|0:3,0:0:0:0:
226,241,40908,1,0,0:0:0:0:
115,134,41078,1,2,0:3:0:0:
34,206,41249,2,0,P|41:255|26:318,1,94.499997116089,8|2,0:3|0:0,0:0:0:0:
29,322,41590,6,0,L|117:308,1,62.9999980773926,2|0,0:3|0:0,0:0:0:0:
177,248,41931,2,0,P|198:280|201:319,1,62.9999980773926,0|2,0:0|0:3,0:0:0:0:
309,303,42271,2,0,P|316:273|335:248,1,62.9999980773926,0|2,0:0|0:3,0:0:0:0:
409,325,42612,1,8,0:3:0:0:
409,325,42783,1,8,0:3:0:0:
258,200,42953,2,0,B|243:135|243:135|261:91|261:91|244:7,1,188.999994232178,2|2,0:3|0:3,0:0:0:0:
144,89,43635,2,0,P|96:100|24:67,1,125.999996154785,0|8,0:0|0:3,0:0:0:0:
98,1,44146,1,8,0:3:0:0:
19,172,44317,70,0,L|31:254,1,62.9999980773926,4|0,0:1|0:0,0:0:0:0:
132,257,44658,1,0,0:0:0:0:
172,355,44828,2,0,P|235:308|243:246,1,125.999996154785,2|2,0:3|0:3,0:0:0:0:
251,157,45340,2,0,L|246:73,1,62.9999980773926,8|8,0:3|0:3,0:0:0:0:
126,11,45681,2,0,L|129:73,1,62.9999980773926,2|0,0:3|0:0,0:0:0:0:
95,172,46021,2,0,P|133:179|179:170,1,62.9999980773926,0|2,0:0|0:3,0:0:0:0:
230,101,46362,1,0,0:0:0:0:
336,213,46533,1,2,0:3:0:0:
401,121,46703,2,0,P|431:157|444:221,1,94.499997116089,8|2,0:3|0:0,0:0:0:0:
446,227,47044,6,0,L|354:216,1,62.9999980773926,2|0,0:3|0:0,0:0:0:0:
288,335,47385,2,0,L|380:324,1,62.9999980773926,0|2,0:0|0:3,0:0:0:0:
313,163,47726,2,0,P|295:202|303:239,1,62.9999980773926,0|2,0:0|0:3,0:0:0:0:
181,249,48067,1,8,0:3:0:0:
181,249,48237,1,8,0:3:0:0:
218,116,48408,2,0,P|193:190|196:254,1,125.999996154785,2|0,0:3|0:0,0:0:0:0:
170,339,48919,1,2,0:3:0:0:
170,339,49004,1,0,0:0:0:0:
170,339,49090,2,0,L|88:344,1,62.9999980773926,8|2,0:0|0:3,0:0:0:0:
5,201,49431,2,0,P|54:209|86:252,1,94.499997116089,8|2,0:0|0:0,0:0:0:0:
87,260,49771,70,0,L|92:186,1,62.9999980773926,4|0,0:1|0:0,0:0:0:0:
96,87,50112,1,0,0:0:0:0:
193,207,50283,2,0,L|200:67,1,125.999996154785,2|2,0:3|0:3,0:0:0:0:
303,139,50794,2,0,P|331:140|367:161,1,62.9999980773926,8|8,0:3|0:3,0:0:0:0:
443,25,51135,2,0,P|415:26|379:47,1,62.9999980773926,2|0,0:3|0:0,0:0:0:0:
464,196,51476,2,0,L|459:122,1,62.9999980773926,0|2,0:0|0:3,0:0:0:0:
386,258,51817,1,0,0:0:0:0:
306,124,51987,1,2,0:3:0:0:
220,191,52158,2,0,B|202:236|202:236|208:304,1,94.499997116089,8|2,0:3|0:0,0:0:0:0:
212,299,52499,6,0,P|174:305|125:300,1,62.9999980773926,2|0,0:3|0:0,0:0:0:0:
10,200,52840,2,0,P|48:194|97:199,1,83.9999974365235,8|8,0:0|0:0,0:0:0:0:
107,208,53181,2,0,L|122:146,2,41.9999987182618,8|8|8,0:0|0:0|0:3,0:0:0:0:
48,317,53521,2,0,L|57:357,2,41.9999987182618,8|8|8,0:3|0:3|0:3,0:0:0:0:
153,297,53862,69,4,0:1:0:0:
257,297,54544,5,4,0:1:0:0:
359,297,55226,69,2,0:3:0:0:
445,15,56249,5,2,0:0:0:0:
464,0,56590,2,0,P|442:50|452:106,1,105,6|2,0:0|0:0,0:0:0:0:
372,191,57442,2,0,L|284:185,1,87.5,2|0,0:0|0:0,0:0:0:0:
284,185,57953,70,0,P|285:217|295:257,2,70,8|2|2,0:0|0:3|0:3,0:0:0:0:
244,68,58465,6,0,P|243:36|233:-4,2,70,8|2|2,0:0|0:3|0:3,0:0:0:0:
188,157,58976,69,8,0:0:0:0:
89,122,59146,1,2,0:3:0:0:
58,225,59317,1,2,0:3:0:0:
164,69,59487,5,8,0:0:0:0:
3,154,59658,1,2,0:3:0:0:
126,293,59828,70,0,P|134:326|135:361,2,70,2|8|2,0:3|0:0|0:3,0:0:0:0:
226,228,60340,2,0,L|294:240,1,70,2|8,0:3|0:0,0:0:0:0:
331,350,60681,6,0,B|416:369|404:283|504:301,1,154.000004699707,12|2,0:1|0:3,0:0:0:0:
483,183,61192,2,0,L|493:97,1,77.0000023498536,8|2,0:1|0:3,0:0:0:0:
401,34,61533,1,8,0:1:0:0:
316,112,61703,2,0,P|295:109|259:90,3,38.5000011749268,8|0|2|2,0:1|0:0|0:0|0:0,0:0:0:0:
266,70,62044,69,12,0:1:0:0:
123,362,63408,22,0,L|117:207,1,154.000004699707,4|8,0:1|0:0,0:0:0:0:
257,160,63919,1,0,0:0:0:0:
177,295,64090,2,0,L|253:276,1,77.0000023498536,2|2,0:3|0:3,0:0:0:0:
406,114,64431,2,0,L|330:133,1,77.0000023498536,10|2,0:0|0:0,0:0:0:0:
190,57,64771,2,0,B|164:57|141:77|141:77|57:64,1,115.50000352478,2|0,0:3|0:0,0:0:0:0:
53,35,65112,1,8,0:0:0:0:
6,196,65283,2,0,P|15:268|14:364,1,154.000004699707,0|2,0:0|0:3,0:0:0:0:
180,320,65794,2,0,B|146:275,3,38.5000011749268,10|2|2|2,0:0|0:0|0:0|0:0,0:0:0:0:
180,320,66135,6,0,P|216:314|263:330,1,77.0000023498536,2|2,0:3|0:3,0:0:0:0:
391,192,66476,2,0,P|354:185|308:202,1,77.0000023498536,8|0,0:0|0:0,0:0:0:0:
357,380,66817,1,2,0:3:0:0:
357,380,66987,1,2,0:3:0:0:
442,267,67158,2,0,P|431:210|427:131,1,115.50000352478,8|2,0:0|0:0,0:0:0:0:
428,112,67499,2,0,L|518:124,1,77.0000023498536,2|2,0:3|0:3,0:0:0:0:
348,0,67840,2,0,L|258:12,1,77.0000023498536,8|0,0:0|0:0,0:0:0:0:
324,186,68181,2,0,P|308:143|315:102,1,77.0000023498536,2|2,0:3|0:3,0:0:0:0:
119,98,68521,2,0,L|209:110,1,77.0000023498536,8|2,0:0|0:0,0:0:0:0:
6,38,68862,70,0,B|-11:92|-11:92|23:192,1,154.000004699707,4|8,0:1|0:0,0:0:0:0:
146,182,69374,1,0,0:0:0:0:
51,308,69544,2,0,L|131:275,1,77.0000023498536,2|2,0:3|0:3,0:0:0:0:
280,214,69885,2,0,P|318:272|326:342,1,115.50000352478,8|2,0:0|0:0,0:0:0:0:
332,353,70226,6,0,B|368:333|368:333|428:352,1,77.0000023498536,4|2,0:1|0:3,0:0:0:0:
512,216,70567,2,0,B|476:196|476:196|416:215,1,77.0000023498536,8|0,0:0|0:0,0:0:0:0:
499,365,70908,1,2,0:3:0:0:
499,365,71078,1,2,0:3:0:0:
353,232,71249,2,0,L|365:103,1,115.50000352478,8|2,0:0|0:0,0:0:0:0:
366,87,71590,70,0,P|334:68|271:70,1,77.0000023498536,4|2,0:1|0:3,0:0:0:0:
142,228,71931,2,0,P|174:209|237:211,1,77.0000023498536,8|0,0:0|0:0,0:0:0:0:
175,25,72271,2,0,L|167:129,1,77.0000023498536,2|2,0:3|0:3,0:0:0:0:
38,247,72612,2,0,L|48:146,1,77.0000023498536,8|2,0:0|0:0,0:0:0:0:
143,338,72953,5,12,0:1:0:0:
240,204,73124,1,2,0:3:0:0:
303,365,73294,1,12,0:1:0:0:
142,239,73465,1,2,0:3:0:0:
309,115,73635,1,8,0:1:0:0:
338,144,73720,1,0,0:0:0:0:
354,183,73805,1,8,0:0:0:0:
356,224,73890,1,8,0:0:0:0:
342,264,73976,2,0,L|399:288,3,41.9999987182618,8|8|8|8,0:0|0:0|0:0|0:0,0:0:0:0:
311,297,74317,70,0,B|267:287|267:287|204:306,1,83.9999974365235,4|2,0:1|0:3,0:0:0:0:
63,192,74658,2,0,B|107:182|107:182|170:201,1,83.9999974365235,8|0,0:0|0:0,0:0:0:0:
269,101,74999,2,0,L|251:195,2,83.9999974365235,2|2|8,0:3|0:3|0:0,0:0:0:0:
364,45,75510,1,2,0:0:0:0:
172,123,75681,2,0,P|129:118|89:95,1,83.9999974365235,2|2,0:3|0:3,0:0:0:0:
214,6,76021,1,8,0:0:0:0:
364,45,76192,2,0,L|335:192,1,125.999996154785,0|0,0:0|0:0,0:0:0:0:
335,203,76533,2,0,P|378:198|418:175,1,83.9999974365235,2|8,0:3|0:0,0:0:0:0:
269,101,76874,1,2,0:0:0:0:
471,263,77044,6,0,L|478:353,1,83.9999974365235,2|2,0:3|0:3,0:0:0:0:
338,335,77385,2,0,B|270:312|275:375|182:343,1,125.999996154785,8|0,0:0|0:0,0:0:0:0:
185,354,77726,2,0,P|180:296|187:251,1,83.9999974365235,2|2,0:3|0:3,0:0:0:0:
161,111,78067,1,8,0:0:0:0:
23,250,78237,1,2,0:0:0:0:
23,250,78323,1,2,0:0:0:0:
23,250,78408,2,0,L|122:254,1,83.9999974365235,2|2,0:3|0:3,0:0:0:0:
236,129,78749,2,0,L|137:133,1,83.9999974365235,8|0,0:0|0:0,0:0:0:0:
3,20,79090,2,0,L|102:24,1,83.9999974365235,2|2,0:3|0:3,0:0:0:0:
64,135,79431,1,8,0:0:0:0:
258,36,79601,1,8,0:0:0:0:
258,36,79686,1,8,0:0:0:0:
258,36,79771,70,0,P|307:60|326:171,1,170.799992963257,4|8,0:1|0:0,0:0:0:0:
246,244,80283,1,0,0:0:0:0:
365,115,80453,2,0,L|457:106,1,85.3999964816286,2|2,0:3|0:3,0:0:0:0:
486,270,80794,2,0,B|470:315,3,42.6999982408143,10|2|2|2,0:0|0:0|0:0|0:0,0:0:0:0:
486,270,81135,6,0,B|416:276|416:276|390:259|390:259|318:267,1,173.599993112793,4|8,0:1|0:0,0:0:0:0:
345,381,81646,1,0,0:0:0:0:
210,240,81817,2,0,L|200:142,1,86.7999965563966,2|2,0:3|0:3,0:0:0:0:
175,4,82158,2,0,P|116:14|71:91,1,130.199994834595,8|2,0:0|0:0,0:0:0:0:
50,91,82499,70,0,L|61:208,1,88.1999973083497,2|2,0:3|0:3,0:0:0:0:
79,327,82840,1,8,0:0:0:0:
79,327,83010,1,0,0:0:0:0:
210,234,83181,2,0,P|259:225|312:248,1,88.1999973083497,2|2,0:3|0:3,0:0:0:0:
446,342,83521,2,0,P|397:333|344:356,1,88.1999973083497,8|2,0:0|0:0,0:0:0:0:
410,181,83862,6,0,L|420:88,1,89.6,4|2,0:1|0:3,0:0:0:0:
245,2,84203,2,0,L|254:91,1,89.6,8|0,0:0|3:0,0:0:0:0:
133,192,84544,1,2,0:3:0:0:
133,192,84629,1,8,0:0:0:0:
133,192,84715,1,2,0:3:0:0:
0,77,84885,1,8,0:0:0:0:
3,268,85056,1,8,0:0:0:0:
3,268,85141,1,8,0:0:0:0:
3,268,85226,70,0,L|11:368,1,89.6,12|2,0:1|0:3,0:0:0:0:
155,174,85567,2,0,L|147:84,1,89.6,8|2,0:0|0:3,0:0:0:0:
274,302,85908,1,8,0:0:0:0:
315,112,86078,1,8,0:0:0:0:
315,112,86163,1,8,0:0:0:0:
315,112,86249,2,0,L|311:64,3,44.8,8|8|8|8,0:2|0:0|0:0|0:2,0:0:0:0:
352,133,86590,5,12,0:1:0:0:
255,190,87953,38,0,P|206:185|139:214,1,119.000002269745,4|0,0:1|0:0,0:0:0:0:
60,285,88465,1,2,0:3:0:0:
60,285,88550,1,2,0:3:0:0:
60,285,88635,2,0,P|57:312|72:359,2,59.5000011348725,8|8|8,0:0|0:3|0:3,0:0:0:0:
41,177,89146,1,8,0:3:0:0:
195,312,89317,6,0,L|273:328,1,77.0000023498536,8|2,0:0|0:3,0:0:0:0:
412,203,89658,2,0,L|334:219,1,77.0000023498536,8|2,0:0|0:3,0:0:0:0:
406,348,89999,1,8,0:0:0:0:
406,348,90169,1,2,0:3:0:0:
506,229,90340,2,0,P|501:178|466:113,1,115.50000352478,8|2,0:0|0:0,0:0:0:0:
448,106,90681,70,0,L|380:99,1,52.5000020027161,12|0,0:1|0:0,0:0:0:0:
284,40,91021,2,0,L|352:33,1,52.5000020027161,2|0,0:3|0:0,0:0:0:0:
308,142,91362,2,0,B|318:252|317:248,2,105.000004005432,2|2|6,0:3|0:3|0:3,0:0:0:0:
214,243,92385,2,0,P|174:268|148:330,1,105.000004005432,2|2,0:3|0:3,0:0:0:0:
292,367,93067,1,2,0:3:0:0:
107,209,93408,6,0,P|73:124|98:46,1,157.500006008148,6|0,0:3|0:0,0:0:0:0:
87,62,94090,2,0,B|142:38|142:38|257:78,1,157.500006008148,2|0,0:3|0:0,0:0:0:0:
323,139,94771,2,0,P|317:162|320:204,1,52.5000020027161,6|0,0:3|0:0,0:0:0:0:
443,191,95112,2,0,P|443:164|437:139,1,52.5000020027161,2|0,0:3|0:0,0:0:0:0:
381,269,95453,1,2,0:3:0:0:
381,269,95624,1,0,0:0:0:0:
311,343,95794,2,0,L|244:337,1,52.5000020027161,2|0,0:3|0:0,0:0:0:0:
188,244,96135,70,0,P|146:279|137:338,1,105.000004005432,6|2,0:3|0:3,0:0:0:0:
32,338,96817,2,0,L|35:211,2,105.000004005432,2|2|6,0:3|0:3|0:3,0:0:0:0:
109,154,97840,2,0,P|156:143|232:164,1,105.000004005432,2|2,0:3|0:3,0:0:0:0:
361,214,98521,1,2,0:3:0:0:
479,52,98862,6,0,B|375:13|385:108|257:70,1,210.000008010865,6|2,0:3|0:3,0:0:0:0:
190,37,99715,2,0,P|180:66|180:103,2,52.5000020027161,0|2|2,0:0|0:3|0:3,0:0:0:0:
139,180,100226,2,0,P|181:181|247:262,1,146.999995513916,6|2,0:3|0:0,0:0:0:0:
250,273,100908,2,0,B|300:250|300:250|351:281,1,105.000004005432,8|0,0:0|0:0,0:0:0:0:
450,342,101419,1,8,0:3:0:0:
450,342,101504,1,8,0:3:0:0:
450,342,101590,70,0,L|461:202,1,125.999996154785,4|2,0:1|0:3,0:0:0:0:
503,118,102101,1,0,0:0:0:0:
463,18,102271,2,0,P|424:37|409:63,1,62.9999980773926,2|0,0:3|0:0,0:0:0:0:
284,110,102612,2,0,P|323:129|338:155,1,62.9999980773926,2|8,0:3|0:0,0:0:0:0:
279,5,102953,2,0,L|139:22,1,125.999996154785,2|2,0:3|0:3,0:0:0:0:
148,128,103465,1,0,0:0:0:0:
37,91,103635,2,0,P|28:114|33:162,1,62.9999980773926,2|8,0:3|0:3,0:0:0:0:
254,137,103976,2,0,P|256:105|246:76,1,62.9999980773926,10|8,0:3|0:3,0:0:0:0:
117,232,104317,6,0,L|207:226,1,62.9999980773926,2|0,0:3|0:0,0:0:0:0:
236,350,104658,1,2,0:3:0:0:
315,194,104828,2,0,B|343:228|343:228|340:319,1,125.999996154785,0|0,0:0|0:0,0:0:0:0:
439,352,105340,1,2,0:3:0:0:
245,256,105510,1,8,0:0:0:0:
245,256,105595,1,0,0:0:0:0:
245,256,105681,2,0,L|182:260,1,62.9999980773926,2|8,0:3|0:0,0:0:0:0:
28,160,106021,2,0,L|90:164,1,62.9999980773926,2|0,0:3|0:0,0:0:0:0:
91,330,106362,2,0,P|66:285|68:264,1,62.9999980773926,2|8,0:3|0:3,0:0:0:0:
181,179,106703,1,10,0:3:0:0:
181,179,106874,1,8,0:3:0:0:
28,66,107044,70,0,L|167:75,1,125.999996154785,2|2,0:3|0:3,0:0:0:0:
181,179,107556,1,0,0:0:0:0:
275,129,107726,2,0,P|286:172|284:209,1,62.9999980773926,2|0,0:3|0:0,0:0:0:0:
200,334,108067,2,0,P|190:303|188:272,1,62.9999980773926,2|8,0:3|0:0,0:0:0:0:
363,303,108408,2,0,L|286:295,1,62.9999980773926,2|0,0:3|0:0,0:0:0:0:
373,144,108749,2,0,L|450:136,1,62.9999980773926,2|8,0:3|0:0,0:0:0:0:
506,217,109090,1,2,0:3:0:0:
482,321,109260,1,8,0:0:0:0:
325,215,109431,1,8,0:3:0:0:
402,377,109601,1,8,0:3:0:0:
218,339,109771,6,0,P|164:334|94:352,1,112,12|2,0:2|0:3,0:0:0:0:
40,277,110283,2,0,L|41:199,1,56,0|2,3:0|0:3,0:0:0:0:
100,146,110624,2,0,P|97:116|77:82,2,56,0|2|8,3:0|0:3|0:0,0:0:0:0:
177,202,111135,1,2,3:0:0:0:
268,228,111306,1,8,0:0:0:0:
341,168,111476,1,0,3:0:0:0:
317,75,111646,1,8,3:0:0:0:
373,264,111817,1,0,3:0:0:0:
238,135,111987,1,8,0:3:0:0:
410,97,112158,2,0,L|498:106,1,84,8|2,0:3|0:0,0:0:0:0:
512,112,112499,70,0,P|516:141|503:186,1,62.9999980773926,4|0,0:1|0:0,0:0:0:0:
457,259,112840,1,0,0:0:0:0:
387,178,113010,2,0,L|238:193,1,125.999996154785,2|2,0:3|0:3,0:0:0:0:
174,253,113521,2,0,P|170:288|184:329,1,62.9999980773926,8|8,0:3|0:3,0:0:0:0:
67,193,113862,2,0,P|71:158|57:117,1,62.9999980773926,2|0,0:3|0:0,0:0:0:0:
9,298,114203,2,0,L|79:290,1,62.9999980773926,0|2,0:0|0:3,0:0:0:0:
150,170,114544,1,0,0:0:0:0:
268,276,114715,1,2,0:3:0:0:
336,201,114885,2,0,P|352:162|345:106,1,94.499997116089,8|2,0:3|0:0,0:0:0:0:
329,98,115226,6,0,B|362:88|362:88|412:102,1,62.9999980773926,2|0,0:3|0:0,0:0:0:0:
512,200,115567,2,0,B|479:190|479:190|429:204,1,62.9999980773926,0|2,0:0|0:3,0:0:0:0:
480,25,115908,2,0,L|488:87,1,62.9999980773926,0|2,0:0|0:3,0:0:0:0:
512,200,116249,1,8,0:3:0:0:
512,200,116419,1,8,0:3:0:0:
368,137,116590,2,0,B|331:140|303:121|303:121|262:156|262:156|185:153,1,188.999994232178,2|2,0:3|0:3,0:0:0:0:
51,149,117271,2,0,P|29:184|56:285,1,125.999996154785,0|8,0:0|0:3,0:0:0:0:
120,216,117783,1,8,0:3:0:0:
165,368,117953,70,0,L|172:285,1,62.9999980773926,4|0,0:1|0:0,0:0:0:0:
120,216,118294,1,0,0:0:0:0:
261,248,118465,2,0,B|294:271|294:271|398:258,1,125.999996154785,2|2,0:3|0:3,0:0:0:0:
394,136,118976,2,0,L|383:63,1,62.9999980773926,8|8,0:3|0:3,0:0:0:0:
489,217,119317,2,0,L|498:279,1,62.9999980773926,2|0,0:3|0:0,0:0:0:0:
374,252,119658,2,0,P|337:262|315:289,1,62.9999980773926,0|2,0:0|0:3,0:0:0:0:
408,358,119999,1,0,0:0:0:0:
230,251,120169,1,2,0:3:0:0:
266,157,120340,2,0,L|247:35,1,94.499997116089,8|2,0:3|0:0,0:0:0:0:
247,43,120681,6,0,P|213:49|180:73,1,62.9999980773926,2|0,0:3|0:0,0:0:0:0:
33,62,121021,2,0,P|61:81|101:88,1,62.9999980773926,0|2,0:0|0:3,0:0:0:0:
182,216,121362,2,0,P|166:188|161:158,1,62.9999980773926,0|2,0:0|0:3,0:0:0:0:
53,183,121703,1,8,0:3:0:0:
53,183,121874,1,8,0:3:0:0:
108,348,122044,2,0,P|146:321|240:332,1,125.999996154785,2|0,0:3|0:0,0:0:0:0:
356,369,122556,1,2,0:3:0:0:
356,369,122641,1,8,0:0:0:0:
356,369,122726,1,8,0:0:0:0:
299,208,122896,1,10,0:3:0:0:
454,251,123067,1,8,0:0:0:0:
280,307,123237,1,8,0:3:0:0:
389,179,123408,70,0,L|380:105,1,62.9999980773926,4|0,0:1|0:0,0:0:0:0:
483,81,123749,1,0,0:0:0:0:
335,1,123919,2,0,P|290:28|272:110,1,125.999996154785,2|2,0:3|0:3,0:0:0:0:
202,213,124431,2,0,L|217:281,1,62.9999980773926,8|8,0:3|0:3,0:0:0:0:
103,165,124771,2,0,P|115:137|166:109,1,62.9999980773926,2|0,0:3|0:0,0:0:0:0:
100,271,125112,2,0,L|27:290,1,62.9999980773926,0|2,0:0|0:3,0:0:0:0:
1,192,125453,1,0,0:0:0:0:
85,37,125624,1,8,0:0:0:0:
184,94,125794,2,0,L|287:104,1,94.499997116089,8|2,0:3|0:0,0:0:0:0:
286,117,126135,6,0,P|291:150|278:193,1,62.9999980773926,2|0,0:3|0:0,0:0:0:0:
200,347,126476,2,0,P|194:308|209:258,1,62.9999980773926,8|8,0:0|0:0,0:0:0:0:
226,262,126817,2,0,P|246:269|293:275,2,41.9999987182618,8|8|8,0:0|0:0|0:3,0:0:0:0:
315,355,127158,2,0,P|334:345|371:316,2,41.9999987182618,8|8|8,0:3|0:3|0:3,0:0:0:0:
445,345,127499,70,0,P|452:322|453:283,2,55.9999982910157,4|2|2,0:1|0:0|0:0,0:0:0:0:
364,228,128181,1,2,0:3:0:0:
444,143,128862,5,2,0:0:0:0:
80,347,129885,1,0,0:0:0:0:
93,342,130226,2,0,P|102:307|100:240,1,83.9999974365235,6|2,0:0|0:0,0:0:0:0:
161,171,130737,2,0,P|152:136|153:78,1,70,2|2,0:0|0:0,0:0:0:0:
150,102,131590,70,0,P|187:96|228:109,2,70,8|2|2,0:0|0:3|0:3,0:0:0:0:
78,11,132101,6,0,P|41:17|0:4,2,70,8|2|2,0:0|0:3|0:3,0:0:0:0:
42,106,132612,69,8,0:0:0:0:
95,208,132783,1,2,0:3:0:0:
194,213,132953,1,2,0:3:0:0:
0,193,133124,5,8,0:0:0:0:
167,117,133294,1,2,0:3:0:0:
23,277,133465,70,0,P|20:307|25:352,2,70,2|8|2,0:3|0:0|0:3,0:0:0:0:
145,301,133976,2,0,L|238:310,1,70,2|8,0:3|0:0,0:0:0:0:
340,363,134317,6,0,B|354:304|354:304|322:209,1,154.000004699707,12|2,0:1|0:3,0:0:0:0:
245,122,134828,2,0,L|260:36,1,77.0000023498536,8|2,0:1|0:3,0:0:0:0:
381,28,135169,1,8,0:1:0:0:
446,135,135340,2,0,P|464:142|495:148,3,38.5000011749268,8|0|2|2,0:1|0:0|0:0|0:0,0:0:0:0:
410,149,135681,69,12,0:1:0:0:
96,32,137044,54,0,P|133:54|156:159,1,154.000004699707,4|8,0:1|0:0,0:0:0:0:
48,128,137556,1,0,0:0:0:0:
251,179,137726,2,0,L|330:151,1,77.0000023498536,2|2,0:3|0:3,0:0:0:0:
454,40,138067,2,0,L|375:12,1,77.0000023498536,8|0,0:0|0:0,0:0:0:0:
469,168,138408,2,0,L|465:310,1,115.50000352478,2|0,0:3|0:0,0:0:0:0:
481,311,138749,1,8,0:0:0:0:
322,325,138919,2,0,B|296:337|285:355|285:355|163:346,1,154.000004699707,0|2,0:0|0:3,0:0:0:0:
42,249,139431,2,0,B|67:215,3,38.5000011749268,10|2|2|2,0:0|0:0|0:0|0:0,0:0:0:0:
42,249,139771,6,0,P|27:210|25:150,1,77.0000023498536,2|2,0:3|0:3,0:0:0:0:
161,17,140112,2,0,P|175:52|180:90,1,77.0000023498536,8|0,0:0|0:0,0:0:0:0:
19,72,140453,1,2,0:3:0:0:
19,72,140624,1,2,0:3:0:0:
178,194,140794,2,0,B|216:205|216:205|270:191,1,77.0000023498536,8|2,0:0|0:0,0:0:0:0:
387,53,141135,2,0,B|349:64|349:64|295:50,1,77.0000023498536,2|2,0:3|0:3,0:0:0:0:
365,173,141476,2,0,P|371:211|357:259,1,77.0000023498536,8|0,0:0|0:0,0:0:0:0:
227,92,141817,2,0,P|218:54|224:16,1,77.0000023498536,2|2,0:3|0:3,0:0:0:0:
252,195,142158,1,8,0:0:0:0:
252,195,142328,1,2,0:0:0:0:
472,340,142499,70,0,B|399:304|392:370|306:338,1,154.000004699707,4|8,0:1|0:0,0:0:0:0:
177,281,143010,1,0,0:0:0:0:
32,379,143181,2,0,L|22:298,1,77.0000023498536,2|2,0:3|0:3,0:0:0:0:
0,119,143521,2,0,P|52:125|94:168,1,115.50000352478,8|2,0:0|0:0,0:0:0:0:
101,197,143862,2,0,L|197:205,1,77.0000023498536,4|2,0:1|0:3,0:0:0:0:
318,53,144203,2,0,L|222:61,1,77.0000023498536,8|0,0:0|0:0,0:0:0:0:
321,216,144544,1,2,0:3:0:0:
321,216,144715,1,2,0:3:0:0:
443,16,144885,2,0,L|434:152,1,115.50000352478,8|2,0:0|0:0,0:0:0:0:
447,165,145226,6,0,L|441:250,1,77.0000023498536,4|2,0:1|0:3,0:0:0:0:
333,379,145567,2,0,L|338:302,1,77.0000023498536,8|0,0:0|0:0,0:0:0:0:
497,323,145908,2,0,P|462:340|413:333,1,77.0000023498536,2|2,0:3|0:3,0:0:0:0:
338,209,146249,2,0,P|303:192|254:199,1,77.0000023498536,8|2,0:0|0:0,0:0:0:0:
148,291,146590,1,12,0:1:0:0:
58,140,146760,1,2,0:3:0:0:
0,311,146931,1,12,0:1:0:0:
162,179,147101,1,2,0:3:0:0:
94,365,147271,1,8,0:1:0:0:
135,362,147356,1,0,0:0:0:0:
177,360,147441,1,8,0:0:0:0:
219,357,147526,1,8,0:0:0:0:
261,355,147612,2,0,L|255:300,3,41.9999987182618,8|8|8|8,0:0|0:0|0:0|0:0,0:0:0:0:
307,355,147953,70,0,L|394:351,1,83.9999974365235,4|2,0:1|0:3,0:0:0:0:
484,212,148294,2,0,L|397:208,1,83.9999974365235,8|0,0:0|0:0,0:0:0:0:
283,92,148635,2,0,P|287:41|301:2,2,83.9999974365235,2|2|8,0:3|0:3|0:0,0:0:0:0:
429,78,149146,1,2,0:0:0:0:
287,201,149317,2,0,L|200:197,1,83.9999974365235,2|2,0:3|0:3,0:0:0:0:
203,345,149658,1,8,0:0:0:0:
95,179,149828,2,0,B|102:153|113:129|113:129|96:34,1,125.999996154785,0|0,0:0|0:0,0:0:0:0:
98,25,150169,2,0,P|145:24|201:57,1,83.9999974365235,2|8,0:3|0:0,0:0:0:0:
8,111,150510,1,2,0:0:0:0:
177,258,150681,6,0,L|74:290,1,83.9999974365235,2|2,0:3|0:3,0:0:0:0:
303,343,151021,2,0,L|406:375,1,83.9999974365235,8|0,0:0|0:0,0:0:0:0:
316,213,151362,1,2,0:3:0:0:
316,213,151533,1,2,0:3:0:0:
202,349,151703,1,8,0:0:0:0:
112,187,151874,1,2,0:0:0:0:
112,187,151959,1,2,0:0:0:0:
112,187,152044,2,0,P|101:136|119:81,1,83.9999974365235,2|2,0:3|0:3,0:0:0:0:
258,0,152385,2,0,P|269:51|251:106,1,83.9999974365235,8|0,0:0|0:0,0:0:0:0:
440,165,152726,2,0,P|429:114|447:59,1,83.9999974365235,2|2,0:3|0:3,0:0:0:0:
298,174,153067,1,8,0:0:0:0:
472,264,153237,1,8,0:0:0:0:
472,264,153323,1,8,0:0:0:0:
472,264,153408,70,0,P|420:251|312:303,1,170.799992963257,4|8,0:1|0:0,0:0:0:0:
415,370,153919,1,0,0:0:0:0:
219,223,154090,2,0,P|208:172|227:116,1,85.3999964816286,2|2,0:3|0:3,0:0:0:0:
381,38,154431,2,0,P|396:30|420:23,3,42.6999982408143,10|2|2|2,0:0|0:0|0:0|0:0,0:0:0:0:
381,38,154771,2,0,B|331:69|331:69|215:57,1,173.599993112793,4|8,0:1|0:0,0:0:0:0:
59,35,155283,1,0,0:0:0:0:
23,174,155453,2,0,L|31:272,1,86.7999965563966,2|2,0:3|0:3,0:0:0:0:
162,361,155794,2,0,P|197:342|302:352,1,130.199994834595,8|2,0:0|0:0,0:0:0:0:
303,354,156135,6,0,L|294:258,1,88.1999973083497,2|2,0:3|0:3,0:0:0:0:
443,289,156476,1,8,0:0:0:0:
443,289,156646,1,0,0:0:0:0:
447,91,156817,2,0,P|454:139|450:188,1,88.1999973083497,2|2,0:3|0:3,0:0:0:0:
296,87,157158,2,0,P|293:43|300:0,1,88.1999973083497,8|2,0:0|0:0,0:0:0:0:
235,194,157499,2,0,B|274:174|274:174|342:183,1,89.6,4|2,0:1|0:3,0:0:0:0:
482,314,157840,2,0,B|442:294|442:294|374:303,1,89.6,8|0,0:0|0:0,0:0:0:0:
419,161,158181,1,2,0:3:0:0:
419,161,158266,1,8,0:0:0:0:
419,161,158351,1,2,0:3:0:0:
300,337,158521,1,8,0:0:0:0:
144,188,158692,1,8,0:0:0:0:
144,188,158777,1,8,0:0:0:0:
144,188,158862,70,0,L|152:83,1,89.6,12|2,0:1|0:3,0:0:0:0:
293,247,159203,2,0,L|299:336,1,89.6,8|2,0:0|0:3,0:0:0:0:
364,99,159544,1,8,0:0:0:0:
478,293,159715,1,8,0:0:0:0:
478,293,159800,1,8,0:0:0:0:
478,293,159886,2,0,L|482:341,3,44.8,8|8|8|8,0:2|0:0|0:0|0:2,0:0:0:0:
441,272,160227,5,12,0:1:0:0:
256,190,161590,5,4,0:1:0:0:
111,235,166703,6,0,L|99:223|93:177,3,35,8|2|8|8,0:3|0:0|0:3|0:3,0:0:0:0:
111,235,167044,70,0,P|151:227|188:238,1,70,4|0,0:1|0:0,0:0:0:0:
298,334,167385,2,0,P|258:326|221:337,1,70,2|0,0:3|0:0,0:0:0:0:
291,161,167726,2,0,L|275:243,1,70,2|0,0:3|0:0,0:0:0:0:
169,67,168067,2,0,L|185:149,1,70,2|8,0:3|0:0,0:0:0:0:
324,42,168408,2,0,P|368:46|428:135,1,140,2|2,0:3|0:3,0:0:0:0:
419,227,168919,1,0,0:0:0:0:
327,291,169090,2,0,L|245:272,1,70,2|0,0:3|0:0,0:0:0:0:
410,362,169431,2,0,L|492:343,1,70,2|2,0:3|0:0,0:0:0:0:
231,193,169771,6,0,P|198:216|178:252,1,70,2|0,0:3|0:0,0:0:0:0:
107,370,170112,2,0,L|99:293,1,70,2|0,0:3|0:0,0:0:0:0:
14,157,170453,2,0,L|6:226,1,70,2|0,0:3|0:0,0:0:0:0:
27,65,170794,2,0,P|58:71|109:132,1,105,2|0,0:3|0:0,0:0:0:0:
121,146,171135,2,0,L|198:138,1,70,2|8,0:3|0:0,0:0:0:0:
257,48,171476,1,2,0:3:0:0:
355,100,171646,1,8,0:3:0:0:
365,211,171817,1,8,0:3:0:0:
421,25,171987,1,8,0:3:0:0:
289,161,172158,1,8,0:3:0:0:
445,256,172328,1,8,0:3:0:0:
445,256,172413,1,8,0:3:0:0:
445,256,172499,70,0,L|441:350,2,77.0000023498536,4|0|2,0:1|0:0|0:3,0:0:0:0:
324,301,173010,1,0,0:0:0:0:
292,186,173181,2,0,P|228:224|206:307,1,154.000004699707,2|2,0:3|0:3,0:0:0:0:
324,301,173692,1,2,0:0:0:0:
146,204,173862,2,0,L|149:127,1,77.0000023498536,2|0,0:3|0:0,0:0:0:0:
12,15,174203,1,2,0:3:0:0:
12,15,174374,2,0,L|15:91,1,77.0000023498536,0|2,0:0|0:3,0:0:0:0:
199,42,174715,1,0,0:0:0:0:
199,42,174885,2,0,P|157:27|109:39,1,77.0000023498536,2|8,0:3|0:0,0:0:0:0:
32,221,175226,6,0,B|107:188|109:258|204:228,1,154.000004699707,2|2,0:3|0:3,0:0:0:0:
289,292,175737,2,0,P|337:250|429:254,1,154.000004699707,0|0,0:0|0:0,0:0:0:0:
383,369,176249,1,2,0:3:0:0:
383,369,176419,1,8,0:0:0:0:
486,190,176590,2,0,L|492:81,1,77.0000023498536,2|0,0:3|0:0,0:0:0:0:
353,11,176931,2,0,L|357:87,1,77.0000023498536,2|8,0:3|0:0,0:0:0:0:
328,207,177271,1,2,0:3:0:0:
192,122,177442,1,8,0:0:0:0:
240,270,177612,1,2,0:3:0:0:
245,44,177783,1,8,0:3:0:0:
74,109,177953,70,0,L|63:261,1,140,4|2,0:1|0:3,0:0:0:0:
57,377,178465,1,0,0:0:0:0:
168,307,178635,2,0,P|252:303|314:357,1,140,2|2,0:3|0:3,0:0:0:0:
424,358,179146,1,2,0:0:0:0:
424,358,179232,1,2,0:0:0:0:
424,358,179317,2,0,B|436:323|436:323|428:262,1,70,4|0,0:1|0:0,0:0:0:0:
335,139,179658,2,0,B|323:174|323:174|331:235,1,70,2|0,0:3|3:0,0:0:0:0:
462,120,179999,2,0,P|452:78|351:18,1,140,2|2,3:3|3:3,0:0:0:0:
239,80,180510,1,8,0:0:0:0:
341,228,180681,6,0,L|253:242,1,70,4|0,0:1|0:0,0:0:0:0:
157,348,181021,2,0,L|245:362,1,70,2|0,0:3|0:0,0:0:0:0:
201,167,181362,2,0,P|181:198|176:243,1,70,2|8,0:3|0:0,0:0:0:0:
61,313,181703,2,0,P|41:282|36:237,1,70,2|8,0:3|0:0,0:0:0:0:
21,138,182044,69,2,0:0:0:0:
104,62,182215,1,8,0:0:0:0:
215,74,182385,1,2,0:0:0:0:
286,160,182556,1,8,0:0:0:0:
143,152,182726,5,2,0:0:0:0:
331,71,182896,1,8,0:0:0:0:
289,258,183067,1,0,0:0:0:0:
481,177,183237,1,8,0:0:0:0:
415,279,183408,69,8,0:0:0:0:
131,278,184260,2,0,L|126:224,2,52.5000020027161,2|2|0,0:0|0:0|0:0,0:0:0:0:
181,345,184771,6,0,P|217:323|291:331,1,105.000004005432,2|0,0:0|0:0,0:0:0:0:
384,224,185453,2,0,P|348:202|274:210,1,105.000004005432,2|0,0:0|0:0,0:0:0:0:
472,355,186135,70,0,B|455:305|455:305|481:182,1,157.500006008148,8|2,0:0|0:0,0:0:0:0:
375,64,186987,2,0,P|354:52|309:50,2,52.5000020027161,2|2|0,0:0|0:0|0:0,0:0:0:0:
377,148,187499,6,0,L|347:263,1,105.000004005432,2|0,0:0|0:0,0:0:0:0:
203,332,188181,2,0,P|160:331|112:268,1,105.000004005432,2|0,0:0|0:0,0:0:0:0:
21,151,188862,70,0,B|69:112|69:112|169:125,1,157.500006008148,8|2,0:0|0:0,0:0:0:0:
303,30,189715,1,2,0:0:0:0:
347,100,189885,1,2,0:0:0:0:
335,183,190056,1,0,0:0:0:0:
283,249,190226,6,0,P|278:301|290:365,1,105.000004005432,8|0,0:0|0:0,0:0:0:0:
454,352,190908,2,0,P|462:300|457:248,1,105.000004005432,2|0,0:0|0:0,0:0:0:0:
424,82,191590,70,0,B|347:46|340:114|258:79,1,157.500006008148,2|2,0:0|0:0,0:0:0:0:
110,35,192442,2,0,P|96:57|95:102,2,52.5000020027161,2|2|2,0:0|0:0|0:0,0:0:0:0:
221,18,192953,6,0,P|252:52|248:129,1,105,8|0,0:0|0:0,0:0:0:0:
236,158,193294,70,0,P|181:157|133:182,1,99.7499973363877,2|0,0:0|0:0,0:0:0:0:
116,216,193635,6,0,L|125:285,2,39.6666674232483,2|0|0,0:0|0:0|0:0,0:0:0:0:
40,252,193976,70,0,L|48:318,2,35.0000013351441,2|0|0,0:0|0:0|0:0,0:0:0:0:
126,344,194317,6,0,B|166:361|166:361|261:337,1,125.999996154785,4|2,0:1|0:0,0:0:0:0:
306,259,194828,1,2,0:0:0:0:
378,329,194999,2,0,P|405:290|390:202,1,125.999996154785,8|2,0:0|0:0,0:0:0:0:
320,149,195510,2,0,L|329:77,1,62.9999980773926,8|2,0:0|0:0,0:0:0:0:
469,88,195851,2,0,L|476:150,1,62.9999980773926,8|2,0:0|0:3,0:0:0:0:
253,28,196362,2,0,P|200:26|139:82,1,125.999996154785,8|0,0:0|0:0,0:0:0:0:
58,122,196874,1,2,0:0:0:0:
58,122,196959,1,2,0:0:0:0:
58,122,197044,70,0,L|66:201,1,62.9999980773926,4|0,0:1|0:0,0:0:0:0:
178,276,197385,2,0,L|184:213,1,62.9999980773926,2|0,0:0|0:0,0:0:0:0:
23,280,197726,2,0,P|60:288|105:283,1,62.9999980773926,8|0,0:0|0:0,0:0:0:0:
234,364,198067,2,0,P|197:372|152:367,1,62.9999980773926,8|0,0:0|0:0,0:0:0:0:
286,251,198408,2,0,P|318:264|354:319,1,88.6666642990113,2|8,0:3|0:0,0:0:0:0:
358,331,198749,2,0,P|382:343|423:338,2,44.3333321495057,8|8|8,0:0|0:0|0:0,0:0:0:0:
407,257,199090,2,0,P|390:235|351:223,2,44.3333321495057,8|8|8,0:3|0:3|0:3,0:0:0:0:
495,333,199431,2,0,L|499:393,2,44.3333321495057,8|8|8,0:3|0:3|0:3,0:0:0:0:
499,236,199771,5,4,0:2:0:0:
486,65,200112,70,0,B|460:47|460:47|406:51,1,66.4999982242585,8|8,0:0|0:0,0:0:0:0:
312,145,200453,2,0,B|338:127|338:127|392:131,1,66.4999982242585,8|8,0:0|0:0,0:0:0:0:
499,236,200794,6,0,L|433:231,1,66.4999982242585,10|8,0:0|0:0,0:0:0:0:
319,335,201135,2,0,L|385:330,1,66.4999982242585,10|8,0:0|0:0,0:0:0:0:
334,235,201476,69,8,0:0:0:0:
237,279,201646,1,10,0:0:0:0:
130,272,201817,5,8,0:0:0:0:
83,176,201987,1,8,0:0:0:0:
178,357,202158,69,10,0:0:0:0:
266,183,202328,1,8,0:0:0:0:
54,308,202499,5,6,0:2:0:0:
54,308,202669,2,0,L|49:396,2,77.0000023498536,8|0|2,0:0|0:0|0:3,0:0:0:0:
174,174,203181,1,8,0:0:0:0:
174,174,203351,2,0,L|169:97,2,77.0000023498536,8|8|8,0:0|0:3|0:3,0:0:0:0:
200,364,203862,69,4,0:1:0:0:
91,60,205226,6,0,P|137:79|177:163,1,140,4|0,0:1|0:0,0:0:0:0:
137,270,205737,2,0,B|197:245|206:320|286:282,1,140,2|0,0:0|0:0,0:0:0:0:
371,239,206249,2,0,L|390:152,1,70,2|2,0:0|0:0,0:0:0:0:
431,67,206590,2,0,P|389:40|295:64,1,140,8|2,0:0|0:0,0:0:0:0:
232,141,207101,2,0,P|190:168|96:144,1,140,2|0,0:0|0:0,0:0:0:0:
163,59,207612,1,2,0:0:0:0:
61,216,207953,69,4,0:1:0:0:
59,252,208038,1,0,3:0:0:0:
69,287,208123,1,0,3:0:0:0:
89,318,208208,1,0,3:0:0:0:
126,348,208294,2,0,P|135:333|150:293,3,36.749998878479,8|0|0|0,0:0|3:0|3:0|3:0,0:0:0:0:
225,332,208635,2,0,P|226:314|223:272,3,36.749998878479,8|0|0|0,0:0|3:0|3:0|3:0,0:0:0:0:
310,278,208976,2,0,P|304:261|283:224,3,36.749998878479,8|8|8|8,0:0|0:0|0:0|0:0,0:0:0:0:
376,208,209317,5,8,0:0:0:0:
394,8,210340,70,0,P|367:39|362:92,1,89.2500017023087,2|0,0:3|0:0,0:0:0:0:
367,122,210681,6,0,B|310:148|310:148|205:126,1,154.000004699707,4|8,0:1|0:0,0:0:0:0:
251,1,211192,1,0,0:0:0:0:
131,141,211362,2,0,L|142:223,1,77.0000023498536,2|2,0:3|0:3,0:0:0:0:
79,367,211703,2,0,P|135:345|195:364,1,115.50000352478,8|2,0:0|0:0,0:0:0:0:
216,369,212044,2,0,L|226:292,1,77.0000023498536,4|2,0:1|0:3,0:0:0:0:
347,139,212385,2,0,L|336:215,1,77.0000023498536,8|0,0:0|0:0,0:0:0:0:
178,202,212726,2,0,P|228:184|265:195,1,77.0000023498536,2|2,0:3|0:3,0:0:0:0:
324,321,213067,2,0,P|385:335|443:307,1,115.50000352478,8|2,0:0|0:0,0:0:0:0:
453,285,213408,70,0,L|463:208,1,77.0000023498536,4|2,0:1|0:3,0:0:0:0:
337,63,213749,2,0,L|347:139,1,77.0000023498536,8|0,0:0|0:0,0:0:0:0:
512,123,214090,2,0,P|466:111|425:120,1,77.0000023498536,2|2,0:3|0:3,0:0:0:0:
214,195,214431,2,0,P|260:207|301:198,1,77.0000023498536,8|2,0:0|0:0,0:0:0:0:
337,63,214771,1,12,0:1:0:0:
400,235,214942,1,2,0:3:0:0:
254,106,215112,1,12,0:1:0:0:
232,304,215283,1,2,0:3:0:0:
459,326,215453,1,8,0:1:0:0:
482,291,215538,1,0,0:0:0:0:
495,251,215623,1,0,0:0:0:0:
495,209,215708,1,0,0:0:0:0:
483,169,215794,2,0,P|462:172|433:166,3,41.9999987182618,8|8|8|8,0:0|0:0|0:0|0:0,0:0:0:0:
466,126,216135,6,0,P|450:83|448:34,1,83.9999974365235,4|2,0:1|0:3,0:0:0:0:
272,86,216476,2,0,L|365:97,1,83.9999974365235,8|0,0:0|0:0,0:0:0:0:
175,42,216817,2,0,P|171:83|156:122,2,83.9999974365235,2|2|8,0:3|0:3|0:0,0:0:0:0:
250,194,217328,1,2,0:0:0:0:
133,249,217499,2,0,L|40:260,1,83.9999974365235,2|2,0:3|0:3,0:0:0:0:
47,125,217840,1,8,0:0:0:0:
250,194,218010,2,0,P|261:266|239:325,1,125.999996154785,0|0,0:0|0:0,0:0:0:0:
235,341,218351,2,0,L|328:352,1,83.9999974365235,2|8,0:3|0:0,0:0:0:0:
136,367,218692,1,2,0:0:0:0:
26,241,218862,70,0,P|15:198|27:141,1,83.9999974365235,2|2,0:3|0:3,0:0:0:0:
88,2,219203,2,0,P|136:33|143:123,1,125.999996154785,8|0,0:0|0:0,0:0:0:0:
146,126,219544,2,0,B|189:138|189:138|233:118,1,83.9999974365235,2|2,0:3|0:3,0:0:0:0:
369,0,219885,1,8,0:0:0:0:
456,176,220056,1,2,0:0:0:0:
456,176,220141,1,2,0:0:0:0:
456,176,220226,2,0,L|450:277,1,83.9999974365235,2|2,0:3|0:3,0:0:0:0:
324,375,220567,2,0,L|319:291,1,83.9999974365235,8|0,0:0|0:0,0:0:0:0:
193,167,220908,2,0,L|187:268,1,83.9999974365235,2|2,0:3|0:3,0:0:0:0:
304,163,221249,1,8,0:0:0:0:
155,373,221419,1,8,0:0:0:0:
155,373,221504,1,8,0:0:0:0:
155,373,221590,6,0,P|96:346|63:249,1,170.799992963257,4|8,0:1|0:0,0:0:0:0:
194,252,222101,1,0,0:0:0:0:
304,163,222271,2,0,L|409:182,1,85.3999964816286,2|2,0:3|0:3,0:0:0:0:
478,53,222612,2,0,P|465:27|468:5,3,42.6999982408143,10|2|2|2,0:0|0:0|0:0|0:0,0:0:0:0:
478,53,222953,2,0,B|406:40|406:40|373:48|373:48|306:36,1,173.599993112793,4|8,0:1|0:0,0:0:0:0:
194,153,223465,1,0,0:0:0:0:
336,264,223635,2,0,L|343:359,1,86.7999965563966,2|2,0:3|0:3,0:0:0:0:
164,375,223976,2,0,P|116:345|108:264,1,130.199994834595,8|2,0:0|0:0,0:0:0:0:
120,249,224317,70,0,L|227:229,1,88.1999973083497,2|2,0:3|0:3,0:0:0:0:
88,121,224658,1,8,0:0:0:0:
88,121,224828,1,0,0:0:0:0:
8,253,224999,2,0,L|-1:346,1,88.1999973083497,2|2,0:3|0:3,0:0:0:0:
88,121,225340,2,0,L|79:33,1,88.1999973083497,8|2,0:0|0:0,0:0:0:0:
133,219,225681,2,0,P|200:209|229:187,1,89.6,4|2,0:1|0:3,0:0:0:0:
355,72,226021,2,0,P|288:62|259:40,1,89.6,8|0,0:0|3:0,0:0:0:0:
343,215,226362,1,2,0:3:0:0:
343,215,226448,1,8,0:0:0:0:
343,215,226533,1,2,0:3:0:0:
186,105,226703,1,8,0:0:0:0:
174,321,226874,1,8,0:0:0:0:
174,321,226959,1,8,0:0:0:0:
174,321,227044,6,0,L|270:330,1,89.6,12|2,0:1|0:3,0:0:0:0:
441,183,227385,2,0,L|345:192,1,89.6,8|2,0:0|0:3,0:0:0:0:
210,71,227726,1,8,0:0:0:0:
455,14,227896,1,8,0:0:0:0:
455,14,227982,1,8,0:0:0:0:
455,14,228067,2,0,P|481:15|505:28,3,44.8,8|8|8|8,0:2|0:0|0:0|0:2,0:0:0:0:
438,47,228408,69,12,0:1:0:0:
75,323,229569,1,8,0:0:0:0:
75,323,229646,1,8,0:0:0:0:
75,323,229771,6,0,L|86:246,1,70,4|0,0:1|0:0,0:0:0:0:
180,137,230112,2,0,L|189:206,1,70,8|0,0:0|0:0,0:0:0:0:
221,333,230453,2,0,P|258:324|306:284,1,70,2|2,0:3|0:3,0:0:0:0:
320,173,230794,1,8,0:0:0:0:
320,173,230965,1,2,0:0:0:0:
435,352,231135,2,0,L|442:201,1,140,2|8,0:3|0:0,0:0:0:0:
441,57,231646,1,0,0:0:0:0:
441,57,231732,1,0,0:0:0:0:
441,57,231817,2,0,P|400:57|354:78,1,70,2|0,0:3|0:0,0:0:0:0:
251,163,232158,2,0,P|292:163|338:184,1,70,8|0,0:0|0:0,0:0:0:0:
200,54,232499,70,0,P|145:103|140:186,1,140,2|8,0:3|0:0,0:0:0:0:
198,266,233010,1,0,0:0:0:0:
83,347,233181,2,0,L|-5:336,1,70,2|0,0:3|0:0,0:0:0:0:
13,196,233521,1,8,0:0:0:0:
13,196,233692,1,2,0:0:0:0:
210,361,233862,2,0,B|285:371|268:311|335:313,1,140,2|8,0:3|0:0,0:0:0:0:
461,360,234374,1,2,0:0:0:0:
461,360,234459,1,2,0:0:0:0:
461,360,234544,2,0,L|467:267,1,70,2|2,0:3|0:0,0:0:0:0:
385,185,234885,1,8,0:0:0:0:
477,58,235056,1,2,0:0:0:0:
477,58,235141,1,2,0:0:0:0:
477,58,235226,6,0,L|382:50,1,70,2|0,0:3|0:0,0:0:0:0:
315,190,235567,2,0,L|410:182,1,70,8|0,0:0|0:0,0:0:0:0:
289,58,235908,1,2,0:3:0:0:
289,58,236078,1,2,0:3:0:0:
208,171,236249,1,8,0:0:0:0:
83,23,236419,1,2,0:0:0:0:
83,23,236504,1,2,0:0:0:0:
83,23,236590,2,0,P|61:70|64:167,1,140,2|8,0:3|0:0,0:0:0:0:
111,265,237101,1,0,0:3:0:0:
201,343,237271,2,0,L|289:349,1,70,2|2,0:3|0:3,0:0:0:0:
83,374,237612,2,0,L|-5:380,1,70,8|8,0:0|0:0,0:0:0:0:
200,243,237953,70,0,L|344:252,1,120.750002303124,12|0,0:1|0:0,0:0:0:0:
341,272,238294,1,8,0:0:0:0:
448,207,238465,6,0,P|446:162|376:83,1,120.750002303124,4|0,0:1|0:0,0:0:0:0:
377,98,238806,1,2,0:3:0:0:
201,133,238976,70,0,L|289:139,1,80.5000015354157,8|2,0:0|0:3,0:0:0:0:
146,21,239317,2,0,L|58:27,1,80.5000015354157,8|0,0:0|0:0,0:0:0:0:
116,196,239658,6,0,P|98:157|101:104,1,80.5000015354157,8|0,0:0|0:0,0:0:0:0:
250,42,239999,1,8,0:0:0:0:
343,185,240169,1,8,0:0:0:0:
343,185,240254,1,8,0:0:0:0:
343,185,240340,2,0,P|341:214|344:245,3,40.2500007677078,8|8|8|8,0:0|0:0|0:0|0:0,0:0:0:0:
378,154,240681,69,4,0:1:0:0:
256,192,240851,12,8,243408,0:3:0:0:
