osu file format v14

[General]
AudioFilename: audio.mp3
AudioLeadIn: 0
PreviewTime: 204374
Countdown: 0
SampleSet: Soft
StackLeniency: 0.7
Mode: 0
LetterboxInBreaks: 0
EpilepsyWarning: 1
WidescreenStoryboard: 1

[Editor]
Bookmarks: 36135,38862,74317,101590,112499,127499,134317,161590,166703,172499,177953,183408,194317,199771,205226,228408,240681
DistanceSpacing: 0.9
BeatDivisor: 4
GridSize: 16
TimelineZoom: 1.3

[Metadata]
Title:SHIORI
TitleUnicode:SHIORI
Artist:ClariS
ArtistUnicode:ClariS
Creator:PantyDev
Version:Hou's Another
Source:終物語
Tags:owarimonogatari ed ending araragi hitagi senjougahara hitagigahara bake monogatari shaft isin nisio TheMefisto piroshki _Hou InternalLight VOFAN keeVY Anime Japanese
BeatmapID:1602811
BeatmapSetID:747684

[Difficulty]
HPDrainRate:5
CircleSize:3.5
OverallDifficulty:8
ApproachRate:9
SliderMultiplier:1.6
SliderTickRate:1

[Events]
//Background and Video events
0,0,"bgHou.jpg",0,0
//Break Periods
2,161790,165933
//Storyboard Layer 0 (Background)
Sprite,Background,Centre,"sb\sprites\Hou\bgKiai.jpg",320,240 S,19,63408,74402,0.7,0.65 F,0,86590,,1
Sprite,Background,Centre,"sb\sprites\Hou\bgKiai.jpg",320,240 S,19,137044,74402,0.7,0.65 F,0,160226,,1
Sprite,Background,Centre,"sb\sprites\Hou\bgKiai.jpg",320,240 M,0,205226,,320,240 C,0,205226,210659,138,138,138 S,0,205226,210681,0.679,0.65 F,0,205226,228408,1 C,0,210659,210681,138,138,138,255,255,255
Sprite,Background,Centre,"sb\sprites\Hou\snowflakeP.png",0,0 F,0,63408,,0.6 F,0,63408,63608,0,0.6 M,0,63408,67908,513.2117,0,513.2117,480 S,0,63408,67908,0.2634651,0.2536045 P,0,63408,72558,A F,0,67708,67908,0.6,0 F,0,68058,68258,0,0.6 M,0,68058,72558,459.5375,0,459.5375,480 S,0,68058,72558,0.1665178,0.1573445 F,0,72358,72558,0.6,0
Sprite,Background,Centre,"sb\sprites\Hou\snowflakeP.png",0,0 F,0,63558,,0.6 F,0,63558,63758,0,0.6 M,0,63558,68058,369.6696,0,369.6696,480 S,0,63558,68058,0.1412066,0.211777 P,0,63558,72708,A F,0,67858,68058,0.6,0 F,0,68208,68408,0,0.6 M,0,68208,72708,593.801,0,593.801,480 S,0,68208,72708,0.1445036,0.1373743 F,0,72508,72708,0.6,0
Sprite,Background,Centre,"sb\sprites\Hou\snowflakeP.png",0,0 F,0,63708,,0.6 F,0,63708,63908,0,0.6 M,0,63708,68208,666.7471,0,666.7471,480 S,0,63708,68208,0.1884356,0.29551 P,0,63708,72858,A F,0,68008,68208,0.6,0 F,0,68358,68558,0,0.6 M,0,68358,72858,-48.4849,0,-48.4849,480 S,0,68358,72858,0.2249245,0.238609 F,0,72658,72858,0.6,0
Sprite,Background,Centre,"sb\sprites\Hou\snowflakeP.png",0,0 F,0,63858,,0.6 F,0,63858,64058,0,0.6 M,0,63858,68358,126.7436,0,126.7436,480 S,0,63858,68358,0.1583813,0.1934629 P,0,63858,73008,A F,0,68158,68358,0.6,0 F,0,68508,68708,0,0.6 M,0,68508,73008,431.3568,0,431.3568,480 S,0,68508,73008,0.2855275,0.1442684 F,0,72808,73008,0.6,0
Sprite,Background,Centre,"sb\sprites\Hou\snowflakeP.png",0,0 F,0,64008,,0.6 F,0,64008,64208,0,0.6 M,0,64008,68508,433.2909,0,433.2909,480 S,0,64008,68508,0.1939024,0.2964303 P,0,64008,73158,A F,0,68308,68508,0.6,0 F,0,68658,68858,0,0.6 M,0,68658,73158,686.1163,0,686.1163,480 S,0,68658,73158,0.1133043,0.2800209 F,0,72958,73158,0.6,0
Sprite,Background,Centre,"sb\sprites\Hou\snowflakeP.png",0,0 F,0,64158,,0.6 F,0,64158,64358,0,0.6 M,0,64158,68658,-81.06659,0,-81.06659,480 S,0,64158,68658,0.272474,0.2990694 P,0,64158,73308,A F,0,68458,68658,0.6,0 F,0,68808,69008,0,0.6 M,0,68808,73308,472.4437,0,472.4437,480 S,0,68808,73308,0.1187956,0.1298195 F,0,73108,73308,0.6,0
Sprite,Background,Centre,"sb\sprites\Hou\snowflakeP.png",0,0 F,0,64308,,0.6 F,0,64308,64508,0,0.6 M,0,64308,68808,471.3127,0,471.3127,480 S,0,64308,68808,0.1629184,0.2633816 P,0,64308,73458,A F,0,68608,68808,0.6,0 F,0,68958,69158,0,0.6 M,0,68958,73458,-15.64549,0,-15.64549,480 S,0,68958,73458,0.221974,0.2906086 F,0,73258,73458,0.6,0
Sprite,Background,Centre,"sb\sprites\Hou\snowflakeP.png",0,0 F,0,64458,,0.6 F,0,64458,64658,0,0.6 M,0,64458,68958,617.2362,0,617.2362,480 S,0,64458,68958,0.2983804,0.106525 P,0,64458,73608,A F,0,68758,68958,0.6,0 F,0,69108,69308,0,0.6 M,0,69108,73608,311.9939,0,311.9939,480 S,0,69108,73608,0.1296113,0.2355223 F,0,73408,73608,0.6,0
Sprite,Background,Centre,"sb\sprites\Hou\snowflakeP.png",0,0 F,0,64608,,0.6 F,0,64608,64808,0,0.6 M,0,64608,69108,490.7505,0,490.7505,480 S,0,64608,69108,0.2052568,0.2868037 P,0,64608,73758,A F,0,68908,69108,0.6,0 F,0,69258,69458,0,0.6 M,0,69258,73758,379.6619,0,379.6619,480 S,0,69258,73758,0.1450806,0.2236364 F,0,73558,73758,0.6,0
Sprite,Background,Centre,"sb\sprites\Hou\snowflakeP.png",0,0 F,0,64758,,0.6 F,0,64758,64958,0,0.6 M,0,64758,69258,480.2277,0,480.2277,480 S,0,64758,69258,0.2093631,0.116222 P,0,64758,73908,A F,0,69058,69258,0.6,0 F,0,69408,69608,0,0.6 M,0,69408,73908,-102.6598,0,-102.6598,480 S,0,69408,73908,0.1721878,0.270097 F,0,73708,73908,0.6,0
Sprite,Background,Centre,"sb\sprites\Hou\snowflakeP.png",0,0 F,0,64908,,0.6 F,0,64908,65108,0,0.6 M,0,64908,69408,52.80439,0,52.80439,480 S,0,64908,69408,0.1906654,0.1594344 P,0,64908,74058,A F,0,69208,69408,0.6,0 F,0,69558,69758,0,0.6 M,0,69558,74058,-53.78861,0,-53.78861,480 S,0,69558,74058,0.1563295,0.2409952 F,0,73858,74058,0.6,0
Sprite,Background,Centre,"sb\sprites\Hou\snowflakeP.png",0,0 F,0,65058,,0.6 F,0,65058,65258,0,0.6 M,0,65058,69558,737.2164,0,737.2164,480 S,0,65058,69558,0.2285395,0.2525927 P,0,65058,74208,A F,0,69358,69558,0.6,0 F,0,69708,69908,0,0.6 M,0,69708,74208,711.6276,0,711.6276,480 S,0,69708,74208,0.2977625,0.1774274 F,0,74008,74208,0.6,0
Sprite,Background,Centre,"sb\sprites\Hou\snowflakeP.png",0,0 F,0,65208,,0.6 F,0,65208,65408,0,0.6 M,0,65208,69708,-81.04327,0,-81.04327,480 S,0,65208,69708,0.1762009,0.1686284 P,0,65208,69708,A F,0,69508,69708,0.6,0
Sprite,Background,Centre,"sb\sprites\Hou\snowflakeP.png",0,0 F,0,65358,,0.6 F,0,65358,65558,0,0.6 M,0,65358,69858,710.6667,0,710.6667,480 S,0,65358,69858,0.2010258,0.2431945 P,0,65358,69858,A F,0,69658,69858,0.6,0
Sprite,Background,Centre,"sb\sprites\Hou\snowflakeP.png",0,0 F,0,65508,,0.6 F,0,65508,65708,0,0.6 M,0,65508,70008,-5.4101,0,-5.4101,480 S,0,65508,70008,0.1546903,0.2814196 P,0,65508,70008,A F,0,69808,70008,0.6,0
Sprite,Background,Centre,"sb\sprites\Hou\snowflakeP.png",0,0 F,0,65658,,0.6 F,0,65658,65858,0,0.6 M,0,65658,70158,571.7298,0,571.7298,480 S,0,65658,70158,0.1674321,0.1914418 P,0,65658,70158,A F,0,69958,70158,0.6,0
Sprite,Background,Centre,"sb\sprites\Hou\snowflakeP.png",0,0 F,0,65808,,0.6 F,0,65808,66008,0,0.6 M,0,65808,70308,18.38858,0,18.38858,480 S,0,65808,70308,0.144263,0.1820147 P,0,65808,70308,A F,0,70108,70308,0.6,0
Sprite,Background,Centre,"sb\sprites\Hou\snowflakeP.png",0,0 F,0,65958,,0.6 F,0,65958,66158,0,0.6 M,0,65958,70458,506.7927,0,506.7927,480 S,0,65958,70458,0.2239661,0.1975936 P,0,65958,70458,A F,0,70258,70458,0.6,0
Sprite,Background,Centre,"sb\sprites\Hou\snowflakeP.png",0,0 F,0,66108,,0.6 F,0,66108,66308,0,0.6 M,0,66108,70608,59.45607,0,59.45607,480 S,0,66108,70608,0.2756383,0.2650846 P,0,66108,70608,A F,0,70408,70608,0.6,0
Sprite,Background,Centre,"sb\sprites\Hou\snowflakeP.png",0,0 F,0,66258,,0.6 F,0,66258,66458,0,0.6 M,0,66258,70758,521.0295,0,521.0295,480 S,0,66258,70758,0.2716438,0.2359498 P,0,66258,70758,A F,0,70558,70758,0.6,0
Sprite,Background,Centre,"sb\sprites\Hou\snowflakeP.png",0,0 F,0,66408,,0.6 F,0,66408,66608,0,0.6 M,0,66408,70908,426.6357,0,426.6357,480 S,0,66408,70908,0.1436814,0.2790725 P,0,66408,70908,A F,0,70708,70908,0.6,0
Sprite,Background,Centre,"sb\sprites\Hou\snowflakeP.png",0,0 F,0,66558,,0.6 F,0,66558,66758,0,0.6 M,0,66558,71058,658.5596,0,658.5596,480 S,0,66558,71058,0.117316,0.2677158 P,0,66558,71058,A F,0,70858,71058,0.6,0
Sprite,Background,Centre,"sb\sprites\Hou\snowflakeP.png",0,0 F,0,66708,,0.6 F,0,66708,66908,0,0.6 M,0,66708,71208,38.30198,0,38.30198,480 S,0,66708,71208,0.2288231,0.2653629 P,0,66708,71208,A F,0,71008,71208,0.6,0
Sprite,Background,Centre,"sb\sprites\Hou\snowflakeP.png",0,0 F,0,66858,,0.6 F,0,66858,67058,0,0.6 M,0,66858,71358,80.18626,0,80.18626,480 S,0,66858,71358,0.2999945,0.1962731 P,0,66858,71358,A F,0,71158,71358,0.6,0
Sprite,Background,Centre,"sb\sprites\Hou\snowflakeP.png",0,0 F,0,67008,,0.6 F,0,67008,67208,0,0.6 M,0,67008,71508,449.9833,0,449.9833,480 S,0,67008,71508,0.2439452,0.2618925 P,0,67008,71508,A F,0,71308,71508,0.6,0
Sprite,Background,Centre,"sb\sprites\Hou\snowflakeP.png",0,0 F,0,67158,,0.6 F,0,67158,67358,0,0.6 M,0,67158,71658,-20.80117,0,-20.80117,480 S,0,67158,71658,0.2458188,0.2436901 P,0,67158,71658,A F,0,71458,71658,0.6,0
Sprite,Background,Centre,"sb\sprites\Hou\snowflakeP.png",0,0 F,0,67308,,0.6 F,0,67308,67508,0,0.6 M,0,67308,71808,0.2002701,0,0.2002701,480 S,0,67308,71808,0.2810353,0.1378248 P,0,67308,71808,A F,0,71608,71808,0.6,0
Sprite,Background,Centre,"sb\sprites\Hou\snowflakeP.png",0,0 F,0,67458,,0.6 F,0,67458,67658,0,0.6 M,0,67458,71958,300.1956,0,300.1956,480 S,0,67458,71958,0.208159,0.1651001 P,0,67458,71958,A F,0,71758,71958,0.6,0
Sprite,Background,Centre,"sb\sprites\Hou\snowflakeP.png",0,0 F,0,67608,,0.6 F,0,67608,67808,0,0.6 M,0,67608,72108,466.0653,0,466.0653,480 S,0,67608,72108,0.1936795,0.2666994 P,0,67608,72108,A F,0,71908,72108,0.6,0
Sprite,Background,Centre,"sb\sprites\Hou\snowflakeP.png",0,0 F,0,67758,,0.6 F,0,67758,67958,0,0.6 M,0,67758,72258,584.0601,0,584.0601,480 S,0,67758,72258,0.2587261,0.2529012 P,0,67758,72258,A F,0,72058,72258,0.6,0
Sprite,Background,Centre,"sb\sprites\Hou\snowflakeP.png",0,0 F,0,67908,,0.6 F,0,67908,68108,0,0.6 M,0,67908,72408,693.6595,0,693.6595,480 S,0,67908,72408,0.1589994,0.2045571 P,0,67908,72408,A F,0,72208,72408,0.6,0
Sprite,Background,Centre,"sb\sprites\Hou\snowflakeP.png",0,0 F,0,74317,,0.6 F,0,74317,74517,0,0.6 M,0,74317,78317,-107,348.5968,747,348.5968 S,0,74317,78317,0.2634651,0.2536045 P,0,74317,86583,A F,0,78117,78317,0.6,0 F,0,78450,78650,0,0.6 M,0,78450,82450,-107,318.4286,747,318.4286 S,0,78450,82450,0.1665178,0.1573445 F,0,82250,82450,0.6,0 F,0,82583,82783,0,0.6 M,0,82583,86583,-107,244.5414,747,244.5414 S,0,82583,86583,0.2925779,0.2987143 F,0,86383,86583,0.6,0
Sprite,Background,Centre,"sb\sprites\Hou\snowflakeP.png",0,0 F,0,74450,,0.6 F,0,74450,74650,0,0.6 M,0,74450,78450,-107,267.9174,747,267.9174 S,0,74450,78450,0.1412066,0.211777 P,0,74450,82583,A F,0,78250,78450,0.6,0 F,0,78583,78783,0,0.6 M,0,78583,82583,-107,393.8928,747,393.8928 S,0,78583,82583,0.1445036,0.1373743 F,0,82383,82583,0.6,0
Sprite,Background,Centre,"sb\sprites\Hou\snowflakeP.png",0,0 F,0,74583,,0.6 F,0,74583,74783,0,0.6 M,0,74583,78583,-107,434.893,747,434.893 S,0,74583,78583,0.1884356,0.29551 P,0,74583,82716,A F,0,78383,78583,0.6,0 F,0,78716,78916,0,0.6 M,0,78716,82716,-107,32.88905,747,32.88905 S,0,78716,82716,0.2249245,0.238609 F,0,82516,82716,0.6,0
Sprite,Background,Centre,"sb\sprites\Hou\snowflakeP.png",0,0 F,0,74716,,0.6 F,0,74716,74916,0,0.6 M,0,74716,78716,-107,131.3781,747,131.3781 S,0,74716,78716,0.1583813,0.1934629 P,0,74716,82850,A F,0,78516,78716,0.6,0 F,0,78850,79050,0,0.6 M,0,78850,82850,-107,302.5893,747,302.5893 S,0,78850,82850,0.2855275,0.1442684 F,0,82650,82850,0.6,0
Sprite,Background,Centre,"sb\sprites\Hou\snowflakeP.png",0,0 F,0,74850,,0.6 F,0,74850,75050,0,0.6 M,0,74850,78850,-107,303.6764,747,303.6764 S,0,74850,78850,0.1939024,0.2964303 P,0,74850,82983,A F,0,78650,78850,0.6,0 F,0,78983,79183,0,0.6 M,0,78983,82983,-107,445.7797,747,445.7797 S,0,78983,82983,0.1133043,0.2800209 F,0,82783,82983,0.6,0
Sprite,Background,Centre,"sb\sprites\Hou\snowflakeP.png",0,0 F,0,74983,,0.6 F,0,74983,75183,0,0.6 M,0,74983,78983,-107,14.57616,747,14.57616 S,0,74983,78983,0.272474,0.2990694 P,0,74983,83116,A F,0,78783,78983,0.6,0 F,0,79116,79316,0,0.6 M,0,79116,83116,-107,325.6826,747,325.6826 S,0,79116,83116,0.1187956,0.1298195 F,0,82916,83116,0.6,0
Sprite,Background,Centre,"sb\sprites\Hou\snowflakeP.png",0,0 F,0,75116,,0.6 F,0,75116,75316,0,0.6 M,0,75116,79116,-107,325.047,747,325.047 S,0,75116,79116,0.1629184,0.2633816 P,0,75116,83250,A F,0,78916,79116,0.6,0 F,0,79250,79450,0,0.6 M,0,79250,83250,-107,51.3468,747,51.3468 S,0,79250,83250,0.221974,0.2906086 F,0,83050,83250,0.6,0
Sprite,Background,Centre,"sb\sprites\Hou\snowflakeP.png",0,0 F,0,75250,,0.6 F,0,75250,75450,0,0.6 M,0,75250,79250,-107,407.0648,747,407.0648 S,0,75250,79250,0.2983804,0.106525 P,0,75250,83383,A F,0,79050,79250,0.6,0 F,0,79383,79583,0,0.6 M,0,79383,83383,-107,235.5001,747,235.5001 S,0,79383,83383,0.1296113,0.2355223 F,0,83183,83383,0.6,0
Sprite,Background,Centre,"sb\sprites\Hou\snowflakeP.png",0,0 F,0,75383,,0.6 F,0,75383,75583,0,0.6 M,0,75383,79383,-107,335.9721,747,335.9721 S,0,75383,79383,0.2052568,0.2868037 P,0,75383,83516,A F,0,79183,79383,0.6,0 F,0,79516,79716,0,0.6 M,0,79516,83516,-107,273.5336,747,273.5336 S,0,79516,83516,0.1450806,0.2236364 F,0,83316,83516,0.6,0
Sprite,Background,Centre,"sb\sprites\Hou\snowflakeP.png",0,0 F,0,75516,,0.6 F,0,75516,75716,0,0.6 M,0,75516,79516,-107,330.0577,747,330.0577 S,0,75516,79516,0.2093631,0.116222 P,0,75516,83650,A F,0,79316,79516,0.6,0 F,0,79650,79850,0,0.6 M,0,79650,83650,-107,2.439455,747,2.439455 S,0,79650,83650,0.1721878,0.270097 F,0,83450,83650,0.6,0
Sprite,Background,Centre,"sb\sprites\Hou\snowflakeP.png",0,0 F,0,75650,,0.6 F,0,75650,75850,0,0.6 M,0,75650,79650,-107,89.81979,747,89.81979 S,0,75650,79650,0.1906654,0.1594344 P,0,75650,83783,A F,0,79450,79650,0.6,0 F,0,79783,79983,0,0.6 M,0,79783,83783,-107,29.90804,747,29.90804 S,0,79783,83783,0.1563295,0.2409952 F,0,83583,83783,0.6,0
Sprite,Background,Centre,"sb\sprites\Hou\snowflakeP.png",0,0 F,0,75783,,0.6 F,0,75783,75983,0,0.6 M,0,75783,79783,-107,474.501,747,474.501 S,0,75783,79783,0.2285395,0.2525927 P,0,75783,83916,A F,0,79583,79783,0.6,0 F,0,79916,80116,0,0.6 M,0,79916,83916,-107,460.1186,747,460.1186 S,0,79916,83916,0.2977625,0.1774274 F,0,83716,83916,0.6,0
Sprite,Background,Centre,"sb\sprites\Hou\snowflakeP.png",0,0 F,0,75916,,0.6 F,0,75916,76116,0,0.6 M,0,75916,79916,-107,14.58926,747,14.58926 S,0,75916,79916,0.1762009,0.1686284 P,0,75916,84050,A F,0,79716,79916,0.6,0 F,0,80050,80250,0,0.6 M,0,80050,84050,-107,250.9153,747,250.9153 S,0,80050,84050,0.1560651,0.2013152 F,0,83850,84050,0.6,0
Sprite,Background,Centre,"sb\sprites\Hou\snowflakeP.png",0,0 F,0,76050,,0.6 F,0,76050,76250,0,0.6 M,0,76050,80050,-107,459.5785,747,459.5785 S,0,76050,80050,0.2010258,0.2431945 P,0,76050,84183,A F,0,79850,80050,0.6,0 F,0,80183,80383,0,0.6 M,0,80183,84183,-107,255.158,747,255.158 S,0,80183,84183,0.1114017,0.1561107 F,0,83983,84183,0.6,0
Sprite,Background,Centre,"sb\sprites\Hou\snowflakeP.png",0,0 F,0,76183,,0.6 F,0,76183,76383,0,0.6 M,0,76183,80183,-107,57.09971,747,57.09971 S,0,76183,80183,0.1546903,0.2814196 P,0,76183,84316,A F,0,79983,80183,0.6,0 F,0,80316,80516,0,0.6 M,0,80316,84316,-107,238.1178,747,238.1178 S,0,80316,84316,0.2692831,0.2226316 F,0,84116,84316,0.6,0
Sprite,Background,Centre,"sb\sprites\Hou\snowflakeP.png",0,0 F,0,76316,,0.6 F,0,76316,76516,0,0.6 M,0,76316,80316,-107,381.4875,747,381.4875 S,0,76316,80316,0.1674321,0.1914418 P,0,76316,84450,A F,0,80116,80316,0.6,0 F,0,80450,80650,0,0.6 M,0,80450,84450,-107,49.99615,747,49.99615 S,0,80450,84450,0.2484658,0.1803752 F,0,84250,84450,0.6,0
Sprite,Background,Centre,"sb\sprites\Hou\snowflakeP.png",0,0 F,0,76450,,0.6 F,0,76450,76650,0,0.6 M,0,76450,80450,-107,70.47602,747,70.47602 S,0,76450,80450,0.144263,0.1820147 P,0,76450,84583,A F,0,80250,80450,0.6,0 F,0,80583,80783,0,0.6 M,0,80583,84583,-107,448.0284,747,448.0284 S,0,80583,84583,0.1261397,0.2399305 F,0,84383,84583,0.6,0
Sprite,Background,Centre,"sb\sprites\Hou\snowflakeP.png",0,0 F,0,76583,,0.6 F,0,76583,76783,0,0.6 M,0,76583,80583,-107,344.9889,747,344.9889 S,0,76583,80583,0.2239661,0.1975936 P,0,76583,84716,A F,0,80383,80583,0.6,0 F,0,80716,80916,0,0.6 M,0,80716,84716,-107,295.3961,747,295.3961 S,0,80716,84716,0.2661136,0.2370253 F,0,84516,84716,0.6,0
Sprite,Background,Centre,"sb\sprites\Hou\snowflakeP.png",0,0 F,0,76716,,0.6 F,0,76716,76916,0,0.6 M,0,76716,80716,-107,93.55845,747,93.55845 S,0,76716,80716,0.2756383,0.2650846 P,0,76716,84850,A F,0,80516,80716,0.6,0 F,0,80850,81050,0,0.6 M,0,80850,84850,-107,273.4764,747,273.4764 S,0,80850,84850,0.1345535,0.1369065 F,0,84650,84850,0.6,0
Sprite,Background,Centre,"sb\sprites\Hou\snowflakeP.png",0,0 F,0,76850,,0.6 F,0,76850,77050,0,0.6 M,0,76850,80850,-107,352.9908,747,352.9908 S,0,76850,80850,0.2716438,0.2359498 P,0,76850,84983,A F,0,80650,80850,0.6,0 F,0,80983,81183,0,0.6 M,0,80983,84983,-107,292.3732,747,292.3732 S,0,80983,84983,0.1501497,0.2994229 F,0,84783,84983,0.6,0
Sprite,Background,Centre,"sb\sprites\Hou\snowflakeP.png",0,0 F,0,76983,,0.6 F,0,76983,77183,0,0.6 M,0,76983,80983,-107,299.9357,747,299.9357 S,0,76983,80983,0.1436814,0.2790725 P,0,76983,85116,A F,0,80783,80983,0.6,0 F,0,81116,81316,0,0.6 M,0,81116,85116,-107,272.9709,747,272.9709 S,0,81116,85116,0.1126873,0.1527368 F,0,84916,85116,0.6,0
Sprite,Background,Centre,"sb\sprites\Hou\snowflakeP.png",0,0 F,0,77116,,0.6 F,0,77116,77316,0,0.6 M,0,77116,81116,-107,430.2911,747,430.2911 S,0,77116,81116,0.117316,0.2677158 P,0,77116,85250,A F,0,80916,81116,0.6,0 F,0,81250,81450,0,0.6 M,0,81250,85250,-107,404.4288,747,404.4288 S,0,81250,85250,0.2136172,0.229198 F,0,85050,85250,0.6,0
Sprite,Background,Centre,"sb\sprites\Hou\snowflakeP.png",0,0 F,0,77250,,0.6 F,0,77250,77450,0,0.6 M,0,77250,81250,-107,81.66856,747,81.66856 S,0,77250,81250,0.2288231,0.2653629 P,0,77250,85383,A F,0,81050,81250,0.6,0 F,0,81383,81583,0,0.6 M,0,81383,85383,-107,247.8557,747,247.8557 S,0,81383,85383,0.2940255,0.1155418 F,0,85183,85383,0.6,0
Sprite,Background,Centre,"sb\sprites\Hou\snowflakeP.png",0,0 F,0,77383,,0.6 F,0,77383,77583,0,0.6 M,0,77383,81383,-107,105.2101,747,105.2101 S,0,77383,81383,0.2999945,0.1962731 P,0,77383,85516,A F,0,81183,81383,0.6,0 F,0,81516,81716,0,0.6 M,0,81516,85516,-107,246.2243,747,246.2243 S,0,81516,85516,0.1311531,0.2627305 F,0,85316,85516,0.6,0
Sprite,Background,Centre,"sb\sprites\Hou\snowflakeP.png",0,0 F,0,77516,,0.6 F,0,77516,77716,0,0.6 M,0,77516,81516,-107,313.0585,747,313.0585 S,0,77516,81516,0.2439452,0.2618925 P,0,77516,85650,A F,0,81316,81516,0.6,0 F,0,81650,81850,0,0.6 M,0,81650,85650,-107,308.4102,747,308.4102 S,0,81650,85650,0.2150787,0.2105724 F,0,85450,85650,0.6,0
Sprite,Background,Centre,"sb\sprites\Hou\snowflakeP.png",0,0 F,0,77650,,0.6 F,0,77650,77850,0,0.6 M,0,77650,81650,-107,48.44899,747,48.44899 S,0,77650,81650,0.2458188,0.2436901 P,0,77650,85783,A F,0,81450,81650,0.6,0 F,0,81783,81983,0,0.6 M,0,81783,85783,-107,322.7948,747,322.7948 S,0,81783,85783,0.2989093,0.1603281 F,0,85583,85783,0.6,0
Sprite,Background,Centre,"sb\sprites\Hou\snowflakeP.png",0,0 F,0,77783,,0.6 F,0,77783,77983,0,0.6 M,0,77783,81783,-107,60.25308,747,60.25308 S,0,77783,81783,0.2810353,0.1378248 P,0,77783,85916,A F,0,81583,81783,0.6,0 F,0,81916,82116,0,0.6 M,0,81916,85916,-107,30.93776,747,30.93776 S,0,81916,85916,0.1931406,0.1966148 F,0,85716,85916,0.6,0
Sprite,Background,Centre,"sb\sprites\Hou\snowflakeP.png",0,0 F,0,77916,,0.6 F,0,77916,78116,0,0.6 M,0,77916,81916,-107,228.8687,747,228.8687 S,0,77916,81916,0.208159,0.1651001 P,0,77916,86050,A F,0,81716,81916,0.6,0 F,0,82050,82250,0,0.6 M,0,82050,86050,-107,103.8269,747,103.8269 S,0,82050,86050,0.1143379,0.1460481 F,0,85850,86050,0.6,0
Sprite,Background,Centre,"sb\sprites\Hou\snowflakeP.png",0,0 F,0,78050,,0.6 F,0,78050,78250,0,0.6 M,0,78050,82050,-107,322.0976,747,322.0976 S,0,78050,82050,0.1936795,0.2666994 P,0,78050,86183,A F,0,81850,82050,0.6,0 F,0,82183,82383,0,0.6 M,0,82183,86183,-107,72.39967,747,72.39967 S,0,82183,86183,0.18938,0.1902159 F,0,85983,86183,0.6,0
Sprite,Background,Centre,"sb\sprites\Hou\snowflakeP.png",0,0 F,0,78183,,0.6 F,0,78183,78383,0,0.6 M,0,78183,82183,-107,388.4178,747,388.4178 S,0,78183,82183,0.2587261,0.2529012 P,0,78183,86316,A F,0,81983,82183,0.6,0 F,0,82316,82516,0,0.6 M,0,82316,86316,-107,9.527681,747,9.527681 S,0,82316,86316,0.1777676,0.263209 F,0,86116,86316,0.6,0
Sprite,Background,Centre,"sb\sprites\Hou\snowflakeP.png",0,0 F,0,78316,,0.6 F,0,78316,78516,0,0.6 M,0,78316,82316,-107,450.0194,747,450.0194 S,0,78316,82316,0.1589994,0.2045571 P,0,78316,86450,A F,0,82116,82316,0.6,0 F,0,82450,82650,0,0.6 M,0,82450,86450,-107,97.25001,747,97.25001 S,0,82450,86450,0.2827258,0.1059154 F,0,86250,86450,0.6,0
Sprite,Background,Centre,"sb\sprites\Hou\yotsugiP.png",0,0 S,0,74317,,0.35 C,0,74317,,123,153,61 F,0,74317,74517,0,1 M,0,74317,77317,-107,162.4175,747,162.4175 R,0,74317,77317,1.489212,1.376869 P,0,74317,83717,A F,0,77117,77317,1,0 F,0,77517,77717,0,1 M,0,77517,80517,-107,304.9409,747,304.9409 R,0,77517,80517,4.618987,5.188707 F,0,80317,80517,1,0 F,0,80717,80917,0,1 M,0,80717,83717,-107,39.53867,747,39.53867 R,0,80717,83717,2.573309,3.952254 F,0,83517,83717,1,0
Sprite,Background,Centre,"sb\sprites\Hou\yotsugiP.png",0,0 S,0,74517,,0.35 C,0,74517,,123,153,61 F,0,74517,74717,0,1 M,0,74517,77517,-107,300.1804,747,300.1804 R,0,74517,77517,2.426681,4.860954 P,0,74517,83917,A F,0,77317,77517,1,0 F,0,77717,77917,0,1 M,0,77717,80717,-107,466.67,747,466.67 R,0,77717,80717,1.32794,2.652565 F,0,80517,80717,1,0 F,0,80917,81117,0,1 M,0,80917,83917,-107,162.2785,747,162.2785 R,0,80917,83917,0.7061779,0.4306576 F,0,83717,83917,1,0
Sprite,Background,Centre,"sb\sprites\Hou\yotsugiP.png",0,0 S,0,74717,,0.35 C,0,74717,,123,153,61 F,0,74717,74917,0,1 M,0,74717,77717,-107,70.22906,747,70.22906 R,0,74717,77717,4.977329,3.121346 P,0,74717,84117,A F,0,77517,77717,1,0 F,0,77917,78117,0,1 M,0,77917,80917,-107,94.10964,747,94.10964 R,0,77917,80917,1.380387,2.343059 F,0,80717,80917,1,0 F,0,81117,81317,0,1 M,0,81117,84117,-107,409.6035,747,409.6035 R,0,81117,84117,0.6960548,4.719358 F,0,83917,84117,1,0
Sprite,Background,Centre,"sb\sprites\Hou\yotsugiP.png",0,0 S,0,74917,,0.35 C,0,74917,,123,153,61 F,0,74917,75117,0,1 M,0,74917,77917,-107,56.38078,747,56.38078 R,0,74917,77917,5.108015,1.941959 P,0,74917,84317,A F,0,77717,77917,1,0 F,0,78117,78317,0,1 M,0,78117,81117,-107,232.1319,747,232.1319 R,0,78117,81117,2.279777,3.776522 F,0,80917,81117,1,0 F,0,81317,81517,0,1 M,0,81317,84317,-107,391.3456,747,391.3456 R,0,81317,84317,0.3994366,1.243837 F,0,84117,84317,1,0
Sprite,Background,Centre,"sb\sprites\Hou\yotsugiP.png",0,0 S,0,75117,,0.35 C,0,75117,,123,153,61 F,0,75117,75317,0,1 M,0,75117,78117,-107,33.5589,747,33.5589 R,0,75117,78117,0.3706463,2.523802 P,0,75117,84517,A F,0,77917,78117,1,0 F,0,78317,78517,0,1 M,0,78317,81317,-107,333.8546,747,333.8546 R,0,78317,81317,1.888361,0.1189589 F,0,81117,81317,1,0 F,0,81517,81717,0,1 M,0,81517,84517,-107,287.8058,747,287.8058 R,0,81517,84517,4.292949,0.8827379 F,0,84317,84517,1,0
Sprite,Background,Centre,"sb\sprites\Hou\yotsugiP.png",0,0 S,0,75317,,0.35 C,0,75317,,123,153,61 F,0,75317,75517,0,1 M,0,75317,78317,-107,73.42631,747,73.42631 R,0,75317,78317,5.048359,0.4992185 P,0,75317,84717,A F,0,78117,78317,1,0 F,0,78517,78717,0,1 M,0,78517,81517,-107,234.3482,747,234.3482 R,0,78517,81517,0.4421617,1.074412 F,0,81317,81517,1,0 F,0,81717,81917,0,1 M,0,81717,84717,-107,215.921,747,215.921 R,0,81717,84717,1.296071,2.321637 F,0,84517,84717,1,0
Sprite,Background,Centre,"sb\sprites\Hou\yotsugiP.png",0,0 S,0,75517,,0.35 C,0,75517,,123,153,61 F,0,75517,75717,0,1 M,0,75517,78517,-107,390.0159,747,390.0159 R,0,75517,78517,1.312223,2.519875 P,0,75517,84917,A F,0,78317,78517,1,0 F,0,78717,78917,0,1 M,0,78717,81717,-107,30.28571,747,30.28571 R,0,78717,81717,5.005696,3.571979 F,0,81517,81717,1,0 F,0,81917,82117,0,1 M,0,81917,84917,-107,8.318627,747,8.318627 R,0,81917,84917,5.226695,1.101044 F,0,84717,84917,1,0
Sprite,Background,Centre,"sb\sprites\Hou\yotsugiP.png",0,0 S,0,75717,,0.35 C,0,75717,,123,153,61 F,0,75717,75917,0,1 M,0,75717,78717,-107,35.87293,747,35.87293 R,0,75717,78717,4.382141,4.080691 P,0,75717,85117,A F,0,78517,78717,1,0 F,0,78917,79117,0,1 M,0,78917,81917,-107,241.1313,747,241.1313 R,0,78917,81917,5.135617,0.9197898 F,0,81717,81917,1,0 F,0,82117,82317,0,1 M,0,82117,85117,-107,468.9603,747,468.9603 R,0,82117,85117,1.944057,0.1238965 F,0,84917,85117,1,0
Sprite,Background,Centre,"sb\sprites\Hou\yotsugiP.png",0,0 S,0,75917,,0.35 C,0,75917,,123,153,61 F,0,75917,76117,0,1 M,0,75917,78917,-107,91.18587,747,91.18587 R,0,75917,78917,3.886146,1.219166 P,0,75917,85317,A F,0,78717,78917,1,0 F,0,79117,79317,0,1 M,0,79117,82117,-107,430.0523,747,430.0523 R,0,79117,82117,0.08410317,4.749079 F,0,81917,82117,1,0 F,0,82317,82517,0,1 M,0,82317,85317,-107,330.458,747,330.458 R,0,82317,85317,1.371337,0.1999222 F,0,85117,85317,1,0
Sprite,Background,Centre,"sb\sprites\Hou\yotsugiP.png",0,0 S,0,76117,,0.35 C,0,76117,,123,153,61 F,0,76117,76317,0,1 M,0,76117,79117,-107,377.1169,747,377.1169 R,0,76117,79117,4.85837,0.5650045 P,0,76117,85517,A F,0,78917,79117,1,0 F,0,79317,79517,0,1 M,0,79317,82317,-107,180.5611,747,180.5611 R,0,79317,82317,0.4976495,5.223713 F,0,82117,82317,1,0 F,0,82517,82717,0,1 M,0,82517,85517,-107,267.476,747,267.476 R,0,82517,85517,5.079926,1.530468 F,0,85317,85517,1,0
Sprite,Background,Centre,"sb\sprites\Hou\yotsugiP.png",0,0 S,0,76317,,0.35 C,0,76317,,123,153,61 F,0,76317,76517,0,1 M,0,76317,79317,-107,15.84638,747,15.84638 R,0,76317,79317,4.033602,1.611594 P,0,76317,85717,A F,0,79117,79317,1,0 F,0,79517,79717,0,1 M,0,79517,82517,-107,113.3168,747,113.3168 R,0,79517,82517,5.194128,3.68578 F,0,82317,82517,1,0 F,0,82717,82917,0,1 M,0,82717,85717,-107,394.8353,747,394.8353 R,0,82717,85717,2.187614,4.791569 F,0,85517,85717,1,0
Sprite,Background,Centre,"sb\sprites\Hou\yotsugiP.png",0,0 S,0,76517,,0.35 C,0,76517,,123,153,61 F,0,76517,76717,0,1 M,0,76517,79517,-107,54.67051,747,54.67051 R,0,76517,79517,2.034656,5.129455 P,0,76517,85917,A F,0,79317,79517,1,0 F,0,79717,79917,0,1 M,0,79717,82717,-107,334.7065,747,334.7065 R,0,79717,82717,0.7873171,0.2393832 F,0,82517,82717,1,0 F,0,82917,83117,0,1 M,0,82917,85917,-107,443.5434,747,443.5434 R,0,82917,85917,1.538316,3.160328 F,0,85717,85917,1,0
Sprite,Background,Centre,"sb\sprites\Hou\yotsugiP.png",0,0 S,0,76717,,0.35 C,0,76717,,123,153,61 F,0,76717,76917,0,1 M,0,76717,79717,-107,82.62759,747,82.62759 R,0,76717,79717,4.128569,1.044063 P,0,76717,86117,A F,0,79517,79717,1,0 F,0,79917,80117,0,1 M,0,79917,82917,-107,56.13014,747,56.13014 R,0,79917,82917,0.3182652,2.705662 F,0,82717,82917,1,0 F,0,83117,83317,0,1 M,0,83117,86117,-107,116.5588,747,116.5588 R,0,83117,86117,4.701899,4.487949 F,0,85917,86117,1,0
Sprite,Background,Centre,"sb\sprites\Hou\yotsugiP.png",0,0 S,0,76917,,0.35 C,0,76917,,123,153,61 F,0,76917,77117,0,1 M,0,76917,79917,-107,382.3059,747,382.3059 R,0,76917,79917,1.799132,0.5502589 P,0,76917,86317,A F,0,79717,79917,1,0 F,0,80117,80317,0,1 M,0,80117,83117,-107,384.5708,747,384.5708 R,0,80117,83117,4.805774,0.6542682 F,0,82917,83117,1,0 F,0,83317,83517,0,1 M,0,83317,86317,-107,298.4077,747,298.4077 R,0,83317,86317,4.418988,0.09126232 F,0,86117,86317,1,0
Sprite,Background,Centre,"sb\sprites\Hou\yotsugiP.png",0,0 S,0,77117,,0.35 C,0,77117,,123,153,61 F,0,77117,77317,0,1 M,0,77117,80117,-107,470.2518,747,470.2518 R,0,77117,80117,4.394415,2.844596 P,0,77117,86517,A F,0,79917,80117,1,0 F,0,80317,80517,0,1 M,0,80317,83317,-107,255.438,747,255.438 R,0,80317,83317,3.605149,1.848792 F,0,83117,83317,1,0 F,0,83517,83717,0,1 M,0,83517,86517,-107,69.30618,747,69.30618 R,0,83517,86517,1.579355,5.154816 F,0,86317,86517,1,0
Sprite,Background,Centre,"sb\sprites\Hou\yotsugiP.png",0,0 S,0,77317,,0.35 C,0,77317,,123,153,61 F,0,77317,77517,0,1 M,0,77317,80317,-107,95.02333,747,95.02333 R,0,77317,80317,0.2003656,2.804072 P,0,77317,83517,A F,0,80117,80317,1,0 F,0,80517,80717,0,1 M,0,80517,83517,-107,229.5066,747,229.5066 R,0,80517,83517,0.5285217,5.146759 F,0,83317,83517,1,0
Sprite,Background,Centre,"sb\sprites\Hou\snowflakeP.png",0,0 F,0,137044,,0.6 F,0,137044,137244,0,0.6 M,0,137044,141544,163.2743,0,163.2743,480 S,0,137044,141544,0.2610909,0.1350587 P,0,137044,146194,A F,0,141344,141544,0.6,0 F,0,141694,141894,0,0.6 M,0,141694,146194,508.4484,0,508.4484,480 S,0,141694,146194,0.2406681,0.2505847 F,0,145994,146194,0.6,0
Sprite,Background,Centre,"sb\sprites\Hou\snowflakeP.png",0,0 F,0,137194,,0.6 F,0,137194,137394,0,0.6 M,0,137194,141694,321.6802,0,321.6802,480 S,0,137194,141694,0.1236974,0.1258679 P,0,137194,146344,A F,0,141494,141694,0.6,0 F,0,141844,142044,0,0.6 M,0,141844,146344,166.8478,0,166.8478,480 S,0,141844,146344,0.1798277,0.106196 F,0,146144,146344,0.6,0
Sprite,Background,Centre,"sb\sprites\Hou\snowflakeP.png",0,0 F,0,137344,,0.6 F,0,137344,137544,0,0.6 M,0,137344,141844,162.7846,0,162.7846,480 S,0,137344,141844,0.1965004,0.1966716 P,0,137344,146494,A F,0,141644,141844,0.6,0 F,0,141994,142194,0,0.6 M,0,141994,146494,543.1165,0,543.1165,480 S,0,141994,146494,0.2288863,0.2007482 F,0,146294,146494,0.6,0
Sprite,Background,Centre,"sb\sprites\Hou\snowflakeP.png",0,0 F,0,137494,,0.6 F,0,137494,137694,0,0.6 M,0,137494,141994,66.10431,0,66.10431,480 S,0,137494,141994,0.1140891,0.2272497 P,0,137494,146644,A F,0,141794,141994,0.6,0 F,0,142144,142344,0,0.6 M,0,142144,146644,-102.2595,0,-102.2595,480 S,0,142144,146644,0.147237,0.203185 F,0,146444,146644,0.6,0
Sprite,Background,Centre,"sb\sprites\Hou\snowflakeP.png",0,0 F,0,137644,,0.6 F,0,137644,137844,0,0.6 M,0,137644,142144,354.1374,0,354.1374,480 S,0,137644,142144,0.2364006,0.2231285 P,0,137644,146794,A F,0,141944,142144,0.6,0 F,0,142294,142494,0,0.6 M,0,142294,146794,361.6388,0,361.6388,480 S,0,142294,146794,0.2411907,0.1345371 F,0,146594,146794,0.6,0
Sprite,Background,Centre,"sb\sprites\Hou\snowflakeP.png",0,0 F,0,137794,,0.6 F,0,137794,137994,0,0.6 M,0,137794,142294,-1.478054,0,-1.478054,480 S,0,137794,142294,0.2128959,0.2944863 P,0,137794,146944,A F,0,142094,142294,0.6,0 F,0,142444,142644,0,0.6 M,0,142444,146944,685.4115,0,685.4115,480 S,0,142444,146944,0.1244651,0.1618965 F,0,146744,146944,0.6,0
Sprite,Background,Centre,"sb\sprites\Hou\snowflakeP.png",0,0 F,0,137944,,0.6 F,0,137944,138144,0,0.6 M,0,137944,142444,-21.00713,0,-21.00713,480 S,0,137944,142444,0.2979535,0.1389068 P,0,137944,147094,A F,0,142244,142444,0.6,0 F,0,142594,142794,0,0.6 M,0,142594,147094,14.64532,0,14.64532,480 S,0,142594,147094,0.187198,0.1058732 F,0,146894,147094,0.6,0
Sprite,Background,Centre,"sb\sprites\Hou\snowflakeP.png",0,0 F,0,138094,,0.6 F,0,138094,138294,0,0.6 M,0,138094,142594,335.8564,0,335.8564,480 S,0,138094,142594,0.2212486,0.2972909 P,0,138094,147244,A F,0,142394,142594,0.6,0 F,0,142744,142944,0,0.6 M,0,142744,147244,-40.54291,0,-40.54291,480 S,0,142744,147244,0.2038893,0.2422823 F,0,147044,147244,0.6,0
Sprite,Background,Centre,"sb\sprites\Hou\snowflakeP.png",0,0 F,0,138244,,0.6 F,0,138244,138444,0,0.6 M,0,138244,142744,130.3406,0,130.3406,480 S,0,138244,142744,0.1069105,0.1309004 P,0,138244,147394,A F,0,142544,142744,0.6,0 F,0,142894,143094,0,0.6 M,0,142894,147394,346.6026,0,346.6026,480 S,0,142894,147394,0.2994029,0.2416147 F,0,147194,147394,0.6,0
Sprite,Background,Centre,"sb\sprites\Hou\snowflakeP.png",0,0 F,0,138394,,0.6 F,0,138394,138594,0,0.6 M,0,138394,142894,271.4573,0,271.4573,480 S,0,138394,142894,0.2157383,0.270472 P,0,138394,147544,A F,0,142694,142894,0.6,0 F,0,143044,143244,0,0.6 M,0,143044,147544,293.907,0,293.907,480 S,0,143044,147544,0.2066657,0.2203604 F,0,147344,147544,0.6,0
Sprite,Background,Centre,"sb\sprites\Hou\snowflakeP.png",0,0 F,0,138544,,0.6 F,0,138544,138744,0,0.6 M,0,138544,143044,477.3109,0,477.3109,480 S,0,138544,143044,0.2196201,0.1394898 P,0,138544,147694,A F,0,142844,143044,0.6,0 F,0,143194,143394,0,0.6 M,0,143194,147694,322.5872,0,322.5872,480 S,0,143194,147694,0.2349683,0.1890981 F,0,147494,147694,0.6,0
Sprite,Background,Centre,"sb\sprites\Hou\snowflakeP.png",0,0 F,0,138694,,0.6 F,0,138694,138894,0,0.6 M,0,138694,143194,-93.9527,0,-93.9527,480 S,0,138694,143194,0.2976887,0.2140013 P,0,138694,147844,A F,0,142994,143194,0.6,0 F,0,143344,143544,0,0.6 M,0,143344,147844,745.9831,0,745.9831,480 S,0,143344,147844,0.1894332,0.2438351 F,0,147644,147844,0.6,0
Sprite,Background,Centre,"sb\sprites\Hou\snowflakeP.png",0,0 F,0,138844,,0.6 F,0,138844,139044,0,0.6 M,0,138844,143344,263.1707,0,263.1707,480 S,0,138844,143344,0.2789721,0.26092 P,0,138844,143344,A F,0,143144,143344,0.6,0
Sprite,Background,Centre,"sb\sprites\Hou\snowflakeP.png",0,0 F,0,138994,,0.6 F,0,138994,139194,0,0.6 M,0,138994,143494,472.1641,0,472.1641,480 S,0,138994,143494,0.2251344,0.144895 P,0,138994,143494,A F,0,143294,143494,0.6,0
Sprite,Background,Centre,"sb\sprites\Hou\snowflakeP.png",0,0 F,0,139144,,0.6 F,0,139144,139344,0,0.6 M,0,139144,143644,-81.26349,0,-81.26349,480 S,0,139144,143644,0.2098947,0.1467211 P,0,139144,143644,A F,0,143444,143644,0.6,0
Sprite,Background,Centre,"sb\sprites\Hou\snowflakeP.png",0,0 F,0,139294,,0.6 F,0,139294,139494,0,0.6 M,0,139294,143794,-35.92054,0,-35.92054,480 S,0,139294,143794,0.1056873,0.2398221 P,0,139294,143794,A F,0,143594,143794,0.6,0
Sprite,Background,Centre,"sb\sprites\Hou\snowflakeP.png",0,0 F,0,139444,,0.6 F,0,139444,139644,0,0.6 M,0,139444,143944,133.6753,0,133.6753,480 S,0,139444,143944,0.1412064,0.1436753 P,0,139444,143944,A F,0,143744,143944,0.6,0
Sprite,Background,Centre,"sb\sprites\Hou\snowflakeP.png",0,0 F,0,139594,,0.6 F,0,139594,139794,0,0.6 M,0,139594,144094,639.2124,0,639.2124,480 S,0,139594,144094,0.2190403,0.1583956 P,0,139594,144094,A F,0,143894,144094,0.6,0
Sprite,Background,Centre,"sb\sprites\Hou\snowflakeP.png",0,0 F,0,139744,,0.6 F,0,139744,139944,0,0.6 M,0,139744,144244,-28.10382,0,-28.10382,480 S,0,139744,144244,0.2595827,0.1398423 P,0,139744,144244,A F,0,144044,144244,0.6,0
Sprite,Background,Centre,"sb\sprites\Hou\snowflakeP.png",0,0 F,0,139894,,0.6 F,0,139894,140094,0,0.6 M,0,139894,144394,54.26831,0,54.26831,480 S,0,139894,144394,0.1448102,0.1167869 P,0,139894,144394,A F,0,144194,144394,0.6,0
Sprite,Background,Centre,"sb\sprites\Hou\snowflakeP.png",0,0 F,0,140044,,0.6 F,0,140044,140244,0,0.6 M,0,140044,144544,725.5113,0,725.5113,480 S,0,140044,144544,0.2745497,0.280762 P,0,140044,144544,A F,0,144344,144544,0.6,0
Sprite,Background,Centre,"sb\sprites\Hou\snowflakeP.png",0,0 F,0,140194,,0.6 F,0,140194,140394,0,0.6 M,0,140194,144694,431.8723,0,431.8723,480 S,0,140194,144694,0.2036987,0.194469 P,0,140194,144694,A F,0,144494,144694,0.6,0
Sprite,Background,Centre,"sb\sprites\Hou\snowflakeP.png",0,0 F,0,140344,,0.6 F,0,140344,140544,0,0.6 M,0,140344,144844,267.7349,0,267.7349,480 S,0,140344,144844,0.2049391,0.2387119 P,0,140344,144844,A F,0,144644,144844,0.6,0
Sprite,Background,Centre,"sb\sprites\Hou\snowflakeP.png",0,0 F,0,140494,,0.6 F,0,140494,140694,0,0.6 M,0,140494,144994,-68.02659,0,-68.02659,480 S,0,140494,144994,0.2380214,0.2339238 P,0,140494,144994,A F,0,144794,144994,0.6,0
Sprite,Background,Centre,"sb\sprites\Hou\snowflakeP.png",0,0 F,0,140644,,0.6 F,0,140644,140844,0,0.6 M,0,140644,145144,36.32802,0,36.32802,480 S,0,140644,145144,0.1845032,0.1728191 P,0,140644,145144,A F,0,144944,145144,0.6,0
Sprite,Background,Centre,"sb\sprites\Hou\snowflakeP.png",0,0 F,0,140794,,0.6 F,0,140794,140994,0,0.6 M,0,140794,145294,721.4302,0,721.4302,480 S,0,140794,145294,0.1976862,0.1113539 P,0,140794,145294,A F,0,145094,145294,0.6,0
Sprite,Background,Centre,"sb\sprites\Hou\snowflakeP.png",0,0 F,0,140944,,0.6 F,0,140944,141144,0,0.6 M,0,140944,145444,535.933,0,535.933,480 S,0,140944,145444,0.138937,0.1012232 P,0,140944,145444,A F,0,145244,145444,0.6,0
Sprite,Background,Centre,"sb\sprites\Hou\snowflakeP.png",0,0 F,0,141094,,0.6 F,0,141094,141294,0,0.6 M,0,141094,145594,281.9042,0,281.9042,480 S,0,141094,145594,0.1322674,0.1745319 P,0,141094,145594,A F,0,145394,145594,0.6,0
Sprite,Background,Centre,"sb\sprites\Hou\snowflakeP.png",0,0 F,0,141244,,0.6 F,0,141244,141444,0,0.6 M,0,141244,145744,434.4219,0,434.4219,480 S,0,141244,145744,0.2620839,0.1005798 P,0,141244,145744,A F,0,145544,145744,0.6,0
Sprite,Background,Centre,"sb\sprites\Hou\snowflakeP.png",0,0 F,0,141394,,0.6 F,0,141394,141594,0,0.6 M,0,141394,145894,666.2724,0,666.2724,480 S,0,141394,145894,0.2845787,0.138106 P,0,141394,145894,A F,0,145694,145894,0.6,0
Sprite,Background,Centre,"sb\sprites\Hou\snowflakeP.png",0,0 F,0,141544,,0.6 F,0,141544,141744,0,0.6 M,0,141544,146044,209.6589,0,209.6589,480 S,0,141544,146044,0.1489233,0.2341619 P,0,141544,146044,A F,0,145844,146044,0.6,0
Sprite,Background,Centre,"sb\sprites\Hou\snowflakeP.png",0,0 F,0,147953,,0.6 F,0,147953,148153,0,0.6 M,0,147953,151953,-107,385.8926,747,385.8926 S,0,147953,151953,0.2050615,0.2338686 P,0,147953,159953,A F,0,151753,151953,0.6,0 F,0,151953,152153,0,0.6 M,0,151953,155953,-107,400.8979,747,400.8979 S,0,151953,155953,0.2162239,0.236126 F,0,155753,155953,0.6,0 F,0,155953,156153,0,0.6 M,0,155953,159953,-107,340.6696,747,340.6696 S,0,155953,159953,0.1946223,0.1300772 F,0,159753,159953,0.6,0
Sprite,Background,Centre,"sb\sprites\Hou\snowflakeP.png",0,0 F,0,148086,,0.6 F,0,148086,148286,0,0.6 M,0,148086,152086,-107,23.44078,747,23.44078 S,0,148086,152086,0.2780549,0.1640018 P,0,148086,160086,A F,0,151886,152086,0.6,0 F,0,152086,152286,0,0.6 M,0,152086,156086,-107,413.0337,747,413.0337 S,0,152086,156086,0.1984918,0.280916 F,0,155886,156086,0.6,0 F,0,156086,156286,0,0.6 M,0,156086,160086,-107,97.97942,747,97.97942 S,0,156086,160086,0.1902756,0.1217929 F,0,159886,160086,0.6,0
Sprite,Background,Centre,"sb\sprites\Hou\snowflakeP.png",0,0 F,0,148219,,0.6 F,0,148219,148419,0,0.6 M,0,148219,152219,-107,33.35496,747,33.35496 S,0,148219,152219,0.2673166,0.1049561 P,0,148219,160219,A F,0,152019,152219,0.6,0 F,0,152219,152419,0,0.6 M,0,152219,156219,-107,102.1229,747,102.1229 S,0,152219,156219,0.2191068,0.2953945 F,0,156019,156219,0.6,0 F,0,156219,156419,0,0.6 M,0,156219,160219,-107,149.3335,747,149.3335 S,0,156219,160219,0.1053861,0.2246006 F,0,160019,160219,0.6,0
Sprite,Background,Centre,"sb\sprites\Hou\snowflakeP.png",0,0 F,0,148353,,0.6 F,0,148353,148553,0,0.6 M,0,148353,152353,-107,293.2737,747,293.2737 S,0,148353,152353,0.2936541,0.2980523 P,0,148353,156353,A F,0,152153,152353,0.6,0 F,0,152353,152553,0,0.6 M,0,152353,156353,-107,98.73251,747,98.73251 S,0,152353,156353,0.2151438,0.1978362 F,0,156153,156353,0.6,0
Sprite,Background,Centre,"sb\sprites\Hou\snowflakeP.png",0,0 F,0,148486,,0.6 F,0,148486,148686,0,0.6 M,0,148486,152486,-107,138.2315,747,138.2315 S,0,148486,152486,0.1253988,0.2012299 P,0,148486,156486,A F,0,152286,152486,0.6,0 F,0,152486,152686,0,0.6 M,0,152486,156486,-107,62.97635,747,62.97635 S,0,152486,156486,0.2513068,0.1129398 F,0,156286,156486,0.6,0
Sprite,Background,Centre,"sb\sprites\Hou\snowflakeP.png",0,0 F,0,148619,,0.6 F,0,148619,148819,0,0.6 M,0,148619,152619,-107,264.5268,747,264.5268 S,0,148619,152619,0.2655275,0.1889653 P,0,148619,156619,A F,0,152419,152619,0.6,0 F,0,152619,152819,0,0.6 M,0,152619,156619,-107,412.7159,747,412.7159 S,0,152619,156619,0.2289038,0.2303161 F,0,156419,156619,0.6,0
Sprite,Background,Centre,"sb\sprites\Hou\snowflakeP.png",0,0 F,0,148753,,0.6 F,0,148753,148953,0,0.6 M,0,148753,152753,-107,205.1921,747,205.1921 S,0,148753,152753,0.2209657,0.1054597 P,0,148753,156753,A F,0,152553,152753,0.6,0 F,0,152753,152953,0,0.6 M,0,152753,156753,-107,144.265,747,144.265 S,0,152753,156753,0.204411,0.1734011 F,0,156553,156753,0.6,0
Sprite,Background,Centre,"sb\sprites\Hou\snowflakeP.png",0,0 F,0,148886,,0.6 F,0,148886,149086,0,0.6 M,0,148886,152886,-107,407.3436,747,407.3436 S,0,148886,152886,0.1090284,0.1531272 P,0,148886,156886,A F,0,152686,152886,0.6,0 F,0,152886,153086,0,0.6 M,0,152886,156886,-107,71.31096,747,71.31096 S,0,152886,156886,0.1611393,0.1170255 F,0,156686,156886,0.6,0
Sprite,Background,Centre,"sb\sprites\Hou\snowflakeP.png",0,0 F,0,149019,,0.6 F,0,149019,149219,0,0.6 M,0,149019,153019,-107,312.514,747,312.514 S,0,149019,153019,0.1897081,0.2428373 P,0,149019,157019,A F,0,152819,153019,0.6,0 F,0,153019,153219,0,0.6 M,0,153019,157019,-107,349.8019,747,349.8019 S,0,153019,157019,0.271968,0.1485509 F,0,156819,157019,0.6,0
Sprite,Background,Centre,"sb\sprites\Hou\snowflakeP.png",0,0 F,0,149153,,0.6 F,0,149153,149353,0,0.6 M,0,149153,153153,-107,185.7717,747,185.7717 S,0,149153,153153,0.2822072,0.1719974 P,0,149153,157153,A F,0,152953,153153,0.6,0 F,0,153153,153353,0,0.6 M,0,153153,157153,-107,309.831,747,309.831 S,0,153153,157153,0.282775,0.2298548 F,0,156953,157153,0.6,0
Sprite,Background,Centre,"sb\sprites\Hou\snowflakeP.png",0,0 F,0,149286,,0.6 F,0,149286,149486,0,0.6 M,0,149286,153286,-107,419.721,747,419.721 S,0,149286,153286,0.1012675,0.1455092 P,0,149286,157286,A F,0,153086,153286,0.6,0 F,0,153286,153486,0,0.6 M,0,153286,157286,-107,449.4615,747,449.4615 S,0,153286,157286,0.270701,0.2231656 F,0,157086,157286,0.6,0
Sprite,Background,Centre,"sb\sprites\Hou\snowflakeP.png",0,0 F,0,149419,,0.6 F,0,149419,149619,0,0.6 M,0,149419,153419,-107,19.9691,747,19.9691 S,0,149419,153419,0.1579982,0.1630739 P,0,149419,157419,A F,0,153219,153419,0.6,0 F,0,153419,153619,0,0.6 M,0,153419,157419,-107,241.1148,747,241.1148 S,0,153419,157419,0.1711151,0.2970303 F,0,157219,157419,0.6,0
Sprite,Background,Centre,"sb\sprites\Hou\snowflakeP.png",0,0 F,0,149553,,0.6 F,0,149553,149753,0,0.6 M,0,149553,153553,-107,472.7166,747,472.7166 S,0,149553,153553,0.1156788,0.1604441 P,0,149553,157553,A F,0,153353,153553,0.6,0 F,0,153553,153753,0,0.6 M,0,153553,157553,-107,32.93459,747,32.93459 S,0,153553,157553,0.1564238,0.2673486 F,0,157353,157553,0.6,0
Sprite,Background,Centre,"sb\sprites\Hou\snowflakeP.png",0,0 F,0,149686,,0.6 F,0,149686,149886,0,0.6 M,0,149686,153686,-107,47.17525,747,47.17525 S,0,149686,153686,0.217409,0.1276606 P,0,149686,157686,A F,0,153486,153686,0.6,0 F,0,153686,153886,0,0.6 M,0,153686,157686,-107,54.33763,747,54.33763 S,0,153686,157686,0.2352478,0.2985542 F,0,157486,157686,0.6,0
Sprite,Background,Centre,"sb\sprites\Hou\snowflakeP.png",0,0 F,0,149819,,0.6 F,0,149819,150019,0,0.6 M,0,149819,153819,-107,124.9572,747,124.9572 S,0,149819,153819,0.2427081,0.1335252 P,0,149819,157819,A F,0,153619,153819,0.6,0 F,0,153819,154019,0,0.6 M,0,153819,157819,-107,170.2218,747,170.2218 S,0,153819,157819,0.2784635,0.2473835 F,0,157619,157819,0.6,0
Sprite,Background,Centre,"sb\sprites\Hou\snowflakeP.png",0,0 F,0,149953,,0.6 F,0,149953,150153,0,0.6 M,0,149953,153953,-107,162.4485,747,162.4485 S,0,149953,153953,0.2471122,0.2936407 P,0,149953,157953,A F,0,153753,153953,0.6,0 F,0,153953,154153,0,0.6 M,0,153953,157953,-107,107.4234,747,107.4234 S,0,153953,157953,0.2229564,0.2366353 F,0,157753,157953,0.6,0
Sprite,Background,Centre,"sb\sprites\Hou\snowflakeP.png",0,0 F,0,150086,,0.6 F,0,150086,150286,0,0.6 M,0,150086,154086,-107,454.7106,747,454.7106 S,0,150086,154086,0.226194,0.2218137 P,0,150086,158086,A F,0,153886,154086,0.6,0 F,0,154086,154286,0,0.6 M,0,154086,158086,-107,103.3762,747,103.3762 S,0,154086,158086,0.2782188,0.188555 F,0,157886,158086,0.6,0
Sprite,Background,Centre,"sb\sprites\Hou\snowflakeP.png",0,0 F,0,150219,,0.6 F,0,150219,150419,0,0.6 M,0,150219,154219,-107,377.8199,747,377.8199 S,0,150219,154219,0.2961565,0.1636671 P,0,150219,158219,A F,0,154019,154219,0.6,0 F,0,154219,154419,0,0.6 M,0,154219,158219,-107,179.5077,747,179.5077 S,0,154219,158219,0.2217316,0.1216993 F,0,158019,158219,0.6,0
Sprite,Background,Centre,"sb\sprites\Hou\snowflakeP.png",0,0 F,0,150353,,0.6 F,0,150353,150553,0,0.6 M,0,150353,154353,-107,197.3042,747,197.3042 S,0,150353,154353,0.2910621,0.1960331 P,0,150353,158353,A F,0,154153,154353,0.6,0 F,0,154353,154553,0,0.6 M,0,154353,158353,-107,464.4839,747,464.4839 S,0,154353,158353,0.2373279,0.1550846 F,0,158153,158353,0.6,0
Sprite,Background,Centre,"sb\sprites\Hou\snowflakeP.png",0,0 F,0,150486,,0.6 F,0,150486,150686,0,0.6 M,0,150486,154486,-107,193.7792,747,193.7792 S,0,150486,154486,0.1795528,0.1883467 P,0,150486,158486,A F,0,154286,154486,0.6,0 F,0,154486,154686,0,0.6 M,0,154486,158486,-107,285.8411,747,285.8411 S,0,154486,158486,0.1263466,0.2265238 F,0,158286,158486,0.6,0
Sprite,Background,Centre,"sb\sprites\Hou\snowflakeP.png",0,0 F,0,150619,,0.6 F,0,150619,150819,0,0.6 M,0,150619,154619,-107,290.7949,747,290.7949 S,0,150619,154619,0.236493,0.2851094 P,0,150619,158619,A F,0,154419,154619,0.6,0 F,0,154619,154819,0,0.6 M,0,154619,158619,-107,317.6762,747,317.6762 S,0,154619,158619,0.213455,0.2363319 F,0,158419,158619,0.6,0
Sprite,Background,Centre,"sb\sprites\Hou\snowflakeP.png",0,0 F,0,150753,,0.6 F,0,150753,150953,0,0.6 M,0,150753,154753,-107,319.1008,747,319.1008 S,0,150753,154753,0.2473136,0.2923866 P,0,150753,158753,A F,0,154553,154753,0.6,0 F,0,154753,154953,0,0.6 M,0,154753,158753,-107,157.2952,747,157.2952 S,0,154753,158753,0.1538629,0.2444428 F,0,158553,158753,0.6,0
Sprite,Background,Centre,"sb\sprites\Hou\snowflakeP.png",0,0 F,0,150886,,0.6 F,0,150886,151086,0,0.6 M,0,150886,154886,-107,366.1035,747,366.1035 S,0,150886,154886,0.149276,0.2674006 P,0,150886,158886,A F,0,154686,154886,0.6,0 F,0,154886,155086,0,0.6 M,0,154886,158886,-107,419.2094,747,419.2094 S,0,154886,158886,0.2257756,0.1801917 F,0,158686,158886,0.6,0
Sprite,Background,Centre,"sb\sprites\Hou\snowflakeP.png",0,0 F,0,151019,,0.6 F,0,151019,151219,0,0.6 M,0,151019,155019,-107,91.57419,747,91.57419 S,0,151019,155019,0.2132542,0.2498487 P,0,151019,159019,A F,0,154819,155019,0.6,0 F,0,155019,155219,0,0.6 M,0,155019,159019,-107,38.18266,747,38.18266 S,0,155019,159019,0.2582422,0.17248 F,0,158819,159019,0.6,0
Sprite,Background,Centre,"sb\sprites\Hou\snowflakeP.png",0,0 F,0,151153,,0.6 F,0,151153,151353,0,0.6 M,0,151153,155153,-107,68.45072,747,68.45072 S,0,151153,155153,0.1658404,0.1035567 P,0,151153,159153,A F,0,154953,155153,0.6,0 F,0,155153,155353,0,0.6 M,0,155153,159153,-107,391.1222,747,391.1222 S,0,155153,159153,0.1374698,0.2691632 F,0,158953,159153,0.6,0
Sprite,Background,Centre,"sb\sprites\Hou\snowflakeP.png",0,0 F,0,151286,,0.6 F,0,151286,151486,0,0.6 M,0,151286,155286,-107,426.7177,747,426.7177 S,0,151286,155286,0.217661,0.1663202 P,0,151286,159286,A F,0,155086,155286,0.6,0 F,0,155286,155486,0,0.6 M,0,155286,159286,-107,179.6326,747,179.6326 S,0,155286,159286,0.2587872,0.1826758 F,0,159086,159286,0.6,0
Sprite,Background,Centre,"sb\sprites\Hou\snowflakeP.png",0,0 F,0,151419,,0.6 F,0,151419,151619,0,0.6 M,0,151419,155419,-107,47.04493,747,47.04493 S,0,151419,155419,0.1625273,0.2425959 P,0,151419,159419,A F,0,155219,155419,0.6,0 F,0,155419,155619,0,0.6 M,0,155419,159419,-107,167.1408,747,167.1408 S,0,155419,159419,0.2009911,0.1490116 F,0,159219,159419,0.6,0
Sprite,Background,Centre,"sb\sprites\Hou\snowflakeP.png",0,0 F,0,151553,,0.6 F,0,151553,151753,0,0.6 M,0,151553,155553,-107,358.0717,747,358.0717 S,0,151553,155553,0.1879421,0.1560132 P,0,151553,159553,A F,0,155353,155553,0.6,0 F,0,155553,155753,0,0.6 M,0,155553,159553,-107,268.5975,747,268.5975 S,0,155553,159553,0.1860228,0.1045562 F,0,159353,159553,0.6,0
Sprite,Background,Centre,"sb\sprites\Hou\snowflakeP.png",0,0 F,0,151686,,0.6 F,0,151686,151886,0,0.6 M,0,151686,155686,-107,360.4409,747,360.4409 S,0,151686,155686,0.1174588,0.105111 P,0,151686,159686,A F,0,155486,155686,0.6,0 F,0,155686,155886,0,0.6 M,0,155686,159686,-107,99.11961,747,99.11961 S,0,155686,159686,0.2124807,0.1489694 F,0,159486,159686,0.6,0
Sprite,Background,Centre,"sb\sprites\Hou\snowflakeP.png",0,0 F,0,151819,,0.6 F,0,151819,152019,0,0.6 M,0,151819,155819,-107,436.421,747,436.421 S,0,151819,155819,0.2261104,0.1669361 P,0,151819,159819,A F,0,155619,155819,0.6,0 F,0,155819,156019,0,0.6 M,0,155819,159819,-107,243.5192,747,243.5192 S,0,155819,159819,0.2069295,0.2337872 F,0,159619,159819,0.6,0
Sprite,Background,Centre,"sb\sprites\Hou\yotsugiP.png",0,0 S,0,147953,,0.35 C,0,147953,,61,108,151 F,0,147953,148153,0,1 M,0,147953,150953,-107,55.63174,747,55.63174 R,0,147953,150953,1.651611,0.4567947 P,0,147953,157353,A F,0,150753,150953,1,0 F,0,151153,151353,0,1 M,0,151153,154153,-107,2.907968,747,2.907968 R,0,151153,154153,4.709031,0.6111382 F,0,153953,154153,1,0 F,0,154353,154553,0,1 M,0,154353,157353,-107,373.4601,747,373.4601 R,0,154353,157353,1.796193,3.521301 F,0,157153,157353,1,0
Sprite,Background,Centre,"sb\sprites\Hou\yotsugiP.png",0,0 S,0,148153,,0.35 C,0,148153,,61,108,151 F,0,148153,148353,0,1 M,0,148153,151153,-107,219.4104,747,219.4104 R,0,148153,151153,0.3194977,0.543058 P,0,148153,157553,A F,0,150953,151153,1,0 F,0,151353,151553,0,1 M,0,151353,154353,-107,134.0095,747,134.0095 R,0,151353,154353,0.6388634,0.6932014 F,0,154153,154353,1,0 F,0,154553,154753,0,1 M,0,154553,157553,-107,259.9138,747,259.9138 R,0,154553,157553,1.423696,0.6722783 F,0,157353,157553,1,0
Sprite,Background,Centre,"sb\sprites\Hou\yotsugiP.png",0,0 S,0,148353,,0.35 C,0,148353,,61,108,151 F,0,148353,148553,0,1 M,0,148353,151353,-107,366.787,747,366.787 R,0,148353,151353,1.706154,3.283862 P,0,148353,157753,A F,0,151153,151353,1,0 F,0,151553,151753,0,1 M,0,151553,154553,-107,290.3075,747,290.3075 R,0,151553,154553,1.566825,1.537243 F,0,154353,154553,1,0 F,0,154753,154953,0,1 M,0,154753,157753,-107,380.98,747,380.98 R,0,154753,157753,0.06229178,2.847655 F,0,157553,157753,1,0
Sprite,Background,Centre,"sb\sprites\Hou\yotsugiP.png",0,0 S,0,148553,,0.35 C,0,148553,,61,108,151 F,0,148553,148753,0,1 M,0,148553,151553,-107,385.2089,747,385.2089 R,0,148553,151553,0.8713133,3.936059 P,0,148553,157953,A F,0,151353,151553,1,0 F,0,151753,151953,0,1 M,0,151753,154753,-107,243.7346,747,243.7346 R,0,151753,154753,2.922728,4.307868 F,0,154553,154753,1,0 F,0,154953,155153,0,1 M,0,154953,157953,-107,449.7986,747,449.7986 R,0,154953,157953,2.873952,1.902439 F,0,157753,157953,1,0
Sprite,Background,Centre,"sb\sprites\Hou\yotsugiP.png",0,0 S,0,148753,,0.35 C,0,148753,,61,108,151 F,0,148753,148953,0,1 M,0,148753,151753,-107,45.83474,747,45.83474 R,0,148753,151753,0.5194285,1.678308 P,0,148753,158153,A F,0,151553,151753,1,0 F,0,151953,152153,0,1 M,0,151953,154953,-107,280.1104,747,280.1104 R,0,151953,154953,4.180166,2.81391 F,0,154753,154953,1,0 F,0,155153,155353,0,1 M,0,155153,158153,-107,285.3989,747,285.3989 R,0,155153,158153,3.74132,1.466009 F,0,157953,158153,1,0
Sprite,Background,Centre,"sb\sprites\Hou\yotsugiP.png",0,0 S,0,148953,,0.35 C,0,148953,,61,108,151 F,0,148953,149153,0,1 M,0,148953,151953,-107,444.3123,747,444.3123 R,0,148953,151953,3.929907,4.265865 P,0,148953,158353,A F,0,151753,151953,1,0 F,0,152153,152353,0,1 M,0,152153,155153,-107,218.0907,747,218.0907 R,0,152153,155153,3.628961,1.964656 F,0,154953,155153,1,0 F,0,155353,155553,0,1 M,0,155353,158353,-107,305.9273,747,305.9273 R,0,155353,158353,4.424557,2.167921 F,0,158153,158353,1,0
Sprite,Background,Centre,"sb\sprites\Hou\yotsugiP.png",0,0 S,0,149153,,0.35 C,0,149153,,61,108,151 F,0,149153,149353,0,1 M,0,149153,152153,-107,446.9031,747,446.9031 R,0,149153,152153,4.465587,1.077183 P,0,149153,158553,A F,0,151953,152153,1,0 F,0,152353,152553,0,1 M,0,152353,155353,-107,231.7638,747,231.7638 R,0,152353,155353,5.089805,1.58364 F,0,155153,155353,1,0 F,0,155553,155753,0,1 M,0,155553,158553,-107,328.772,747,328.772 R,0,155553,158553,0.8355156,4.391026 F,0,158353,158553,1,0
Sprite,Background,Centre,"sb\sprites\Hou\yotsugiP.png",0,0 S,0,149353,,0.35 C,0,149353,,61,108,151 F,0,149353,149553,0,1 M,0,149353,152353,-107,391.9958,747,391.9958 R,0,149353,152353,0.1143679,3.03405 P,0,149353,158753,A F,0,152153,152353,1,0 F,0,152553,152753,0,1 M,0,152553,155553,-107,477.1975,747,477.1975 R,0,152553,155553,1.861376,0.9405844 F,0,155353,155553,1,0 F,0,155753,155953,0,1 M,0,155753,158753,-107,311.2039,747,311.2039 R,0,155753,158753,2.085277,4.517761 F,0,158553,158753,1,0
Sprite,Background,Centre,"sb\sprites\Hou\yotsugiP.png",0,0 S,0,149553,,0.35 C,0,149553,,61,108,151 F,0,149553,149753,0,1 M,0,149553,152553,-107,431.4743,747,431.4743 R,0,149553,152553,1.247617,2.723515 P,0,149553,158953,A F,0,152353,152553,1,0 F,0,152753,152953,0,1 M,0,152753,155753,-107,350.545,747,350.545 R,0,152753,155753,3.972412,2.81597 F,0,155553,155753,1,0 F,0,155953,156153,0,1 M,0,155953,158953,-107,338.9034,747,338.9034 R,0,155953,158953,1.813445,2.374418 F,0,158753,158953,1,0
Sprite,Background,Centre,"sb\sprites\Hou\yotsugiP.png",0,0 S,0,149753,,0.35 C,0,149753,,61,108,151 F,0,149753,149953,0,1 M,0,149753,152753,-107,463.5776,747,463.5776 R,0,149753,152753,4.128232,0.9048618 P,0,149753,159153,A F,0,152553,152753,1,0 F,0,152953,153153,0,1 M,0,152953,155953,-107,427.3285,747,427.3285 R,0,152953,155953,0.1008164,3.436082 F,0,155753,155953,1,0 F,0,156153,156353,0,1 M,0,156153,159153,-107,386.3731,747,386.3731 R,0,156153,159153,5.033782,1.534788 F,0,158953,159153,1,0
Sprite,Background,Centre,"sb\sprites\Hou\yotsugiP.png",0,0 S,0,149953,,0.35 C,0,149953,,61,108,151 F,0,149953,150153,0,1 M,0,149953,152953,-107,52.53025,747,52.53025 R,0,149953,152953,4.142645,1.407908 P,0,149953,159353,A F,0,152753,152953,1,0 F,0,153153,153353,0,1 M,0,153153,156153,-107,318.1211,747,318.1211 R,0,153153,156153,0.7548078,0.7215219 F,0,155953,156153,1,0 F,0,156353,156553,0,1 M,0,156353,159353,-107,80.12149,747,80.12149 R,0,156353,159353,2.45372,0.8894096 F,0,159153,159353,1,0
Sprite,Background,Centre,"sb\sprites\Hou\yotsugiP.png",0,0 S,0,150153,,0.35 C,0,150153,,61,108,151 F,0,150153,150353,0,1 M,0,150153,153153,-107,59.2358,747,59.2358 R,0,150153,153153,4.171776,1.708879 P,0,150153,159553,A F,0,152953,153153,1,0 F,0,153353,153553,0,1 M,0,153353,156353,-107,203.516,747,203.516 R,0,153353,156353,5.025126,4.65519 F,0,156153,156353,1,0 F,0,156553,156753,0,1 M,0,156553,159553,-107,10.13272,747,10.13272 R,0,156553,159553,0.5876126,3.540611 F,0,159353,159553,1,0
Sprite,Background,Centre,"sb\sprites\Hou\yotsugiP.png",0,0 S,0,150353,,0.35 C,0,150353,,61,108,151 F,0,150353,150553,0,1 M,0,150353,153353,-107,273.6739,747,273.6739 R,0,150353,153353,2.989323,0.4420129 P,0,150353,159753,A F,0,153153,153353,1,0 F,0,153553,153753,0,1 M,0,153553,156553,-107,26.9266,747,26.9266 R,0,153553,156553,4.347187,3.503782 F,0,156353,156553,1,0 F,0,156753,156953,0,1 M,0,156753,159753,-107,472.1877,747,472.1877 R,0,156753,159753,0.6349434,4.5671 F,0,159553,159753,1,0
Sprite,Background,Centre,"sb\sprites\Hou\yotsugiP.png",0,0 S,0,150553,,0.35 C,0,150553,,61,108,151 F,0,150553,150753,0,1 M,0,150553,153553,-107,82.73925,747,82.73925 R,0,150553,153553,1.649617,1.65174 P,0,150553,159953,A F,0,153353,153553,1,0 F,0,153753,153953,0,1 M,0,153753,156753,-107,65.51947,747,65.51947 R,0,153753,156753,2.715387,2.604951 F,0,156553,156753,1,0 F,0,156953,157153,0,1 M,0,156953,159953,-107,4.514318,747,4.514318 R,0,156953,159953,3.300155,4.962835 F,0,159753,159953,1,0
Sprite,Background,Centre,"sb\sprites\Hou\yotsugiP.png",0,0 S,0,150753,,0.35 C,0,150753,,61,108,151 F,0,150753,150953,0,1 M,0,150753,153753,-107,382.7536,747,382.7536 R,0,150753,153753,1.914274,4.799875 P,0,150753,160153,A F,0,153553,153753,1,0 F,0,153953,154153,0,1 M,0,153953,156953,-107,15.73438,747,15.73438 R,0,153953,156953,0.3265873,0.06659447 F,0,156753,156953,1,0 F,0,157153,157353,0,1 M,0,157153,160153,-107,165.7026,747,165.7026 R,0,157153,160153,0.6231697,1.473235 F,0,159953,160153,1,0
Sprite,Background,Centre,"sb\sprites\Hou\yotsugiP.png",0,0 S,0,150953,,0.35 C,0,150953,,61,108,151 F,0,150953,151153,0,1 M,0,150953,153953,-107,362.2787,747,362.2787 R,0,150953,153953,0.5260953,0.5034997 P,0,150953,157153,A F,0,153753,153953,1,0 F,0,154153,154353,0,1 M,0,154153,157153,-107,125.6045,747,125.6045 R,0,154153,157153,3.083002,2.705439 F,0,156953,157153,1,0
Sprite,Background,Centre,"sb\sprites\Hou\snowflakeP.png",0,0 F,0,210680,,0.6 F,0,210680,210880,0,0.6 M,0,210680,214680,-107,257.146,747,257.146 S,0,210680,214680,0.1161631,0.2890264 P,0,210680,226680,A F,0,214480,214680,0.6,0 F,0,214680,214880,0,0.6 M,0,214680,218680,-107,419.6293,747,419.6293 S,0,214680,218680,0.2233206,0.2648948 F,0,218480,218680,0.6,0 F,0,218680,218880,0,0.6 M,0,218680,222680,-107,41.32442,747,41.32442 S,0,218680,222680,0.1833086,0.2826761 F,0,222480,222680,0.6,0 F,0,222680,222880,0,0.6 M,0,222680,226680,-107,185.9941,747,185.9941 S,0,222680,226680,0.2971215,0.2438238 F,0,226480,226680,0.6,0
Sprite,Background,Centre,"sb\sprites\Hou\snowflakeP.png",0,0 F,0,210813,,0.6 F,0,210813,211013,0,0.6 M,0,210813,214813,-107,377.801,747,377.801 S,0,210813,214813,0.1293052,0.2295953 P,0,210813,226813,A F,0,214613,214813,0.6,0 F,0,214813,215013,0,0.6 M,0,214813,218813,-107,151.3202,747,151.3202 S,0,214813,218813,0.2990955,0.2823923 F,0,218613,218813,0.6,0 F,0,218813,219013,0,0.6 M,0,218813,222813,-107,311.6863,747,311.6863 S,0,218813,222813,0.2916919,0.1721274 F,0,222613,222813,0.6,0 F,0,222813,223013,0,0.6 M,0,222813,226813,-107,209.5024,747,209.5024 S,0,222813,226813,0.2868074,0.2347281 F,0,226613,226813,0.6,0
Sprite,Background,Centre,"sb\sprites\Hou\snowflakeP.png",0,0 F,0,210946,,0.6 F,0,210946,211146,0,0.6 M,0,210946,214946,-107,149.0729,747,149.0729 S,0,210946,214946,0.238883,0.2111411 P,0,210946,226946,A F,0,214746,214946,0.6,0 F,0,214946,215146,0,0.6 M,0,214946,218946,-107,339.559,747,339.559 S,0,214946,218946,0.2862551,0.295628 F,0,218746,218946,0.6,0 F,0,218946,219146,0,0.6 M,0,218946,222946,-107,326.3759,747,326.3759 S,0,218946,222946,0.2863794,0.2040079 F,0,222746,222946,0.6,0 F,0,222946,223146,0,0.6 M,0,222946,226946,-107,168.1544,747,168.1544 S,0,222946,226946,0.2812516,0.1521928 F,0,226746,226946,0.6,0
Sprite,Background,Centre,"sb\sprites\Hou\snowflakeP.png",0,0 F,0,211080,,0.6 F,0,211080,211280,0,0.6 M,0,211080,215080,-107,420.3028,747,420.3028 S,0,211080,215080,0.1798966,0.2875304 P,0,211080,227080,A F,0,214880,215080,0.6,0 F,0,215080,215280,0,0.6 M,0,215080,219080,-107,149.085,747,149.085 S,0,215080,219080,0.2847096,0.2252647 F,0,218880,219080,0.6,0 F,0,219080,219280,0,0.6 M,0,219080,223080,-107,90.91133,747,90.91133 S,0,219080,223080,0.1910392,0.1935989 F,0,222880,223080,0.6,0 F,0,223080,223280,0,0.6 M,0,223080,227080,-107,388.8802,747,388.8802 S,0,223080,227080,0.1583073,0.2747925 F,0,226880,227080,0.6,0
Sprite,Background,Centre,"sb\sprites\Hou\snowflakeP.png",0,0 F,0,211213,,0.6 F,0,211213,211413,0,0.6 M,0,211213,215213,-107,174.1474,747,174.1474 S,0,211213,215213,0.2585317,0.1807285 P,0,211213,227213,A F,0,215013,215213,0.6,0 F,0,215213,215413,0,0.6 M,0,215213,219213,-107,437.5804,747,437.5804 S,0,215213,219213,0.169212,0.2256255 F,0,219013,219213,0.6,0 F,0,219213,219413,0,0.6 M,0,219213,223213,-107,280.5349,747,280.5349 S,0,219213,223213,0.2293566,0.110874 F,0,223013,223213,0.6,0 F,0,223213,223413,0,0.6 M,0,223213,227213,-107,186.8283,747,186.8283 S,0,223213,227213,0.103859,0.1849233 F,0,227013,227213,0.6,0
Sprite,Background,Centre,"sb\sprites\Hou\snowflakeP.png",0,0 F,0,211346,,0.6 F,0,211346,211546,0,0.6 M,0,211346,215346,-107,425.3623,747,425.3623 S,0,211346,215346,0.2758941,0.2159 P,0,211346,227346,A F,0,215146,215346,0.6,0 F,0,215346,215546,0,0.6 M,0,215346,219346,-107,386.8577,747,386.8577 S,0,215346,219346,0.136062,0.2771417 F,0,219146,219346,0.6,0 F,0,219346,219546,0,0.6 M,0,219346,223346,-107,192.0825,747,192.0825 S,0,219346,223346,0.2887038,0.1983576 F,0,223146,223346,0.6,0 F,0,223346,223546,0,0.6 M,0,223346,227346,-107,341.3056,747,341.3056 S,0,223346,227346,0.2226332,0.22242 F,0,227146,227346,0.6,0
Sprite,Background,Centre,"sb\sprites\Hou\snowflakeP.png",0,0 F,0,211480,,0.6 F,0,211480,211680,0,0.6 M,0,211480,215480,-107,418.151,747,418.151 S,0,211480,215480,0.1898913,0.2227722 P,0,211480,227480,A F,0,215280,215480,0.6,0 F,0,215480,215680,0,0.6 M,0,215480,219480,-107,461.4668,747,461.4668 S,0,215480,219480,0.2857524,0.1916677 F,0,219280,219480,0.6,0 F,0,219480,219680,0,0.6 M,0,219480,223480,-107,162.358,747,162.358 S,0,219480,223480,0.2526089,0.2355232 F,0,223280,223480,0.6,0 F,0,223480,223680,0,0.6 M,0,223480,227480,-107,41.66121,747,41.66121 S,0,223480,227480,0.2113419,0.1134018 F,0,227280,227480,0.6,0
Sprite,Background,Centre,"sb\sprites\Hou\snowflakeP.png",0,0 F,0,211613,,0.6 F,0,211613,211813,0,0.6 M,0,211613,215613,-107,64.23805,747,64.23805 S,0,211613,215613,0.2894167,0.1128449 P,0,211613,227613,A F,0,215413,215613,0.6,0 F,0,215613,215813,0,0.6 M,0,215613,219613,-107,376.3526,747,376.3526 S,0,215613,219613,0.2861276,0.1469586 F,0,219413,219613,0.6,0 F,0,219613,219813,0,0.6 M,0,219613,223613,-107,189.6014,747,189.6014 S,0,219613,223613,0.1841689,0.1624166 F,0,223413,223613,0.6,0 F,0,223613,223813,0,0.6 M,0,223613,227613,-107,266.06,747,266.06 S,0,223613,227613,0.1577159,0.286126 F,0,227413,227613,0.6,0
Sprite,Background,Centre,"sb\sprites\Hou\snowflakeP.png",0,0 F,0,211746,,0.6 F,0,211746,211946,0,0.6 M,0,211746,215746,-107,270.138,747,270.138 S,0,211746,215746,0.2755103,0.2740633 P,0,211746,227746,A F,0,215546,215746,0.6,0 F,0,215746,215946,0,0.6 M,0,215746,219746,-107,263.3309,747,263.3309 S,0,215746,219746,0.2084584,0.11172 F,0,219546,219746,0.6,0 F,0,219746,219946,0,0.6 M,0,219746,223746,-107,112.6252,747,112.6252 S,0,219746,223746,0.1407628,0.1757867 F,0,223546,223746,0.6,0 F,0,223746,223946,0,0.6 M,0,223746,227746,-107,295.6469,747,295.6469 S,0,223746,227746,0.2737603,0.1390941 F,0,227546,227746,0.6,0
Sprite,Background,Centre,"sb\sprites\Hou\snowflakeP.png",0,0 F,0,211880,,0.6 F,0,211880,212080,0,0.6 M,0,211880,215880,-107,238.4906,747,238.4906 S,0,211880,215880,0.1295536,0.1593409 P,0,211880,227880,A F,0,215680,215880,0.6,0 F,0,215880,216080,0,0.6 M,0,215880,219880,-107,199.5201,747,199.5201 S,0,215880,219880,0.2197896,0.2077025 F,0,219680,219880,0.6,0 F,0,219880,220080,0,0.6 M,0,219880,223880,-107,281.9899,747,281.9899 S,0,219880,223880,0.2603143,0.231075 F,0,223680,223880,0.6,0 F,0,223880,224080,0,0.6 M,0,223880,227880,-107,271.9858,747,271.9858 S,0,223880,227880,0.2460064,0.1322787 F,0,227680,227880,0.6,0
Sprite,Background,Centre,"sb\sprites\Hou\snowflakeP.png",0,0 F,0,212013,,0.6 F,0,212013,212213,0,0.6 M,0,212013,216013,-107,123.0488,747,123.0488 S,0,212013,216013,0.2192245,0.1575834 P,0,212013,228013,A F,0,215813,216013,0.6,0 F,0,216013,216213,0,0.6 M,0,216013,220013,-107,91.65936,747,91.65936 S,0,216013,220013,0.1093979,0.2974949 F,0,219813,220013,0.6,0 F,0,220013,220213,0,0.6 M,0,220013,224013,-107,226.0441,747,226.0441 S,0,220013,224013,0.1531996,0.1017951 F,0,223813,224013,0.6,0 F,0,224013,224213,0,0.6 M,0,224013,228013,-107,459.7467,747,459.7467 S,0,224013,228013,0.2067541,0.2103012 F,0,227813,228013,0.6,0
Sprite,Background,Centre,"sb\sprites\Hou\snowflakeP.png",0,0 F,0,212146,,0.6 F,0,212146,212346,0,0.6 M,0,212146,216146,-107,399.3345,747,399.3345 S,0,212146,216146,0.1138672,0.101592 P,0,212146,228146,A F,0,215946,216146,0.6,0 F,0,216146,216346,0,0.6 M,0,216146,220146,-107,26.82144,747,26.82144 S,0,216146,220146,0.204291,0.2544115 F,0,219946,220146,0.6,0 F,0,220146,220346,0,0.6 M,0,220146,224146,-107,188.7889,747,188.7889 S,0,220146,224146,0.2539954,0.1766373 F,0,223946,224146,0.6,0 F,0,224146,224346,0,0.6 M,0,224146,228146,-107,383.0006,747,383.0006 S,0,224146,228146,0.1567392,0.265532 F,0,227946,228146,0.6,0
Sprite,Background,Centre,"sb\sprites\Hou\snowflakeP.png",0,0 F,0,212280,,0.6 F,0,212280,212480,0,0.6 M,0,212280,216280,-107,238.8052,747,238.8052 S,0,212280,216280,0.1097544,0.2168449 P,0,212280,228280,A F,0,216080,216280,0.6,0 F,0,216280,216480,0,0.6 M,0,216280,220280,-107,2.987559,747,2.987559 S,0,216280,220280,0.236005,0.1205065 F,0,220080,220280,0.6,0 F,0,220280,220480,0,0.6 M,0,220280,224280,-107,281.7142,747,281.7142 S,0,220280,224280,0.1267659,0.1382218 F,0,224080,224280,0.6,0 F,0,224280,224480,0,0.6 M,0,224280,228280,-107,43.47375,747,43.47375 S,0,224280,228280,0.2728432,0.1976937 F,0,228080,228280,0.6,0
Sprite,Background,Centre,"sb\sprites\Hou\snowflakeP.png",0,0 F,0,212413,,0.6 F,0,212413,212613,0,0.6 M,0,212413,216413,-107,371.1062,747,371.1062 S,0,212413,216413,0.2451349,0.1508123 P,0,212413,224413,A F,0,216213,216413,0.6,0 F,0,216413,216613,0,0.6 M,0,216413,220413,-107,389.674,747,389.674 S,0,216413,220413,0.2304769,0.1024555 F,0,220213,220413,0.6,0 F,0,220413,220613,0,0.6 M,0,220413,224413,-107,439.5555,747,439.5555 S,0,220413,224413,0.2532223,0.1961294 F,0,224213,224413,0.6,0
Sprite,Background,Centre,"sb\sprites\Hou\snowflakeP.png",0,0 F,0,212546,,0.6 F,0,212546,212746,0,0.6 M,0,212546,216546,-107,91.33265,747,91.33265 S,0,212546,216546,0.2194838,0.1227909 P,0,212546,224546,A F,0,216346,216546,0.6,0 F,0,216546,216746,0,0.6 M,0,216546,220546,-107,178.3317,747,178.3317 S,0,216546,220546,0.2279352,0.1131914 F,0,220346,220546,0.6,0 F,0,220546,220746,0,0.6 M,0,220546,224546,-107,370.0428,747,370.0428 S,0,220546,224546,0.2958876,0.2998731 F,0,224346,224546,0.6,0
Sprite,Background,Centre,"sb\sprites\Hou\snowflakeP.png",0,0 F,0,212680,,0.6 F,0,212680,212880,0,0.6 M,0,212680,216680,-107,275.1758,747,275.1758 S,0,212680,216680,0.1314367,0.2269897 P,0,212680,224680,A F,0,216480,216680,0.6,0 F,0,216680,216880,0,0.6 M,0,216680,220680,-107,45.14151,747,45.14151 S,0,216680,220680,0.1647484,0.1818106 F,0,220480,220680,0.6,0 F,0,220680,220880,0,0.6 M,0,220680,224680,-107,360.2666,747,360.2666 S,0,220680,224680,0.1130199,0.1532062 F,0,224480,224680,0.6,0
Sprite,Background,Centre,"sb\sprites\Hou\snowflakeP.png",0,0 F,0,212813,,0.6 F,0,212813,213013,0,0.6 M,0,212813,216813,-107,356.0364,747,356.0364 S,0,212813,216813,0.1033576,0.2273304 P,0,212813,224813,A F,0,216613,216813,0.6,0 F,0,216813,217013,0,0.6 M,0,216813,220813,-107,241.3693,747,241.3693 S,0,216813,220813,0.2708199,0.2800914 F,0,220613,220813,0.6,0 F,0,220813,221013,0,0.6 M,0,220813,224813,-107,331.4297,747,331.4297 S,0,220813,224813,0.1475768,0.2041485 F,0,224613,224813,0.6,0
Sprite,Background,Centre,"sb\sprites\Hou\snowflakeP.png",0,0 F,0,212946,,0.6 F,0,212946,213146,0,0.6 M,0,212946,216946,-107,84.28084,747,84.28084 S,0,212946,216946,0.2967437,0.2370342 P,0,212946,224946,A F,0,216746,216946,0.6,0 F,0,216946,217146,0,0.6 M,0,216946,220946,-107,348.8138,747,348.8138 S,0,216946,220946,0.2282713,0.2229247 F,0,220746,220946,0.6,0 F,0,220946,221146,0,0.6 M,0,220946,224946,-107,438.6457,747,438.6457 S,0,220946,224946,0.106921,0.1167455 F,0,224746,224946,0.6,0
Sprite,Background,Centre,"sb\sprites\Hou\snowflakeP.png",0,0 F,0,213080,,0.6 F,0,213080,213280,0,0.6 M,0,213080,217080,-107,138.5094,747,138.5094 S,0,213080,217080,0.1803783,0.1267464 P,0,213080,225080,A F,0,216880,217080,0.6,0 F,0,217080,217280,0,0.6 M,0,217080,221080,-107,100.3708,747,100.3708 S,0,217080,221080,0.118032,0.237193 F,0,220880,221080,0.6,0 F,0,221080,221280,0,0.6 M,0,221080,225080,-107,361.7658,747,361.7658 S,0,221080,225080,0.2382179,0.2991397 F,0,224880,225080,0.6,0
Sprite,Background,Centre,"sb\sprites\Hou\snowflakeP.png",0,0 F,0,213213,,0.6 F,0,213213,213413,0,0.6 M,0,213213,217213,-107,422.8358,747,422.8358 S,0,213213,217213,0.1448596,0.1537949 P,0,213213,225213,A F,0,217013,217213,0.6,0 F,0,217213,217413,0,0.6 M,0,217213,221213,-107,283.0468,747,283.0468 S,0,217213,221213,0.2533289,0.1906371 F,0,221013,221213,0.6,0 F,0,221213,221413,0,0.6 M,0,221213,225213,-107,288.6227,747,288.6227 S,0,221213,225213,0.1829421,0.2509291 F,0,225013,225213,0.6,0
Sprite,Background,Centre,"sb\sprites\Hou\snowflakeP.png",0,0 F,0,213346,,0.6 F,0,213346,213546,0,0.6 M,0,213346,217346,-107,373.2769,747,373.2769 S,0,213346,217346,0.2627426,0.2093294 P,0,213346,225346,A F,0,217146,217346,0.6,0 F,0,217346,217546,0,0.6 M,0,217346,221346,-107,409.6134,747,409.6134 S,0,217346,221346,0.1583495,0.1664655 F,0,221146,221346,0.6,0 F,0,221346,221546,0,0.6 M,0,221346,225346,-107,471.2177,747,471.2177 S,0,221346,225346,0.1184942,0.126065 F,0,225146,225346,0.6,0
Sprite,Background,Centre,"sb\sprites\Hou\snowflakeP.png",0,0 F,0,213480,,0.6 F,0,213480,213680,0,0.6 M,0,213480,217480,-107,124.3204,747,124.3204 S,0,213480,217480,0.2238558,0.2606722 P,0,213480,225480,A F,0,217280,217480,0.6,0 F,0,217480,217680,0,0.6 M,0,217480,221480,-107,211.0212,747,211.0212 S,0,217480,221480,0.1239273,0.2753116 F,0,221280,221480,0.6,0 F,0,221480,221680,0,0.6 M,0,221480,225480,-107,415.0389,747,415.0389 S,0,221480,225480,0.2436947,0.1378396 F,0,225280,225480,0.6,0
Sprite,Background,Centre,"sb\sprites\Hou\snowflakeP.png",0,0 F,0,213613,,0.6 F,0,213613,213813,0,0.6 M,0,213613,217613,-107,311.8728,747,311.8728 S,0,213613,217613,0.206172,0.2446645 P,0,213613,225613,A F,0,217413,217613,0.6,0 F,0,217613,217813,0,0.6 M,0,217613,221613,-107,306.6475,747,306.6475 S,0,217613,221613,0.2711496,0.2649211 F,0,221413,221613,0.6,0 F,0,221613,221813,0,0.6 M,0,221613,225613,-107,220.329,747,220.329 S,0,221613,225613,0.1382275,0.2753611 F,0,225413,225613,0.6,0
Sprite,Background,Centre,"sb\sprites\Hou\snowflakeP.png",0,0 F,0,213746,,0.6 F,0,213746,213946,0,0.6 M,0,213746,217746,-107,189.9276,747,189.9276 S,0,213746,217746,0.1777321,0.2661397 P,0,213746,225746,A F,0,217546,217746,0.6,0 F,0,217746,217946,0,0.6 M,0,217746,221746,-107,410.9135,747,410.9135 S,0,217746,221746,0.2599459,0.200057 F,0,221546,221746,0.6,0 F,0,221746,221946,0,0.6 M,0,221746,225746,-107,322.1681,747,322.1681 S,0,221746,225746,0.2626534,0.2619379 F,0,225546,225746,0.6,0
Sprite,Background,Centre,"sb\sprites\Hou\snowflakeP.png",0,0 F,0,213880,,0.6 F,0,213880,214080,0,0.6 M,0,213880,217880,-107,477.7321,747,477.7321 S,0,213880,217880,0.119602,0.2447564 P,0,213880,225880,A F,0,217680,217880,0.6,0 F,0,217880,218080,0,0.6 M,0,217880,221880,-107,375.9246,747,375.9246 S,0,217880,221880,0.1299137,0.1552755 F,0,221680,221880,0.6,0 F,0,221880,222080,0,0.6 M,0,221880,225880,-107,144.326,747,144.326 S,0,221880,225880,0.1845011,0.2993867 F,0,225680,225880,0.6,0
Sprite,Background,Centre,"sb\sprites\Hou\snowflakeP.png",0,0 F,0,214013,,0.6 F,0,214013,214213,0,0.6 M,0,214013,218013,-107,172.7036,747,172.7036 S,0,214013,218013,0.2887106,0.1699329 P,0,214013,226013,A F,0,217813,218013,0.6,0 F,0,218013,218213,0,0.6 M,0,218013,222013,-107,214.1094,747,214.1094 S,0,218013,222013,0.1825087,0.1581924 F,0,221813,222013,0.6,0 F,0,222013,222213,0,0.6 M,0,222013,226013,-107,94.54535,747,94.54535 S,0,222013,226013,0.2248161,0.1882814 F,0,225813,226013,0.6,0
Sprite,Background,Centre,"sb\sprites\Hou\snowflakeP.png",0,0 F,0,214146,,0.6 F,0,214146,214346,0,0.6 M,0,214146,218146,-107,456.1295,747,456.1295 S,0,214146,218146,0.2979009,0.2440736 P,0,214146,226146,A F,0,217946,218146,0.6,0 F,0,218146,218346,0,0.6 M,0,218146,222146,-107,81.04144,747,81.04144 S,0,218146,222146,0.1909122,0.14371 F,0,221946,222146,0.6,0 F,0,222146,222346,0,0.6 M,0,222146,226146,-107,150.1046,747,150.1046 S,0,222146,226146,0.1968161,0.1277429 F,0,225946,226146,0.6,0
Sprite,Background,Centre,"sb\sprites\Hou\snowflakeP.png",0,0 F,0,214280,,0.6 F,0,214280,214480,0,0.6 M,0,214280,218280,-107,112.9767,747,112.9767 S,0,214280,218280,0.2510226,0.126196 P,0,214280,226280,A F,0,218080,218280,0.6,0 F,0,218280,218480,0,0.6 M,0,218280,222280,-107,311.7827,747,311.7827 S,0,218280,222280,0.2825628,0.2489697 F,0,222080,222280,0.6,0 F,0,222280,222480,0,0.6 M,0,222280,226280,-107,54.19304,747,54.19304 S,0,222280,226280,0.2794001,0.2127376 F,0,226080,226280,0.6,0
Sprite,Background,Centre,"sb\sprites\Hou\snowflakeP.png",0,0 F,0,214413,,0.6 F,0,214413,214613,0,0.6 M,0,214413,218413,-107,316.8254,747,316.8254 S,0,214413,218413,0.1161533,0.2224808 P,0,214413,226413,A F,0,218213,218413,0.6,0 F,0,218413,218613,0,0.6 M,0,218413,222413,-107,306.2668,747,306.2668 S,0,218413,222413,0.1928523,0.1811266 F,0,222213,222413,0.6,0 F,0,222413,222613,0,0.6 M,0,222413,226413,-107,64.62357,747,64.62357 S,0,222413,226413,0.211416,0.1462785 F,0,226213,226413,0.6,0
Sprite,Background,Centre,"sb\sprites\Hou\snowflakeP.png",0,0 F,0,214546,,0.6 F,0,214546,214746,0,0.6 M,0,214546,218546,-107,289.3178,747,289.3178 S,0,214546,218546,0.2086771,0.2334889 P,0,214546,226546,A F,0,218346,218546,0.6,0 F,0,218546,218746,0,0.6 M,0,218546,222546,-107,178.9685,747,178.9685 S,0,218546,222546,0.2693544,0.186259 F,0,222346,222546,0.6,0 F,0,222546,222746,0,0.6 M,0,222546,226546,-107,444.1191,747,444.1191 S,0,222546,226546,0.2279263,0.1157776 F,0,226346,226546,0.6,0
Sprite,Background,Centre,"sb\sprites\Hou\yotsugiP.png",0,0 S,0,210680,,0.35 C,0,210680,,118,61,153 F,0,210680,210880,0,1 M,0,210680,213680,-107,331.2505,747,331.2505 R,0,210680,213680,4.724984,0.9906089 P,0,210680,226480,A F,0,213480,213680,1,0 F,0,213880,214080,0,1 M,0,213880,216880,-107,418.2431,747,418.2431 R,0,213880,216880,0.9895156,0.1122423 F,0,216680,216880,1,0 F,0,217080,217280,0,1 M,0,217080,220080,-107,66.87725,747,66.87725 R,0,217080,220080,1.873732,5.160574 F,0,219880,220080,1,0 F,0,220280,220480,0,1 M,0,220280,223280,-107,86.48787,747,86.48787 R,0,220280,223280,0.1479043,5.08103 F,0,223080,223280,1,0 F,0,223480,223680,0,1 M,0,223480,226480,-107,62.83623,747,62.83623 R,0,223480,226480,3.437468,4.85581 F,0,226280,226480,1,0
Sprite,Background,Centre,"sb\sprites\Hou\yotsugiP.png",0,0 S,0,210880,,0.35 C,0,210880,,118,61,153 F,0,210880,211080,0,1 M,0,210880,213880,-107,360.257,747,360.257 R,0,210880,213880,3.465516,0.3806787 P,0,210880,226680,A F,0,213680,213880,1,0 F,0,214080,214280,0,1 M,0,214080,217080,-107,470.343,747,470.343 R,0,214080,217080,1.820656,4.583704 F,0,216880,217080,1,0 F,0,217280,217480,0,1 M,0,217280,220280,-107,228.4031,747,228.4031 R,0,217280,220280,2.963628,3.143435 F,0,220080,220280,1,0 F,0,220480,220680,0,1 M,0,220480,223480,-107,163.6913,747,163.6913 R,0,220480,223480,0.01400855,3.913039 F,0,223280,223480,1,0 F,0,223680,223880,0,1 M,0,223680,226680,-107,53.02334,747,53.02334 R,0,223680,226680,4.804098,1.662116 F,0,226480,226680,1,0
Sprite,Background,Centre,"sb\sprites\Hou\yotsugiP.png",0,0 S,0,211080,,0.35 C,0,211080,,118,61,153 F,0,211080,211280,0,1 M,0,211080,214080,-107,327.8778,747,327.8778 R,0,211080,214080,0.6835074,1.503378 P,0,211080,226880,A F,0,213880,214080,1,0 F,0,214280,214480,0,1 M,0,214280,217280,-107,304.9703,747,304.9703 R,0,214280,217280,2.050236,3.226065 F,0,217080,217280,1,0 F,0,217480,217680,0,1 M,0,217480,220480,-107,131.0137,747,131.0137 R,0,217480,220480,2.759696,4.609455 F,0,220280,220480,1,0 F,0,220680,220880,0,1 M,0,220680,223680,-107,452.7353,747,452.7353 R,0,220680,223680,3.40058,2.214008 F,0,223480,223680,1,0 F,0,223880,224080,0,1 M,0,223880,226880,-107,173.1449,747,173.1449 R,0,223880,226880,0.583426,1.533298 F,0,226680,226880,1,0
Sprite,Background,Centre,"sb\sprites\Hou\yotsugiP.png",0,0 S,0,211280,,0.35 C,0,211280,,118,61,153 F,0,211280,211480,0,1 M,0,211280,214280,-107,186.2467,747,186.2467 R,0,211280,214280,5.113963,0.07593603 P,0,211280,227080,A F,0,214080,214280,1,0 F,0,214480,214680,0,1 M,0,214480,217480,-107,192.498,747,192.498 R,0,214480,217480,2.63888,2.940023 F,0,217280,217480,1,0 F,0,217680,217880,0,1 M,0,217680,220680,-107,328.1854,747,328.1854 R,0,217680,220680,4.290431,4.540366 F,0,220480,220680,1,0 F,0,220880,221080,0,1 M,0,220880,223880,-107,316.1759,747,316.1759 R,0,220880,223880,5.175638,3.233731 F,0,223680,223880,1,0 F,0,224080,224280,0,1 M,0,224080,227080,-107,288.8722,747,288.8722 R,0,224080,227080,2.85152,0.3433834 F,0,226880,227080,1,0
Sprite,Background,Centre,"sb\sprites\Hou\yotsugiP.png",0,0 S,0,211480,,0.35 C,0,211480,,118,61,153 F,0,211480,211680,0,1 M,0,211480,214480,-107,245.9359,747,245.9359 R,0,211480,214480,1.95835,3.516645 P,0,211480,227280,A F,0,214280,214480,1,0 F,0,214680,214880,0,1 M,0,214680,217680,-107,408.2305,747,408.2305 R,0,214680,217680,1.360101,1.129459 F,0,217480,217680,1,0 F,0,217880,218080,0,1 M,0,217880,220880,-107,160.3736,747,160.3736 R,0,217880,220880,1.090292,2.886251 F,0,220680,220880,1,0 F,0,221080,221280,0,1 M,0,221080,224080,-107,337.0103,747,337.0103 R,0,221080,224080,3.94441,4.681009 F,0,223880,224080,1,0 F,0,224280,224480,0,1 M,0,224280,227280,-107,9.791234,747,9.791234 R,0,224280,227280,1.363099,0.02672052 F,0,227080,227280,1,0
Sprite,Background,Centre,"sb\sprites\Hou\yotsugiP.png",0,0 S,0,211680,,0.35 C,0,211680,,118,61,153 F,0,211680,211880,0,1 M,0,211680,214680,-107,156.9496,747,156.9496 R,0,211680,214680,0.2614333,0.9098606 P,0,211680,227480,A F,0,214480,214680,1,0 F,0,214880,215080,0,1 M,0,214880,217880,-107,48.16786,747,48.16786 R,0,214880,217880,1.924304,2.922574 F,0,217680,217880,1,0 F,0,218080,218280,0,1 M,0,218080,221080,-107,327.8268,747,327.8268 R,0,218080,221080,3.387124,4.540651 F,0,220880,221080,1,0 F,0,221280,221480,0,1 M,0,221280,224280,-107,90.71855,747,90.71855 R,0,221280,224280,2.901923,0.5798361 F,0,224080,224280,1,0 F,0,224480,224680,0,1 M,0,224480,227480,-107,465.3362,747,465.3362 R,0,224480,227480,2.895545,3.690152 F,0,227280,227480,1,0
Sprite,Background,Centre,"sb\sprites\Hou\yotsugiP.png",0,0 S,0,211880,,0.35 C,0,211880,,118,61,153 F,0,211880,212080,0,1 M,0,211880,214880,-107,110.7002,747,110.7002 R,0,211880,214880,2.366935,4.095395 P,0,211880,227680,A F,0,214680,214880,1,0 F,0,215080,215280,0,1 M,0,215080,218080,-107,20.99851,747,20.99851 R,0,215080,218080,2.029623,1.314415 F,0,217880,218080,1,0 F,0,218280,218480,0,1 M,0,218280,221280,-107,215.5789,747,215.5789 R,0,218280,221280,0.7971062,3.705935 F,0,221080,221280,1,0 F,0,221480,221680,0,1 M,0,221480,224480,-107,137.349,747,137.349 R,0,221480,224480,2.323629,4.819378 F,0,224280,224480,1,0 F,0,224680,224880,0,1 M,0,224680,227680,-107,206.5941,747,206.5941 R,0,224680,227680,0.4451089,2.167131 F,0,227480,227680,1,0
Sprite,Background,Centre,"sb\sprites\Hou\yotsugiP.png",0,0 S,0,212080,,0.35 C,0,212080,,118,61,153 F,0,212080,212280,0,1 M,0,212080,215080,-107,143.2987,747,143.2987 R,0,212080,215080,1.498919,4.126769 P,0,212080,227880,A F,0,214880,215080,1,0 F,0,215280,215480,0,1 M,0,215280,218280,-107,165.2528,747,165.2528 R,0,215280,218280,1.616048,1.768283 F,0,218080,218280,1,0 F,0,218480,218680,0,1 M,0,218480,221480,-107,235.135,747,235.135 R,0,218480,221480,4.895712,1.71163 F,0,221280,221480,1,0 F,0,221680,221880,0,1 M,0,221680,224680,-107,33.00331,747,33.00331 R,0,221680,224680,3.850595,1.929923 F,0,224480,224680,1,0 F,0,224880,225080,0,1 M,0,224880,227880,-107,138.8151,747,138.8151 R,0,224880,227880,2.450747,4.009494 F,0,227680,227880,1,0
Sprite,Background,Centre,"sb\sprites\Hou\yotsugiP.png",0,0 S,0,212280,,0.35 C,0,212280,,118,61,153 F,0,212280,212480,0,1 M,0,212280,215280,-107,118.3423,747,118.3423 R,0,212280,215280,0.5254923,1.163562 P,0,212280,228080,A F,0,215080,215280,1,0 F,0,215480,215680,0,1 M,0,215480,218480,-107,77.02531,747,77.02531 R,0,215480,218480,2.516278,2.834299 F,0,218280,218480,1,0 F,0,218680,218880,0,1 M,0,218680,221680,-107,233.9355,747,233.9355 R,0,218680,221680,4.965884,4.703211 F,0,221480,221680,1,0 F,0,221880,222080,0,1 M,0,221880,224880,-107,382.2831,747,382.2831 R,0,221880,224880,4.906613,3.806233 F,0,224680,224880,1,0 F,0,225080,225280,0,1 M,0,225080,228080,-107,194.2775,747,194.2775 R,0,225080,228080,2.369164,2.600442 F,0,227880,228080,1,0
Sprite,Background,Centre,"sb\sprites\Hou\yotsugiP.png",0,0 S,0,212480,,0.35 C,0,212480,,118,61,153 F,0,212480,212680,0,1 M,0,212480,215480,-107,203.1929,747,203.1929 R,0,212480,215480,4.790037,0.9779482 P,0,212480,228280,A F,0,215280,215480,1,0 F,0,215680,215880,0,1 M,0,215680,218680,-107,205.0198,747,205.0198 R,0,215680,218680,4.399972,4.886016 F,0,218480,218680,1,0 F,0,218880,219080,0,1 M,0,218880,221880,-107,249.4168,747,249.4168 R,0,218880,221880,3.314676,3.619869 F,0,221680,221880,1,0 F,0,222080,222280,0,1 M,0,222080,225080,-107,327.7756,747,327.7756 R,0,222080,225080,3.37386,2.373966 F,0,224880,225080,1,0 F,0,225280,225480,0,1 M,0,225280,228280,-107,135.4078,747,135.4078 R,0,225280,228280,0.04777763,2.338109 F,0,228080,228280,1,0
Sprite,Background,Centre,"sb\sprites\Hou\yotsugiP.png",0,0 S,0,212680,,0.35 C,0,212680,,118,61,153 F,0,212680,212880,0,1 M,0,212680,215680,-107,9.839487,747,9.839487 R,0,212680,215680,2.191389,5.082866 P,0,212680,225280,A F,0,215480,215680,1,0 F,0,215880,216080,0,1 M,0,215880,218880,-107,361.9894,747,361.9894 R,0,215880,218880,3.334217,0.5884227 F,0,218680,218880,1,0 F,0,219080,219280,0,1 M,0,219080,222080,-107,62.15668,747,62.15668 R,0,219080,222080,3.710594,3.04212 F,0,221880,222080,1,0 F,0,222280,222480,0,1 M,0,222280,225280,-107,50.73191,747,50.73191 R,0,222280,225280,1.485486,0.9801393 F,0,225080,225280,1,0
Sprite,Background,Centre,"sb\sprites\Hou\yotsugiP.png",0,0 S,0,212880,,0.35 C,0,212880,,118,61,153 F,0,212880,213080,0,1 M,0,212880,215880,-107,59.8738,747,59.8738 R,0,212880,215880,0.6439353,1.714017 P,0,212880,225480,A F,0,215680,215880,1,0 F,0,216080,216280,0,1 M,0,216080,219080,-107,335.1572,747,335.1572 R,0,216080,219080,2.890154,3.800521 F,0,218880,219080,1,0 F,0,219280,219480,0,1 M,0,219280,222280,-107,427.359,747,427.359 R,0,219280,222280,1.506901,2.526241 F,0,222080,222280,1,0 F,0,222480,222680,0,1 M,0,222480,225480,-107,296.2057,747,296.2057 R,0,222480,225480,1.777279,3.166771 F,0,225280,225480,1,0
Sprite,Background,Centre,"sb\sprites\Hou\yotsugiP.png",0,0 S,0,213080,,0.35 C,0,213080,,118,61,153 F,0,213080,213280,0,1 M,0,213080,216080,-107,8.801242,747,8.801242 R,0,213080,216080,3.729139,0.06964485 P,0,213080,225680,A F,0,215880,216080,1,0 F,0,216280,216480,0,1 M,0,216280,219280,-107,79.36206,747,79.36206 R,0,216280,219280,0.2126737,0.3707331 F,0,219080,219280,1,0 F,0,219480,219680,0,1 M,0,219480,222480,-107,454.8304,747,454.8304 R,0,219480,222480,1.457201,0.3705891 F,0,222280,222480,1,0 F,0,222680,222880,0,1 M,0,222680,225680,-107,346.0506,747,346.0506 R,0,222680,225680,4.128417,3.696586 F,0,225480,225680,1,0
Sprite,Background,Centre,"sb\sprites\Hou\yotsugiP.png",0,0 S,0,213280,,0.35 C,0,213280,,118,61,153 F,0,213280,213480,0,1 M,0,213280,216280,-107,360.0248,747,360.0248 R,0,213280,216280,4.768624,1.858976 P,0,213280,225880,A F,0,216080,216280,1,0 F,0,216480,216680,0,1 M,0,216480,219480,-107,45.75979,747,45.75979 R,0,216480,219480,2.562399,3.829687 F,0,219280,219480,1,0 F,0,219680,219880,0,1 M,0,219680,222680,-107,245.7737,747,245.7737 R,0,219680,222680,2.226861,0.1304578 F,0,222480,222680,1,0 F,0,222880,223080,0,1 M,0,222880,225880,-107,400.16,747,400.16 R,0,222880,225880,4.959175,3.342309 F,0,225680,225880,1,0
Sprite,Background,Centre,"sb\sprites\Hou\yotsugiP.png",0,0 S,0,213480,,0.35 C,0,213480,,118,61,153 F,0,213480,213680,0,1 M,0,213480,216480,-107,219.9389,747,219.9389 R,0,213480,216480,1.848891,0.1780771 P,0,213480,226080,A F,0,216280,216480,1,0 F,0,216680,216880,0,1 M,0,216680,219680,-107,341.3857,747,341.3857 R,0,216680,219680,3.232167,1.090258 F,0,219480,219680,1,0 F,0,219880,220080,0,1 M,0,219880,222880,-107,405.8424,747,405.8424 R,0,219880,222880,2.521746,1.158231 F,0,222680,222880,1,0 F,0,223080,223280,0,1 M,0,223080,226080,-107,28.62338,747,28.62338 R,0,223080,226080,1.512485,1.517551 F,0,225880,226080,1,0
Sprite,Background,Centre,"sb\sprites\Hou\yotsugiP.png",0,0 S,0,213680,,0.35 C,0,213680,,118,61,153 F,0,213680,213880,0,1 M,0,213680,216680,-107,292.6839,747,292.6839 R,0,213680,216680,5.173058,2.743552 P,0,213680,226280,A F,0,216480,216680,1,0 F,0,216880,217080,0,1 M,0,216880,219880,-107,216.8631,747,216.8631 R,0,216880,219880,4.710145,3.408523 F,0,219680,219880,1,0 F,0,220080,220280,0,1 M,0,220080,223080,-107,97.75625,747,97.75625 R,0,220080,223080,3.985745,1.472108 F,0,222880,223080,1,0 F,0,223280,223480,0,1 M,0,223280,226280,-107,217.5265,747,217.5265 R,0,223280,226280,4.240751,3.518439 F,0,226080,226280,1,0
Sprite,Background,Centre,"sb\sprites\Hou\bgYotsugi.png",320,240 M,19,63408,74317,550.9818,267.3454,560.863,234.7958 S,19,63408,74317,0.9,0.65 R,1,74317,77044,0,0.12 M,0,74317,86590,598.1091,235.9272 R,2,77044,79771,0.12,0 R,1,79771,82499,0,0.12 R,2,82499,85226,0.12,0 R,1,85226,86590,0,0.1
Sprite,Background,Centre,"sb\sprites\Hou\bgYotsugi.png",320,240 M,19,137044,147953,550.9818,267.3454,560.863,234.7958 S,19,137044,147953,0.9,0.65 R,1,147953,150681,0,0.12 M,0,147953,160226,598.1091,235.9272 R,2,150681,153408,0.12,0 R,1,153408,156135,0,0.12 R,2,156135,158862,0.12,0 R,1,158862,160226,0,0.1
Sprite,Background,Centre,"sb\sprites\Hou\bgYotsugi.png",320,240 M,0,205226,,577.7455,237.6727 F,0,205226,,0.63 C,0,205226,,0,0,0 S,0,205226,210681,0.9010907,0.6625453
Sprite,Background,Centre,"sb\sprites\Hou\bgYotsugi.png",320,240 M,0,210681,,598.1091,235.9272 S,0,210681,,0.65 R,1,210681,213408,0,0.12 R,2,213408,216135,0.12,0 R,1,216135,218863,0,0.12 R,2,218863,221590,0.12,0 R,1,221590,224317,0,0.12 R,2,224317,227044,0.12,0 R,1,227044,228408,0,0.12
Sprite,Background,Centre,"sb\sprites\Hou\snowflakeP2.png",0,0 F,0,63408,,0.12 F,0,63408,63608,0,0.12 M,0,63408,65408,513.2117,0,513.2117,480 S,0,63408,65408,1.762523,1.698429 P,0,63408,73908,A F,0,65208,65408,0.12,0 F,0,65533,65733,0,0.12 M,0,65533,67533,506.7927,0,506.7927,480 S,0,65533,67533,1.505779,1.334358 F,0,67333,67533,0.12,0 F,0,67658,67858,0,0.12 M,0,67658,69658,431.3568,0,431.3568,480 S,0,67658,69658,1.905929,0.9877446 F,0,69458,69658,0.12,0 F,0,69783,69983,0,0.12 M,0,69783,71783,378.6608,0,378.6608,480 S,0,69783,71783,0.7824677,1.042789 F,0,71583,71783,0.12,0 F,0,71908,72108,0,0.12 M,0,71908,73908,646.9897,0,646.9897,480 S,0,71908,73908,1.408054,1.720559 F,0,73708,73908,0.12,0
Sprite,Background,Centre,"sb\sprites\Hou\snowflakeP2.png",0,0 F,0,63533,,0.12 F,0,63533,63733,0,0.12 M,0,63533,65533,369.6696,0,369.6696,480 S,0,63533,65533,0.9678431,1.42655 P,0,63533,74033,A F,0,65333,65533,0.12,0 F,0,65658,65858,0,0.12 M,0,65658,67658,59.45607,0,59.45607,480 S,0,65658,67658,1.841649,1.77305 F,0,67458,67658,0.12,0 F,0,67783,67983,0,0.12 M,0,67783,69783,686.1163,0,686.1163,480 S,0,67783,69783,0.7864781,1.870136 F,0,69583,69783,0.12,0 F,0,69908,70108,0,0.12 M,0,69908,71908,612.5463,0,612.5463,480 S,0,69908,71908,1.438512,1.539787 F,0,71708,71908,0.12,0 F,0,72033,72233,0,0.12 M,0,72033,74033,331.9908,0,331.9908,480 S,0,72033,74033,1.158098,1.989271 F,0,73833,74033,0.12,0
Sprite,Background,Centre,"sb\sprites\Hou\snowflakeP2.png",0,0 F,0,63658,,0.12 F,0,63658,63858,0,0.12 M,0,63658,65658,666.7471,0,666.7471,480 S,0,63658,65658,1.274831,1.970815 P,0,63658,74158,A F,0,65458,65658,0.12,0 F,0,65783,65983,0,0.12 M,0,65783,67783,521.0295,0,521.0295,480 S,0,65783,67783,1.815685,1.583674 F,0,67583,67783,0.12,0 F,0,67908,68108,0,0.12 M,0,67908,69908,472.4437,0,472.4437,480 S,0,67908,69908,0.8221714,0.8938267 F,0,69708,69908,0.12,0 F,0,70033,70233,0,0.12 M,0,70033,72033,333.9767,0,333.9767,480 S,0,70033,72033,1.961165,0.8010219 F,0,71833,72033,0.12,0 F,0,72158,72358,0,0.12 M,0,72158,74158,-78.43963,0,-78.43963,480 S,0,72158,74158,1.599246,0.8575419 F,0,73958,74158,0.12,0
Sprite,Background,Centre,"sb\sprites\Hou\snowflakeP2.png",0,0 F,0,63783,,0.12 F,0,63783,63983,0,0.12 M,0,63783,65783,126.7436,0,126.7436,480 S,0,63783,65783,1.079478,1.307509 P,0,63783,74283,A F,0,65583,65783,0.12,0 F,0,65908,66108,0,0.12 M,0,65908,67908,426.6357,0,426.6357,480 S,0,65908,67908,0.9839288,1.863971 F,0,67708,67908,0.12,0 F,0,68033,68233,0,0.12 M,0,68033,70033,-15.64549,0,-15.64549,480 S,0,68033,70033,1.492831,1.938956 F,0,69833,70033,0.12,0 F,0,70158,70358,0,0.12 M,0,70158,72158,331.0741,0,331.0741,480 S,0,70158,72158,0.9024949,1.757748 F,0,71958,72158,0.12,0 F,0,72283,72483,0,0.12 M,0,72283,74283,59.45379,0,59.45379,480 S,0,72283,74283,1.345472,1.455676 F,0,74083,74283,0.12,0
Sprite,Background,Centre,"sb\sprites\Hou\snowflakeP2.png",0,0 F,0,63908,,0.12 F,0,63908,64108,0,0.12 M,0,63908,65908,433.2909,0,433.2909,480 S,0,63908,65908,1.310365,1.976797 P,0,63908,72283,A F,0,65708,65908,0.12,0 F,0,66033,66233,0,0.12 M,0,66033,68033,658.5596,0,658.5596,480 S,0,66033,68033,0.8125538,1.790153 F,0,67833,68033,0.12,0 F,0,68158,68358,0,0.12 M,0,68158,70158,311.9939,0,311.9939,480 S,0,68158,70158,0.8924732,1.580895 F,0,69958,70158,0.12,0 F,0,70283,70483,0,0.12 M,0,70283,72283,441.7132,0,441.7132,480 S,0,70283,72283,1.448011,1.41872 F,0,72083,72283,0.12,0
Sprite,Background,Centre,"sb\sprites\Hou\snowflakeP2.png",0,0 F,0,64033,,0.12 F,0,64033,64233,0,0.12 M,0,64033,66033,-81.06659,0,-81.06659,480 S,0,64033,66033,1.821081,1.993951 P,0,64033,72408,A F,0,65833,66033,0.12,0 F,0,66158,66358,0,0.12 M,0,66158,68158,38.30198,0,38.30198,480 S,0,66158,68158,1.53735,1.774859 F,0,67958,68158,0.12,0 F,0,68283,68483,0,0.12 M,0,68283,70283,379.6619,0,379.6619,480 S,0,68283,70283,0.9930241,1.503637 F,0,70083,70283,0.12,0 F,0,70408,70608,0,0.12 M,0,70408,72408,467.3058,0,467.3058,480 S,0,70408,72408,1.99291,1.092133 F,0,72208,72408,0.12,0
Sprite,Background,Centre,"sb\sprites\Hou\snowflakeP2.png",0,0 F,0,64158,,0.12 F,0,64158,64358,0,0.12 M,0,64158,66158,471.3127,0,471.3127,480 S,0,64158,66158,1.108969,1.76198 P,0,64158,72533,A F,0,65958,66158,0.12,0 F,0,66283,66483,0,0.12 M,0,66283,68283,80.18626,0,80.18626,480 S,0,66283,68283,1.999964,1.325775 F,0,68083,68283,0.12,0 F,0,68408,68608,0,0.12 M,0,68408,70408,-102.6598,0,-102.6598,480 S,0,68408,70408,1.169221,1.80563 F,0,70208,70408,0.12,0 F,0,70533,70733,0,0.12 M,0,70533,72533,-51.95656,0,-51.95656,480 S,0,70533,72533,1.305414,1.327996 F,0,72333,72533,0.12,0
Sprite,Background,Centre,"sb\sprites\Hou\snowflakeP2.png",0,0 F,0,64283,,0.12 F,0,64283,64483,0,0.12 M,0,64283,66283,617.2362,0,617.2362,480 S,0,64283,66283,1.989473,0.7424127 P,0,64283,72658,A F,0,66083,66283,0.12,0 F,0,66408,66608,0,0.12 M,0,66408,68408,449.9833,0,449.9833,480 S,0,66408,68408,1.635644,1.752301 F,0,68208,68408,0.12,0 F,0,68533,68733,0,0.12 M,0,68533,70533,-53.78861,0,-53.78861,480 S,0,68533,70533,1.066141,1.616469 F,0,70333,70533,0.12,0 F,0,70658,70858,0,0.12 M,0,70658,72658,77.72532,0,77.72532,480 S,0,70658,72658,0.7931965,0.9993129 F,0,72458,72658,0.12,0
Sprite,Background,Centre,"sb\sprites\Hou\snowflakeP2.png",0,0 F,0,64408,,0.12 F,0,64408,64608,0,0.12 M,0,64408,66408,490.7505,0,490.7505,480 S,0,64408,66408,1.384169,1.914224 P,0,64408,72783,A F,0,66208,66408,0.12,0 F,0,66533,66733,0,0.12 M,0,66533,68533,-20.80117,0,-20.80117,480 S,0,66533,68533,1.647822,1.633986 F,0,68333,68533,0.12,0 F,0,68658,68858,0,0.12 M,0,68658,70658,711.6276,0,711.6276,480 S,0,68658,70658,1.985456,1.203278 F,0,70458,70658,0.12,0 F,0,70783,70983,0,0.12 M,0,70783,72783,21.81108,0,21.81108,480 S,0,70783,72783,1.28097,1.286403 F,0,72583,72783,0.12,0
Sprite,Background,Centre,"sb\sprites\Hou\snowflakeP2.png",0,0 F,0,64533,,0.12 F,0,64533,64733,0,0.12 M,0,64533,66533,480.2277,0,480.2277,480 S,0,64533,66533,1.41086,0.8054429 P,0,64533,72908,A F,0,66333,66533,0.12,0 F,0,66658,66858,0,0.12 M,0,66658,68658,0.2002701,0,0.2002701,480 S,0,66658,68658,1.876729,0.9458609 F,0,68458,68658,0.12,0 F,0,68783,68983,0,0.12 M,0,68783,70783,339.4201,0,339.4201,480 S,0,68783,70783,1.064423,1.358549 F,0,70583,70783,0.12,0 F,0,70908,71108,0,0.12 M,0,70908,72908,-90.04867,0,-90.04867,480 S,0,70908,72908,1.205489,1.760858 F,0,72708,72908,0.12,0
Sprite,Background,Centre,"sb\sprites\Hou\snowflakeP2.png",0,0 F,0,64658,,0.12 F,0,64658,64858,0,0.12 M,0,64658,66658,52.80439,0,52.80439,480 S,0,64658,66658,1.289325,1.086323 P,0,64658,73033,A F,0,66458,66658,0.12,0 F,0,66783,66983,0,0.12 M,0,66783,68783,300.1956,0,300.1956,480 S,0,66783,68783,1.403034,1.123151 F,0,68583,68783,0.12,0 F,0,68908,69108,0,0.12 M,0,68908,70908,346.9685,0,346.9685,480 S,0,68908,70908,0.7741109,1.06472 F,0,70708,70908,0.12,0 F,0,71033,71233,0,0.12 M,0,71033,73033,66.02398,0,66.02398,480 S,0,71033,73033,1.887718,0.7384501 F,0,72833,73033,0.12,0
Sprite,Background,Centre,"sb\sprites\Hou\snowflakeP2.png",0,0 F,0,64783,,0.12 F,0,64783,64983,0,0.12 M,0,64783,66783,737.2164,0,737.2164,480 S,0,64783,66783,1.535507,1.691853 P,0,64783,73158,A F,0,66583,66783,0.12,0 F,0,66908,67108,0,0.12 M,0,66908,68908,466.0653,0,466.0653,480 S,0,66908,68908,1.308917,1.783546 F,0,68708,68908,0.12,0 F,0,69033,69233,0,0.12 M,0,69033,71033,316.6512,0,316.6512,480 S,0,69033,71033,1.80034,1.497105 F,0,70833,71033,0.12,0 F,0,71158,71358,0,0.12 M,0,71158,73158,328.08,0,328.08,480 S,0,71158,73158,1.951756,1.991643 F,0,72958,73158,0.12,0
Sprite,Background,Centre,"sb\sprites\Hou\snowflakeP2.png",0,0 F,0,64908,,0.12 F,0,64908,65108,0,0.12 M,0,64908,66908,-81.04327,0,-81.04327,480 S,0,64908,66908,1.195306,1.146084 P,0,64908,73283,A F,0,66708,66908,0.12,0 F,0,67033,67233,0,0.12 M,0,67033,69033,584.0601,0,584.0601,480 S,0,67033,69033,1.731719,1.693858 F,0,68833,69033,0.12,0 F,0,69158,69358,0,0.12 M,0,69158,71158,-18.04851,0,-18.04851,480 S,0,69158,71158,1.665028,1.222439 F,0,70958,71158,0.12,0 F,0,71283,71483,0,0.12 M,0,71283,73283,-92.59311,0,-92.59311,480 S,0,71283,73283,1.549574,1.061828 F,0,73083,73283,0.12,0
Sprite,Background,Centre,"sb\sprites\Hou\snowflakeP2.png",0,0 F,0,65033,,0.12 F,0,65033,65233,0,0.12 M,0,65033,67033,710.6667,0,710.6667,480 S,0,65033,67033,1.356668,1.630764 P,0,65033,73408,A F,0,66833,67033,0.12,0 F,0,67158,67358,0,0.12 M,0,67158,69158,693.6595,0,693.6595,480 S,0,67158,69158,1.083496,1.379621 F,0,68958,69158,0.12,0 F,0,69283,69483,0,0.12 M,0,69283,71283,690.1173,0,690.1173,480 S,0,69283,71283,0.8699079,1.609548 F,0,71083,71283,0.12,0 F,0,71408,71608,0,0.12 M,0,71408,73408,718.9612,0,718.9612,480 S,0,71408,73408,1.46413,1.703862 F,0,73208,73408,0.12,0
Sprite,Background,Centre,"sb\sprites\Hou\snowflakeP2.png",0,0 F,0,65158,,0.12 F,0,65158,65358,0,0.12 M,0,65158,67158,-5.4101,0,-5.4101,480 S,0,65158,67158,1.055487,1.879227 P,0,65158,73533,A F,0,66958,67158,0.12,0 F,0,67283,67483,0,0.12 M,0,67283,69283,459.5375,0,459.5375,480 S,0,67283,69283,1.132366,1.072739 F,0,69083,69283,0.12,0 F,0,69408,69608,0,0.12 M,0,69408,71408,418.5589,0,418.5589,480 S,0,69408,71408,1.779738,1.590665 F,0,71208,71408,0.12,0 F,0,71533,71733,0,0.12 M,0,71533,73533,169.8386,0,169.8386,480 S,0,71533,73533,1.246553,1.967413 F,0,73333,73533,0.12,0
Sprite,Background,Centre,"sb\sprites\Hou\snowflakeP2.png",0,0 F,0,65283,,0.12 F,0,65283,65483,0,0.12 M,0,65283,67283,571.7298,0,571.7298,480 S,0,65283,67283,1.138308,1.294371 P,0,65283,73658,A F,0,67083,67283,0.12,0 F,0,67408,67608,0,0.12 M,0,67408,69408,593.801,0,593.801,480 S,0,67408,69408,0.9892733,0.9429331 F,0,69208,69408,0.12,0 F,0,69533,69733,0,0.12 M,0,69533,71533,379.5601,0,379.5601,480 S,0,69533,71533,0.9245979,0.9398926 F,0,71333,71533,0.12,0 F,0,71658,71858,0,0.12 M,0,71658,73658,649.6436,0,649.6436,480 S,0,71658,73658,1.964753,1.031727 F,0,73458,73658,0.12,0
Sprite,Background,Centre,"sb\sprites\Hou\snowflakeP2.png",0,0 F,0,65408,,0.12 F,0,65408,65608,0,0.12 M,0,65408,67408,18.38858,0,18.38858,480 S,0,65408,67408,0.9877092,1.233095 P,0,65408,73783,A F,0,67208,67408,0.12,0 F,0,67533,67733,0,0.12 M,0,67533,69533,-48.4849,0,-48.4849,480 S,0,67533,69533,1.51201,1.600959 F,0,69333,69533,0.12,0 F,0,69658,69858,0,0.12 M,0,69658,71658,413.1807,0,413.1807,480 S,0,69658,71658,1.025973,1.996249 F,0,71458,71658,0.12,0 F,0,71783,71983,0,0.12 M,0,71783,73783,5.954066,0,5.954066,480 S,0,71783,73783,1.866429,0.9316875 F,0,73583,73783,0.12,0
Sprite,Background,Centre,"sb\sprites\Hou\snowflakeP2.png",0,0 F,0,137044,,0.1176471 F,0,137044,137244,0,0.1176471 M,0,137044,139044,513.2117,0,513.2117,480 S,0,137044,139044,1.762523,1.698429 P,0,137044,147544,A F,0,138844,139044,0.1176471,0 F,0,139169,139369,0,0.1176471 M,0,139169,141169,506.7927,0,506.7927,480 S,0,139169,141169,1.505779,1.334358 F,0,140969,141169,0.1176471,0 F,0,141294,141494,0,0.1176471 M,0,141294,143294,431.3568,0,431.3568,480 S,0,141294,143294,1.905929,0.9877446 F,0,143094,143294,0.1176471,0 F,0,143419,143619,0,0.1176471 M,0,143419,145419,378.6608,0,378.6608,480 S,0,143419,145419,0.7824677,1.042789 F,0,145219,145419,0.1176471,0 F,0,145544,145744,0,0.1176471 M,0,145544,147544,646.9897,0,646.9897,480 S,0,145544,147544,1.408054,1.720559 F,0,147344,147544,0.1176471,0
Sprite,Background,Centre,"sb\sprites\Hou\snowflakeP2.png",0,0 F,0,137169,,0.1176471 F,0,137169,137369,0,0.1176471 M,0,137169,139169,369.6696,0,369.6696,480 S,0,137169,139169,0.9678431,1.42655 P,0,137169,147669,A F,0,138969,139169,0.1176471,0 F,0,139294,139494,0,0.1176471 M,0,139294,141294,59.45607,0,59.45607,480 S,0,139294,141294,1.841649,1.77305 F,0,141094,141294,0.1176471,0 F,0,141419,141619,0,0.1176471 M,0,141419,143419,686.1163,0,686.1163,480 S,0,141419,143419,0.7864781,1.870136 F,0,143219,143419,0.1176471,0 F,0,143544,143744,0,0.1176471 M,0,143544,145544,612.5463,0,612.5463,480 S,0,143544,145544,1.438512,1.539787 F,0,145344,145544,0.1176471,0 F,0,145669,145869,0,0.1176471 M,0,145669,147669,331.9908,0,331.9908,480 S,0,145669,147669,1.158098,1.989271 F,0,147469,147669,0.1176471,0
Sprite,Background,Centre,"sb\sprites\Hou\snowflakeP2.png",0,0 F,0,137294,,0.1176471 F,0,137294,137494,0,0.1176471 M,0,137294,139294,666.7471,0,666.7471,480 S,0,137294,139294,1.274831,1.970815 P,0,137294,147794,A F,0,139094,139294,0.1176471,0 F,0,139419,139619,0,0.1176471 M,0,139419,141419,521.0295,0,521.0295,480 S,0,139419,141419,1.815685,1.583674 F,0,141219,141419,0.1176471,0 F,0,141544,141744,0,0.1176471 M,0,141544,143544,472.4437,0,472.4437,480 S,0,141544,143544,0.8221714,0.8938267 F,0,143344,143544,0.1176471,0 F,0,143669,143869,0,0.1176471 M,0,143669,145669,333.9767,0,333.9767,480 S,0,143669,145669,1.961165,0.8010219 F,0,145469,145669,0.1176471,0 F,0,145794,145994,0,0.1176471 M,0,145794,147794,-78.43963,0,-78.43963,480 S,0,145794,147794,1.599246,0.8575419 F,0,147594,147794,0.1176471,0
Sprite,Background,Centre,"sb\sprites\Hou\snowflakeP2.png",0,0 F,0,137419,,0.1176471 F,0,137419,137619,0,0.1176471 M,0,137419,139419,126.7436,0,126.7436,480 S,0,137419,139419,1.079478,1.307509 P,0,137419,147919,A F,0,139219,139419,0.1176471,0 F,0,139544,139744,0,0.1176471 M,0,139544,141544,426.6357,0,426.6357,480 S,0,139544,141544,0.9839288,1.863971 F,0,141344,141544,0.1176471,0 F,0,141669,141869,0,0.1176471 M,0,141669,143669,-15.64549,0,-15.64549,480 S,0,141669,143669,1.492831,1.938956 F,0,143469,143669,0.1176471,0 F,0,143794,143994,0,0.1176471 M,0,143794,145794,331.0741,0,331.0741,480 S,0,143794,145794,0.9024949,1.757748 F,0,145594,145794,0.1176471,0 F,0,145919,146119,0,0.1176471 M,0,145919,147919,59.45379,0,59.45379,480 S,0,145919,147919,1.345472,1.455676 F,0,147719,147919,0.1176471,0
Sprite,Background,Centre,"sb\sprites\Hou\snowflakeP2.png",0,0 F,0,137544,,0.1176471 F,0,137544,137744,0,0.1176471 M,0,137544,139544,433.2909,0,433.2909,480 S,0,137544,139544,1.310365,1.976797 P,0,137544,145919,A F,0,139344,139544,0.1176471,0 F,0,139669,139869,0,0.1176471 M,0,139669,141669,658.5596,0,658.5596,480 S,0,139669,141669,0.8125538,1.790153 F,0,141469,141669,0.1176471,0 F,0,141794,141994,0,0.1176471 M,0,141794,143794,311.9939,0,311.9939,480 S,0,141794,143794,0.8924732,1.580895 F,0,143594,143794,0.1176471,0 F,0,143919,144119,0,0.1176471 M,0,143919,145919,441.7132,0,441.7132,480 S,0,143919,145919,1.448011,1.41872 F,0,145719,145919,0.1176471,0
Sprite,Background,Centre,"sb\sprites\Hou\snowflakeP2.png",0,0 F,0,137669,,0.1176471 F,0,137669,137869,0,0.1176471 M,0,137669,139669,-81.06659,0,-81.06659,480 S,0,137669,139669,1.821081,1.993951 P,0,137669,146044,A F,0,139469,139669,0.1176471,0 F,0,139794,139994,0,0.1176471 M,0,139794,141794,38.30198,0,38.30198,480 S,0,139794,141794,1.53735,1.774859 F,0,141594,141794,0.1176471,0 F,0,141919,142119,0,0.1176471 M,0,141919,143919,379.6619,0,379.6619,480 S,0,141919,143919,0.9930241,1.503637 F,0,143719,143919,0.1176471,0 F,0,144044,144244,0,0.1176471 M,0,144044,146044,467.3058,0,467.3058,480 S,0,144044,146044,1.99291,1.092133 F,0,145844,146044,0.1176471,0
Sprite,Background,Centre,"sb\sprites\Hou\snowflakeP2.png",0,0 F,0,137794,,0.1176471 F,0,137794,137994,0,0.1176471 M,0,137794,139794,471.3127,0,471.3127,480 S,0,137794,139794,1.108969,1.76198 P,0,137794,146169,A F,0,139594,139794,0.1176471,0 F,0,139919,140119,0,0.1176471 M,0,139919,141919,80.18626,0,80.18626,480 S,0,139919,141919,1.999964,1.325775 F,0,141719,141919,0.1176471,0 F,0,142044,142244,0,0.1176471 M,0,142044,144044,-102.6598,0,-102.6598,480 S,0,142044,144044,1.169221,1.80563 F,0,143844,144044,0.1176471,0 F,0,144169,144369,0,0.1176471 M,0,144169,146169,-51.95656,0,-51.95656,480 S,0,144169,146169,1.305414,1.327996 F,0,145969,146169,0.1176471,0
Sprite,Background,Centre,"sb\sprites\Hou\snowflakeP2.png",0,0 F,0,137919,,0.1176471 F,0,137919,138119,0,0.1176471 M,0,137919,139919,617.2362,0,617.2362,480 S,0,137919,139919,1.989473,0.7424127 P,0,137919,146294,A F,0,139719,139919,0.1176471,0 F,0,140044,140244,0,0.1176471 M,0,140044,142044,449.9833,0,449.9833,480 S,0,140044,142044,1.635644,1.752301 F,0,141844,142044,0.1176471,0 F,0,142169,142369,0,0.1176471 M,0,142169,144169,-53.78861,0,-53.78861,480 S,0,142169,144169,1.066141,1.616469 F,0,143969,144169,0.1176471,0 F,0,144294,144494,0,0.1176471 M,0,144294,146294,77.72532,0,77.72532,480 S,0,144294,146294,0.7931965,0.9993129 F,0,146094,146294,0.1176471,0
Sprite,Background,Centre,"sb\sprites\Hou\snowflakeP2.png",0,0 F,0,138044,,0.1176471 F,0,138044,138244,0,0.1176471 M,0,138044,140044,490.7505,0,490.7505,480 S,0,138044,140044,1.384169,1.914224 P,0,138044,146419,A F,0,139844,140044,0.1176471,0 F,0,140169,140369,0,0.1176471 M,0,140169,142169,-20.80117,0,-20.80117,480 S,0,140169,142169,1.647822,1.633986 F,0,141969,142169,0.1176471,0 F,0,142294,142494,0,0.1176471 M,0,142294,144294,711.6276,0,711.6276,480 S,0,142294,144294,1.985456,1.203278 F,0,144094,144294,0.1176471,0 F,0,144419,144619,0,0.1176471 M,0,144419,146419,21.81108,0,21.81108,480 S,0,144419,146419,1.28097,1.286403 F,0,146219,146419,0.1176471,0
Sprite,Background,Centre,"sb\sprites\Hou\snowflakeP2.png",0,0 F,0,138169,,0.1176471 F,0,138169,138369,0,0.1176471 M,0,138169,140169,480.2277,0,480.2277,480 S,0,138169,140169,1.41086,0.8054429 P,0,138169,146544,A F,0,139969,140169,0.1176471,0 F,0,140294,140494,0,0.1176471 M,0,140294,142294,0.2002701,0,0.2002701,480 S,0,140294,142294,1.876729,0.9458609 F,0,142094,142294,0.1176471,0 F,0,142419,142619,0,0.1176471 M,0,142419,144419,339.4201,0,339.4201,480 S,0,142419,144419,1.064423,1.358549 F,0,144219,144419,0.1176471,0 F,0,144544,144744,0,0.1176471 M,0,144544,146544,-90.04867,0,-90.04867,480 S,0,144544,146544,1.205489,1.760858 F,0,146344,146544,0.1176471,0
Sprite,Background,Centre,"sb\sprites\Hou\snowflakeP2.png",0,0 F,0,138294,,0.1176471 F,0,138294,138494,0,0.1176471 M,0,138294,140294,52.80439,0,52.80439,480 S,0,138294,140294,1.289325,1.086323 P,0,138294,146669,A F,0,140094,140294,0.1176471,0 F,0,140419,140619,0,0.1176471 M,0,140419,142419,300.1956,0,300.1956,480 S,0,140419,142419,1.403034,1.123151 F,0,142219,142419,0.1176471,0 F,0,142544,142744,0,0.1176471 M,0,142544,144544,346.9685,0,346.9685,480 S,0,142544,144544,0.7741109,1.06472 F,0,144344,144544,0.1176471,0 F,0,144669,144869,0,0.1176471 M,0,144669,146669,66.02398,0,66.02398,480 S,0,144669,146669,1.887718,0.7384501 F,0,146469,146669,0.1176471,0
Sprite,Background,Centre,"sb\sprites\Hou\snowflakeP2.png",0,0 F,0,138419,,0.1176471 F,0,138419,138619,0,0.1176471 M,0,138419,140419,737.2164,0,737.2164,480 S,0,138419,140419,1.535507,1.691853 P,0,138419,146794,A F,0,140219,140419,0.1176471,0 F,0,140544,140744,0,0.1176471 M,0,140544,142544,466.0653,0,466.0653,480 S,0,140544,142544,1.308917,1.783546 F,0,142344,142544,0.1176471,0 F,0,142669,142869,0,0.1176471 M,0,142669,144669,316.6512,0,316.6512,480 S,0,142669,144669,1.80034,1.497105 F,0,144469,144669,0.1176471,0 F,0,144794,144994,0,0.1176471 M,0,144794,146794,328.08,0,328.08,480 S,0,144794,146794,1.951756,1.991643 F,0,146594,146794,0.1176471,0
Sprite,Background,Centre,"sb\sprites\Hou\snowflakeP2.png",0,0 F,0,138544,,0.1176471 F,0,138544,138744,0,0.1176471 M,0,138544,140544,-81.04327,0,-81.04327,480 S,0,138544,140544,1.195306,1.146084 P,0,138544,146919,A F,0,140344,140544,0.1176471,0 F,0,140669,140869,0,0.1176471 M,0,140669,142669,584.0601,0,584.0601,480 S,0,140669,142669,1.731719,1.693858 F,0,142469,142669,0.1176471,0 F,0,142794,142994,0,0.1176471 M,0,142794,144794,-18.04851,0,-18.04851,480 S,0,142794,144794,1.665028,1.222439 F,0,144594,144794,0.1176471,0 F,0,144919,145119,0,0.1176471 M,0,144919,146919,-92.59311,0,-92.59311,480 S,0,144919,146919,1.549574,1.061828 F,0,146719,146919,0.1176471,0
Sprite,Background,Centre,"sb\sprites\Hou\snowflakeP2.png",0,0 F,0,138669,,0.1176471 F,0,138669,138869,0,0.1176471 M,0,138669,140669,710.6667,0,710.6667,480 S,0,138669,140669,1.356668,1.630764 P,0,138669,147044,A F,0,140469,140669,0.1176471,0 F,0,140794,140994,0,0.1176471 M,0,140794,142794,693.6595,0,693.6595,480 S,0,140794,142794,1.083496,1.379621 F,0,142594,142794,0.1176471,0 F,0,142919,143119,0,0.1176471 M,0,142919,144919,690.1173,0,690.1173,480 S,0,142919,144919,0.8699079,1.609548 F,0,144719,144919,0.1176471,0 F,0,145044,145244,0,0.1176471 M,0,145044,147044,718.9612,0,718.9612,480 S,0,145044,147044,1.46413,1.703862 F,0,146844,147044,0.1176471,0
Sprite,Background,Centre,"sb\sprites\Hou\snowflakeP2.png",0,0 F,0,138794,,0.1176471 F,0,138794,138994,0,0.1176471 M,0,138794,140794,-5.4101,0,-5.4101,480 S,0,138794,140794,1.055487,1.879227 P,0,138794,147169,A F,0,140594,140794,0.1176471,0 F,0,140919,141119,0,0.1176471 M,0,140919,142919,459.5375,0,459.5375,480 S,0,140919,142919,1.132366,1.072739 F,0,142719,142919,0.1176471,0 F,0,143044,143244,0,0.1176471 M,0,143044,145044,418.5589,0,418.5589,480 S,0,143044,145044,1.779738,1.590665 F,0,144844,145044,0.1176471,0 F,0,145169,145369,0,0.1176471 M,0,145169,147169,169.8386,0,169.8386,480 S,0,145169,147169,1.246553,1.967413 F,0,146969,147169,0.1176471,0
Sprite,Background,Centre,"sb\sprites\Hou\snowflakeP2.png",0,0 F,0,138919,,0.1176471 F,0,138919,139119,0,0.1176471 M,0,138919,140919,571.7298,0,571.7298,480 S,0,138919,140919,1.138308,1.294371 P,0,138919,147294,A F,0,140719,140919,0.1176471,0 F,0,141044,141244,0,0.1176471 M,0,141044,143044,593.801,0,593.801,480 S,0,141044,143044,0.9892733,0.9429331 F,0,142844,143044,0.1176471,0 F,0,143169,143369,0,0.1176471 M,0,143169,145169,379.5601,0,379.5601,480 S,0,143169,145169,0.9245979,0.9398926 F,0,144969,145169,0.1176471,0 F,0,145294,145494,0,0.1176471 M,0,145294,147294,649.6436,0,649.6436,480 S,0,145294,147294,1.964753,1.031727 F,0,147094,147294,0.1176471,0
Sprite,Background,Centre,"sb\sprites\Hou\snowflakeP2.png",0,0 F,0,139044,,0.1176471 F,0,139044,139244,0,0.1176471 M,0,139044,141044,18.38858,0,18.38858,480 S,0,139044,141044,0.9877092,1.233095 P,0,139044,147419,A F,0,140844,141044,0.1176471,0 F,0,141169,141369,0,0.1176471 M,0,141169,143169,-48.4849,0,-48.4849,480 S,0,141169,143169,1.51201,1.600959 F,0,142969,143169,0.1176471,0 F,0,143294,143494,0,0.1176471 M,0,143294,145294,413.1807,0,413.1807,480 S,0,143294,145294,1.025973,1.996249 F,0,145094,145294,0.1176471,0 F,0,145419,145619,0,0.1176471 M,0,145419,147419,5.954066,0,5.954066,480 S,0,145419,147419,1.866429,0.9316875 F,0,147219,147419,0.1176471,0
Sprite,Background,Centre,"sb\sprites\Hou\bgCloverBlured.png",320,240 M,19,63408,68862,453.8182,493.0909,453.8182,313.8564 R,1,63408,68862,-0.2,0 F,19,63408,74317,1,0 S,19,63408,74317,1,0.65 M,2,68862,74317,453.8182,313.8564,493.3818,310.4 R,2,68862,74317,0,0.2
Sprite,Background,Centre,"sb\sprites\Hou\bgClover.png",320,240 M,19,63408,68862,453.8182,493.0909,453.8182,313.8564 R,1,63408,68862,-0.2,0 F,19,63408,74317,0,1 S,19,63408,74317,1,0.65 M,2,68862,74296,453.8182,313.8564,493.0778,310.4265 R,2,68862,74296,0,0.2 M,2,74296,74317,493.0778,310.4265,525,328 R,2,74296,74317,0.2,0.7 M,1,74317,77044,525,328,547,328 R,1,74317,77044,0.7,0.85 M,2,77044,79771,547,328,525,328 R,2,77044,79771,0.85,0.7 M,1,79771,82499,525,328,547,328 R,1,79771,82499,0.7,0.85 M,2,82499,85226,547,328,525,328 R,2,82499,85226,0.85,0.7 M,1,85226,86590,525,328,537,328 R,1,85226,86590,0.7,0.75
Sprite,Background,Centre,"sb\sprites\Hou\bgCloverBlured.png",320,240 M,19,137044,142499,453.8182,493.0909,453.8182,313.8564 R,1,137044,142499,-0.2,0 F,19,137044,147953,1,0 S,19,137044,147953,1,0.65 M,2,142499,147953,453.8182,313.8564,493.3818,310.4 R,2,142499,147953,0,0.2
Sprite,Background,Centre,"sb\sprites\Hou\bgClover.png",320,240 M,19,137044,142499,453.8182,493.0909,453.8182,313.8564 R,1,137044,142499,-0.2,0 F,19,137044,147953,0,1 S,19,137044,147953,1,0.65 M,2,142499,147932,453.8182,313.8564,493.0778,310.4265 R,2,142499,147932,0,0.2 M,2,147932,147953,493.0778,310.4265,525,328 R,2,147932,147953,0.2,0.7 M,1,147953,150681,525,328,547,328 R,1,147953,150681,0.7,0.85 M,2,150681,153408,547,328,525,328 R,2,150681,153408,0.85,0.7 M,1,153408,156135,525,328,547,328 R,1,153408,156135,0.7,0.85 M,2,156135,158862,547,328,525,328 R,2,156135,158862,0.85,0.7 M,1,158862,160226,525,328,537,328 R,1,158862,160226,0.7,0.75
Sprite,Background,Centre,"sb\sprites\Hou\bgClover.png",320,240 M,0,205226,,400.8727,297.0182 F,0,205226,,0.805091 C,0,205226,,0,0,0 S,0,205226,210681,0.9185452,0.7323636
Sprite,Background,Centre,"sb\sprites\Hou\bgClover.png",320,240 S,0,210681,,1,0.65 M,1,210681,213408,525,328,547,328 R,1,210681,213408,0.7,0.85 M,2,213408,216135,547,328,525,328 R,2,213408,216135,0.85,0.7 M,1,216135,218863,525,328,547,328 R,1,216135,218863,0.7,0.85 M,2,218863,221590,547,328,525,328 R,2,218863,221590,0.85,0.7 M,1,221590,224317,525,328,547,328 R,1,221590,224317,0.7,0.85 M,2,224317,227044,547,328,525,328 R,2,224317,227044,0.85,0.7 M,1,227044,228408,525,328,537,328 R,1,227044,228408,0.7,0.75
Sprite,Background,Centre,"sb\visual\square.jpg",320,240 M,0,64431,,320,240 F,0,64431,,0.63 C,0,64431,,0,0,0 V,19,64431,64771,0,0.53,5.5,0.53 V,0,64771,69885,5.5,0.53 V,1,69885,70226,5.5,0.53,6.8,0.53 F,0,86590,,0.63
Sprite,Background,Centre,"sb\lyrics\39.png",320,240 S,0,64431,,0.8487 M,1,64431,64771,320,256.8727,320,240 F,0,64431,64771,0,1 F,0,64771,66817,1 F,0,66817,67158,1,0
Sprite,Background,Centre,"sb\lyrics\40.png",320,240 M,0,67158,,320,240 S,0,67158,,0.8487 F,0,67158,67499,0,1 F,0,67499,69544,1 F,0,69544,69885,1,0
Sprite,Background,Centre,"sb\lyrics\41.png",320,240 M,0,69885,,88.43636,241.1636 S,0,69885,,0.82 F,0,69885,70226,0,1 F,0,70226,74317,1
Sprite,Background,Centre,"sb\lyrics\42.png",320,240 M,0,71590,,497.4545,240 S,0,71590,,0.82 F,0,71590,71931,0,1 F,0,71931,74317,1
Sprite,Background,Centre,"sb\lyrics\43.png",320,240 S,0,74317,,0.82 F,0,74317,74658,0,1 M,0,74317,77044,434.6182,240,208.2909,240 F,0,74658,76703,1 F,0,76703,77044,1,0
Sprite,Background,Centre,"sb\lyrics\44.png",320,240 S,0,77044,,0.82 F,0,77044,77385,0,1 M,0,77044,79771,384.5818,240,260.6545,240 F,0,77385,79431,1 F,0,79431,79771,1,0
Sprite,Background,Centre,"sb\lyrics\6.png",320,240 S,0,79771,,0.87 F,0,79771,80112,0,1 M,0,79771,81135,466.6181,240,139.6364,240 F,0,80112,80794,1 F,0,80794,81135,1,0
Sprite,Background,Centre,"sb\lyrics\45.png",320,240 S,0,81135,,0.87 F,0,81135,81476,0,1 M,0,81135,83181,493.3818,240,114.6182,240 F,0,81476,82840,1 F,0,82840,83181,1,0
Sprite,Background,Centre,"sb\lyrics\46.png",320,240 S,0,83181,,0.87 F,0,83181,83521,0,1 M,0,83181,86590,445.0909,240,162.9091,240
Sprite,Background,Centre,"sb\visual\square.jpg",320,240 M,0,138067,,320,240 F,0,138067,,0.63 C,0,138067,,0,0,0 V,19,138067,138408,0,0.53,3.1,0.53 V,0,138408,140794,3.1,0.53 V,0,140794,141135,3.1,0.53,3.705091,0.53 V,0,141135,143521,3.7,0.53 V,0,143521,147953,3.7,0.53 V,0,147953,148294,3.7,0.53,5.2,0.53 F,0,160227,,0.63
Sprite,Background,Centre,"sb\lyrics\68.png",320,240 S,0,138067,,0.8487 M,1,138067,138408,320,256.8727,320,240 F,0,138067,138408,0,1 F,0,138408,140453,1 F,0,140453,140794,1,0
Sprite,Background,Centre,"sb\lyrics\69.png",320,240 M,0,140794,,320,240 S,0,140794,,0.8487 F,0,140794,141135,0,1 F,0,141135,143181,1 F,0,143181,143521,1,0
Sprite,Background,Centre,"sb\lyrics\70.png",320,240 M,0,143521,,320,240 S,0,143521,,0.82 F,0,143521,143862,0,1 F,0,143862,147953,1
Sprite,Background,Centre,"sb\lyrics\71.png",320,240 M,0,147953,,320,240 S,0,147953,,0.82 F,0,147953,148294,0,1 F,0,148294,150340,1 F,0,150340,150681,1,0
Sprite,Background,Centre,"sb\lyrics\72.png",320,240 S,0,150681,,0.82 F,0,150681,151021,0,1 F,0,151021,153067,1 F,0,153067,153408,1,0
Sprite,Background,Centre,"sb\lyrics\6.png",320,240 S,0,153408,,0.87 F,0,153408,153749,0,1 M,0,153408,154771,469.5273,240,170.4727,241.1636 F,0,153749,154431,1 F,0,154431,154771,1,0
Sprite,Background,Centre,"sb\lyrics\45.png",320,240 S,0,154771,,0.87 F,0,154771,155112,0,1 M,0,154771,156817,492.8,240,146.6182,240 F,0,155112,156476,1 F,0,156476,156817,1,0
Sprite,Background,Centre,"sb\lyrics\46.png",320,240 S,0,156817,,0.87 F,0,156817,157158,0,1 M,0,156817,160226,442.1818,240,197.2364,240
Sprite,Background,Centre,"sb\lyrics\39.png",320,240 M,0,206249,,320,240 S,0,206249,,0.8429089 F,0,206249,206590,0,1 F,0,206590,208635,1 F,0,208635,208976,1,0
Sprite,Background,Centre,"sb\visual\square.jpg",320,240 M,0,210681,,320,240 F,0,210681,,0.63 C,0,210681,,0,0,0 V,0,210681,,5.5,0.53 V,1,211703,212044,5.5,0.53,6.8,0.53 F,0,228408,,0.63
Sprite,Background,Centre,"sb\lyrics\40.png",320,240 M,0,208976,,320,240 S,0,208976,,0.8487 F,0,208976,209317,0,1 F,0,209317,211362,1 F,0,211362,211703,1,0
Sprite,Background,Centre,"sb\lyrics\41.png",320,240 M,0,211703,,88.43636,241.1636 S,0,211703,,0.82 F,0,211703,212044,0,1 F,0,212044,216135,1
Sprite,Background,Centre,"sb\lyrics\42.png",320,240 M,0,213408,,497.4545,240 S,0,213408,,0.82 F,0,213408,213749,0,1 F,0,213749,216135,1
Sprite,Background,Centre,"sb\lyrics\43.png",320,240 S,0,216135,,0.82 F,0,216135,216476,0,1 M,0,216135,218862,434.6182,240,208.2909,240 F,0,216476,218521,1 F,0,218521,218862,1,0
Sprite,Background,Centre,"sb\lyrics\44.png",320,240 S,0,218862,,0.82 F,0,218862,219203,0,1 M,0,218862,221590,384.5818,240,260.6545,240 F,0,219203,221249,1 F,0,221249,221590,1,0
Sprite,Background,Centre,"sb\lyrics\6.png",320,240 S,0,221590,,0.87 F,0,221590,221931,0,1 M,0,221590,222952,466.6181,240,139.6364,240 F,0,221931,222621,1 F,0,222621,222952,1,0
Sprite,Background,Centre,"sb\lyrics\45.png",320,240 S,0,222952,,0.87 F,0,222952,223249,0,1 M,0,222952,224658,493.3818,240,114.6182,240 F,0,223249,224372,1 F,0,224372,224658,1,0
Sprite,Background,Centre,"sb\lyrics\46.png",320,240 S,0,224999,,0.87 F,0,224999,225340,0,1 M,0,224999,228408,445.0909,240,162.9091,240
Sprite,Background,Centre,"sb\visual\circleB.png",194,398 C,0,11590,,114,191,204 F,2,11590,11790,1,0 S,2,11590,11790,1,0.2 P,0,11590,11790,A
Sprite,Background,Centre,"sb\visual\circleB.png",206,302 C,0,11760,,114,191,204 F,2,11760,11960,1,0 S,2,11760,11960,1,0.2 P,0,11760,11960,A
Sprite,Background,Centre,"sb\visual\circleB.png",504,365 C,0,11931,,114,191,204 F,2,11931,12131,1,0 S,2,11931,12131,1,0.2 P,0,11931,12131,A
Sprite,Background,Centre,"sb\visual\circleB.png",402,355 C,0,12101,,114,191,204 F,2,12101,12301,1,0 S,2,12101,12301,1,0.2 P,0,12101,12301,A
Sprite,Background,Centre,"sb\visual\circleB.png",401,84 C,0,12272,,114,191,204 F,2,12272,12472,1,0 S,2,12272,12472,1,0.2 P,0,12272,12472,A
Sprite,Background,Centre,"sb\visual\circleB.png",417,196 C,0,12442,,114,191,204 F,2,12442,12642,1,0 S,2,12442,12642,1,0.2 P,0,12442,12642,A
Sprite,Background,Centre,"sb\visual\circleB.png",151,136 C,0,12612,,114,191,204 F,2,12612,12812,1,0 S,2,12612,12812,1,0.2 P,0,12612,12812,A
Sprite,Background,Centre,"sb\visual\circleB.png",261,124 C,0,12782,,114,191,204 F,2,12782,12982,1,0 S,2,12782,12982,1,0.2 P,0,12782,12982,A
Sprite,Background,Centre,"sb\visual\circleB.png",0,0 C,0,14317,,114,191,204 M,0,14317,14359,289,318,294.8237,300.9953 F,2,14317,14687,1,0 S,2,14317,14687,1,0.2 P,0,14317,14687,A M,0,14359,14402,294.8237,300.9953,298.0504,283.3226 M,0,14402,14444,298.0504,283.3226,298.611,265.3743 M,0,14444,14487,298.611,265.3743,296.6597,247.5118
Sprite,Background,Centre,"sb\visual\circleB.png",248,107 C,0,14658,,114,191,204 F,2,14658,14858,1,0 S,2,14658,14858,1,0.2 P,0,14658,14858,A
Sprite,Background,Centre,"sb\visual\circleB.png",0,0 C,0,14828,,114,191,204 M,0,14828,14870,143,280,160.9391,278.5205 F,2,14828,15198,1,0 S,2,14828,15198,1,0.2 P,0,14828,15198,A M,0,14870,14913,160.9391,278.5205,178.8782,277.041 M,0,14913,14955,178.8782,277.041,196.8173,275.5615 M,0,14955,14998,196.8173,275.5615,214.7564,274.082
Sprite,Background,Centre,"sb\visual\circleB.png",411,320 C,0,15169,,114,191,204 F,2,15169,15369,1,0 S,2,15169,15369,1,0.2 P,0,15169,15369,A
Sprite,Background,Centre,"sb\visual\circleB.png",0,0 C,0,15340,,114,191,204 M,0,15340,15382,154,359,152.9045,341.0334 F,2,15340,15710,1,0 S,2,15340,15710,1,0.2 P,0,15340,15710,A M,0,15382,15425,152.9045,341.0334,151.8089,323.0667 M,0,15425,15467,151.8089,323.0667,150.7134,305.1001 M,0,15467,15510,150.7134,305.1001,149.6179,287.1335
Sprite,Background,Centre,"sb\visual\circleB.png",216,110 C,0,15681,,114,191,204 F,2,15681,15881,1,0 S,2,15681,15881,1,0.2 P,0,15681,15881,A
Sprite,Background,Centre,"sb\visual\circleB.png",296,247 C,0,15851,,114,191,204 F,2,15851,16051,1,0 S,2,15851,16051,1,0.2 P,0,15851,16051,A
Sprite,Background,Centre,"sb\visual\circleB.png",100,172 C,0,16021,,114,191,204 F,2,16021,16221,1,0 S,2,16021,16221,1,0.2 P,0,16021,16221,A
Sprite,Background,Centre,"sb\visual\circleB.png",100,172 C,0,16192,,114,191,204 F,2,16192,16392,1,0 S,2,16192,16392,1,0.2 P,0,16192,16392,A
Sprite,Background,Centre,"sb\visual\circleB.png",300,256 C,0,16362,,114,191,204 F,2,16362,16562,1,0 S,2,16362,16562,1,0.2 P,0,16362,16562,A
Sprite,Background,Centre,"sb\visual\circleB.png",317,98 C,0,16533,,114,191,204 F,2,16533,16733,1,0 S,2,16533,16733,1,0.2 P,0,16533,16733,A
Sprite,Background,Centre,"sb\visual\circleB.png",91,272 C,0,16703,,114,191,204 F,2,16703,16903,1,0 S,2,16703,16903,1,0.2 P,0,16703,16903,A
Sprite,Background,Centre,"sb\visual\circleB.png",95,272 C,0,16788,,114,191,204 F,2,16788,16988,1,0 S,2,16788,16988,1,0.2 P,0,16788,16988,A
Sprite,Background,Centre,"sb\visual\circleB.png",99,272 C,0,16874,,114,191,204 F,2,16874,17074,1,0 S,2,16874,17074,1,0.2 P,0,16874,17074,A
Sprite,Background,Centre,"sb\visual\circleB.png",103,272 C,0,16959,,114,191,204 F,2,16959,17159,1,0 S,2,16959,17159,1,0.2 P,0,16959,17159,A
Sprite,Background,Centre,"sb\visual\circleB.png",371,227 C,0,56249,,114,191,204 F,2,56249,56449,1,0 S,2,56249,56449,1,0.2 P,0,56249,56449,A
Sprite,Background,Centre,"sb\visual\circleB.png",296,364 C,0,56590,,114,191,204 F,2,56590,56790,1,0 S,2,56590,56790,1,0.2 P,0,56590,56790,A
Sprite,Background,Centre,"sb\visual\circleB.png",371,227 C,0,57101,,114,191,204 F,2,57101,57301,1,0 S,2,57101,57301,1,0.2 P,0,57101,57301,A
Sprite,Background,Centre,"sb\visual\circleB.png",121,278 C,0,57442,,114,191,204 F,2,57442,57642,1,0 S,2,57442,57642,1,0.2 P,0,57442,57642,A
Sprite,Background,Centre,"sb\visual\circleB.png",120,183 C,0,57783,,114,191,204 F,2,57783,57983,1,0 S,2,57783,57983,1,0.2 P,0,57783,57983,A
Sprite,Background,Centre,"sb\visual\circleB.png",0,0 C,0,57953,,114,191,204 M,0,57953,57995,120,183,118.617,168.0639 F,2,57953,58238,1,0 S,2,57953,58238,1,0.2 P,0,57953,58238,A M,0,57995,58038,118.617,168.0639,117.2341,153.1278
Sprite,Background,Centre,"sb\visual\circleB.png",0,0 C,0,58124,,114,191,204 M,0,58124,58166,200,196,198.617,181.0639 F,2,58124,58409,1,0 S,2,58124,58409,1,0.2 P,0,58124,58409,A M,0,58166,58209,198.617,181.0639,197.2341,166.1278
Sprite,Background,Centre,"sb\visual\circleB.png",0,0 C,0,58294,,114,191,204 M,0,58294,58336,280,209,278.617,194.0639 F,2,58294,58579,1,0 S,2,58294,58579,1,0.2 P,0,58294,58579,A M,0,58336,58379,278.617,194.0639,277.2341,179.1278
Sprite,Background,Centre,"sb\visual\circleB.png",0,0 C,0,58465,,114,191,204 M,0,58465,58507,360,222,358.5074,207.0744 F,2,58465,58750,1,0 S,2,58465,58750,1,0.2 P,0,58465,58750,A M,0,58507,58550,358.5074,207.0744,357.0149,192.1489
Sprite,Background,Centre,"sb\visual\circleB.png",0,0 C,0,58635,,114,191,204 M,0,58635,58677,440,235,438.5074,220.0744 F,2,58635,58920,1,0 S,2,58635,58920,1,0.2 P,0,58635,58920,A M,0,58677,58720,438.5074,220.0744,437.0149,205.1489
Sprite,Background,Centre,"sb\visual\circleB.png",0,0 C,0,58806,,114,191,204 M,0,58806,58848,520,248,518.5074,233.0744 F,2,58806,59091,1,0 S,2,58806,59091,1,0.2 P,0,58806,59091,A M,0,58848,58891,518.5074,233.0744,517.0149,218.1489
Sprite,Background,Centre,"sb\visual\circleB.png",0,0 C,0,58976,,114,191,204 M,0,58976,59018,476,321,477.032,335.9644 F,2,58976,59261,1,0 S,2,58976,59261,1,0.2 P,0,58976,59261,A M,0,59018,59061,477.032,335.9644,478,350
Sprite,Background,Centre,"sb\visual\circleB.png",0,0 C,0,59146,,114,191,204 M,0,59146,59188,396,308,397.032,322.9644 F,2,59146,59431,1,0 S,2,59146,59431,1,0.2 P,0,59146,59431,A M,0,59188,59231,397.032,322.9644,398,337
Sprite,Background,Centre,"sb\visual\circleB.png",0,0 C,0,59317,,114,191,204 M,0,59317,59359,316,295,317.032,309.9645 F,2,59317,59602,1,0 S,2,59317,59602,1,0.2 P,0,59317,59602,A M,0,59359,59402,317.032,309.9645,318,324
Sprite,Background,Centre,"sb\visual\circleB.png",0,0 C,0,59487,,114,191,204 M,0,59487,59529,236,282,237.032,296.9645 F,2,59487,59772,1,0 S,2,59487,59772,1,0.2 P,0,59487,59772,A M,0,59529,59572,237.032,296.9645,238,311
Sprite,Background,Centre,"sb\visual\circleB.png",0,0 C,0,59657,,114,191,204 M,0,59657,59699,156,269,157.032,283.9645 F,2,59657,59942,1,0 S,2,59657,59942,1,0.2 P,0,59657,59942,A M,0,59699,59742,157.032,283.9645,158,298
Sprite,Background,Centre,"sb\visual\circleB.png",0,0 C,0,59828,,114,191,204 M,0,59828,59870,76,256,77.03203,270.9645 F,2,59828,60113,1,0 S,2,59828,60113,1,0.2 P,0,59828,60113,A M,0,59870,59913,77.03203,270.9645,78,285
Sprite,Background,Centre,"sb\visual\circleB.png",0,0 C,0,59999,,114,191,204 M,0,59999,60041,268,178,266.4565,192.9204 F,2,59999,60284,1,0 S,2,59999,60284,1,0.2 P,0,59999,60284,A M,0,60041,60084,266.4565,192.9204,265,207
Sprite,Background,Centre,"sb\visual\circleB.png",0,0 C,0,60169,,114,191,204 M,0,60169,60211,372,179,373.032,193.9645 F,2,60169,60454,1,0 S,2,60169,60454,1,0.2 P,0,60169,60454,A M,0,60211,60254,373.032,193.9645,374,208
Sprite,Background,Centre,"sb\visual\circleB.png",0,0 C,0,60340,,114,191,204 M,0,60340,60382,259,169,252.2918,182.4164 F,2,60340,60625,1,0 S,2,60340,60625,1,0.2 P,0,60340,60625,A M,0,60382,60425,252.2918,182.4164,245.5836,195.8328
Sprite,Background,Centre,"sb\visual\circleB.png",0,0 C,0,60510,,114,191,204 M,0,60510,60552,384,174,390.7082,187.4164 F,2,60510,60795,1,0 S,2,60510,60795,1,0.2 P,0,60510,60795,A M,0,60552,60595,390.7082,187.4164,397.4164,200.8328
Sprite,Background,Centre,"sb\visual\circleB.png",0,0 C,0,60681,,114,191,204 M,0,60681,60723,320,388,320,361.8 F,2,60681,61051,1,0 S,2,60681,61051,1,0.2 P,0,60681,61051,A M,0,60723,60766,320,361.8,320,335.6 M,0,60766,60808,320,335.6,320,309.4 M,0,60808,60851,320,309.4,320,283.2
Sprite,Background,Centre,"sb\visual\circleB.png",320,108 C,0,61021,,114,191,204 F,2,61021,61221,1,0 S,2,61021,61221,1,0.2 P,0,61021,61221,A
Sprite,Background,Centre,"sb\visual\circleB.png",0,0 C,0,61192,,114,191,204 M,0,61192,61234,221,318,218.2442,291.9453 F,2,61192,61562,1,0 S,2,61192,61562,1,0.2 P,0,61192,61562,A M,0,61234,61277,218.2442,291.9453,215.4884,265.8907 M,0,61277,61319,215.4884,265.8907,212.7327,239.836 M,0,61319,61362,212.7327,239.836,210,214
Sprite,Background,Centre,"sb\visual\circleB.png",419,318 C,0,61533,,114,191,204 F,2,61533,61733,1,0 S,2,61533,61733,1,0.2 P,0,61533,61733,A
Sprite,Background,Centre,"sb\visual\circleB.png",430,213 C,0,61703,,114,191,204 F,2,61703,61903,1,0 S,2,61703,61903,1,0.2 P,0,61703,61903,A
Sprite,Background,Centre,"sb\visual\circleB.png",0,0 C,0,61874,,114,191,204 M,0,61874,61916,221,318,218.2775,291.9418 F,2,61874,62159,1,0 S,2,61874,62159,1,0.2 P,0,61874,62159,A M,0,61916,61959,218.2775,291.9418,215.555,265.8837
Sprite,Background,Centre,"sb\visual\circleB.png",258,345 C,0,129885,,114,191,204 F,2,129885,130085,1,0 S,2,129885,130085,1,0.2 P,0,129885,130085,A
Sprite,Background,Centre,"sb\visual\circleB.png",76,299 C,0,130226,,114,191,204 F,2,130226,130426,1,0 S,2,130226,130426,1,0.2 P,0,130226,130426,A
Sprite,Background,Centre,"sb\visual\circleB.png",258,345 C,0,130567,,114,191,204 F,2,130567,130767,1,0 S,2,130567,130767,1,0.2 P,0,130567,130767,A
Sprite,Background,Centre,"sb\visual\circleB.png",258,345 C,0,130737,,114,191,204 F,2,130737,130937,1,0 S,2,130737,130937,1,0.2 P,0,130737,130937,A
Sprite,Background,Centre,"sb\visual\circleB.png",203,198 C,0,131078,,114,191,204 F,2,131078,131278,1,0 S,2,131078,131278,1,0.2 P,0,131078,131278,A
Sprite,Background,Centre,"sb\visual\circleB.png",130,403 C,0,131419,,114,191,204 F,2,131419,131619,1,0 S,2,131419,131619,1,0.2 P,0,131419,131619,A
Sprite,Background,Centre,"sb\visual\circleB.png",0,0 C,0,131590,,114,191,204 M,0,131590,131632,129,403,123.8068,388.997 F,2,131590,131875,1,0 S,2,131590,131875,1,0.2 P,0,131590,131875,A M,0,131632,131675,123.8068,388.997,120.4498,374.444
Sprite,Background,Centre,"sb\visual\circleB.png",0,0 C,0,131760,,114,191,204 M,0,131760,131802,200,360,197.0248,345.3785 F,2,131760,132045,1,0 S,2,131760,132045,1,0.2 P,0,131760,132045,A M,0,131802,131845,197.0248,345.3785,196.1151,330.4811
Sprite,Background,Centre,"sb\visual\circleB.png",0,0 C,0,131931,,114,191,204 M,0,131931,131973,277,329,276.093,314.1031 F,2,131931,132216,1,0 S,2,131931,132216,1,0.2 P,0,131931,132216,A M,0,131973,132016,276.093,314.1031,277.8877,299.3391
Sprite,Background,Centre,"sb\visual\circleB.png",0,0 C,0,132101,,114,191,204 M,0,132101,132143,358,311,360.1189,296.2073 F,2,132101,132386,1,0 S,2,132101,132386,1,0.2 P,0,132101,132386,A M,0,132143,132186,360.1189,296.2073,364.5349,281.9722
Sprite,Background,Centre,"sb\visual\circleB.png",0,0 C,0,132272,,114,191,204 M,0,132272,132314,440,309,444.1172,294.6508 F,2,132272,132557,1,0 S,2,132272,132557,1,0.2 P,0,132272,132557,A M,0,132314,132357,444.1172,294.6508,450.689,281.3023
Sprite,Background,Centre,"sb\visual\circleB.png",0,0 C,0,132442,,114,191,204 M,0,132442,132484,521,321,528.1995,307.9143 F,2,132442,132727,1,0 S,2,132442,132727,1,0.2 P,0,132442,132727,A M,0,132484,132527,528.1995,307.9143,537.0015,295.846
Sprite,Background,Centre,"sb\visual\circleB.png",0,0 C,0,132612,,114,191,204 M,0,132612,132654,530,185,520.5231,196.4164 F,2,132612,132897,1,0 S,2,132612,132897,1,0.2 P,0,132612,132897,A M,0,132654,132697,520.5231,196.4164,513.2471,209.4383
Sprite,Background,Centre,"sb\visual\circleB.png",0,0 C,0,132782,,114,191,204 M,0,132782,132824,444,170,436.7667,182.9513 F,2,132782,133067,1,0 S,2,132782,133067,1,0.2 P,0,132782,133067,A M,0,132824,132867,436.7667,182.9513,432,197
Sprite,Background,Centre,"sb\visual\circleB.png",0,0 C,0,132953,,114,191,204 M,0,132953,132995,357,170,352.4896,184.2031 F,2,132953,133238,1,0 S,2,132953,133238,1,0.2 P,0,132953,133238,A M,0,132995,133038,352.4896,184.2031,350.0052,198.946
Sprite,Background,Centre,"sb\visual\circleB.png",0,0 C,0,133123,,114,191,204 M,0,133123,133165,271,188,268.6597,202.6406 F,2,133123,133408,1,0 S,2,133123,133408,1,0.2 P,0,133123,133408,A M,0,133165,133208,268.6597,202.6406,269,217
Sprite,Background,Centre,"sb\visual\circleB.png",0,0 C,0,133294,,114,191,204 M,0,133294,133336,189,219,189.5959,233.8999 F,2,133294,133579,1,0 S,2,133294,133579,1,0.2 P,0,133294,133579,A M,0,133336,133379,189.5959,233.8999,192,248
Sprite,Background,Centre,"sb\visual\circleB.png",0,0 C,0,133464,,114,191,204 M,0,133464,133506,113,263,116.5067,277.5436 F,2,133464,133749,1,0 S,2,133464,133749,1,0.2 P,0,133464,133749,A M,0,133506,133549,116.5067,277.5436,121,291
Sprite,Background,Centre,"sb\visual\circleB.png",0,0 C,0,133635,,114,191,204 M,0,133635,133677,246,358,259.0752,350.852 F,2,133635,133920,1,0 S,2,133635,133920,1,0.2 P,0,133635,133920,A M,0,133677,133720,259.0752,350.852,270.6694,341.5468
Sprite,Background,Centre,"sb\visual\circleB.png",0,0 C,0,133806,,114,191,204 M,0,133806,133848,394,358,380.9248,350.852 F,2,133806,134091,1,0 S,2,133806,134091,1,0.2 P,0,133806,134091,A M,0,133848,133891,380.9248,350.852,369.3306,341.5468
Sprite,Background,Centre,"sb\visual\circleB.png",0,0 C,0,133976,,114,191,204 M,0,133976,134018,229,310,243.4924,306.3721 F,2,133976,134261,1,0 S,2,133976,134261,1,0.2 P,0,133976,134261,A M,0,134018,134061,243.4924,306.3721,257.2271,300.5877
Sprite,Background,Centre,"sb\visual\circleB.png",0,0 C,0,134146,,114,191,204 M,0,134146,134188,410,309,395.452,305.6189 F,2,134146,134431,1,0 S,2,134146,134431,1,0.2 P,0,134146,134431,A M,0,134188,134231,395.452,305.6189,381.6244,300.0667
Sprite,Background,Centre,"sb\visual\circleB.png",0,0 C,0,134317,,114,191,204 M,0,134317,134359,320,121,320,147.2 F,2,134317,134687,1,0 S,2,134317,134687,1,0.2 P,0,134317,134687,A M,0,134359,134402,320,147.2,320,173.4 M,0,134402,134444,320,173.4,320,199.6 M,0,134444,134487,320,199.6,320,225.8
Sprite,Background,Centre,"sb\visual\circleB.png",320,406 C,0,134658,,114,191,204 F,2,134658,134858,1,0 S,2,134658,134858,1,0.2 P,0,134658,134858,A
Sprite,Background,Centre,"sb\visual\circleB.png",0,0 C,0,134828,,114,191,204 M,0,134828,134870,524,236,498.0023,232.7503 F,2,134828,135198,1,0 S,2,134828,135198,1,0.2 P,0,134828,135198,A M,0,134870,134913,498.0023,232.7503,472.0046,229.5006 M,0,134913,134955,472.0046,229.5006,446.007,226.2509 M,0,134955,134998,446.007,226.2509,420.0093,223.0012
Sprite,Background,Centre,"sb\visual\circleB.png",116,236 C,0,135169,,114,191,204 F,2,135169,135369,1,0 S,2,135169,135369,1,0.2 P,0,135169,135369,A
Sprite,Background,Centre,"sb\visual\circleB.png",219,223 C,0,135339,,114,191,204 F,2,135339,135539,1,0 S,2,135339,135539,1,0.2 P,0,135339,135539,A
Sprite,Background,Centre,"sb\visual\circleB.png",320,406 C,0,135510,,114,191,204 F,2,135510,135710,1,0 S,2,135510,135710,1,0.2 P,0,135510,135710,A
Sprite,Background,Centre,"sb\visual\circleB.png",320,406 C,0,135595,,114,191,204 F,2,135595,135795,1,0 S,2,135595,135795,1,0.2 P,0,135595,135795,A
Sprite,Background,Centre,"sb\visual\circleB.png",350,411 C,0,199771,,114,191,204 F,2,199771,199971,1,0 S,2,199771,199971,1,0.2 P,0,199771,199971,A
Sprite,Background,Centre,"sb\visual\circleB.png",350,411 C,0,200112,,114,191,204 F,2,200112,200312,1,0 S,2,200112,200312,1,0.2 P,0,200112,200312,A
Sprite,Background,Centre,"sb\visual\circleB.png",524,386 C,0,200283,,114,191,204 F,2,200283,200483,1,0 S,2,200283,200483,1,0.2 P,0,200283,200483,A
Sprite,Background,Centre,"sb\visual\circleB.png",317,300 C,0,200453,,114,191,204 F,2,200453,200653,1,0 S,2,200453,200653,1,0.2 P,0,200453,200653,A
Sprite,Background,Centre,"sb\visual\circleB.png",422,333 C,0,200624,,114,191,204 F,2,200624,200824,1,0 S,2,200624,200824,1,0.2 P,0,200624,200824,A
Sprite,Background,Centre,"sb\visual\circleB.png",500,186 C,0,200794,,114,191,204 F,2,200794,200994,1,0 S,2,200794,200994,1,0.2 P,0,200794,200994,A
Sprite,Background,Centre,"sb\visual\circleB.png",396,228 C,0,200965,,114,191,204 F,2,200965,201165,1,0 S,2,200965,201165,1,0.2 P,0,200965,201165,A
Sprite,Background,Centre,"sb\visual\circleB.png",222,101 C,0,201135,,114,191,204 F,2,201135,201335,1,0 S,2,201135,201335,1,0.2 P,0,201135,201335,A
Sprite,Background,Centre,"sb\visual\circleB.png",409,124 C,0,201306,,114,191,204 F,2,201306,201506,1,0 S,2,201306,201506,1,0.2 P,0,201306,201506,A
Sprite,Background,Centre,"sb\visual\circleB.png",112,249 C,0,201476,,114,191,204 F,2,201476,201676,1,0 S,2,201476,201676,1,0.2 P,0,201476,201676,A
Sprite,Background,Centre,"sb\visual\circleB.png",312,164 C,0,201646,,114,191,204 F,2,201646,201846,1,0 S,2,201646,201846,1,0.2 P,0,201646,201846,A
Sprite,Background,Centre,"sb\visual\circleB.png",97,415 C,0,201817,,114,191,204 F,2,201817,202017,1,0 S,2,201817,202017,1,0.2 P,0,201817,202017,A
Sprite,Background,Centre,"sb\visual\circleB.png",214,207 C,0,201987,,114,191,204 F,2,201987,202187,1,0 S,2,201987,202187,1,0.2 P,0,201987,202187,A
Sprite,Background,Centre,"sb\visual\circleB.png",422,333 C,0,202158,,114,191,204 F,2,202158,202358,1,0 S,2,202158,202358,1,0.2 P,0,202158,202358,A
Sprite,Background,Centre,"sb\visual\circleB.png",222,101 C,0,202328,,114,191,204 F,2,202328,202528,1,0 S,2,202328,202528,1,0.2 P,0,202328,202528,A
Sprite,Background,Centre,"sb\visual\circleB.png",298,265 C,0,202499,,114,191,204 F,2,202499,202699,1,0 S,2,202499,202699,1,0.2 P,0,202499,202699,A
Sprite,Background,Centre,"sb\visual\circleB.png",0,0 C,0,202669,,114,191,204 M,0,202669,202711,409,124,430.8791,126.3031 F,2,202669,203039,1,0 S,2,202669,203039,1,0.2 P,0,202669,203039,A M,0,202711,202754,430.8791,126.3031,452.7582,128.6061 M,0,202754,202796,452.7582,128.6061,474.6374,130.9092 M,0,202796,202839,474.6374,130.9092,496.5165,133.2123
Sprite,Background,Centre,"sb\visual\circleB.png",312,165 C,0,203010,,114,191,204 F,2,203010,203210,1,0 S,2,203010,203210,1,0.2 P,0,203010,203210,A
Sprite,Background,Centre,"sb\visual\circleB.png",396,228 C,0,203181,,114,191,204 F,2,203181,203381,1,0 S,2,203181,203381,1,0.2 P,0,203181,203381,A
Sprite,Background,Centre,"sb\visual\circleB.png",0,0 C,0,203351,,114,191,204 M,0,203351,203393,417,375,415.3127,353.0648 F,2,203351,203636,1,0 S,2,203351,203636,1,0.2 P,0,203351,203636,A M,0,203393,203436,415.3127,353.0648,413.6254,331.1296
Sprite,Background,Centre,"sb\visual\circleB.png",0,0 C,0,203521,,114,191,204 M,0,203521,203563,517,432,519.7288,410.1699 F,2,203521,203806,1,0 S,2,203521,203806,1,0.2 P,0,203521,203806,A M,0,203563,203606,519.7288,410.1699,522.4575,388.3398
Sprite,Background,Centre,"sb\visual\circleB.png",502,261 C,0,203692,,114,191,204 F,2,203692,203892,1,0 S,2,203692,203892,1,0.2 P,0,203692,203892,A
Sprite,Background,Centre,"sb\visual\circleB.png",502,261 C,0,203777,,114,191,204 F,2,203777,203977,1,0 S,2,203777,203977,1,0.2 P,0,203777,203977,A
//Storyboard Layer 1 (Fail)
//Storyboard Layer 2 (Pass)
//Storyboard Layer 3 (Foreground)
Sprite,Foreground,Centre,"sb\titles\Hou.png",320,240 S,0,229793,,0.458909 M,0,229793,235226,571.3455,235.9273,570.1817,267.3455
//Storyboard Sound Samples

[TimingPoints]
681,340.909090909091,4,2,1,55,1,0
681,-166.666666666667,4,2,1,55,0,0
851,-100,4,2,2,55,0,0
1021,-100,4,2,3,55,0,0
1192,-100,4,2,2,55,0,0
1362,-166.666666666667,4,2,4,55,0,0
1533,-166.666666666667,4,2,2,55,0,0
1703,-166.666666666667,4,2,3,55,0,0
1874,-166.666666666667,4,2,2,55,0,0
2044,-166.666666666667,4,2,5,55,0,0
2215,-166.666666666667,4,2,2,55,0,0
2385,-166.666666666667,4,2,3,55,0,0
2556,-166.666666666667,4,2,2,55,0,0
2726,-166.666666666667,4,2,6,55,0,0
2896,-166.666666666667,4,2,2,55,0,0
3067,-166.666666666667,4,2,3,55,0,0
3237,-166.666666666667,4,2,2,55,0,0
3408,-142.857142857143,4,2,1,55,0,0
3578,-142.857142857143,4,2,2,55,0,0
3749,-142.857142857143,4,2,3,55,0,0
3919,-142.857142857143,4,2,2,55,0,0
4090,-142.857142857143,4,2,4,55,0,0
4260,-142.857142857143,4,2,2,55,0,0
4431,-142.857142857143,4,2,3,55,0,0
4601,-142.857142857143,4,2,2,55,0,0
4771,-142.857142857143,4,2,7,55,0,0
4942,-142.857142857143,4,2,2,55,0,0
5112,-142.857142857143,4,2,3,55,0,0
5283,-142.857142857143,4,2,2,55,0,0
5453,-142.857142857143,4,2,6,55,0,0
5624,-142.857142857143,4,2,2,55,0,0
5794,-142.857142857143,4,2,3,55,0,0
5965,-142.857142857143,4,2,2,55,0,0
6135,-153.846153846154,4,2,91,60,0,0
6817,-200,4,2,91,60,0,0
7499,-142.857142857143,4,2,91,60,0,0
8862,-133.333333333333,4,2,91,60,0,0
10226,-125,4,2,91,60,0,0
11590,-117.647058823529,4,2,91,60,0,0
11931,-117.647058823529,4,2,91,50,0,0
12101,-117.647058823529,4,2,91,55,0,0
12271,-117.647058823529,4,2,91,60,0,0
12442,-117.647058823529,4,2,91,65,0,0
12612,-117.647058823529,4,2,91,70,0,0
12783,-117.647058823529,4,2,91,75,0,0
12953,-133.333333333333,4,2,91,80,0,0
13294,-133.333333333333,4,2,91,40,0,0
13976,-133.333333333333,4,2,91,45,0,0
14317,-111.111111111111,4,2,91,50,0,0
14658,-111.111111111111,4,2,91,55,0,0
14999,-111.111111111111,4,2,91,60,0,0
15340,-111.111111111111,4,2,91,65,0,0
15681,-111.111111111111,4,2,91,70,0,0
16021,-111.111111111111,4,2,91,85,0,0
16362,-111.111111111111,4,2,91,90,0,0
16703,-111.111111111111,4,2,91,95,0,0
17044,-90.0900900900901,4,2,91,60,0,0
27953,-111.111111111111,4,2,91,60,0,0
36135,-125,4,2,91,60,0,0
38862,-111.111111111111,4,2,91,45,0,0
53862,-166.666666666667,4,2,91,40,0,0
55226,-166.666666666667,4,2,91,30,0,0
57953,-133.333333333333,4,2,91,45,0,0
58038,-133.333333333333,4,2,91,5,0,0
58124,-133.333333333333,4,2,91,45,0,0
58209,-133.333333333333,4,2,91,5,0,0
58294,-133.333333333333,4,2,91,50,0,0
58379,-133.333333333333,4,2,91,5,0,0
58465,-133.333333333333,4,2,91,50,0,0
58550,-133.333333333333,4,2,91,5,0,0
58635,-133.333333333333,4,2,91,55,0,0
58720,-133.333333333333,4,2,91,5,0,0
58806,-133.333333333333,4,2,91,55,0,0
58891,-133.333333333333,4,2,91,5,0,0
58976,-133.333333333333,4,2,91,60,0,0
59061,-133.333333333333,4,2,91,5,0,0
59146,-133.333333333333,4,2,91,60,0,0
59232,-133.333333333333,4,2,91,5,0,0
59317,-133.333333333333,4,2,91,65,0,0
59402,-133.333333333333,4,2,91,5,0,0
59487,-133.333333333333,4,2,91,65,0,0
59573,-133.333333333333,4,2,91,5,0,0
59658,-133.333333333333,4,2,91,70,0,0
59743,-133.333333333333,4,2,91,5,0,0
59828,-133.333333333333,4,2,91,70,0,0
59913,-133.333333333333,4,2,91,5,0,0
59999,-133.333333333333,4,2,91,75,0,0
60084,-133.333333333333,4,2,91,5,0,0
60169,-133.333333333333,4,2,91,75,0,0
60254,-133.333333333333,4,2,91,5,0,0
60340,-133.333333333333,4,2,91,80,0,0
60425,-133.333333333333,4,2,91,5,0,0
60510,-133.333333333333,4,2,91,80,0,0
60595,-133.333333333333,4,2,91,5,0,0
60681,-76.3358778625954,4,2,91,85,0,0
61021,-76.3358778625954,4,2,91,90,0,0
61362,-76.3358778625954,4,2,91,95,0,0
61703,-76.3358778625954,4,2,91,100,0,0
62044,-133.333333333333,4,2,91,100,0,0
62556,-133.333333333333,4,2,91,50,0,0
63067,-133.333333333333,4,2,91,60,0,0
63408,-80.6451612903226,4,2,91,70,0,1
72953,-55.5555555555556,4,2,91,70,0,1
73806,-75.187969924812,4,2,91,80,0,1
73891,-75.187969924812,4,2,91,70,0,1
73976,-75.187969924812,4,2,91,60,0,1
74061,-75.187969924812,4,2,91,50,0,1
74146,-75.187969924812,4,2,91,40,0,1
74232,-75.187969924812,4,2,91,30,0,1
74317,-75.187969924812,4,2,91,70,0,1
79771,-80,4,2,91,70,0,1
81135,-76.9230769230769,4,2,91,70,0,1
82499,-74.0740740740741,4,2,91,70,0,1
83862,-71.4285714285714,4,2,91,70,0,1
85226,-83.3333333333333,4,2,91,60,0,1
85311,-71.4285714285714,4,2,91,5,0,1
85396,-83.3333333333333,4,2,91,60,0,1
85482,-71.4285714285714,4,2,91,5,0,1
85567,-71.4285714285714,4,2,91,65,0,1
85652,-71.4285714285714,4,2,91,5,0,1
85737,-71.4285714285714,4,2,91,65,0,1
85823,-71.4285714285714,4,2,91,5,0,1
85908,-71.4285714285714,4,2,91,70,0,1
85993,-71.4285714285714,4,2,91,5,0,1
86078,-71.4285714285714,4,2,91,70,0,1
86163,-71.4285714285714,4,2,91,5,0,1
86249,-62.5,4,2,91,75,0,1
86334,-71.4285714285714,4,2,91,5,0,1
86419,-62.5,4,2,91,75,0,1
86504,-71.4285714285714,4,2,91,5,0,1
86590,-250,4,2,91,80,0,1
86760,-200,4,2,91,5,0,0
87783,-200,4,2,91,40,0,0
88038,-117.647058823529,4,2,91,40,0,0
89317,-90.9090909090909,4,2,91,45,0,0
89658,-90.9090909090909,4,2,91,50,0,0
89999,-90.9090909090909,4,2,91,55,0,0
90340,-90.9090909090909,4,2,91,60,0,0
90681,-133.333333333333,4,2,91,50,0,0
100226,-166.666666666667,4,2,91,40,0,0
100908,-133.333333333333,4,2,91,45,0,0
101590,-109.89010989011,4,2,91,60,0,0
109771,-125,4,2,91,60,0,0
112499,-111.111111111111,4,2,91,45,0,0
127499,-166.666666666667,4,2,91,40,0,0
128862,-166.666666666667,4,2,91,30,0,0
130737,-200,4,2,91,30,0,0
131590,-133.333333333333,4,2,91,45,0,0
131675,-133.333333333333,4,2,91,5,0,0
131760,-133.333333333333,4,2,91,45,0,0
131845,-133.333333333333,4,2,91,5,0,0
131931,-133.333333333333,4,2,91,50,0,0
132016,-133.333333333333,4,2,91,5,0,0
132101,-133.333333333333,4,2,91,50,0,0
132186,-133.333333333333,4,2,91,5,0,0
132271,-133.333333333333,4,2,91,55,0,0
132357,-133.333333333333,4,2,91,5,0,0
132442,-133.333333333333,4,2,91,55,0,0
132527,-133.333333333333,4,2,91,5,0,0
132612,-133.333333333333,4,2,91,60,0,0
132698,-133.333333333333,4,2,91,5,0,0
132783,-133.333333333333,4,2,91,60,0,0
132868,-133.333333333333,4,2,91,5,0,0
132953,-133.333333333333,4,2,91,65,0,0
133038,-133.333333333333,4,2,91,5,0,0
133124,-133.333333333333,4,2,91,65,0,0
133209,-133.333333333333,4,2,91,5,0,0
133294,-133.333333333333,4,2,91,70,0,0
133379,-133.333333333333,4,2,91,5,0,0
133465,-133.333333333333,4,2,91,70,0,0
133550,-133.333333333333,4,2,91,5,0,0
133635,-133.333333333333,4,2,91,75,0,0
133720,-133.333333333333,4,2,91,5,0,0
133806,-133.333333333333,4,2,91,75,0,0
133891,-133.333333333333,4,2,91,5,0,0
133976,-133.333333333333,4,2,91,80,0,0
134061,-133.333333333333,4,2,91,5,0,0
134146,-133.333333333333,4,2,91,80,0,0
134232,-133.333333333333,4,2,91,5,0,0
134317,-76.3358778625954,4,2,91,85,0,0
134658,-76.3358778625954,4,2,91,90,0,0
134999,-76.3358778625954,4,2,91,95,0,0
135340,-76.3358778625954,4,2,91,100,0,0
135681,-133.333333333333,4,2,91,100,0,0
136192,-133.333333333333,4,2,91,50,0,0
136703,-133.333333333333,4,2,91,60,0,0
137044,-80.6451612903226,4,2,91,70,0,1
146590,-55.5555555555556,4,2,91,70,0,1
147442,-75.187969924812,4,2,91,80,0,1
147527,-75.187969924812,4,2,91,70,0,1
147612,-75.187969924812,4,2,91,60,0,1
147698,-75.187969924812,4,2,91,50,0,1
147783,-75.187969924812,4,2,91,40,0,1
147868,-75.187969924812,4,2,91,30,0,1
147953,-75.187969924812,4,2,91,70,0,1
153408,-80,4,2,91,70,0,1
154771,-76.9230769230769,4,2,91,70,0,1
156135,-74.0740740740741,4,2,91,70,0,1
157499,-71.4285714285714,4,2,91,70,0,1
158862,-71.4285714285714,4,2,91,60,0,1
158948,-71.4285714285714,4,2,91,5,0,1
159033,-71.4285714285714,4,2,91,60,0,1
159118,-71.4285714285714,4,2,91,5,0,1
159203,-71.4285714285714,4,2,91,65,0,1
159288,-71.4285714285714,4,2,91,5,0,1
159374,-71.4285714285714,4,2,91,65,0,1
159459,-71.4285714285714,4,2,91,5,0,1
159544,-71.4285714285714,4,2,91,70,0,1
159629,-71.4285714285714,4,2,91,5,0,1
159715,-71.4285714285714,4,2,91,70,0,1
159800,-71.4285714285714,4,2,91,5,0,1
159885,-71.4285714285714,4,2,91,75,0,1
159970,-71.4285714285714,4,2,91,5,0,1
160056,-71.4285714285714,4,2,91,75,0,1
160141,-71.4285714285714,4,2,91,5,0,1
160226,-200,4,2,91,80,0,0
160396,-200,4,2,91,5,0,0
160908,-200,4,2,91,40,0,0
161590,-200,4,2,91,40,0,0
166703,-100,4,2,91,50,0,0
167044,-75.187969924812,4,2,91,50,0,0
171476,-100,4,2,91,50,0,0
172499,-90.9090909090909,4,2,91,60,0,0
177953,-100,4,2,91,60,0,0
182044,-100,4,2,91,55,0,0
182385,-100,4,2,91,50,0,0
182726,-100,4,2,91,45,0,0
183067,-100,4,2,91,40,0,0
183408,-200,4,2,33,35,0,0
184260,-200,4,2,31,35,0,0
184431,-200,4,2,32,15,0,0
184771,-133.333333333333,4,2,32,35,0,0
185453,-133.333333333333,4,2,33,35,0,0
186646,-133.333333333333,4,2,35,35,0,0
186987,-133.333333333333,4,2,36,35,0,0
187158,-133.333333333333,4,2,32,35,0,0
188181,-133.333333333333,4,2,33,35,0,0
188862,-133.333333333333,4,2,34,35,0,0
189374,-133.333333333333,4,2,35,35,0,0
189715,-133.333333333333,4,2,36,35,0,0
189885,-133.333333333333,4,2,32,35,0,0
190226,-133.333333333333,4,2,35,35,0,0
190908,-133.333333333333,4,2,37,35,0,0
191590,-133.333333333333,4,2,38,35,0,0
192101,-133.333333333333,4,2,39,15,0,0
192442,-133.333333333333,4,2,40,25,0,0
192612,-133.333333333333,4,2,41,30,0,0
192783,-133.333333333333,4,2,42,35,0,0
192953,-100,4,2,36,35,0,0
193294,-105.263157894737,4,2,43,35,0,0
193635,-105.263157894737,4,2,33,35,0,0
193976,-200,4,2,32,35,0,0
194317,-111.111111111111,4,2,91,45,0,0
196703,-133.333333333333,4,2,91,45,0,0
197044,-111.111111111111,4,2,91,45,0,0
198408,-105.263157894737,4,2,91,55,0,0
198749,-105.263157894737,4,2,91,50,0,0
199090,-105.263157894737,4,2,91,45,0,0
199431,-105.263157894737,4,2,91,40,0,0
199771,-105.263157894737,4,2,91,55,0,0
200112,-105.263157894737,4,2,91,25,0,0
200453,-105.263157894737,4,2,91,30,0,0
200794,-105.263157894737,4,2,91,35,0,0
201135,-105.263157894737,4,2,91,40,0,0
201476,-105.263157894737,4,2,91,45,0,0
201817,-105.263157894737,4,2,91,50,0,0
202158,-105.263157894737,4,2,91,55,0,0
202499,-90.9090909090909,4,2,91,60,0,0
202840,-90.9090909090909,4,2,91,65,0,0
203181,-90.9090909090909,4,2,91,70,0,0
203521,-90.9090909090909,4,2,91,75,0,0
203862,-90.9090909090909,4,2,91,80,0,0
204374,-133.333333333333,4,2,91,40,0,0
204885,-117.647058823529,4,2,91,50,0,0
205226,-133.333333333333,4,2,91,60,0,0
205311,-100,4,2,91,60,0,0
207953,-95.2380952380952,4,2,91,30,0,0
208294,-95.2380952380952,4,2,91,35,0,0
208635,-95.2380952380952,4,2,91,40,0,0
208976,-95.2380952380952,4,2,91,45,0,0
209317,-95.2380952380952,4,2,91,50,0,0
209828,-133.333333333333,4,2,91,50,0,0
210340,-117.647058823529,4,2,91,60,0,0
210681,-80.6451612903226,4,2,91,70,0,1
214771,-55.5555555555556,4,2,91,70,0,1
216135,-75.187969924812,4,2,91,70,0,1
221590,-80,4,2,91,70,0,1
222953,-76.9230769230769,4,2,91,70,0,1
224317,-74.0740740740741,4,2,91,70,0,1
225681,-71.4285714285714,4,2,91,70,0,1
226874,-71.4285714285714,4,2,91,60,0,1
227044,-71.4285714285714,4,2,91,65,0,1
227129,-71.4285714285714,4,2,91,5,0,1
227215,-71.4285714285714,4,2,91,65,0,1
227300,-71.4285714285714,4,2,91,5,0,1
227385,-71.4285714285714,4,2,91,70,0,1
227470,-71.4285714285714,4,2,91,5,0,1
227556,-71.4285714285714,4,2,91,70,0,1
227641,-71.4285714285714,4,2,91,5,0,1
227726,-71.4285714285714,4,2,91,75,0,1
227811,-71.4285714285714,4,2,91,5,0,1
227896,-71.4285714285714,4,2,91,75,0,1
227982,-71.4285714285714,4,2,91,5,0,1
228067,-71.4285714285714,4,2,91,80,0,1
228152,-71.4285714285714,4,2,91,5,0,1
228237,-71.4285714285714,4,2,91,80,0,1
228323,-71.4285714285714,4,2,91,5,0,1
228408,-200,4,2,91,60,0,0
228578,-200,4,2,91,5,0,0
229260,309.278350515464,4,2,91,60,1,0
229771,340.909090909091,4,2,91,60,1,0
229771,-75.187969924812,4,2,91,60,0,0
237953,-86.9565217391304,4,2,91,60,0,0
240681,-200,4,2,91,60,0,0
241021,-200,4,2,91,55,0,0
241362,-86.9565217391304,4,2,91,50,0,0
241703,-86.9565217391304,4,2,91,45,0,0
242044,-86.9565217391304,4,2,91,40,0,0
242385,-86.9565217391304,4,2,91,35,0,0
242726,-86.9565217391304,4,2,91,30,0,0
243067,-86.9565217391304,4,2,91,25,0,0
243152,-86.9565217391304,4,2,91,25,0,0
243237,-86.9565217391304,4,2,91,25,0,0
243408,-86.9565217391304,4,2,91,40,0,0

[Colours]
Combo1 : 40,85,134
Combo2 : 54,172,197
Combo3 : 39,116,126
Combo4 : 155,187,47
Combo5 : 102,122,50
Combo6 : 92,133,182
SliderBorder : 90,169,172
SliderTrackOverride : 20,20,20

[HitObjects]
36,151,681,6,0,P|64:142|103:142,2,47.9999985351563,10|2|2,0:0|0:0|0:0,0:0:0:0:
91,280,1192,1,2,0:0:0:0:
91,280,1362,2,0,P|82:252|82:213,2,47.9999985351563,2|2|2,0:0|0:0|0:0,0:0:0:0:
183,314,1874,1,2,0:0:0:0:
155,183,2044,2,0,P|164:211|164:250,1,47.9999985351563,10|2,0:0|0:0,0:0:0:0:
80,131,2385,2,0,P|71:159|71:198,1,47.9999985351563,2|2,0:0|0:0,0:0:0:0:
28,59,2726,1,10,0:0:0:0:
28,59,2896,1,2,0:0:0:0:
80,223,3067,2,0,P|71:195|71:156,1,47.9999985351563,2|2,0:0|0:0,0:0:0:0:
182,71,3408,6,0,L|248:61,2,55.9999982910157,10|2|2,0:0|0:0|0:0,0:0:0:0:
274,153,3919,1,2,0:0:0:0:
392,91,4090,2,0,L|326:81,2,55.9999982910157,2|2|2,0:0|0:0|0:0,0:0:0:0:
453,173,4601,1,2,0:0:0:0:
485,34,4771,2,0,P|486:61|495:88,1,55.9999982910157,10|2,0:0|0:0,0:0:0:0:
345,60,5112,2,0,P|365:78|390:90,1,55.9999982910157,2|2,0:0|0:0,0:0:0:0:
264,177,5453,2,0,P|291:175|318:166,1,55.9999982910157,10|2,0:0|0:0,0:0:0:0:
238,261,5794,1,2,0:0:0:0:
167,172,5965,69,2,0:0:0:0:
167,172,6050,1,0,0:0:0:0:
167,172,6135,2,0,B|225:151|225:151|332:167,1,155.999992858887,12|0,0:3|0:0,0:0:0:0:
237,339,6817,2,0,P|230:299|241:252,1,80,2|2,0:0|0:0,0:0:0:0:
427,312,7328,5,2,0:0:0:0:
427,312,7414,1,0,0:0:0:0:
427,312,7499,2,0,L|309:300,1,111.999996582031,12|2,3:3|0:0,0:0:0:0:
323,356,8010,2,0,L|313:284,1,55.9999982910157,10|0,0:3|0:0,0:0:0:0:
196,246,8351,2,0,L|189:314,2,55.9999982910157,10|10|2,0:3|0:3|0:0,0:0:0:0:
86,276,8862,70,0,L|69:73,1,180.000006866455,8|2,3:3|0:0,0:0:0:0:
198,53,9544,2,0,P|166:44|132:48,1,60.0000022888184,0|2,0:0|0:0,0:0:0:0:
311,142,9885,2,0,P|277:142|244:129,1,60.0000022888184,2|2,0:0|0:0,0:0:0:0:
386,61,10226,2,0,B|410:138|410:138|389:259,1,192,12|10,3:3|0:3,0:0:0:0:
446,357,10908,2,0,P|392:331|315:352,1,128,2|10,0:0|0:3,0:0:0:0:
130,342,11590,5,12,0:0:0:0:
142,246,11760,1,2,0:0:0:0:
440,309,11931,69,10,0:0:0:0:
338,299,12101,1,10,0:0:0:0:
337,28,12272,5,10,0:0:0:0:
353,140,12442,1,10,0:0:0:0:
87,80,12612,69,10,0:0:0:0:
197,68,12782,1,10,0:0:0:0:
130,342,12953,1,10,0:3:0:0:
225,262,14317,6,0,P|234:229|232:188,1,71.9999978027344,14|2,0:0|0:3,0:0:0:0:
184,51,14658,1,2,0:3:0:0:
79,224,14828,2,0,L|176:216,1,71.9999978027344,14|2,0:0|0:3,0:0:0:0:
347,264,15169,1,2,0:3:0:0:
90,303,15340,2,0,L|85:221,1,71.9999978027344,14|0,0:0|0:0,0:0:0:0:
152,54,15681,69,2,0:3:0:0:
232,191,15851,1,14,0:0:0:0:
36,116,16021,1,8,0:0:0:0:
36,116,16192,1,2,0:3:0:0:
236,200,16362,5,8,0:0:0:0:
253,42,16533,1,8,0:0:0:0:
27,216,16703,69,8,0:0:0:0:
31,216,16788,1,8,0:0:0:0:
35,216,16874,1,8,0:0:0:0:
39,216,16959,1,8,0:0:0:0:
42,215,17044,6,0,P|147:175|217:221,1,177.600004335938,4|2,0:1|0:3,0:0:0:0:
132,373,17556,1,0,0:0:0:0:
126,277,17726,2,0,L|121:374,1,88.8000021679688,2|0,0:3|0:0,0:0:0:0:
46,223,18067,1,2,0:3:0:0:
230,299,18237,1,8,0:0:0:0:
298,130,18408,70,0,P|281:176|296:243,1,88.8000021679688,2|0,0:3|0:0,0:0:0:0:
396,356,18749,2,0,P|413:310|398:243,1,88.8000021679688,2|0,0:3|0:0,0:0:0:0:
205,318,19090,1,2,0:3:0:0:
332,302,19260,1,8,0:3:0:0:
190,167,19431,2,0,P|188:190|194:213,1,44.4000010839844,2|0,0:3|0:0,0:0:0:0:
332,302,19601,2,0,P|333:280|328:258,1,44.4000010839844,8|2,0:3|0:0,0:0:0:0:
99,244,19771,6,0,P|167:307|259:281,1,177.600004335938,2|2,0:3|0:3,0:0:0:0:
379,177,20283,1,0,0:0:0:0:
187,123,20453,2,0,L|193:233,1,88.8000021679688,2|0,0:3|0:0,0:0:0:0:
154,359,20794,1,2,0:3:0:0:
326,253,20965,1,8,0:0:0:0:
8,182,21135,70,0,P|53:169|97:175,1,88.8000021679688,2|0,0:3|0:0,0:0:0:0:
69,352,21476,2,0,P|55:307|61:263,1,88.8000021679688,2|0,0:3|0:0,0:0:0:0:
277,160,21817,1,2,0:3:0:0:
143,299,21987,1,8,0:3:0:0:
277,160,22158,2,0,L|270:228,1,44.4000010839844,2|0,0:3|0:0,0:0:0:0:
154,352,22328,2,0,L|149:289,1,44.4000010839844,8|2,0:3|0:0,0:0:0:0:
201,50,22499,6,0,B|171:110|171:110|180:220,1,177.600004335938,2|2,0:3|0:3,0:0:0:0:
280,332,23010,1,0,0:0:0:0:
345,133,23181,2,0,P|297:121|235:138,1,88.8000021679688,2|0,0:3|0:0,0:0:0:0:
283,340,23521,1,2,0:3:0:0:
293,214,23692,1,8,0:0:0:0:
82,166,23862,70,0,P|63:223|72:265,1,88.8000021679688,2|0,0:3|0:0,0:0:0:0:
367,150,24203,2,0,P|325:124|274:123,1,88.8000021679688,2|0,0:3|0:0,0:0:0:0:
205,346,24544,1,2,0:3:0:0:
295,214,24714,1,8,0:3:0:0:
205,346,24885,2,0,P|228:348|253:343,1,44.4000010839844,8|0,0:3|0:0,0:0:0:0:
287,121,25056,2,0,P|265:123|243:133,1,44.4000010839844,8|2,0:3|0:0,0:0:0:0:
401,361,25226,6,0,P|464:293|433:201,1,177.600004335938,2|2,0:3|0:3,0:0:0:0:
231,243,25737,1,0,0:0:0:0:
366,268,25908,1,2,0:3:0:0:
198,326,26078,1,0,0:0:0:0:
304,164,26249,1,2,0:3:0:0:
470,376,26419,1,8,0:0:0:0:
470,376,26504,1,0,0:0:0:0:
470,376,26590,70,0,L|481:285,1,88.8000021679688,2|0,0:3|0:0,0:0:0:0:
338,82,26931,2,0,L|348:170,1,88.8000021679688,2|0,0:3|0:0,0:0:0:0:
287,312,27271,1,2,0:3:0:0:
337,81,27442,1,8,0:0:0:0:
426,207,27612,2,0,P|434:186|437:163,1,44.4000010839844,2|0,0:3|0:0,0:0:0:0:
245,81,27783,2,0,P|247:103|256:124,1,44.4000010839844,8|8,0:3|0:3,0:0:0:0:
512,66,27953,6,0,P|445:38|354:75,1,143.999995605469,4|2,0:1|0:3,0:0:0:0:
230,194,28465,1,0,0:0:0:0:
448,216,28635,2,0,P|451:180|440:146,1,71.9999978027344,2|0,0:3|0:0,0:0:0:0:
236,204,28976,1,2,0:3:0:0:
365,193,29146,1,8,0:0:0:0:
155,165,29317,70,0,P|145:209|152:248,1,71.9999978027344,2|0,0:3|0:0,0:0:0:0:
407,297,29658,2,0,L|333:287,1,71.9999978027344,2|0,0:3|0:0,0:0:0:0:
165,331,29999,1,2,0:3:0:0:
304,180,30169,1,8,0:3:0:0:
412,305,30340,2,0,L|352:311,1,35.9999989013672,10|0,0:3|0:0,0:0:0:0:
264,164,30510,2,0,L|302:171,1,35.9999989013672,8|2,0:3|0:0,0:0:0:0:
481,367,30681,6,0,B|498:318|498:318|486:219,1,143.999995605469,2|2,0:3|0:3,0:0:0:0:
376,120,31192,1,0,0:0:0:0:
340,297,31362,2,0,L|428:306,1,71.9999978027344,2|0,0:3|0:0,0:0:0:0:
279,204,31703,1,2,0:3:0:0:
298,370,31874,1,8,0:0:0:0:
408,211,32044,70,0,L|411:131,1,71.9999978027344,2|0,0:3|0:0,0:0:0:0:
204,238,32385,2,0,L|200:166,1,71.9999978027344,2|0,0:3|0:0,0:0:0:0:
272,36,32726,1,2,0:3:0:0:
200,166,32896,1,8,0:3:0:0:
407,34,33067,2,0,P|380:27|357:27,1,35.9999989013672,10|0,0:3|0:0,0:0:0:0:
320,197,33237,2,0,P|337:194|358:187,1,35.9999989013672,8|2,0:3|0:0,0:0:0:0:
151,80,33408,6,0,P|109:122|112:217,1,143.999995605469,2|2,0:3|0:3,0:0:0:0:
238,340,33919,1,0,0:0:0:0:
258,155,34089,2,0,P|222:152|188:163,1,71.9999978027344,2|0,0:3|0:0,0:0:0:0:
239,349,34430,1,2,0:3:0:0:
351,193,34600,1,8,0:0:0:0:
107,131,34771,70,0,P|100:166|110:200,1,71.9999978027344,2|0,0:3|0:0,0:0:0:0:
10,358,35112,2,0,L|84:348,1,71.9999978027344,2|0,0:3|0:0,0:0:0:0:
239,373,35453,1,2,0:3:0:0:
110,200,35623,1,8,0:0:0:0:
92,359,35794,2,0,L|87:301,1,35.9999989013672,8|0,0:3|0:0,0:0:0:0:
233,211,35965,2,0,L|228:248,1,35.9999989013672,8|2,0:3|0:0,0:0:0:0:
19,264,36135,6,0,L|8:135,1,128,12|2,0:2|0:3,0:0:0:0:
144,33,36646,1,0,3:0:0:0:
144,33,36817,2,0,L|137:110,1,64,2|0,0:3|3:0,0:0:0:0:
194,241,37158,1,2,0:3:0:0:
15,142,37328,1,8,0:0:0:0:
15,142,37413,1,0,0:0:0:0:
15,142,37499,2,0,L|64:135,1,32,2|0,3:0|0:0,0:0:0:0:
142,185,37669,2,0,L|173:190,1,32,8|0,0:0|0:0,0:0:0:0:
256,127,37840,2,0,L|304:119,1,32,0|0,3:0|0:0,0:0:0:0:
363,202,38010,2,0,L|396:208,1,32,8|0,3:0|0:0,0:0:0:0:
479,142,38181,69,0,3:0:0:0:
479,142,38351,1,8,0:3:0:0:
278,218,38521,1,8,0:3:0:0:
278,218,38692,1,8,0:3:0:0:
114,29,38862,6,0,L|122:173,1,143.999995605469,4|0,0:1|0:0,0:0:0:0:
113,288,39374,2,0,L|105:144,1,143.999995605469,2|2,0:3|0:3,0:0:0:0:
208,99,39885,1,8,0:3:0:0:
208,99,40056,1,8,0:3:0:0:
184,352,40226,2,0,P|114:385|42:356,1,143.999995605469,2|0,0:3|0:0,0:0:0:0:
47,353,40737,2,0,P|85:376|139:375,1,71.9999978027344,2|0,0:3|0:0,0:0:0:0:
107,207,41078,1,2,0:3:0:0:
113,290,41249,2,0,L|118:208,1,71.9999978027344,8|8,0:3|0:3,0:0:0:0:
241,49,41590,70,0,P|342:30|396:61,1,143.999995605469,2|0,0:3|0:0,0:0:0:0:
320,270,42101,2,0,B|303:229|303:229|312:118,1,143.999995605469,2|2,0:3|0:3,0:0:0:0:
473,205,42612,1,8,0:3:0:0:
473,205,42783,1,8,0:3:0:0:
224,124,42953,2,0,L|211:273,1,143.999995605469,2|0,0:3|0:0,0:0:0:0:
248,360,43465,1,2,0:3:0:0:
129,234,43635,2,0,L|135:305,1,71.9999978027344,0|2,0:0|0:3,0:0:0:0:
74,164,43976,2,0,P|105:147|141:145,1,71.9999978027344,8|8,0:3|0:3,0:0:0:0:
472,168,44317,6,0,L|478:316,1,143.999995605469,4|0,0:1|0:0,0:0:0:0:
203,279,44828,2,0,B|254:267|254:267|349:286,1,143.999995605469,2|2,0:3|0:3,0:0:0:0:
126,332,45340,2,0,P|113:291|119:245,1,71.9999978027344,8|8,0:3|0:3,0:0:0:0:
40,85,45681,2,0,P|118:119|176:101,1,143.999995605469,2|0,0:3|0:0,0:0:0:0:
176,91,46192,2,0,P|128:108|93:104,1,71.9999978027344,2|0,0:3|0:0,0:0:0:0:
258,39,46533,1,2,0:3:0:0:
261,210,46703,2,0,L|267:129,1,71.9999978027344,8|8,0:3|0:3,0:0:0:0:
510,72,47044,70,0,B|453:58|453:58|352:73,1,143.999995605469,2|0,0:3|0:0,0:0:0:0:
438,279,47556,2,0,P|468:221|450:143,1,143.999995605469,2|2,0:3|0:3,0:0:0:0:
286,210,48067,2,0,L|380:205,1,71.9999978027344,8|8,0:3|0:3,0:0:0:0:
223,294,48408,2,0,P|184:229|194:158,1,143.999995605469,2|0,0:3|0:0,0:0:0:0:
364,193,48919,1,2,0:3:0:0:
286,210,49090,2,0,L|379:205,1,71.9999978027344,8|2,0:0|0:3,0:0:0:0:
418,337,49431,2,0,L|320:330,1,71.9999978027344,8|8,0:0|0:3,0:0:0:0:
436,91,49771,6,0,B|454:144|454:144|438:241,1,143.999995605469,4|0,0:1|0:0,0:0:0:0:
206,165,50283,2,0,B|359:151,1,143.999995605469,2|2,0:3|0:3,0:0:0:0:
439,230,50794,1,8,0:3:0:0:
439,230,50965,1,8,0:3:0:0:
139,87,51135,2,0,P|107:150|117:220,1,143.999995605469,2|0,0:3|0:0,0:0:0:0:
128,224,51646,2,0,P|113:183|115:150,1,71.9999978027344,2|0,0:3|0:0,0:0:0:0:
280,159,51988,1,2,0:3:0:0:
196,171,52158,2,0,L|275:178,1,71.9999978027344,8|8,0:3|0:3,0:0:0:0:
443,263,52499,70,0,L|282:271,1,143.999995605469,2|8,0:3|0:0,0:0:0:0:
261,182,53067,1,8,0:0:0:0:
261,182,53180,2,0,P|284:176|308:176,2,47.9999985351563,8|8|8,0:0|0:0|0:3,0:0:0:0:
205,249,53521,2,0,P|189:233|178:209,2,47.9999985351563,8|8|8,0:3|0:3|0:3,0:0:0:0:
382,109,53862,6,0,B|401:168|401:168|378:307,2,191.999994140625,4|4|2,0:1|0:1|0:3,0:0:0:0:
307,171,56249,69,2,0:0:0:0:
232,308,56590,5,6,0:0:0:0:
307,171,57101,1,2,0:0:0:0:
57,222,57442,1,2,0:0:0:0:
56,127,57783,1,2,0:0:0:0:
56,127,57953,70,0,L|51:73,1,30.0000011444092,8|0,0:0|0:0,0:0:0:0:
136,140,58124,2,0,L|131:86,1,30.0000011444092,2|0,0:3|0:0,0:0:0:0:
216,153,58294,2,0,L|211:99,1,30.0000011444092,2|0,0:3|0:0,0:0:0:0:
296,166,58465,2,0,L|293:136,1,30.0000011444092,8|0,0:0|0:0,0:0:0:0:
376,179,58635,2,0,L|373:149,1,30.0000011444092,2|0,0:3|0:0,0:0:0:0:
456,192,58806,2,0,L|453:162,1,30.0000011444092,2|0,0:3|0:0,0:0:0:0:
412,265,58976,6,0,L|414:294,1,30.0000011444092,8|0,0:0|0:0,0:0:0:0:
332,252,59146,2,0,L|334:281,1,30.0000011444092,2|0,0:3|0:0,0:0:0:0:
252,239,59317,2,0,L|254:268,1,30.0000011444092,2|0,0:3|0:0,0:0:0:0:
172,226,59487,2,0,L|174:255,1,30.0000011444092,8|0,0:0|0:0,0:0:0:0:
92,213,59657,2,0,L|94:242,1,30.0000011444092,2|0,0:3|0:0,0:0:0:0:
12,200,59828,2,0,L|14:229,1,30.0000011444092,2|0,0:3|0:0,0:0:0:0:
204,122,59999,70,0,L|201:151,1,30.0000011444092,8|0,0:0|0:0,0:0:0:0:
308,123,60169,2,0,L|310:152,1,30.0000011444092,2|0,0:3|0:0,0:0:0:0:
195,113,60340,6,0,L|181:141,1,30.0000011444092,2|0,0:3|0:0,0:0:0:0:
320,118,60510,2,0,L|334:146,1,30.0000011444092,8|2,0:0|0:0,0:0:0:0:
256,332,60681,70,0,L|256:227,1,104.800001918945,12|2,0:1|0:3,0:0:0:0:
256,52,61021,1,2,0:3:0:0:
157,262,61192,2,0,L|146:158,1,104.800001918945,8|2,0:1|0:3,0:0:0:0:
355,262,61533,1,8,0:1:0:0:
366,157,61703,1,8,0:1:0:0:
157,262,61874,2,0,L|150:195,1,52.4000009594727,2|2,0:0|0:0,0:0:0:0:
128,111,62044,6,0,B|148:290,1,180.000006866455,12|2,0:1|0:0,0:0:0:0:
38,214,63067,1,2,0:3:0:0:
38,214,63408,6,0,P|119:146|218:178,1,198.399992128907,4|8,0:1|0:0,0:0:0:0:
169,365,63919,1,0,0:0:0:0:
138,248,64090,1,2,0:3:0:0:
439,325,64260,5,2,0:3:0:0:
246,302,64431,2,0,L|346:298,1,99.1999960644533,10|2,0:0|0:0,0:0:0:0:
274,114,64771,70,0,B|236:184|236:184|247:312,1,198.399992128907,2|8,0:3|0:0,0:0:0:0:
115,351,65283,1,0,0:0:0:0:
138,248,65453,1,2,0:3:0:0:
88,112,65624,5,2,0:3:0:0:
42,288,65794,2,0,L|32:185,1,99.1999960644533,10|2,0:0|0:0,0:0:0:0:
332,254,66135,70,0,B|273:233|273:233|132:248,1,198.399992128907,2|8,0:3|0:0,0:0:0:0:
88,112,66646,1,0,0:0:0:0:
191,130,66817,1,2,0:3:0:0:
367,52,66987,5,2,0:3:0:0:
426,208,67158,2,0,L|438:110,1,99.1999960644533,8|2,0:0|0:0,0:0:0:0:
503,279,67499,70,0,P|424:308|326:244,1,198.399992128907,2|8,0:3|0:0,0:0:0:0:
438,109,68010,1,0,0:0:0:0:
426,208,68181,1,2,0:3:0:0:
203,88,68351,5,2,0:3:0:0:
345,150,68521,2,0,L|233:161,1,99.1999960644533,8|2,0:0|0:0,0:0:0:0:
222,329,68862,70,8,P|225:230|134:171,1,198.399992128907,4|8,0:1|0:0,0:0:0:0:
18,289,69374,1,0,0:0:0:0:
134,274,69544,1,2,0:3:0:0:
310,338,69715,5,2,0:3:0:0:
377,155,69885,2,0,L|389:259,1,99.1999960644533,8|2,0:0|0:0,0:0:0:0:
413,362,70226,69,4,0:1:0:0:
134,274,70396,1,2,0:3:0:0:
194,105,70567,6,0,P|204:154|179:219,1,99.1999960644533,8|0,0:0|0:0,0:0:0:0:
310,338,70908,2,0,P|262:322|217:268,1,99.1999960644533,2|2,0:3|0:3,0:0:0:0:
50,321,71249,2,0,P|87:287|156:275,1,99.1999960644533,8|2,0:0|0:0,0:0:0:0:
199,16,71590,70,0,P|196:101|82:157,1,198.399992128907,4|8,0:1|0:0,0:0:0:0:
2,48,72101,1,0,0:0:0:0:
2,48,72271,2,0,L|112:55,1,99.1999960644533,2|2,0:3|0:3,0:0:0:0:
297,9,72612,2,0,L|187:16,1,99.1999960644533,8|2,0:0|0:0,0:0:0:0:
101,284,72953,6,0,B|121:216|121:216|97:125,1,143.999995605469,12|2,0:1|0:3,0:0:0:0:
296,258,73294,2,0,B|229:276|229:276|182:333,1,143.999995605469,12|2,0:1|0:3,0:0:0:0:
183,100,73635,2,0,B|229:149|229:149|305:163,1,143.999995605469,8|8,0:1|0:0,0:0:0:0:
397,334,73976,1,8,0:0:0:0:
397,334,74061,1,8,0:0:0:0:
397,334,74146,1,8,0:0:0:0:
397,334,74232,1,8,0:0:0:0:
397,334,74317,70,0,L|391:216,1,106.399995616455,4|2,0:1|0:3,0:0:0:0:
315,57,74658,1,8,0:0:0:0:
315,57,74828,1,0,0:0:0:0:
219,248,74999,2,0,L|213:141,1,106.399995616455,2|2,0:3|0:3,0:0:0:0:
313,330,75340,1,8,0:0:0:0:
313,330,75510,1,2,0:0:0:0:
112,238,75681,6,0,L|240:249,1,106.399995616455,2|2,0:3|0:3,0:0:0:0:
313,330,76021,1,8,0:0:0:0:
85,152,76192,2,0,L|201:162,1,106.399995616455,0|2,0:0|0:3,0:0:0:0:
62,62,76533,2,0,L|178:72,1,106.399995616455,2|8,0:3|0:0,0:0:0:0:
283,186,76874,1,2,0:0:0:0:
388,199,77044,70,0,P|374:250|341:291,1,106.399995616455,2|2,0:3|0:3,0:0:0:0:
426,115,77385,2,0,P|461:153|474:204,1,106.399995616455,8|0,0:0|0:0,0:0:0:0:
407,24,77726,2,0,P|458:25|504:53,1,106.399995616455,2|2,0:3|0:3,0:0:0:0:
428,280,78067,1,8,0:0:0:0:
426,115,78237,1,2,0:0:0:0:
161,48,78408,5,2,0:3:0:0:
268,87,78578,1,2,0:3:0:0:
49,250,78749,69,8,0:0:0:0:
38,139,78919,1,0,0:0:0:0:
290,254,79090,5,2,0:3:0:0:
199,319,79260,1,2,0:3:0:0:
173,190,79431,69,8,0:0:0:0:
426,115,79601,1,8,0:0:0:0:
426,115,79686,1,8,0:0:0:0:
426,115,79771,6,0,L|204:104,1,200,4|8,0:1|0:0,0:0:0:0:
134,24,80283,1,0,0:0:0:0:
83,209,80453,1,2,0:3:0:0:
83,209,80624,1,2,0:3:0:0:
379,91,80794,2,0,L|260:85,1,100,10|2,0:0|0:0,0:0:0:0:
453,47,81135,70,0,P|500:135|446:124,1,207.999990478516,4|8,0:1|0:0,0:0:0:0:
196,118,81646,1,0,0:0:0:0:
345,9,81817,1,2,0:3:0:0:
345,9,81987,1,2,0:3:0:0:
303,278,82158,2,0,L|294:160,1,103.999995239258,8|2,0:0|0:0,0:0:0:0:
117,46,82499,6,0,P|20:167|42:237,1,216.000000823975,2|8,0:3|0:0,0:0:0:0:
245,358,83010,1,0,0:0:0:0:
137,168,83181,1,2,0:3:0:0:
137,168,83351,1,2,0:3:0:0:
38,321,83521,2,0,L|29:212,1,108.000000411987,8|2,0:0|0:0,0:0:0:0:
424,61,83862,70,0,B|340:50|340:50|190:74,1,223.999993164063,4|8,0:1|0:0,0:0:0:0:
38,321,84374,1,0,3:0:0:0:
115,288,84544,1,2,0:3:0:0:
115,288,84629,1,8,0:0:0:0:
115,288,84715,1,2,0:3:0:0:
37,34,84885,5,8,0:0:0:0:
108,85,85056,1,8,0:0:0:0:
108,85,85141,1,8,0:0:0:0:
108,85,85226,70,0,P|89:105|66:121,1,47.9999985351563,12|0,0:1|0:0,0:0:0:0:
115,288,85396,2,0,P|99:268|73:251,1,47.9999985351563,2|0,0:3|0:0,0:0:0:0:
189,91,85567,6,0,P|182:121|166:144,1,55.9999982910157,8|0,0:0|0:0,0:0:0:0:
198,279,85737,2,0,P|189:250|173:227,1,55.9999982910157,2|0,0:3|0:0,0:0:0:0:
272,70,85908,70,0,P|274:103|267:130,1,55.9999982910157,8|0,0:0|0:0,0:0:0:0:
279,304,86078,2,0,P|282:269|275:242,1,55.9999982910157,8|8,0:0|0:0,0:0:0:0:
346,23,86249,6,0,P|357:54|358:89,1,64,8|8,0:2|0:0,0:0:0:0:
357,352,86419,2,0,P|368:321|368:286,1,64,8|8,0:0|0:2,0:0:0:0:
465,186,86590,38,0,L|428:182,1,32,12|0,0:1|0:0,0:0:0:0:
388,297,87783,1,2,0:0:0:0:
388,297,87868,1,2,0:0:0:0:
388,297,87953,2,0,L|262:283,1,120,4|2,0:1|0:3,0:0:0:0:
192,327,88550,1,2,0:3:0:0:
192,327,88635,1,8,0:0:0:0:
136,248,88806,1,8,0:3:0:0:
42,245,88976,1,8,0:3:0:0:
130,42,89317,5,8,0:0:0:0:
142,138,89487,1,2,0:3:0:0:
440,75,89658,69,8,0:0:0:0:
338,85,89828,1,2,0:3:0:0:
346,356,89999,5,8,0:0:0:0:
361,254,90169,1,2,0:3:0:0:
60,306,90340,1,8,0:0:0:0:
481,264,90681,70,0,L|357:254,1,120.000004577637,12|2,0:1|0:3,0:0:0:0:
80,89,91362,6,0,L|152:99,1,60.0000022888184,2|0,0:3|0:0,0:0:0:0:
103,186,91703,2,0,L|31:196,1,60.0000022888184,2|0,0:3|0:0,0:0:0:0:
200,169,92044,2,0,L|272:179,1,60.0000022888184,6|0,0:3|0:0,0:0:0:0:
223,266,92385,2,0,L|163:274,1,60.0000022888184,2|0,0:3|0:0,0:0:0:0:
331,349,92726,2,0,P|317:322|313:292,1,60.0000022888184,2|0,0:3|0:0,0:0:0:0:
307,147,93067,2,0,P|302:176|289:203,1,60.0000022888184,2|0,0:3|0:0,0:0:0:0:
494,223,93408,70,0,P|439:242|377:232,1,120.000004577637,6|2,0:3|0:3,0:0:0:0:
427,27,93919,1,0,0:0:0:0:
427,27,94090,2,0,B|439:70|439:70|427:161,1,120.000004577637,2|2,0:3|0:3,0:0:0:0:
257,54,94601,1,0,0:0:0:0:
257,54,94771,6,0,P|242:80|238:110,1,60.0000022888184,6|0,0:3|0:0,0:0:0:0:
340,226,95112,2,0,P|325:200|302:182,1,60.0000022888184,2|0,0:3|0:0,0:0:0:0:
149,211,95453,2,0,P|179:211|207:201,1,60.0000022888184,2|0,0:3|0:0,0:0:0:0:
167,63,95794,2,0,L|160:142,1,60.0000022888184,2|0,0:3|0:0,0:0:0:0:
148,326,96135,2,0,P|163:269|135:191,1,120.000004577637,6|2,0:3|0:3,0:0:0:0:
13,273,96646,1,0,0:0:0:0:
13,272,96817,70,0,L|72:264,1,60.0000022888184,2|0,0:3|0:0,0:0:0:0:
156,151,97158,2,0,L|148:210,1,60.0000022888184,2|0,0:3|0:0,0:0:0:0:
176,371,97499,2,0,L|168:312,1,60.0000022888184,6|0,0:3|0:0,0:0:0:0:
292,222,97840,2,0,L|232:229,1,60.0000022888184,2|0,0:3|0:0,0:0:0:0:
348,157,98181,2,0,P|367:182|376:209,1,60.0000022888184,2|0,0:3|0:0,0:0:0:0:
149,230,98521,2,0,P|154:198|168:172,1,60.0000022888184,2|0,0:3|0:0,0:0:0:0:
315,353,98862,6,0,B|158:370|158:370|72:340,1,240.000009155274,6|2,0:3|0:3,0:0:0:0:
36,59,99715,69,0,0:0:0:0:
98,249,99885,1,2,0:3:0:0:
111,101,100056,1,2,0:3:0:0:
32,147,100226,2,0,L|216:161,1,167.999994873047,6|2,0:3|0:0,0:0:0:0:
222,181,100908,2,0,L|378:173,1,150.000005722046,8|0,0:0|0:0,0:0:0:0:
467,119,101419,1,8,0:3:0:0:
467,119,101504,1,8,0:3:0:0:
467,119,101590,6,0,P|413:71|316:78,1,145.600004887695,4|2,0:1|0:3,0:0:0:0:
371,173,102101,1,0,0:0:0:0:
241,304,102272,2,0,P|274:316|311:314,1,72.8000024438477,2|0,0:3|0:0,0:0:0:0:
280,118,102613,1,2,0:3:0:0:
285,230,102783,1,8,0:0:0:0:
325,38,102954,70,0,P|280:27|241:34,1,72.8000024438477,2|0,0:3|0:0,0:0:0:0:
100,182,103295,2,0,L|174:172,1,72.8000024438477,2|0,0:3|0:0,0:0:0:0:
280,118,103636,1,2,0:3:0:0:
218,283,103806,1,8,0:3:0:0:
291,128,103977,2,0,L|230:133,1,35.9999989013672,10|0,0:3|0:0,0:0:0:0:
213,293,104147,2,0,L|248:299,1,35.9999989013672,8|2,0:3|0:0,0:0:0:0:
348,64,104317,6,0,B|300:47|300:47|188:55,1,145.600004887695,2|2,0:3|0:3,0:0:0:0:
436,176,104828,1,0,0:0:0:0:
436,176,104998,2,0,L|428:102,1,72.8000024438477,2|0,0:3|0:0,0:0:0:0:
299,136,105339,1,2,0:3:0:0:
442,181,105510,1,8,0:0:0:0:
186,111,105680,70,0,P|165:145|168:202,1,72.8000024438477,2|8,0:3|0:0,0:0:0:0:
389,314,106021,2,0,P|391:269|374:229,1,72.8000024438477,2|0,0:3|0:0,0:0:0:0:
207,268,106362,1,2,0:3:0:0:
304,289,106532,1,8,0:3:0:0:
163,142,106703,2,0,P|161:165|165:186,1,36.4000012219239,10|0,0:3|0:0,0:0:0:0:
304,288,106873,2,0,P|305:266|301:245,1,36.4000012219239,8|2,0:3|0:0,0:0:0:0:
83,225,107044,6,0,P|144:274|226:258,1,145.600004887695,2|2,0:3|0:3,0:0:0:0:
172,50,107556,1,0,0:0:0:0:
0,200,107726,2,0,P|-3:236|11:278,1,72.8000024438477,2|0,0:3|0:0,0:0:0:0:
207,269,108067,1,2,0:3:0:0:
83,225,108237,1,8,0:0:0:0:
133,374,108408,70,0,L|126:297,1,72.8000024438477,2|0,0:3|0:0,0:0:0:0:
169,105,108749,2,0,L|162:177,1,72.8000024438477,2|8,0:3|0:0,0:0:0:0:
126,301,109090,1,2,0:3:0:0:
58,136,109260,1,8,0:0:0:0:
39,348,109431,2,0,L|34:287,1,35.9999989013672,8|0,0:3|0:0,0:0:0:0:
218,248,109601,2,0,L|213:285,1,36.4000012219239,8|2,0:3|0:0,0:0:0:0:
58,136,109771,6,0,B|123:121|123:121|191:137,1,128,12|2,0:2|0:3,0:0:0:0:
299,309,110282,1,0,3:0:0:0:
299,309,110453,2,0,L|308:233,1,64,2|0,0:3|3:0,0:0:0:0:
282,113,110794,1,2,0:3:0:0:
420,188,110964,1,8,0:0:0:0:
420,188,111049,1,0,0:0:0:0:
420,188,111135,70,0,L|412:132,1,32,2|0,3:0|0:0,0:0:0:0:
282,112,111306,2,0,L|277:143,1,32,8|0,0:0|0:0,0:0:0:0:
431,199,111476,2,0,L|423:143,1,32,0|0,3:0|0:0,0:0:0:0:
271,102,111647,2,0,L|266:133,1,32,8|0,3:0|0:0,0:0:0:0:
357,256,111817,5,0,3:0:0:0:
357,256,111987,1,8,0:3:0:0:
330,35,112157,1,8,0:3:0:0:
330,35,112328,1,8,0:3:0:0:
457,324,112499,70,0,L|465:180,1,143.999995605469,4|0,0:1|0:0,0:0:0:0:
456,65,113011,2,0,L|448:209,1,143.999995605469,2|2,0:3|0:3,0:0:0:0:
369,366,113522,1,8,0:3:0:0:
369,366,113693,1,8,0:3:0:0:
237,140,113863,2,0,P|299:107|367:125,1,143.999995605469,2|0,0:3|0:0,0:0:0:0:
373,139,114374,2,0,P|343:118|308:112,1,71.9999978027344,2|0,0:3|0:0,0:0:0:0:
314,286,114715,1,2,0:3:0:0:
308,203,114886,2,0,L|303:274,1,71.9999978027344,8|8,0:3|0:3,0:0:0:0:
237,122,115226,6,0,P|338:103|392:134,1,143.999995605469,2|0,0:3|0:0,0:0:0:0:
314,345,115737,2,0,B|300:291|300:291|309:191,1,143.999995605469,2|2,0:3|0:3,0:0:0:0:
258,22,116248,1,8,0:3:0:0:
258,22,116419,1,8,0:3:0:0:
443,202,116590,2,0,P|377:225|302:196,1,143.999995605469,2|0,0:3|0:0,0:0:0:0:
364,54,117101,1,2,0:3:0:0:
371,135,117271,2,0,L|374:56,1,71.9999978027344,0|2,0:0|0:3,0:0:0:0:
238,210,117612,2,0,P|272:199|308:203,1,71.9999978027344,8|8,0:3|0:3,0:0:0:0:
361,349,117953,70,0,B|308:360|308:360|211:336,1,143.999995605469,4|0,0:1|0:0,0:0:0:0:
299,112,118465,2,0,B|309:264,1,143.999995605469,2|2,0:3|0:3,0:0:0:0:
389,111,118976,1,8,0:3:0:0:
389,111,119147,1,8,0:3:0:0:
224,312,119317,2,0,P|287:344|357:334,1,143.999995605469,2|0,0:3|0:0,0:0:0:0:
361,323,119828,2,0,P|320:338|287:336,1,71.9999978027344,2|0,0:3|0:0,0:0:0:0:
296,171,120170,1,2,0:3:0:0:
308,255,120340,2,0,L|315:175,1,71.9999978027344,8|8,0:3|0:3,0:0:0:0:
380,48,120681,6,0,B|323:34|323:34|222:49,1,143.999995605469,2|0,0:3|0:0,0:0:0:0:
308,255,121193,2,0,P|338:197|320:119,1,143.999995605469,2|2,0:3|0:3,0:0:0:0:
156,186,121704,2,0,L|250:181,1,71.9999978027344,8|8,0:3|0:3,0:0:0:0:
102,272,122045,2,0,P|63:207|73:136,1,143.999995605469,2|0,0:3|0:0,0:0:0:0:
234,169,122556,1,2,0:3:0:0:
156,186,122727,2,0,L|249:181,1,71.9999978027344,8|0,0:0|0:0,0:0:0:0:
288,313,123068,2,0,L|190:306,1,71.9999978027344,8|8,0:0|0:3,0:0:0:0:
359,241,123408,70,0,P|386:305|367:373,1,143.999995605469,4|0,0:1|0:0,0:0:0:0:
147,307,123919,2,0,B|198:295|198:295|293:314,1,143.999995605469,2|2,0:3|0:3,0:0:0:0:
70,360,124431,2,0,P|57:319|63:273,1,71.9999978027344,8|8,0:3|0:3,0:0:0:0:
279,165,124772,2,0,P|201:199|143:181,1,143.999995605469,2|0,0:3|0:0,0:0:0:0:
143,171,125283,2,0,P|191:188|226:184,1,71.9999978027344,2|0,0:3|0:0,0:0:0:0:
61,119,125624,1,8,0:0:0:0:
58,290,125794,2,0,L|52:209,1,71.9999978027344,8|8,0:3|0:3,0:0:0:0:
352,189,126135,6,0,B|300:201|300:201|196:184,1,143.999995605469,2|8,0:3|0:0,0:0:0:0:
143,265,126646,1,8,0:0:0:0:
177,106,126817,2,0,P|200:100|224:100,2,47.9999985351563,8|8|8,0:0|0:0|0:3,0:0:0:0:
121,173,127157,2,0,P|105:157|93:119,2,47.9999985351563,8|8|8,0:3|0:3|0:3,0:0:0:0:
274,177,127499,70,0,P|312:94|258:5,2,191.999994140625,4|2|2,0:1|0:3|0:0,0:0:0:0:
194,289,129885,5,0,0:0:0:0:
12,243,130226,69,6,0:0:0:0:
194,289,130567,1,2,0:0:0:0:
194,289,130737,1,2,0:0:0:0:
139,142,131078,1,2,0:0:0:0:
66,347,131419,1,2,0:0:0:0:
65,347,131590,6,0,P|58:328|56:301,1,30.0000011444092,8|0,0:0|0:0,0:0:0:0:
136,304,131760,2,0,P|132:284|135:257,1,30.0000011444092,2|0,0:3|0:0,0:0:0:0:
213,273,131931,2,0,P|212:252|220:226,1,30.0000011444092,2|0,0:3|0:0,0:0:0:0:
294,255,132101,2,0,P|297:235|309:210,1,30.0000011444092,8|0,0:0|0:0,0:0:0:0:
376,253,132272,2,0,P|382:233|398:211,1,30.0000011444092,2|0,0:3|0:0,0:0:0:0:
457,265,132442,2,0,P|467:247|486:228,1,30.0000011444092,2|0,0:3|0:0,0:0:0:0:
466,129,132612,70,0,P|456:140|449:154,1,30.0000011444092,8|0,0:0|0:0,0:0:0:0:
380,114,132782,2,0,P|372:127|368:141,1,30.0000011444092,2|0,0:3|0:0,0:0:0:0:
293,114,132953,2,0,P|288:128|286:143,1,30.0000011444092,2|0,0:3|0:0,0:0:0:0:
207,132,133123,2,0,P|204:146|205:161,1,30.0000011444092,8|0,0:0|0:0,0:0:0:0:
125,163,133294,2,0,P|125:177|128:192,1,30.0000011444092,2|0,0:3|0:0,0:0:0:0:
49,207,133464,2,0,P|52:221|57:235,1,30.0000011444092,2|0,0:3|0:0,0:0:0:0:
182,302,133635,6,0,P|200:292|216:274,1,30.0000011444092,8|0,0:0|0:0,0:0:0:0:
330,302,133806,2,0,P|312:292|296:274,1,30.0000011444092,2|0,0:3|0:0,0:0:0:0:
165,254,133976,70,0,P|187:248|210:233,1,30.0000011444092,2|0,0:3|0:0,0:0:0:0:
346,253,134146,2,0,P|323:247|300:232,1,30.0000011444092,8|2,0:0|0:0,0:0:0:0:
256,65,134317,6,0,L|256:179,1,104.800001918945,12|2,0:1|0:3,0:0:0:0:
256,350,134658,1,2,0:3:0:0:
460,180,134828,2,0,L|340:165,1,104.800001918945,8|2,0:1|0:3,0:0:0:0:
52,180,135169,1,8,0:1:0:0:
155,167,135339,1,8,0:1:0:0:
256,350,135510,1,2,0:0:0:0:
256,350,135595,1,2,0:0:0:0:
256,350,135681,70,0,L|257:169,1,180.000006866455,12|2,0:1|0:0,0:0:0:0:
342,41,136703,1,2,0:3:0:0:
473,192,137044,54,0,P|392:260|293:228,1,198.399992128907,4|8,0:1|0:0,0:0:0:0:
342,41,137555,1,0,0:0:0:0:
373,158,137726,1,2,0:3:0:0:
66,118,137896,5,2,0:3:0:0:
146,49,138067,2,0,L|264:43,1,99.1999960644533,8|0,0:0|0:0,0:0:0:0:
373,158,138408,70,0,B|309:126|309:126|168:136,1,198.399992128907,2|8,0:3|0:0,0:0:0:0:
76,337,138919,1,0,0:0:0:0:
69,238,139090,1,2,0:3:0:0:
146,49,139260,5,2,0:3:0:0:
186,221,139431,2,0,L|296:214,1,99.1999960644533,10|2,0:0|0:0,0:0:0:0:
451,365,139771,70,0,P|373:316|376:207,1,198.399992128907,2|8,0:3|0:0,0:0:0:0:
461,151,140283,1,0,0:0:0:0:
456,261,140453,1,2,0:3:0:0:
295,373,140624,5,2,0:3:0:0:
144,290,140794,2,0,L|212:299,1,49.5999980322266,8|0,0:0|0:0,0:0:0:0:
166,384,140965,2,0,L|221:375,1,49.5999980322266,2|0,0:0|0:0,0:0:0:0:
96,198,141135,70,0,P|42:286|91:383,1,198.399992128907,2|8,0:3|0:0,0:0:0:0:
274,267,141646,1,0,0:0:0:0:
144,290,141817,1,2,0:3:0:0:
11,153,141987,5,2,0:3:0:0:
205,97,142158,2,0,L|196:212,1,99.1999960644533,8|2,0:0|0:0,0:0:0:0:
124,38,142499,70,0,P|225:5|304:67,1,198.399992128907,4|8,0:1|0:0,0:0:0:0:
391,338,143010,1,0,0:0:0:0:
418,242,143181,1,2,0:3:0:0:
299,59,143351,5,2,0:3:0:0:
325,263,143521,2,0,L|330:148,1,99.1999960644533,8|2,0:0|0:0,0:0:0:0:
397,80,143862,69,4,0:1:0:0:
73,148,144033,1,2,0:3:0:0:
83,335,144203,6,0,L|104:207,1,99.1999960644533,8|0,0:0|0:0,0:0:0:0:
259,133,144544,2,0,L|137:178,1,99.1999960644533,2|2,0:3|0:3,0:0:0:0:
0,82,144885,2,0,L|99:164,1,99.1999960644533,8|2,0:0|0:0,0:0:0:0:
438,304,145226,70,0,B|239:312,1,198.399992128907,4|8,0:1|0:0,0:0:0:0:
106,258,145737,1,0,0:0:0:0:
106,258,145907,1,2,0:3:0:0:
100,376,146078,1,2,0:3:0:0:
240,210,146248,1,8,0:0:0:0:
23,161,146419,1,2,0:0:0:0:
378,196,146590,6,0,P|324:233|247:226,1,143.999995605469,12|2,0:1|0:3,0:0:0:0:
204,39,146931,2,0,P|266:71|295:135,1,143.999995605469,12|2,0:1|0:3,0:0:0:0:
155,267,147271,2,0,P|152:197|193:140,1,143.999995605469,8|8,0:1|0:0,0:0:0:0:
357,285,147612,1,8,0:0:0:0:
357,285,147698,1,8,0:0:0:0:
357,285,147783,1,8,0:0:0:0:
357,285,147868,1,8,0:0:0:0:
357,285,147953,70,0,L|238:279,1,106.399995616455,4|2,0:1|0:3,0:0:0:0:
72,325,148294,1,8,0:0:0:0:
180,185,148465,2,0,L|298:179,1,106.399995616455,0|2,0:0|0:3,0:0:0:0:
465,225,148806,1,2,0:3:0:0:
465,225,148976,1,8,0:0:0:0:
345,83,149146,1,2,0:0:0:0:
291,286,149317,6,0,L|285:167,1,106.399995616455,2|2,0:3|0:3,0:0:0:0:
353,75,149657,1,8,0:0:0:0:
379,311,149828,2,0,L|373:188,1,106.399995616455,0|2,0:0|0:3,0:0:0:0:
470,331,150169,2,0,L|464:208,1,106.399995616455,2|8,0:3|0:0,0:0:0:0:
267,94,150510,1,2,0:0:0:0:
267,94,150680,70,0,L|273:212,1,106.399995616455,2|2,0:3|0:3,0:0:0:0:
75,158,151021,1,8,0:0:0:0:
86,184,151192,1,0,0:0:0:0:
358,259,151362,2,0,L|363:152,1,106.399995616455,2|2,0:3|0:3,0:0:0:0:
328,22,151703,1,8,0:0:0:0:
335,44,151874,1,2,0:0:0:0:
143,235,152044,6,0,P|133:288|154:338,1,106.399995616455,2|2,0:3|0:3,0:0:0:0:
358,259,152385,1,8,0:0:0:0:
122,153,152556,2,0,P|77:183|57:234,1,106.399995616455,0|2,0:0|0:3,0:0:0:0:
167,75,152896,2,0,P|113:65|63:86,1,106.399995616455,2|8,0:3|0:0,0:0:0:0:
394,186,153237,1,8,0:0:0:0:
394,186,153323,1,8,0:0:0:0:
394,186,153408,70,0,P|301:208|203:130,1,200,4|8,0:1|0:0,0:0:0:0:
66,84,153919,1,0,0:0:0:0:
66,84,154090,1,2,0:3:0:0:
259,72,154260,1,2,0:3:0:0:
179,190,154431,2,0,L|173:300,1,100,10|2,0:0|0:0,0:0:0:0:
500,329,154771,6,0,B|428:306|428:306|284:326,1,207.999990478516,4|8,0:1|0:0,0:0:0:0:
112,362,155283,1,0,0:0:0:0:
112,362,155453,1,2,0:3:0:0:
219,158,155624,1,2,0:3:0:0:
301,335,155794,2,0,L|312:221,1,103.999995239258,8|2,0:0|0:0,0:0:0:0:
109,47,156135,70,0,P|50:69|140:92,1,216.000000823975,2|8,0:3|0:0,0:0:0:0:
272,42,156646,1,0,0:0:0:0:
272,42,156817,1,2,0:3:0:0:
178,223,156987,1,2,0:3:0:0:
1,39,157158,2,0,L|123:47,1,108.000000411987,8|2,0:0|0:0,0:0:0:0:
479,110,157499,6,0,L|253:128,1,223.999993164063,4|8,0:1|0:0,0:0:0:0:
108,46,158010,1,0,3:0:0:0:
276,259,158181,1,2,0:3:0:0:
276,259,158266,1,8,0:0:0:0:
276,259,158351,1,2,0:3:0:0:
232,41,158521,1,8,0:0:0:0:
162,244,158692,1,8,0:0:0:0:
162,244,158777,1,8,0:0:0:0:
162,244,158862,70,0,L|204:207,1,55.9999982910157,12|0,0:1|0:0,0:0:0:0:
232,41,159033,2,0,L|241:96,1,55.9999982910157,2|0,0:3|0:0,0:0:0:0:
373,203,159203,2,0,L|320:183,1,55.9999982910157,8|0,0:0|0:0,0:0:0:0:
103,112,159374,6,0,L|155:131,1,55.9999982910157,2|0,0:3|0:0,0:0:0:0:
372,60,159545,2,0,L|330:97,1,55.9999982910157,8|0,0:0|0:0,0:0:0:0:
284,320,159715,2,0,L|268:234,1,55.9999982910157,8|0,0:0|0:0,0:0:0:0:
34,207,159885,70,0,L|94:196,1,55.9999982910157,8|8,0:2|0:0,0:0:0:0:
476,140,160056,2,0,L|420:130,1,55.9999982910157,8|8,0:0|0:2,0:0:0:0:
245,185,160226,22,0,L|242:139,1,40,12|0,0:1|0:0,0:0:0:0:
159,263,160908,1,2,0:0:0:0:
159,263,161078,1,2,0:0:0:0:
159,263,161249,6,0,P|194:252|248:260,1,80,0|4,0:0|0:1,0:0:0:0:
404,258,166533,69,0,0:0:0:0:
404,258,166618,1,0,0:0:0:0:
404,258,166703,1,8,0:3:0:0:
354,240,166788,1,2,0:0:0:0:
303,239,166874,1,8,0:3:0:0:
264,254,166959,1,8,0:3:0:0:
231,277,167044,6,0,L|222:155,1,106.399995616455,4|0,0:1|0:0,0:0:0:0:
345,49,167385,1,2,0:3:0:0:
360,240,167556,1,0,0:0:0:0:
165,100,167726,2,0,P|217:81|276:97,1,106.399995616455,2|0,0:3|0:0,0:0:0:0:
231,277,168067,1,2,0:3:0:0:
223,170,168237,1,8,0:0:0:0:
223,170,168323,1,2,0:0:0:0:
223,170,168408,69,2,0:3:0:0:
68,211,168578,1,8,0:0:0:0:
192,354,168749,5,2,0:3:0:0:
61,337,168919,1,0,0:0:0:0:
117,102,169090,69,2,0:3:0:0:
135,280,169260,1,0,0:0:0:0:
135,280,169345,1,0,0:0:0:0:
135,280,169431,1,2,0:3:0:0:
295,151,169601,2,0,P|260:132|227:134,1,53.1999978082276,2|2,0:0|0:0,0:0:0:0:
239,213,169771,6,0,L|234:104,1,106.399995616455,2|0,0:3|0:0,0:0:0:0:
313,44,170112,1,2,0:3:0:0:
313,44,170283,1,0,0:0:0:0:
330,336,170453,2,0,L|334:227,1,106.399995616455,2|0,0:3|0:0,0:0:0:0:
313,44,170794,1,2,0:3:0:0:
484,193,170965,1,0,0:0:0:0:
484,193,171050,1,0,0:0:0:0:
484,193,171135,69,2,0:3:0:0:
507,59,171306,1,8,0:0:0:0:
275,157,171476,2,0,L|271:105,2,40,2|0|8,0:3|0:0|0:3,0:0:0:0:
394,207,171817,2,0,L|391:257,2,40,8|0|8,0:3|0:0|0:3,0:0:0:0:
281,165,172158,1,8,0:3:0:0:
342,332,172328,1,8,0:3:0:0:
342,332,172413,1,8,0:3:0:0:
342,332,172499,6,0,L|348:240,1,88.000002685547,4|0,0:1|0:0,0:0:0:0:
426,122,172840,1,2,0:3:0:0:
231,231,173010,1,0,0:0:0:0:
426,367,173181,2,0,L|433:269,1,88.000002685547,2|0,0:3|0:0,0:0:0:0:
343,101,173521,1,2,0:3:0:0:
343,101,173692,1,2,0:0:0:0:
255,359,173862,70,0,L|251:258,1,88.000002685547,2|0,0:3|0:0,0:0:0:0:
254,119,174203,1,2,0:3:0:0:
244,372,174374,2,0,L|240:271,1,88.000002685547,0|2,0:0|0:3,0:0:0:0:
162,140,174715,1,0,0:0:0:0:
253,227,174885,2,0,L|251:271,1,44.0000013427735,2|0,0:3|0:0,0:0:0:0:
157,343,175056,2,0,L|155:300,1,44.0000013427735,8|2,0:0|0:0,0:0:0:0:
166,146,175226,6,0,L|173:25,1,88.000002685547,2|0,0:3|0:0,0:0:0:0:
252,227,175567,1,2,0:3:0:0:
76,112,175737,2,0,L|81:199,1,88.000002685547,0|2,0:0|0:3,0:0:0:0:
61,363,176078,1,0,0:0:0:0:
157,343,176249,1,2,0:3:0:0:
1,174,176419,1,8,0:0:0:0:
252,227,176590,70,0,P|157:254|86:215,1,176.000005371094,2|2,0:3|0:3,0:0:0:0:
182,52,177101,2,0,L|176:153,1,88.000002685547,8|2,0:0|0:3,0:0:0:0:
298,99,177442,1,8,0:0:0:0:
166,41,177612,2,0,L|160:142,1,88.000002685547,2|8,0:3|0:3,0:0:0:0:
250,356,177953,6,0,P|284:279|257:189,1,160,4|2,0:1|0:3,0:0:0:0:
160,128,178465,1,0,0:0:0:0:
56,230,178635,2,0,L|148:219,1,80,2|0,0:3|0:0,0:0:0:0:
250,356,178976,2,0,L|157:346,1,80,2|2,0:3|0:0,0:0:0:0:
302,160,179317,70,0,P|342:209|333:320,1,160,4|2,0:1|0:3,0:0:0:0:
170,261,179828,1,0,3:0:0:0:
170,261,179913,1,0,3:0:0:0:
170,261,179999,2,0,L|274:249,1,80,2|0,3:3|3:0,0:0:0:0:
479,351,180340,1,2,3:3:0:0:
455,216,180510,1,8,0:0:0:0:
455,216,180595,1,2,0:0:0:0:
455,216,180681,6,0,L|464:50,1,160,4|2,0:1|0:3,0:0:0:0:
463,56,181192,1,0,0:0:0:0:
350,254,181362,1,2,0:3:0:0:
256,94,181533,2,0,L|258:133,1,40,8|0,0:0|0:0,0:0:0:0:
335,32,181703,1,2,0:3:0:0:
176,150,181874,70,0,L|173:189,1,40,8|2,0:0|0:0,0:0:0:0:
111,74,182044,1,2,0:0:0:0:
144,271,182215,1,8,0:0:0:0:
350,254,182385,5,2,0:0:0:0:
153,287,182556,1,8,0:0:0:0:
258,87,182726,69,2,0:0:0:0:
160,303,182896,1,8,0:0:0:0:
361,261,183067,5,0,0:0:0:0:
80,177,183237,1,8,0:0:0:0:
104,377,183408,70,0,P|112:282|166:321,1,200,8|2,0:0|0:0,0:0:0:0:
258,368,184431,2,0,L|252:319,1,40,2|0,0:0|0:0,0:0:0:0:
230,234,184771,2,0,L|240:109,1,120.000004577637,2|0,0:0|0:0,0:0:0:0:
147,29,185283,1,0,0:0:0:0:
159,100,185453,2,0,L|153:32,1,60.0000022888184,2|0,0:0|0:0,0:0:0:0:
58,80,185794,2,0,L|52:139,1,60.0000022888184,0|0,0:0|0:0,0:0:0:0:
0,214,186135,6,0,B|62:253|127:223|109:208|179:182|235:221,1,240.000009155274,8|0,0:0|0:0,0:0:0:0:
164,365,186987,1,2,0:0:0:0:
164,365,187158,2,0,L|169:305,1,60.0000022888184,2|0,0:0|0:0,0:0:0:0:
283,145,187499,2,0,P|306:173|304:268,1,120.000004577637,2|0,0:0|0:0,0:0:0:0:
198,130,188010,1,0,0:0:0:0:
317,53,188181,2,0,L|257:56,1,60.0000022888184,2|0,0:0|0:0,0:0:0:0:
296,149,188521,2,0,L|355:152,1,60.0000022888184,0|0,0:0|0:0,0:0:0:0:
279,342,188862,70,0,P|223:246|289:141,1,240.000009155274,8|0,0:0|0:0,0:0:0:0:
459,182,189715,1,2,0:0:0:0:
459,182,189885,2,0,P|432:158|401:147,1,60.0000022888184,2|0,0:0|0:0,0:0:0:0:
327,245,190226,2,0,L|398:233,1,60.0000022888184,8|0,0:0|0:0,0:0:0:0:
453,355,190567,2,0,L|382:343,1,60.0000022888184,0|0,0:0|0:0,0:0:0:0:
142,336,190908,6,0,L|137:276,1,60.0000022888184,2|0,0:0|0:0,0:0:0:0:
235,243,191249,2,0,L|230:303,1,60.0000022888184,0|0,0:0|0:0,0:0:0:0:
62,212,191590,70,0,P|115:180|188:190,1,120.000004577637,2|0,0:0|0:0,0:0:0:0:
231,303,192101,1,2,0:0:0:0:
130,335,192271,2,0,L|137:276,1,60.0000022888184,0|2,0:0|0:0,0:0:0:0:
62,212,192612,2,0,L|55:152,1,60.0000022888184,2|2,0:0|0:0,0:0:0:0:
161,48,192953,6,0,L|176:179,1,120,8|0,0:0|0:0,0:0:0:0:
346,57,193294,70,0,L|224:4,1,113.999996955872,2|0,0:0|0:0,0:0:0:0:
253,209,193635,6,0,L|344:141,1,113.999996955872,2|0,0:0|0:0,0:0:0:0:
147,89,193976,70,0,L|154:163,1,60,2|0,0:0|0:0,0:0:0:0:
54,290,194317,6,0,B|131:265|131:265|273:296,1,215.999993408203,4|2,0:1|0:0,0:0:0:0:
265,201,194999,2,0,P|207:218|178:330,1,179.999994506836,8|0,0:0|0:0,0:0:0:0:
262,293,195510,1,8,0:0:0:0:
266,130,195681,70,0,L|272:211,1,71.9999978027344,2|8,0:0|0:0,0:0:0:0:
365,70,196021,2,0,L|359:151,1,71.9999978027344,2|0,0:3|0:0,0:0:0:0:
435,186,196362,2,0,L|441:258,1,71.9999978027344,8|0,0:0|0:0,0:0:0:0:
335,314,196703,2,0,P|344:260|330:219,1,90.0000034332277,0|2,0:0|0:0,0:0:0:0:
40,292,197044,6,0,L|260:271,1,215.999993408203,4|0,0:1|0:0,0:0:0:0:
404,219,197726,2,0,P|369:209|333:214,1,71.9999978027344,8|0,0:0|0:0,0:0:0:0:
255,271,198067,1,8,0:0:0:0:
160,90,198408,70,0,P|152:127|164:176,2,50.6666653137207,2|0|8,0:3|0:0|0:0,0:0:0:0:
243,128,198749,6,0,P|268:127|292:120,2,50.6666653137207,8|8|8,0:0|0:0|0:0,0:0:0:0:
255,271,199090,70,0,P|254:245|247:221,2,50.6666653137207,8|8|8,0:3|0:3|0:3,0:0:0:0:
111,304,199431,6,0,P|111:278|118:254,2,50.6666653137207,8|8|8,0:3|0:3|0:3,0:0:0:0:
286,355,199771,69,4,0:2:0:0:
286,355,200112,5,8,0:0:0:0:
460,330,200283,1,8,0:0:0:0:
253,244,200453,69,8,0:0:0:0:
358,277,200624,1,8,0:0:0:0:
436,130,200794,5,10,0:0:0:0:
332,172,200965,1,8,0:0:0:0:
158,45,201135,69,10,0:0:0:0:
345,68,201306,1,8,0:0:0:0:
48,193,201476,5,8,0:0:0:0:
248,108,201646,1,10,0:0:0:0:
33,359,201817,69,8,0:0:0:0:
150,151,201987,1,8,0:0:0:0:
358,277,202158,5,10,0:0:0:0:
158,45,202328,1,8,0:0:0:0:
234,209,202499,69,6,0:2:0:0:
345,68,202669,2,0,L|459:80,1,88.000002685547,8|0,0:0|0:0,0:0:0:0:
248,109,203010,5,2,0:3:0:0:
332,172,203181,1,8,0:0:0:0:
353,319,203351,70,0,L|349:267,1,44.0000013427735,8|8,0:0|0:0,0:0:0:0:
453,376,203521,2,0,L|459:328,1,44.0000013427735,8|8,0:3|0:3,0:0:0:0:
438,205,203692,1,8,0:3:0:0:
438,205,203777,1,8,0:3:0:0:
438,205,203862,1,4,0:1:0:0:
332,172,204374,5,2,0:0:0:0:
340,179,204885,1,2,0:0:0:0:
347,185,205226,70,0,P|333:95|417:31,1,180.000006866455,4|2,0:1|0:0,0:0:0:0:
502,135,206078,1,0,0:0:0:0:
502,135,206249,2,0,L|418:127,1,80,2|2,0:0|0:0,0:0:0:0:
307,241,206590,2,0,B|382:272|475:251|475:251|429:262|403:287,1,240,8|2,0:0|0:0,0:0:0:0:
232,291,207442,1,0,0:0:0:0:
232,291,207612,2,0,P|219:249|224:207,1,80,2|2,0:0|0:0,0:0:0:0:
268,94,207953,6,0,L|262:40,3,41.9999987182618,4|0|0|0,0:1|3:0|3:0|3:0,0:0:0:0:
356,147,208294,2,0,L|362:93,3,41.9999987182618,8|0|0|0,0:0|3:0|3:0|3:0,0:0:0:0:
307,241,208635,69,8,0:0:0:0:
276,200,208720,1,0,3:0:0:0:
229,178,208806,1,0,3:0:0:0:
178,180,208891,1,0,3:0:0:0:
133,202,208976,5,8,0:0:0:0:
136,181,209061,1,8,0:0:0:0:
141,160,209146,1,8,0:0:0:0:
145,139,209232,1,8,0:0:0:0:
148,118,209317,70,0,P|191:107|245:121,1,83.9999974365235,8|0,0:0|0:0,0:0:0:0:
199,289,209658,1,2,0:0:0:0:
190,197,209828,2,0,L|188:276,1,60.0000022888184,2|0,0:0|0:0,0:0:0:0:
398,159,210169,1,2,0:0:0:0:
321,220,210340,6,0,P|304:172|317:115,1,102.000001945496,2|0,0:3|0:0,0:0:0:0:
398,166,210681,70,0,P|405:263|324:323,1,198.399992128907,4|8,0:1|0:0,0:0:0:0:
153,249,211193,1,0,0:0:0:0:
153,249,211363,1,2,0:3:0:0:
321,220,211534,1,2,0:3:0:0:
97,169,211704,2,0,P|144:152|198:160,1,99.1999960644533,8|2,0:0|0:0,0:0:0:0:
170,365,212045,5,4,0:1:0:0:
308,95,212215,1,2,0:3:0:0:
381,312,212386,2,0,P|337:327|270:311,1,99.1999960644533,8|0,0:0|0:0,0:0:0:0:
308,95,212727,1,2,0:3:0:0:
326,233,212897,1,2,0:3:0:0:
112,131,213067,2,0,L|210:139,1,99.1999960644533,8|2,0:0|0:0,0:0:0:0:
437,353,213409,70,0,B|422:279|422:279|446:144,1,198.399992128907,4|8,0:1|0:0,0:0:0:0:
384,27,213920,1,0,0:0:0:0:
384,27,214090,1,2,0:3:0:0:
326,233,214261,1,2,0:3:0:0:
443,158,214431,1,8,0:0:0:0:
282,52,214602,1,2,0:0:0:0:
252,358,214771,6,0,L|222:200,1,143.999995605469,12|2,0:1|0:3,0:0:0:0:
8,182,215112,2,0,L|143:229,1,143.999995605469,12|2,0:1|0:3,0:0:0:0:
282,52,215453,2,0,L|172:145,1,143.999995605469,8|8,0:1|0:0,0:0:0:0:
100,311,215794,1,8,0:0:0:0:
97,292,215879,1,8,0:0:0:0:
95,272,215965,1,8,0:0:0:0:
93,252,216050,1,8,0:0:0:0:
91,232,216135,70,0,L|101:115,1,106.399995616455,4|2,0:1|0:3,0:0:0:0:
39,20,216476,1,8,0:0:0:0:
39,20,216646,1,0,0:0:0:0:
201,287,216817,2,0,L|191:170,1,106.399995616455,2|2,0:3|0:3,0:0:0:0:
237,58,217158,1,8,0:0:0:0:
237,58,217328,1,2,0:0:0:0:
294,178,217499,6,0,B|238:204|191:179,1,106.399995616455,2|2,0:3|0:3,0:0:0:0:
146,84,217840,1,8,0:0:0:0:
384,190,218010,2,0,P|362:238|314:267,1,106.399995616455,0|2,0:0|0:3,0:0:0:0:
455,134,218351,2,8,P|473:183|460:237,1,106.399995616455,2|8,0:3|0:0,0:0:0:0:
294,178,218692,1,2,0:0:0:0:
234,347,218862,70,0,L|228:229,1,106.399995616455,2|2,0:3|0:3,0:0:0:0:
130,365,219203,2,0,L|124:247,1,106.399995616455,8|0,0:0|0:0,0:0:0:0:
25,380,219544,2,0,L|19:262,1,106.399995616455,2|2,0:3|0:3,0:0:0:0:
72,49,219885,5,8,0:0:0:0:
101,134,220055,1,2,0:0:0:0:
414,102,220226,69,2,0:3:0:0:
301,82,220396,1,2,0:3:0:0:
409,332,220567,5,8,0:0:0:0:
475,242,220737,1,0,0:0:0:0:
199,215,220908,69,2,0:3:0:0:
245,317,221078,1,2,0:3:0:0:
332,218,221249,5,8,0:0:0:0:
409,332,221419,1,8,0:0:0:0:
409,332,221504,1,8,0:0:0:0:
409,332,221590,70,0,L|417:119,1,200,4|8,0:1|0:0,0:0:0:0:
478,13,222101,1,0,0:0:0:0:
262,140,222271,1,2,0:3:0:0:
262,140,222442,1,2,0:3:0:0:
496,281,222612,2,0,L|499:172,1,100,10|2,0:0|0:0,0:0:0:0:
92,220,222953,6,0,B|158:241|158:241|304:221,1,207.999990478516,4|8,0:1|0:0,0:0:0:0:
399,46,223465,1,0,0:0:0:0:
158,129,223635,1,2,0:3:0:0:
158,129,223806,1,2,0:3:0:0:
381,270,223976,2,0,P|401:216|391:154,1,103.999995239258,8|2,0:0|0:0,0:0:0:0:
110,33,224317,70,0,P|59:101|113:236,1,216.000000823975,2|8,0:3|0:0,0:0:0:0:
312,203,224828,1,0,0:0:0:0:
312,203,224999,1,2,0:3:0:0:
158,129,225169,1,2,0:3:0:0:
399,46,225340,2,0,L|385:166,1,108.000000411987,8|2,0:0|0:0,0:0:0:0:
170,365,225681,6,0,L|156:119,1,223.999993164063,4|8,0:1|0:0,0:0:0:0:
248,23,226192,1,0,3:0:0:0:
312,203,226362,1,2,0:3:0:0:
312,203,226447,1,8,0:0:0:0:
312,203,226533,1,2,0:3:0:0:
82,99,226703,1,8,0:0:0:0:
354,65,226874,1,8,0:0:0:0:
354,65,226959,1,8,0:0:0:0:
354,65,227044,70,0,L|350:138,1,55.9999982910157,12|0,0:1|0:0,0:0:0:0:
312,203,227215,2,0,L|316:276,1,55.9999982910157,2|0,0:3|0:0,0:0:0:0:
429,350,227385,6,0,L|432:294,1,55.9999982910157,8|0,0:0|0:0,0:0:0:0:
474,216,227555,2,0,L|471:161,1,55.9999982910157,2|0,0:3|0:0,0:0:0:0:
158,65,227726,70,0,L|162:138,1,55.9999982910157,8|0,0:0|0:0,0:0:0:0:
200,206,227897,2,0,L|196:279,1,55.9999982910157,8|8,0:0|0:0,0:0:0:0:
85,353,228067,6,0,L|81:297,1,55.9999982910157,8|8,0:2|0:0,0:0:0:0:
37,216,228237,2,0,L|41:161,1,55.9999982910157,8|8,0:0|0:2,0:0:0:0:
256,66,228408,70,0,B|256:122,1,40,12|0,0:1|0:0,0:0:0:0:
226,312,229569,5,8,0:0:0:0:
226,312,229646,1,8,0:0:0:0:
226,312,229771,2,0,L|217:190,1,106.399995616455,4|0,0:1|0:0,0:0:0:0:
320,29,230112,1,8,0:0:0:0:
400,237,230283,1,0,0:0:0:0:
158,129,230453,2,0,P|210:110|269:126,1,106.399995616455,2|2,0:3|0:3,0:0:0:0:
225,322,230794,1,8,0:0:0:0:
221,208,230964,1,2,0:0:0:0:
221,208,231050,1,2,0:0:0:0:
221,208,231135,70,0,L|216:326,1,106.399995616455,2|0,0:3|0:0,0:0:0:0:
102,209,231476,5,8,0:0:0:0:
320,162,231646,1,0,0:0:0:0:
320,162,231732,1,0,0:0:0:0:
320,162,231817,2,0,L|311:52,1,106.399995616455,2|0,0:3|0:0,0:0:0:0:
221,208,232158,1,8,0:0:0:0:
412,174,232328,1,2,0:0:0:0:
412,174,232413,1,2,0:0:0:0:
412,174,232499,70,0,L|403:64,1,106.399995616455,2|0,0:3|0:0,0:0:0:0:
340,249,232839,1,8,0:0:0:0:
255,119,233010,2,0,L|259:172,1,53.1999978082276,0|0,0:0|0:0,0:0:0:0:
217,297,233181,1,2,0:3:0:0:
173,90,233351,2,0,L|169:143,1,53.1999978082276,2|0,0:3|0:0,0:0:0:0:
217,297,233522,1,8,0:0:0:0:
53,286,233692,1,2,0:0:0:0:
53,286,233777,1,2,0:0:0:0:
53,286,233862,6,0,P|22:188|114:114,1,212.799991232911,2|8,0:3|0:0,0:0:0:0:
217,297,234374,2,0,L|152:304,1,53.1999978082276,2|0,0:0|0:0,0:0:0:0:
118,211,234544,2,0,L|332:222,1,212.799991232911,2|8,0:3|0:0,0:0:0:0:
418,293,235056,1,2,0:0:0:0:
411,75,235226,70,0,B|434:148|434:148|411:308,1,212.799991232911,2|8,0:3|0:0,0:0:0:0:
287,350,235737,6,0,L|282:293,1,53.1999978082276,0|0,0:0|0:0,0:0:0:0:
242,170,235908,1,2,0:3:0:0:
185,330,236078,70,0,L|190:273,1,53.1999978082276,2|0,0:3|0:0,0:0:0:0:
242,170,236249,1,8,0:0:0:0:
341,216,236419,5,2,0:0:0:0:
341,216,236504,1,2,0:0:0:0:
341,216,236590,2,8,P|303:86|199:73,1,212.799991232911,2|8,0:3|0:0,0:0:0:0:
111,127,237101,70,0,L|174:120,1,53.1999978082276,0|0,0:3|0:0,0:0:0:0:
242,170,237271,1,2,0:3:0:0:
85,214,237442,6,0,L|148:221,1,53.1999978082276,2|0,0:3|0:0,0:0:0:0:
242,170,237612,1,8,0:0:0:0:
126,36,237783,69,8,0:0:0:0:
126,36,237868,1,8,0:0:0:0:
126,36,237953,2,0,L|138:233,1,184.000003509522,12|8,0:1|0:0,0:0:0:0:
354,357,238465,2,0,L|365:173,1,184.000003509522,4|2,0:1|0:3,0:0:0:0:
31,13,238976,2,0,L|43:210,1,184.000003509522,8|8,0:0|0:0,0:0:0:0:
446,372,239487,2,0,L|457:188,1,184.000003509522,2|2,0:3|0:3,0:0:0:0:
377,93,239999,1,8,0:0:0:0:
298,137,240169,5,8,0:0:0:0:
293,129,240254,1,8,0:0:0:0:
289,120,240340,1,8,0:0:0:0:
287,110,240425,1,8,0:0:0:0:
286,100,240510,1,8,0:0:0:0:
287,90,240595,1,8,0:0:0:0:
289,82,240681,70,0,P|395:192|161:166,1,580,4|0,0:1|0:0,0:0:0:0:
179,100,243237,6,0,P|201:80|224:71,2,46.0000008773804,8|8|8,0:3|0:3|0:3,0:0:0:0:
