osu file format v14

[General]
AudioFilename: audio.mp3
AudioLeadIn: 0
PreviewTime: 204374
Countdown: 0
SampleSet: Soft
StackLeniency: 0.7
Mode: 0
LetterboxInBreaks: 0
EpilepsyWarning: 1
WidescreenStoryboard: 1

[Editor]
Bookmarks: 36135,38862,74317,101590,112499,127499,161590,166703,172499,205226,228408,240681
DistanceSpacing: 0.9
BeatDivisor: 4
GridSize: 4
TimelineZoom: 1

[Metadata]
Title:SHIORI
TitleUnicode:SHIORI
Artist:ClariS
ArtistUnicode:ClariS
Creator:PantyDev
Version:Hard
Source:終物語
Tags:owarimonogatari ed ending araragi hitagi senjougahara hitagigahara bake monogatari shaft isin nisio TheMefisto piroshki _Hou InternalLight VOFAN keeVY Anime Japanese
BeatmapID:1577779
BeatmapSetID:747684

[Difficulty]
HPDrainRate:4.4
CircleSize:3.5
OverallDifficulty:6
ApproachRate:8
SliderMultiplier:1.3
SliderTickRate:1

[Events]
//Background and Video events
0,0,"bg.jpg",0,0
//Break Periods
2,86789,89931
2,161790,171578
//Storyboard Layer 0 (Background)
Sprite,Background,Centre,"sb\visual\square.jpg",320,240 V,0,63408,,7.5,4.5 M,0,63408,86590,320,240
Sprite,Background,Centre,"sb\visual\square.jpg",320,240 V,0,137044,,7.5,4.5 M,0,137044,160226,320,240
Sprite,Background,Centre,"sb\visual\square.jpg",320,240 V,0,205226,,7.5,4.5 M,0,205226,228408,320,240
Sprite,Background,Centre,"sb\sprites\KiaiPattern.png",320,240 S,0,63408,,0.686 C,0,63408,,208,245,244 M,0,63408,74317,320,240,-616,240
Sprite,Background,Centre,"sb\sprites\KiaiPattern.png",320,240 S,0,74317,,0.686 C,0,74317,,208,245,244 M,0,74317,86590,1256,240,320,240
Sprite,Background,Centre,"sb\sprites\KiaiPattern.png",320,240 S,0,63408,,0.686 C,0,63408,,208,245,244 M,0,63408,74317,1256,240,320,240 M,0,74317,86590,320,240,-616,240
Sprite,Background,Centre,"sb\visual\square.jpg",320,240 R,0,74316,,-0.2443634 C,0,74316,,150,200,200 V,1,74316,74999,0,0.5,8,0.5 M,1,74316,86590,483.4909,306.0728,483.4909,311.4364
Sprite,Background,Centre,"sb\lyrics\39.png",320,240 C,0,64431,,100,150,150 F,0,64431,64771,0,0.9832727 M,0,64431,74317,639.38,41.02,-196.6909,41.02 V,0,67372,,0.8952727,1
Sprite,Background,Centre,"sb\lyrics\40.png",320,240 C,0,67158,,100,150,150 V,0,67158,,0.9185,1 F,0,67158,67499,0,1 M,0,67158,74317,611.4545,140.5091,1.1273,141.0909
Sprite,Background,Centre,"sb\lyrics\41.png",320,240 C,0,69885,,100,150,150 V,0,69885,,0.9709091,1 F,0,69885,70226,0,1 M,0,69885,74317,647.5636,240,265.309,240 F,0,70226,74317,1
Sprite,Background,Centre,"sb\lyrics\42.png",320,240 C,0,71590,,100,150,150 V,0,71590,,0.9185452,1 F,0,71590,71931,0,1 M,0,71590,74317,660.9454,340.6545,422.4,339.4909
Sprite,Background,Centre,"sb\lyrics\43.png",320,240 R,0,74316,,-0.2443634 S,0,74317,,0.7614548 F,0,74317,74828,0,1 M,0,74317,77044,964.6546,185.8909,301.9637,354.0363 F,0,74828,76703,1 F,0,76703,77044,1,0
Sprite,Background,Centre,"sb\lyrics\6.png",320,240 S,0,79771,,0.7614548 R,0,79771,,-0.2443634 F,0,79771,80112,0,1 M,0,79771,81135,782.691,235.3454,491.6364,307.4908 F,0,80283,80965,1 F,0,80965,81135,1,0
Sprite,Background,Centre,"sb\lyrics\46.png",320,240 S,0,83181,,0.7614548 R,0,83181,,-0.2443634 F,0,83181,83521,0,1 M,0,83181,86590,782.691,235.3454,301.9637,354.0363 F,0,83521,86419,1 F,0,86419,86590,1,0
Sprite,Background,Centre,"sb\sprites\KiaiSejougahara.png",320,240 F,0,63408,,0.31 S,0,63408,,0.7556363 C,0,63408,,0,0,0 M,1,63408,68862,325,255.6,325,272 R,1,63408,68862,-0.0232724,0.04654571 M,2,68862,74317,325,272,321,262 R,2,68862,74317,0.04654571,0.1396368 M,1,74317,79771,321,262,305,287.6 R,1,74317,79771,0.1396368,0.02327297 M,2,79771,86590,305,287.6,298.7273,252 R,2,79771,86590,0.02327297,-0.04654515
Sprite,Background,Centre,"sb\sprites\KiaiSejougahara.png",320,240 S,0,63408,,0.7556363 C,0,63408,,225,240,255 M,1,63408,68862,323,253.6,323,270 R,1,63408,68862,-0.0232724,0.04654571 M,2,68862,74317,323,270,319,260 R,2,68862,74317,0.04654571,0.1396368 M,1,74317,79771,319,260,303,285.6 R,1,74317,79771,0.1396368,0.02327297 M,2,79771,84036,303,285.6,301.128,271.6733 R,2,79771,86590,0.02327297,-0.04654515 M,0,84036,86590,301.128,271.6733,296.7273,250 F,0,86590,,1
Sprite,Background,Centre,"sb\visual\square.jpg",320,240 R,0,63408,,-0.2443634 C,0,63408,,150,200,200 V,1,63408,64771,0,0.5,8,0.5 M,1,63408,86590,483.4909,436.0728,483.4909,456.4364
Sprite,Background,Centre,"sb\lyrics\44.png",320,240 S,0,77044,,0.7614548 R,0,77044,,-0.2443634 F,0,77044,77556,0,1 F,0,77044,79431,1 M,0,77044,79771,966.4001,329.8546,301.9637,499.0363 F,0,79431,79771,1,0
Sprite,Background,Centre,"sb\lyrics\45.png",320,240 S,0,81135,,0.7614548 R,0,81135,,-0.2443634 F,0,81135,81476,0,1 M,0,81135,83181,803.7092,375.2364,428.8001,468.7817 F,0,81476,83010,1 F,0,83010,83181,1,0
Sprite,Background,Centre,"sb\sprites\KiaiPattern.png",320,240 S,0,137044,,0.686 C,0,137044,,245,208,208 M,0,137044,147953,320,240,1256,240
Sprite,Background,Centre,"sb\sprites\KiaiPattern.png",320,240 S,0,137044,,0.686 C,0,137044,,245,208,208 M,0,137044,147953,-616,240,320,240 M,0,147953,160226,320,240,1256,240
Sprite,Background,Centre,"sb\sprites\KiaiPattern.png",320,240 S,0,147953,,0.686 C,0,147953,,245,208,208 M,0,147953,160226,-616,240,320,240
Sprite,Background,Centre,"sb\sprites\KiaiSejougahara.png",320,240 F,0,137044,,0.31 S,0,137044,,0.6683637 C,0,137044,,0,0,0 P,0,137044,,H M,2,137044,139771,322,242,331.891,244.9091 R,1,137044,139771,0,-0.08145478 M,1,139771,147953,331.891,244.9091,337.7092,247.2364 R,1,139771,147953,-0.08145478,0.0232727 M,1,147953,153408,337.7092,247.2364,310.3637,235.0182 R,1,147953,153408,0.0232727,-0.05818177 M,2,153408,160226,310.3637,235.0182,326.6546,244.9091 R,1,153408,160226,-0.05818177,0.01163635 F,0,160226,,1
Sprite,Background,Centre,"sb\sprites\KiaiSejougahara.png",320,240 S,0,137044,,0.6683637 C,0,137044,,255,217,217 P,0,137044,,H M,2,137044,139771,320,240,329.891,242.9091 R,1,137044,139771,0,-0.08145478 F,0,139165,160226,1 M,1,139771,147953,329.891,242.9091,335.7092,245.2364 R,1,139771,147953,-0.08145478,0.0232727 M,1,147953,153408,335.7092,245.2364,308.3637,233.0182 R,1,147953,153408,0.0232727,-0.05818177 M,2,153408,160226,308.3637,233.0182,324.6546,242.9091 R,1,153408,160226,-0.05818177,0.01163635
Sprite,Background,Centre,"sb\visual\square.jpg",320,240 M,0,137044,,-89.01817,397.6728 R,0,137044,,-0.8 C,0,137044,,180,99,99 V,1,137044,138408,0.6,0,0.6,8 F,0,137044,160226,1
Sprite,Background,Centre,"sb\visual\square.jpg",320,240 M,0,137044,,27.92729,290.0364 R,0,137044,,-0.8 C,0,137044,,180,99,99 V,1,137044,138408,0.8,0,0.8,8 F,0,137044,160226,1
Sprite,Background,Centre,"sb\lyrics\68.png",320,240 S,0,137044,,0.6392 R,0,137044,,0.7716364 C,0,137044,,180,99,99 M,0,137044,147953,68.65454,239.4182,141.3818,309.2364 F,0,137044,147953,1
Sprite,Background,Centre,"sb\lyrics\69.png",320,240 S,0,140794,,0.6392 R,0,140794,,0.7716364 C,0,140794,,255,255,255 F,0,140794,141135,0,1 M,0,140794,147953,50.03637,311.5636,117.5273,375.5637 F,0,141135,147953,1
Sprite,Background,Centre,"sb\lyrics\70.png",320,240 S,0,143521,,0.6392 R,0,143521,,0.7716364 C,0,143521,,180,99,99 F,0,143521,143862,0,1 M,0,143521,147953,2.9091,356.3636,23.27272,376.1455 F,0,143862,147953,1
Sprite,Background,Centre,"sb\lyrics\71.png",320,240 S,0,143521,,0.6392 R,0,147953,,0.7716364 F,0,147953,148294,0,1 M,0,147953,150681,415.9091,659.4909,-54.1091,210.3272 F,0,148294,150340,1 F,0,150340,150681,1,0
Sprite,Background,Centre,"sb\lyrics\72.png",320,240 S,0,150681,,0.6392 R,0,150681,,0.7716364 F,0,150681,151021,0,1 M,0,150681,153408,358.3091,610.8,-54.1091,210.3272 F,0,151021,153063,1 F,0,153063,153408,1,0
Sprite,Background,Centre,"sb\lyrics\6.png",320,240 S,0,153408,,0.5694547 R,0,153408,,0.7679996 C,0,153408,,180,99,99 F,0,153408,153749,0,1 M,0,153408,160226,-40.14545,137.0182,-8.145452,166.6909 F,0,153749,160226,1
Sprite,Background,Centre,"sb\lyrics\45.png",320,240 S,0,154771,,0.5694547 R,0,154771,,0.7679996 C,0,154771,,180,99,99 F,0,154771,155112,0,1 M,0,154771,160226,23.85455,198.1091,49.45456,221.9637 F,0,155112,160226,1
Sprite,Background,Centre,"sb\lyrics\46.png",320,240 S,0,156817,,0.5694547 R,0,156817,,0.7679996 C,0,156817,,180,99,99 F,0,156817,157158,0,1 M,0,156817,160226,102.9818,273.7455,117.5273,287.7091 F,0,157158,160226,1
Sprite,Background,Centre,"sb\sprites\KiaiPattern.png",320,240 C,0,205226,,200,200,200 F,0,205226,210681,1 S,0,205226,210681,0.65,0.75
Sprite,Background,Centre,"sb\sprites\KiaiSejougaharaBW.png",320,240 F,0,205226,,0.31 C,0,205226,,0,0,0 M,0,205226,210681,323,131.291,323,355.291 S,0,205226,210681,0.89,1 R,0,205226,210681,0,0.174
Sprite,Background,Centre,"sb\sprites\KiaiSejougaharaBW.png",320,240 M,0,205226,210681,320,128.291,320,352.291 S,0,205226,210681,0.89,1 R,0,205226,210681,0,0.174
Sprite,Background,Centre,"sb\lyrics\39.png",320,240 C,0,206249,,0,0,0 F,0,206249,206590,0,1 S,0,206249,208976,0.93,0.977 F,0,206590,208976,1 F,0,208976,,1 S,0,208976,,0.9767253
Sprite,Background,Centre,"sb\lyrics\40.png",320,240 F,0,208997,,1 C,0,208997,,0,0,0 S,0,208997,210681,0.977,1
Sprite,Background,Centre,"sb\sprites\KiaiPattern.png",320,240 S,0,210681,,0.686 C,0,210681,,222,155,201 M,0,210681,218862,320,240,-616,240
Sprite,Background,Centre,"sb\sprites\KiaiPattern.png",320,240 S,0,210681,,0.686 C,0,210681,,222,155,201 M,0,210681,218862,1256,240,320,240 M,0,218862,228408,320,240,-616,240
Sprite,Background,Centre,"sb\sprites\KiaiPattern.png",320,240 S,0,218862,,0.686 C,0,218862,,222,155,201 M,0,218862,228408,1256,240,320,240
Sprite,Background,Centre,"sb\lyrics\41.png",320,240 S,0,211703,,0.96 C,0,211703,,177,46,132 F,0,211703,211874,0,1 M,0,211703,216135,569.0182,139.3455,58.76365,139.3455
Sprite,Background,Centre,"sb\lyrics\42.png",320,240 S,0,213408,,0.913 C,0,213408,,177,46,132 F,0,213408,213578,0,1 M,0,213408,216135,741.2364,240,421.8182,240.5818
Sprite,Background,Centre,"sb\lyrics\46.png",320,240 S,0,224999,,0.82 R,0,224999,,-0.395 C,0,224999,,177,46,132 F,0,224999,225340,0,1 M,0,224999,228408,737.1638,203.3454,329.3091,373.2364
Sprite,Background,Centre,"sb\sprites\KiaiSejougahara.png",320,240 F,0,210681,,0.31 S,0,210681,,0.8138182 C,0,210681,,0,0,0 M,0,210681,216135,274.2909,243.7455,284.7636,261.7818 R,0,210681,216135,-0.2560004,-0.1047278 M,0,216135,221590,284.7636,261.7818,366.2124,275.7495 R,0,216135,221590,-0.1047278,0.1861816 M,0,221590,228408,366.2124,275.7495,362.7065,300.1833 R,0,221590,228408,0.1861816,0.1629086
Sprite,Background,Centre,"sb\sprites\KiaiSejougahara.png",320,240 S,0,210681,,0.8138182 C,0,210681,,244,223,238 M,0,210681,216135,272.2909,241.7455,282.7636,259.7818 R,0,210681,216135,-0.2560004,-0.1047278 M,0,216135,221590,282.7636,259.7818,364.2124,273.7495 R,0,216135,221590,-0.1047278,0.1861816 M,0,221590,222953,364.2124,273.7495,362.9297,278.6341 R,0,221590,228408,0.1861816,0.1629086 M,0,222953,228408,362.9297,278.6341,360.7065,298.1833 F,0,224999,,1
Sprite,Background,Centre,"sb\lyrics\43.png",320,240 C,0,216135,,177,46,132 F,0,216135,216476,0,1 M,0,216135,218862,851.7819,249.3091,424.1455,426.1818 S,0,216476,,0.877818 R,0,216476,,-0.395 F,0,216476,218521,1 F,0,218521,218862,1,0
Sprite,Background,Centre,"sb\lyrics\44.png",320,240 C,0,218862,,177,46,132 F,0,218862,219203,0,1 M,0,218862,221590,795.3455,272,357.8182,454.1091 F,0,219203,218521,1 S,0,219203,,0.877818 R,0,219203,,-0.395 F,0,221249,221590,1,0
Sprite,Background,Centre,"sb\lyrics\6.png",320,240 S,0,221590,,0.82 R,0,221590,,-0.395 C,0,221590,,177,46,132 F,0,221590,221931,0,1 M,0,221590,223294,693.5273,221.9636,403.2,344.1454 F,0,221931,222953,1 F,0,222953,223294,1,0
Sprite,Background,Centre,"sb\lyrics\45.png",320,240 S,0,222953,,0.82 R,0,222953,,-0.395 C,0,222953,,177,46,132 F,0,222953,223294,0.05745438,1 M,0,222953,224658,744.1454,305.1636,420.0727,441.8909 F,0,223294,224317,1 F,0,224317,224658,1,0
Sprite,Background,Centre,"sb\visual\square.jpg",320,240 C,0,216135,,177,46,132 M,1,216135,216476,320,425.0182,477.0909,355.2 R,1,216135,216476,1.84,-0.395 V,1,216135,216476,0,0.3,7,0.3 F,0,228408,,1
Sprite,Background,Centre,"sb\visual\square.jpg",320,240 C,0,216135,,177,46,132 M,1,216135,216476,320,525.0182,477.0909,455.2 R,1,216135,216476,1.84,-0.395 V,1,216135,216476,0,0.3,7,0.3 F,0,228408,,1
Sprite,Background,Centre,"sb\visual\circleB.png",0,0 C,0,11590,,204,114,165 M,0,11590,11632,188,256,188.7523,269.792 F,2,11590,11960,1,0 S,2,11590,11960,1,0.2 P,0,11590,11960,A M,0,11632,11675,188.7523,269.792,189.5046,283.584 M,0,11675,11717,189.5046,283.584,190.2569,297.376 M,0,11717,11760,190.2569,297.376,191,311
Sprite,Background,Centre,"sb\visual\circleB.png",0,0 C,0,11931,,204,114,165 M,0,11931,11973,244,380,257.7736,380.1714 F,2,11931,12301,1,0 S,2,11931,12301,1,0.2 P,0,11931,12301,A M,0,11973,12016,257.7736,380.1714,271.4569,378.7374 M,0,12016,12058,271.4569,378.7374,284.8235,375.3689 M,0,12058,12101,284.8235,375.3689,297.3684,369.6846
Sprite,Background,Centre,"sb\visual\circleB.png",0,0 C,0,12271,,204,114,165 M,0,12271,12313,348,304,361.7669,303.3895 F,2,12271,12641,1,0 S,2,12271,12641,1,0.2 P,0,12271,12641,A M,0,12313,12356,361.7669,303.3895,375.5025,304.2884 M,0,12356,12398,375.5025,304.2884,389.0165,307.0027 M,0,12398,12441,389.0165,307.0027,402.0238,311.6067
Sprite,Background,Centre,"sb\visual\circleB.png",460,372 C,0,12612,,204,114,165 F,2,12612,12812,1,0 S,2,12612,12812,1,0.2 P,0,12612,12812,A
Sprite,Background,Centre,"sb\visual\circleB.png",532,332 C,0,12783,,204,114,165 F,2,12783,12983,1,0 S,2,12783,12983,1,0.2 P,0,12783,12983,A
Sprite,Background,Centre,"sb\visual\circleB.png",0,0 C,0,14317,,204,114,165 M,0,14317,14359,108,101,121.7879,101.8232 F,2,14317,14687,1,0 S,2,14317,14687,1,0.2 P,0,14317,14687,A M,0,14359,14402,121.7879,101.8232,135.5759,102.6463 M,0,14402,14444,135.5759,102.6463,149.3638,103.4695 M,0,14444,14487,149.3638,103.4695,163.1518,104.2926
Sprite,Background,Centre,"sb\visual\circleB.png",224,160 C,0,14658,,204,114,165 F,2,14658,14858,1,0 S,2,14658,14858,1,0.2 P,0,14658,14858,A
Sprite,Background,Centre,"sb\visual\circleB.png",0,0 C,0,14828,,204,114,165 M,0,14828,14870,224,160,237.5804,158.1388 F,2,14828,15198,1,0 S,2,14828,15198,1,0.2 P,0,14828,15198,A M,0,14870,14913,237.5804,158.1388,250.5301,153.7612 M,0,14913,14955,250.5301,153.7612,262.1893,146.4564 M,0,14955,14998,262.1893,146.4564,271.0972,136.0396
Sprite,Background,Centre,"sb\visual\circleB.png",332,80 C,0,15169,,204,114,165 F,2,15169,15369,1,0 S,2,15169,15369,1,0.2 P,0,15169,15369,A
Sprite,Background,Centre,"sb\visual\circleB.png",0,0 C,0,15339,,204,114,165 M,0,15339,15381,332,80,345.5804,81.86123 F,2,15339,15709,1,0 S,2,15339,15709,1,0.2 P,0,15339,15709,A M,0,15381,15424,345.5804,81.86123,358.5301,86.23883 M,0,15424,15466,358.5301,86.23883,370.1893,93.54362 M,0,15466,15509,370.1893,93.54362,379.0972,103.9604
Sprite,Background,Centre,"sb\visual\circleB.png",444,156 C,0,15681,,204,114,165 F,2,15681,15881,1,0 S,2,15681,15881,1,0.2 P,0,15681,15881,A
Sprite,Background,Centre,"sb\visual\circleB.png",0,0 C,0,15851,,204,114,165 M,0,15851,15893,444,156,442.4092,169.7206 F,2,15851,16221,1,0 S,2,15851,16221,1,0.2 P,0,15851,16221,A M,0,15893,15936,442.4092,169.7206,440.8184,183.4412 M,0,15936,15978,440.8184,183.4412,439.2276,197.1618 M,0,15978,16021,439.2276,197.1618,437.6368,210.8824
Sprite,Background,Centre,"sb\visual\circleB.png",400,292 C,0,16192,,204,114,165 F,2,16192,16392,1,0 S,2,16192,16392,1,0.2 P,0,16192,16392,A
Sprite,Background,Centre,"sb\visual\circleB.png",0,0 C,0,16362,,204,114,165 M,0,16362,16404,464,348,465.5908,361.7206 F,2,16362,16902,1,0 S,2,16362,16902,1,0.2 P,0,16362,16902,A M,0,16404,16447,465.5908,361.7206,467.1816,375.4412 M,0,16447,16489,467.1816,375.4412,468.7724,389.1618 M,0,16489,16532,468.7724,389.1618,470.3632,402.8824 M,0,16532,16575,470.3632,402.8824,468.7724,389.1618 M,0,16575,16617,468.7724,389.1618,467.1816,375.4412 M,0,16617,16660,467.1816,375.4412,465.5908,361.7206 M,0,16660,16702,465.5908,361.7206,464,348
Sprite,Background,Centre,"sb\visual\circleB.png",400,292 C,0,16874,,204,114,165 F,2,16874,17074,1,0 S,2,16874,17074,1,0.2 P,0,16874,17074,A
Sprite,Background,Centre,"sb\visual\circleB.png",400,292 C,0,16959,,204,114,165 F,2,16959,17159,1,0 S,2,16959,17159,1,0.2 P,0,16959,17159,A
Sprite,Background,Centre,"sb\visual\circleB.png",456,344 C,0,55226,,204,114,165 F,2,55226,55426,1,0 S,2,55226,55426,1,0.2 P,0,55226,55426,A
Sprite,Background,Centre,"sb\visual\circleB.png",0,0 C,0,56590,,204,114,165 M,0,56590,56632,144,104,156.1003,105.1125 F,2,56590,57301,1,0 S,2,56590,57301,1,0.2 P,0,56590,57301,A M,0,56632,56675,156.1003,105.1125,168.0529,107.3841 M,0,56675,56717,168.0529,107.3841,179.3573,111.8391 M,0,56717,56760,179.3573,111.8391,190.1868,117.3783 M,0,56760,56803,190.1868,117.3783,199.7915,124.8193 M,0,56803,56845,199.7915,124.8193,208.6248,133.1778 M,0,56845,56888,208.6248,133.1778,215.7621,143.0095 M,0,56888,56930,215.7621,143.0095,221.8878,153.5121 M,0,56930,56973,221.8878,153.5121,225.9874,164.948 M,0,56973,57016,225.9874,164.948,228.9125,176.7467 M,0,57016,57058,228.9125,176.7467,229.6468,188.8725 M,0,57058,57101,229.6468,188.8725,229.1824,201.0251
Sprite,Background,Centre,"sb\visual\circleB.png",0,0 C,0,57442,,204,114,165 M,0,57442,57484,184,352,194.9008,346.5496 F,2,57442,57982,1,0 S,2,57442,57982,1,0.2 P,0,57442,57982,A M,0,57484,57527,194.9008,346.5496,205.8017,341.0992 M,0,57527,57569,205.8017,341.0992,216.737,336.2715 M,0,57569,57612,216.737,336.2715,228.173,340.4848 M,0,57612,57655,228.173,340.4848,239.6091,344.6981 M,0,57655,57697,239.6091,344.6981,251.0452,348.9114 M,0,57697,57740,251.0452,348.9114,262.4812,353.1247 M,0,57740,57782,262.4812,353.1247,273.9173,357.338
Sprite,Background,Centre,"sb\visual\circleB.png",0,0 C,0,57953,,204,114,165 M,0,57953,57995,356,388,369.7043,387.0654 F,2,57953,58493,1,0 S,2,57953,58493,1,0.2 P,0,57953,58493,A M,0,57995,58038,369.7043,387.0654,383.1119,384.1109 M,0,58038,58080,383.1119,384.1109,395.4113,378.0177 M,0,58080,58123,395.4113,378.0177,406.5229,370.0118 M,0,58123,58166,406.5229,370.0118,395.4113,378.0177 M,0,58166,58208,395.4113,378.0177,383.1119,384.1109 M,0,58208,58251,383.1119,384.1109,369.7043,387.0654 M,0,58251,58293,369.7043,387.0654,356,388
Sprite,Background,Centre,"sb\visual\circleB.png",0,0 C,0,58465,,204,114,165 M,0,58465,58507,348,300,359.7858,292.9249 F,2,58465,59005,1,0 S,2,58465,59005,1,0.2 P,0,58465,59005,A M,0,58507,58550,359.7858,292.9249,370.4547,284.2723 M,0,58550,58592,370.4547,284.2723,378.927,273.4592 M,0,58592,58635,378.927,273.4592,385.5894,261.4812 M,0,58635,58678,385.5894,261.4812,378.927,273.4592 M,0,58678,58720,378.927,273.4592,370.4547,284.2723 M,0,58720,58763,370.4547,284.2723,359.7858,292.9249 M,0,58763,58805,359.7858,292.9249,348,300
Sprite,Background,Centre,"sb\visual\circleB.png",0,0 C,0,58976,,204,114,165 M,0,58976,59018,312,220,315.3416,206.6638 F,2,58976,59516,1,0 S,2,58976,59516,1,0.2 P,0,58976,59516,A M,0,59018,59061,315.3416,206.6638,316.8164,193.0034 M,0,59061,59103,316.8164,193.0034,315.2538,179.3531 M,0,59103,59146,315.2538,179.3531,311.6296,166.1301 M,0,59146,59189,311.6296,166.1301,315.2538,179.3531 M,0,59189,59231,315.2538,179.3531,316.8164,193.0034 M,0,59231,59274,316.8164,193.0034,315.3416,206.6638 M,0,59274,59316,315.3416,206.6638,312,220
Sprite,Background,Centre,"sb\visual\circleB.png",224,200 C,0,59487,,204,114,165 F,2,59487,59687,1,0 S,2,59487,59687,1,0.2 P,0,59487,59687,A
Sprite,Background,Centre,"sb\visual\circleB.png",160,260 C,0,59658,,204,114,165 F,2,59658,59858,1,0 S,2,59658,59858,1,0.2 P,0,59658,59858,A
Sprite,Background,Centre,"sb\visual\circleB.png",0,0 C,0,59828,,204,114,165 M,0,59828,59870,100,196,101.7132,182.2942 F,2,59828,60198,1,0 S,2,59828,60198,1,0.2 P,0,59828,60198,A M,0,59870,59913,101.7132,182.2942,103.4265,168.5883 M,0,59913,59955,103.4265,168.5883,105.1397,154.8825 M,0,59955,59998,105.1397,154.8825,106.8529,141.1767
Sprite,Background,Centre,"sb\visual\circleB.png",168,80 C,0,60169,,204,114,165 F,2,60169,60369,1,0 S,2,60169,60369,1,0.2 P,0,60169,60369,A
Sprite,Background,Centre,"sb\visual\circleB.png",0,0 C,0,60340,,204,114,165 M,0,60340,60382,168,80,181.7532,80.59901 F,2,60340,60710,1,0 S,2,60340,60710,1,0.2 P,0,60340,60710,A M,0,60382,60425,181.7532,80.59901,195.3266,82.83638 M,0,60425,60467,195.3266,82.83638,208.2533,87.55002 M,0,60467,60510,208.2533,87.55002,220.5278,93.77874
Sprite,Background,Centre,"sb\visual\circleB.png",0,0 C,0,60681,,204,114,165 M,0,60681,60723,292,148,305.1037,143.6321 F,2,60681,61221,1,0 S,2,60681,61221,1,0.2 P,0,60681,61221,A M,0,60723,60766,305.1037,143.6321,318.3152,140.2315 M,0,60766,60808,318.3152,140.2315,332.0592,141.6059 M,0,60808,60851,332.0592,141.6059,345.8031,142.9803 M,0,60851,60894,345.8031,142.9803,332.0592,141.6059 M,0,60894,60936,332.0592,141.6059,318.3152,140.2315 M,0,60936,60979,318.3152,140.2315,305.1037,143.6321 M,0,60979,61021,305.1037,143.6321,292,148
Sprite,Background,Centre,"sb\visual\circleB.png",0,0 C,0,61192,,204,114,165 M,0,61192,61234,324,232,337.7685,233.1015 F,2,61192,61732,1,0 S,2,61192,61732,1,0.2 P,0,61192,61732,A M,0,61234,61277,337.7685,233.1015,351.1654,235.3374 M,0,61277,61319,351.1654,235.3374,362.917,242.5958 M,0,61319,61362,362.917,242.5958,374.6687,249.8542 M,0,61362,61405,374.6687,249.8542,362.9171,242.5958 M,0,61405,61447,362.9171,242.5958,351.1654,235.3374 M,0,61447,61490,351.1654,235.3374,337.7685,233.1015 M,0,61490,61532,337.7685,233.1015,324,232
Sprite,Background,Centre,"sb\visual\circleB.png",248,280 C,0,61703,,204,114,165 F,2,61703,61903,1,0 S,2,61703,61903,1,0.2 P,0,61703,61903,A
Sprite,Background,Centre,"sb\visual\circleB.png",284,360 C,0,61874,,204,114,165 F,2,61874,62074,1,0 S,2,61874,62074,1,0.2 P,0,61874,62074,A
Sprite,Background,Centre,"sb\visual\circleB.png",284,360 C,0,61959,,204,114,165 F,2,61959,62159,1,0 S,2,61959,62159,1,0.2 P,0,61959,62159,A
Sprite,Background,Centre,"sb\visual\circleB.png",480,320 C,0,128862,,204,114,165 F,2,128862,129062,1,0 S,2,128862,129062,1,0.2 P,0,128862,129062,A
Sprite,Background,Centre,"sb\visual\circleB.png",0,0 C,0,129885,,204,114,165 M,0,129885,129927,147,403,141.8478,391.97 F,2,129885,130425,1,0 S,2,129885,130425,1,0.2 P,0,129885,130425,A M,0,129927,129970,141.8478,391.97,137.3425,380.6535 M,0,129970,130012,137.3425,380.6535,134.1713,368.8999 M,0,130012,130055,134.1713,368.8999,131.6894,356.9754 M,0,130055,130098,131.6894,356.9754,130.5941,344.851 M,0,130098,130140,130.5941,344.851,130.2103,332.6773 M,0,130140,130183,130.2103,332.6773,131.2239,320.5459 M,0,130183,130225,131.2239,320.5459,132.9496,308.4893
Sprite,Background,Centre,"sb\visual\circleB.png",182,176 C,0,130567,,204,114,165 F,2,130567,130767,1,0 S,2,130567,130767,1,0.2 P,0,130567,130767,A
Sprite,Background,Centre,"sb\visual\circleB.png",0,0 C,0,130737,,204,114,165 M,0,130737,130779,251,235,263.1726,235.6026 F,2,130737,131618,1,0 S,2,130737,131618,1,0.2 P,0,130737,131618,A M,0,130779,130822,263.1726,235.6026,275.3452,236.2052 M,0,130822,130864,275.3452,236.2052,287.5178,236.8078 M,0,130864,130907,287.5178,236.8078,299.6904,237.4104 M,0,130907,130950,299.6904,237.4104,311.863,238.013 M,0,130950,130992,311.863,238.013,324.0356,238.6156 M,0,130992,131035,324.0356,238.6156,336.2081,239.2182 M,0,131035,131077,336.2081,239.2182,348.3807,239.8208 M,0,131077,131120,348.3807,239.8208,336.2082,239.2182 M,0,131120,131163,336.2082,239.2182,324.0356,238.6156 M,0,131163,131205,324.0356,238.6156,311.863,238.013 M,0,131205,131248,311.863,238.013,299.6904,237.4104 M,0,131248,131290,299.6904,237.4104,287.5178,236.8078 M,0,131290,131333,287.5178,236.8078,275.3452,236.2052 M,0,131333,131376,275.3452,236.2052,263.1726,235.6026 M,0,131376,131418,263.1726,235.6026,251,235
Sprite,Background,Centre,"sb\visual\circleB.png",0,0 C,0,131590,,204,114,165 M,0,131590,131632,182,176,177.0415,163.1657 F,2,131590,132130,1,0 S,2,131590,132130,1,0.2 P,0,131590,132130,A M,0,131632,131675,177.0415,163.1657,173.7161,149.8195 M,0,131675,131717,173.7161,149.8195,173.1618,136.0789 M,0,131717,131760,173.1618,136.0789,174.4923,122.4128 M,0,131760,131803,174.4923,122.4128,173.1618,136.0789 M,0,131803,131845,173.1618,136.0789,173.7161,149.8195 M,0,131845,131888,173.7161,149.8195,177.0415,163.1657 M,0,131888,131930,177.0415,163.1657,182,176
Sprite,Background,Centre,"sb\visual\circleB.png",0,0 C,0,132101,,204,114,165 M,0,132101,132143,128,246,117.9677,236.5917 F,2,132101,132641,1,0 S,2,132101,132641,1,0.2 P,0,132101,132641,A M,0,132143,132186,117.9677,236.5917,109.1969,225.9945 M,0,132186,132228,109.1969,225.9945,102.9126,213.7677 M,0,132228,132271,102.9126,213.7677,98.35173,200.8136 M,0,132271,132314,98.35173,200.8136,102.9126,213.7677 M,0,132314,132356,102.9126,213.7677,109.1969,225.9945 M,0,132356,132399,109.1969,225.9945,117.9677,236.5917 M,0,132399,132441,117.9677,236.5917,128,246
Sprite,Background,Centre,"sb\visual\circleB.png",0,0 C,0,132612,,204,114,165 M,0,132612,132654,132,334,118.2353,333.9265 F,2,132612,133152,1,0 S,2,132612,133152,1,0.2 P,0,132612,133152,A M,0,132654,132697,118.2353,333.9265,104.5703,332.2752 M,0,132697,132739,104.5703,332.2752,91.48361,328.0261 M,0,132739,132782,91.48361,328.0261,79.04307,322.1819 M,0,132782,132825,79.04307,322.1819,91.48361,328.0261 M,0,132825,132867,91.48361,328.0261,104.5703,332.2752 M,0,132867,132910,104.5703,332.2752,118.2353,333.9265 M,0,132910,132952,118.2353,333.9265,132,334
Sprite,Background,Centre,"sb\visual\circleB.png",200,390 C,0,133124,,204,114,165 F,2,133124,133324,1,0 S,2,133124,133324,1,0.2 P,0,133124,133324,A
Sprite,Background,Centre,"sb\visual\circleB.png",261,326 C,0,133294,,204,114,165 F,2,133294,133494,1,0 S,2,133294,133494,1,0.2 P,0,133294,133494,A
Sprite,Background,Centre,"sb\visual\circleB.png",0,0 C,0,133465,,204,114,165 M,0,133465,133507,339,367,338.7736,380.8106 F,2,133465,133835,1,0 S,2,133465,133835,1,0.2 P,0,133465,133835,A M,0,133507,133550,338.7736,380.8106,338.5472,394.6213 M,0,133550,133592,338.5472,394.6213,338.3208,408.4319 M,0,133592,133635,338.3208,408.4319,338.0944,422.2426
Sprite,Background,Centre,"sb\visual\circleB.png",426,420 C,0,133806,,204,114,165 F,2,133806,134006,1,0 S,2,133806,134006,1,0.2 P,0,133806,134006,A
Sprite,Background,Centre,"sb\visual\circleB.png",0,0 C,0,133976,,204,114,165 M,0,133976,134018,426,420,426,406.1875 F,2,133976,134346,1,0 S,2,133976,134346,1,0.2 P,0,133976,134346,A M,0,134018,134061,426,406.1875,426,392.375 M,0,134061,134103,426,392.375,426,378.5625 M,0,134103,134146,426,378.5625,426,364.75
Sprite,Background,Centre,"sb\visual\circleB.png",0,0 C,0,134317,,204,114,165 M,0,134317,134359,472,288,485.755,286.9226 F,2,134317,134857,1,0 S,2,134317,134857,1,0.2 P,0,134317,134857,A M,0,134359,134402,485.755,286.9226,499.5457,286.8619 M,0,134402,134444,499.5457,286.8619,513.2974,288.0438 M,0,134444,134487,513.2974,288.0438,526.8182,290.7877 M,0,134487,134530,526.8182,290.7877,513.2974,288.0438 M,0,134530,134572,513.2974,288.0438,499.5457,286.8619 M,0,134572,134615,499.5457,286.8619,485.755,286.9226 M,0,134615,134657,485.755,286.9226,472,288
Sprite,Background,Centre,"sb\visual\circleB.png",0,0 C,0,134828,,204,114,165 M,0,134828,134870,419,216,405.245,214.9226 F,2,134828,135368,1,0 S,2,134828,135368,1,0.2 P,0,134828,135368,A M,0,134870,134913,405.245,214.9226,391.4543,214.8619 M,0,134913,134955,391.4543,214.8619,377.7027,216.0438 M,0,134955,134998,377.7027,216.0438,364.1818,218.7877 M,0,134998,135041,364.1818,218.7877,377.7027,216.0438 M,0,135041,135083,377.7027,216.0438,391.4543,214.8619 M,0,135083,135126,391.4543,214.8619,405.245,214.9226 M,0,135126,135168,405.245,214.9226,419,216
Sprite,Background,Centre,"sb\visual\circleB.png",491,163 C,0,135340,,204,114,165 F,2,135340,135540,1,0 S,2,135340,135540,1,0.2 P,0,135340,135540,A
Sprite,Background,Centre,"sb\visual\circleB.png",442,89 C,0,135510,,204,114,165 F,2,135510,135710,1,0 S,2,135510,135710,1,0.2 P,0,135510,135710,A
Sprite,Background,Centre,"sb\visual\circleB.png",442,89 C,0,135595,,204,114,165 F,2,135595,135795,1,0 S,2,135595,135795,1,0.2 P,0,135595,135795,A
Sprite,Background,Centre,"sb\visual\circleB.png",318,189 C,0,199771,,204,114,165 F,2,199771,199971,1,0 S,2,199771,199971,1,0.2 P,0,199771,199971,A
Sprite,Background,Centre,"sb\visual\circleB.png",0,0 C,0,200112,,204,114,165 M,0,200112,200154,506,78,512.0433,90.388 F,2,200112,200482,1,0 S,2,200112,200482,1,0.2 P,0,200112,200482,A M,0,200154,200197,512.0433,90.388,516.8091,103.3094 M,0,200197,200239,516.8091,103.3094,519.9558,116.7412 M,0,200239,200282,519.9558,116.7412,520.9423,130.4886
Sprite,Background,Centre,"sb\visual\circleB.png",0,0 C,0,200453,,204,114,165 M,0,200453,200495,463,197,456.9567,209.388 F,2,200453,200823,1,0 S,2,200453,200823,1,0.2 P,0,200453,200823,A M,0,200495,200538,456.9567,209.388,452.1909,222.3094 M,0,200538,200580,452.1909,222.3094,449.0442,235.7412 M,0,200580,200623,449.0442,235.7412,448.0577,249.4886
Sprite,Background,Centre,"sb\visual\circleB.png",0,0 C,0,200794,,204,114,165 M,0,200794,200836,473,334,486.7121,335.6621 F,2,200794,201164,1,0 S,2,200794,201164,1,0.2 P,0,200794,201164,A M,0,200836,200879,486.7121,335.6621,500.4243,337.3242 M,0,200879,200921,500.4243,337.3242,514.1364,338.9862 M,0,200921,200964,514.1364,338.9862,527.8485,340.6483
Sprite,Background,Centre,"sb\visual\circleB.png",0,0 C,0,201135,,204,114,165 M,0,201135,201177,516,428,502.298,426.2561 F,2,201135,201505,1,0 S,2,201135,201505,1,0.2 P,0,201135,201505,A M,0,201177,201220,502.298,426.2561,488.5961,424.5122 M,0,201220,201262,488.5961,424.5122,474.8941,422.7683 M,0,201262,201305,474.8941,422.7683,461.1921,421.0244
Sprite,Background,Centre,"sb\visual\circleB.png",390,367 C,0,201476,,204,114,165 F,2,201476,201676,1,0 S,2,201476,201676,1,0.2 P,0,201476,201676,A
Sprite,Background,Centre,"sb\visual\circleB.png",312,408 C,0,201646,,204,114,165 F,2,201646,201846,1,0 S,2,201646,201846,1,0.2 P,0,201646,201846,A
Sprite,Background,Centre,"sb\visual\circleB.png",245,349 C,0,201817,,204,114,165 F,2,201817,202017,1,0 S,2,201817,202017,1,0.2 P,0,201817,202017,A
Sprite,Background,Centre,"sb\visual\circleB.png",166,388 C,0,201987,,204,114,165 F,2,201987,202187,1,0 S,2,201987,202187,1,0.2 P,0,201987,202187,A
Sprite,Background,Centre,"sb\visual\circleB.png",0,0 C,0,202158,,204,114,165 M,0,202158,202200,111,318,110.7939,304.189 F,2,202158,202528,1,0 S,2,202158,202528,1,0.2 P,0,202158,202528,A M,0,202200,202243,110.7939,304.189,110.5877,290.3781 M,0,202243,202285,110.5877,290.3781,110.3816,276.5671 M,0,202285,202328,110.3816,276.5671,110.1755,262.7562
Sprite,Background,Centre,"sb\visual\circleB.png",0,0 C,0,202499,,204,114,165 M,0,202499,202541,165,193,178.7637,193.3957 F,2,202499,203039,1,0 S,2,202499,203039,1,0.2 P,0,202499,203039,A M,0,202541,202584,178.7637,193.3957,192.3882,195.3453 M,0,202584,202626,192.3882,195.3453,205.4366,199.7231 M,0,202626,202669,205.4366,199.7231,217.9107,205.5525 M,0,202669,202712,217.9107,205.5525,205.4366,199.7231 M,0,202712,202754,205.4366,199.7231,192.3882,195.3453 M,0,202754,202797,192.3882,195.3453,178.7637,193.3957 M,0,202797,202839,178.7637,193.3957,165,193
Sprite,Background,Centre,"sb\visual\circleB.png",0,0 C,0,203010,,204,114,165 M,0,203010,203052,110,122,119.5399,112.0914 F,2,203010,203550,1,0 S,2,203010,203550,1,0.2 P,0,203010,203550,A M,0,203052,203095,119.5399,112.0914,130.2978,103.5366 M,0,203095,203137,130.2978,103.5366,142.6012,97.4061 M,0,203137,203180,142.6012,97.4061,155.6141,92.95441 M,0,203180,203223,155.6141,92.95441,142.6012,97.4061 M,0,203223,203265,142.6012,97.4061,130.2978,103.5366 M,0,203265,203308,130.2978,103.5366,119.5399,112.0914 M,0,203308,203350,119.5399,112.0914,110,122
Sprite,Background,Centre,"sb\visual\circleB.png",72,202 C,0,203521,,204,114,165 F,2,203521,203721,1,0 S,2,203521,203721,1,0.2 P,0,203521,203721,A
Sprite,Background,Centre,"sb\visual\circleB.png",104,284 C,0,203692,,204,114,165 F,2,203692,203892,1,0 S,2,203692,203892,1,0.2 P,0,203692,203892,A
Sprite,Background,Centre,"sb\visual\circleB.png",104,296 C,0,203778,,204,114,165 F,2,203778,203978,1,0 S,2,203778,203978,1,0.2 P,0,203778,203978,A
//Storyboard Layer 1 (Fail)
//Storyboard Layer 2 (Pass)
//Storyboard Layer 3 (Foreground)
Sprite,Foreground,Centre,"sb\titles\PantyDev.png",320,240 S,0,229793,,0.458909 M,0,229793,235226,598.6909,238.8364,597.5272,271.4182
//Storyboard Layer 4 (Overlay)
//Storyboard Sound Samples

[TimingPoints]
681,340.909090909091,4,2,1,55,1,0
681,-117.647058823529,4,2,1,55,0,0
851,-117.647058823529,4,2,2,55,0,0
1021,-117.647058823529,4,2,3,55,0,0
1192,-117.647058823529,4,2,2,55,0,0
1362,-117.647058823529,4,2,4,55,0,0
1533,-117.647058823529,4,2,2,55,0,0
1703,-117.647058823529,4,2,3,55,0,0
1874,-117.647058823529,4,2,2,55,0,0
2044,-117.647058823529,4,2,5,55,0,0
2215,-117.647058823529,4,2,2,55,0,0
2385,-117.647058823529,4,2,3,55,0,0
2556,-117.647058823529,4,2,2,55,0,0
2726,-117.647058823529,4,2,6,55,0,0
2896,-117.647058823529,4,2,2,55,0,0
3067,-117.647058823529,4,2,3,55,0,0
3237,-117.647058823529,4,2,2,55,0,0
3408,-117.647058823529,4,2,1,55,0,0
3578,-117.647058823529,4,2,2,55,0,0
3749,-117.647058823529,4,2,3,55,0,0
3919,-117.647058823529,4,2,2,55,0,0
4090,-117.647058823529,4,2,4,55,0,0
4260,-117.647058823529,4,2,2,55,0,0
4431,-117.647058823529,4,2,3,55,0,0
4601,-117.647058823529,4,2,2,55,0,0
4771,-117.647058823529,4,2,7,55,0,0
4942,-117.647058823529,4,2,2,55,0,0
5112,-117.647058823529,4,2,3,55,0,0
5283,-117.647058823529,4,2,2,55,0,0
5453,-117.647058823529,4,2,6,55,0,0
5624,-117.647058823529,4,2,2,55,0,0
5794,-117.647058823529,4,2,3,55,0,0
5965,-117.647058823529,4,2,2,55,0,0
6135,-131.578947368421,4,2,91,60,0,0
7499,-128.205128205128,4,2,91,60,0,0
8862,-125,4,2,91,60,0,0
10226,-121.951219512195,4,2,91,60,0,0
11590,-117.647058823529,4,2,91,60,0,0
11931,-117.647058823529,4,2,91,50,0,0
12101,-117.647058823529,4,2,91,55,0,0
12271,-117.647058823529,4,2,91,60,0,0
12442,-117.647058823529,4,2,91,65,0,0
12612,-117.647058823529,4,2,91,70,0,0
12783,-117.647058823529,4,2,91,75,0,0
12953,-117.647058823529,4,2,91,80,0,0
14317,-117.647058823529,4,2,91,50,0,0
14658,-117.647058823529,4,2,91,55,0,0
14999,-117.647058823529,4,2,91,60,0,0
15340,-117.647058823529,4,2,91,65,0,0
15681,-117.647058823529,4,2,91,70,0,0
16021,-117.647058823529,4,2,91,85,0,0
16362,-117.647058823529,4,2,91,90,0,0
16703,-117.647058823529,4,2,91,95,0,0
17042,-117.647058823529,4,2,91,60,0,0
38862,-117.647058823529,4,2,91,45,0,0
53862,-117.647058823529,4,2,91,40,0,0
55226,-117.647058823529,4,2,91,30,0,0
56590,-133.333333333333,4,2,91,30,0,0
57953,-117.647058823529,4,2,91,45,0,0
58294,-117.647058823529,4,2,91,50,0,0
58635,-117.647058823529,4,2,91,55,0,0
58976,-117.647058823529,4,2,91,60,0,0
59317,-117.647058823529,4,2,91,65,0,0
59658,-117.647058823529,4,2,91,70,0,0
59999,-117.647058823529,4,2,91,75,0,0
60340,-117.647058823529,4,2,91,80,0,0
60681,-117.647058823529,4,2,91,85,0,0
61021,-117.647058823529,4,2,91,90,0,0
61362,-117.647058823529,4,2,91,95,0,0
61703,-117.647058823529,4,2,91,100,0,0
63408,-100,4,2,91,70,0,1
63493,-100,4,2,91,70,0,1
73806,-100,4,2,91,80,0,1
73976,-100,4,2,91,60,0,1
74146,-100,4,2,91,40,0,1
74232,-100,4,2,91,30,0,1
74317,-100,4,2,91,70,0,1
85226,-100,4,2,91,60,0,1
85567,-100,4,2,91,65,0,1
85908,-100,4,2,91,70,0,1
86249,-100,4,2,91,75,0,1
86590,-117.647058823529,4,2,91,80,0,0
90681,-117.647058823529,4,2,91,50,0,0
100226,-117.647058823529,4,2,91,40,0,0
100908,-117.647058823529,4,2,91,45,0,0
101590,-117.647058823529,4,2,91,60,0,0
112499,-117.647058823529,4,2,91,45,0,0
127499,-117.647058823529,4,2,91,40,0,0
128862,-117.647058823529,4,2,91,30,0,0
129885,-133.333333333333,4,2,91,30,0,0
131590,-117.647058823529,4,2,91,45,0,0
131931,-117.647058823529,4,2,91,50,0,0
132271,-117.647058823529,4,2,91,55,0,0
132612,-117.647058823529,4,2,91,60,0,0
132953,-117.647058823529,4,2,91,65,0,0
133294,-117.647058823529,4,2,91,70,0,0
133635,-117.647058823529,4,2,91,75,0,0
133976,-117.647058823529,4,2,91,80,0,0
134317,-117.647058823529,4,2,91,85,0,0
134658,-117.647058823529,4,2,91,90,0,0
134999,-117.647058823529,4,2,91,95,0,0
135340,-117.647058823529,4,2,91,100,0,0
137044,-100,4,2,91,70,0,1
147442,-100,4,2,91,80,0,1
147612,-100,4,2,91,60,0,1
147783,-100,4,2,91,40,0,1
147868,-100,4,2,91,30,0,1
147953,-100,4,2,91,70,0,1
158862,-100,4,2,91,60,0,1
159203,-100,4,2,91,65,0,1
159544,-100,4,2,91,70,0,1
159885,-100,4,2,91,75,0,1
160226,-117.647058823529,4,2,91,80,0,0
161590,-117.647058823529,4,2,91,40,0,0
172158,-117.647058823529,4,2,91,50,0,0
172499,-117.647058823529,4,2,91,60,0,0
182044,-117.647058823529,4,2,91,55,0,0
182385,-117.647058823529,4,2,91,50,0,0
182726,-117.647058823529,4,2,91,45,0,0
183067,-117.647058823529,4,2,91,40,0,0
183408,-133.333333333333,4,2,33,15,0,0
184431,-133.333333333333,4,2,32,35,0,0
185453,-133.333333333333,4,2,33,35,0,0
186646,-133.333333333333,4,2,35,35,0,0
186987,-133.333333333333,4,2,36,35,0,0
187158,-133.333333333333,4,2,32,35,0,0
188181,-133.333333333333,4,2,33,35,0,0
188862,-133.333333333333,4,2,34,35,0,0
189374,-133.333333333333,4,2,35,35,0,0
189715,-133.333333333333,4,2,36,35,0,0
189885,-133.333333333333,4,2,32,35,0,0
190226,-133.333333333333,4,2,35,35,0,0
190908,-133.333333333333,4,2,37,35,0,0
191590,-133.333333333333,4,2,38,35,0,0
192101,-133.333333333333,4,2,39,15,0,0
192442,-133.333333333333,4,2,40,25,0,0
192612,-133.333333333333,4,2,41,30,0,0
192783,-133.333333333333,4,2,42,35,0,0
192953,-117.647058823529,4,2,36,35,0,0
193294,-117.647058823529,4,2,43,35,0,0
193635,-117.647058823529,4,2,33,35,0,0
193976,-117.647058823529,4,2,32,35,0,0
194317,-117.647058823529,4,2,91,45,0,0
198408,-117.647058823529,4,2,91,55,0,0
198749,-117.647058823529,4,2,91,50,0,0
199090,-117.647058823529,4,2,91,45,0,0
199431,-117.647058823529,4,2,91,40,0,0
199771,-117.647058823529,4,2,91,55,0,0
200112,-117.647058823529,4,2,91,25,0,0
200453,-117.647058823529,4,2,91,30,0,0
200794,-117.647058823529,4,2,91,35,0,0
201135,-117.647058823529,4,2,91,40,0,0
201476,-117.647058823529,4,2,91,45,0,0
201817,-117.647058823529,4,2,91,50,0,0
202158,-117.647058823529,4,2,91,55,0,0
202499,-117.647058823529,4,2,91,60,0,0
202840,-117.647058823529,4,2,91,65,0,0
203181,-117.647058823529,4,2,91,70,0,0
203521,-117.647058823529,4,2,91,75,0,0
203862,-117.647058823529,4,2,91,80,0,0
205226,-117.647058823529,4,2,91,60,0,0
207953,-117.647058823529,4,2,91,30,0,0
208294,-117.647058823529,4,2,91,35,0,0
208635,-117.647058823529,4,2,91,40,0,0
208976,-117.647058823529,4,2,91,45,0,0
209317,-117.647058823529,4,2,91,50,0,0
210340,-117.647058823529,4,2,91,60,0,0
210681,-100,4,2,91,70,0,1
227044,-100,4,2,91,65,0,1
227385,-100,4,2,91,70,0,1
227726,-100,4,2,91,75,0,1
228067,-100,4,2,91,80,0,1
228408,-117.647058823529,4,2,91,60,0,0
229260,309.278350515464,4,2,91,60,1,0
229771,340.909090909091,4,2,91,60,1,0
229771,-117.647058823529,4,2,91,60,0,0
241021,-117.647058823529,4,2,91,55,0,0
241362,-117.647058823529,4,2,91,50,0,0
241703,-117.647058823529,4,2,91,45,0,0
242044,-117.647058823529,4,2,91,40,0,0
242385,-117.647058823529,4,2,91,35,0,0
242726,-117.647058823529,4,2,91,30,0,0
243067,-117.647058823529,4,2,91,25,0,0
243408,-117.647058823529,4,2,91,40,0,0

[Colours]
Combo1 : 204,63,63
Combo2 : 195,80,135
Combo3 : 145,35,130
Combo4 : 110,160,200
Combo5 : 80,110,160
Combo6 : 203,88,88
SliderBorder : 142,60,147
SliderTrackOverride : 20,20,20

[HitObjects]
21,276,681,6,0,P|44:274|88:286,1,55.2500010538101,10|2,0:0|0:0,0:0:0:0:
148,316,1021,1,2,0:0:0:0:
148,316,1192,1,2,0:0:0:0:
204,256,1362,2,0,L|199:193,2,55.2500010538101,2|2|2,0:0|0:0|0:0,0:0:0:0:
264,312,1874,1,2,0:0:0:0:
340,344,2044,2,0,L|456:336,1,110.50000210762,10|2,0:0|0:0,0:0:0:0:
476,256,2556,1,2,0:0:0:0:
408,208,2726,2,0,P|387:142|392:98,1,110.50000210762,10|2,0:0|0:0,0:0:0:0:
464,64,3237,1,2,0:0:0:0:
404,8,3408,6,0,L|347:9,1,55.2500010538101,10|2,0:0|0:0,0:0:0:0:
292,68,3749,2,0,L|235:67,1,55.2500010538101,2|2,0:0|0:0,0:0:0:0:
172,120,4090,2,0,P|169:148|177:185,2,55.2500010538101,2|2|2,0:0|0:0|0:0,0:0:0:0:
124,52,4601,1,2,0:0:0:0:
56,96,4771,2,0,P|49:155|64:213,1,110.50000210762,10|2,0:0|0:0,0:0:0:0:
92,280,5283,1,2,0:0:0:0:
140,348,5453,2,0,B|165:375|165:375|253:363,1,110.50000210762,10|2,0:0|0:0,0:0:0:0:
452,368,6135,70,0,P|447:304|460:156,1,197.599997587891,12|2,0:3|0:0,0:0:0:0:
476,44,7499,6,0,B|393:26|399:81|325:69,1,152.100005105896,12|10,3:3|0:3,0:0:0:0:
168,60,8351,2,0,P|142:61|120:71,2,50.7000017019654,10|10|2,0:3|0:3|0:0,0:0:0:0:
244,104,8862,70,0,L|225:334,1,208,8|0,3:3|0:0,0:0:0:0:
49,357,10226,6,0,P|27:329|47:206,1,159.90000243988,12|10,3:3|0:3,0:0:0:0:
200,152,11078,2,0,P|232:154|262:167,2,53.3000008132935,10|10|0,0:3|0:3|0:0,0:0:0:0:
124,200,11590,70,0,L|127:255,1,55.2500010538101,12|2,0:0|0:0,0:0:0:0:
180,324,11931,2,0,P|212:322|242:309,1,55.2500010538101,10|10,0:0|0:0,0:0:0:0:
284,248,12271,2,0,P|311:248|339:256,1,55.2500010538101,10|10,0:0|0:0,0:0:0:0:
396,316,12612,1,10,0:0:0:0:
468,276,12783,1,10,0:0:0:0:
456,196,12953,5,10,0:3:0:0:
44,45,14317,70,0,L|111:49,1,55.2500010538101,14|2,0:0|0:3,0:0:0:0:
160,104,14658,1,2,0:3:0:0:
160,104,14828,6,0,P|195:93|213:71,1,55.2500010538101,14|2,0:0|0:3,0:0:0:0:
268,24,15169,1,2,0:3:0:0:
268,24,15339,70,0,P|303:35|321:57,1,55.2500010538101,14|2,0:0|0:3,0:0:0:0:
380,100,15681,1,2,0:3:0:0:
380,100,15851,6,0,L|372:169,1,55.2500010538101,14|8,0:0|0:0,0:0:0:0:
336,236,16192,1,2,0:3:0:0:
400,292,16362,70,0,L|408:361,2,55.2500010538101,8|8|8,0:0|0:0|0:0,0:0:0:0:
336,236,16874,1,8,0:0:0:0:
336,236,16959,1,8,0:0:0:0:
336,236,17044,6,0,P|298:233|265:241,1,55.2500010538101,4|0,0:1|0:0,0:0:0:0:
216,296,17385,2,0,P|178:298|145:290,1,55.2500010538101,2|0,0:3|0:0,0:0:0:0:
76,272,17726,2,0,L|84:194,1,55.2500010538101,2|0,0:3|0:0,0:0:0:0:
122,138,18067,2,0,L|130:60,1,55.2500010538101,2|8,0:3|0:0,0:0:0:0:
176,4,18408,2,0,P|212:2|256:12,1,55.2500010538101,2|0,0:3|0:0,0:0:0:0:
284,76,18749,2,0,P|320:78|364:68,1,55.2500010538101,2|0,0:3|0:0,0:0:0:0:
428,60,19090,2,0,L|446:-9,2,55.2500010538101,2|8|2,0:3|0:3|0:3,0:0:0:0:
472,136,19601,1,8,0:3:0:0:
404,196,19771,70,0,P|392:249|409:328,1,110.50000210762,2|2,0:3|0:3,0:0:0:0:
332,364,20283,1,0,0:0:0:0:
264,312,20453,2,0,B|233:290|233:290|142:303,1,110.50000210762,2|2,0:3|0:3,0:0:0:0:
72,316,20965,1,8,0:0:0:0:
28,240,21135,2,0,L|20:160,1,55.2500010538101,2|0,0:3|0:0,0:0:0:0:
92,132,21476,2,0,L|99:52,1,55.2500010538101,2|0,0:3|0:0,0:0:0:0:
156,12,21817,2,0,P|191:22|214:41,1,55.2500010538101,2|8,0:3|0:3,0:0:0:0:
264,100,22158,2,0,P|299:90|322:71,1,55.2500010538101,2|8,0:3|0:3,0:0:0:0:
380,24,22499,6,0,L|362:155,1,110.50000210762,2|2,0:3|0:3,0:0:0:0:
428,196,23010,1,0,0:0:0:0:
368,260,23181,2,0,L|300:255,1,55.2500010538101,2|0,0:3|0:0,0:0:0:0:
228,282,23521,2,0,L|160:287,1,55.2500010538101,2|8,0:3|0:0,0:0:0:0:
84,280,23862,2,0,P|78:243|84:213,1,55.2500010538101,2|0,0:3|0:0,0:0:0:0:
140,160,24203,2,0,P|146:123|140:93,1,55.2500010538101,2|0,0:3|0:0,0:0:0:0:
64,64,24544,2,0,P|58:101|64:131,1,55.2500010538101,2|8,0:3|0:3,0:0:0:0:
140,160,24885,1,8,0:3:0:0:
222,121,25056,1,8,0:3:0:0:
284,184,25226,70,0,B|332:196|400:185,1,110.50000210762,2|2,0:3|0:3,0:0:0:0:
464,140,25737,2,0,L|471:69,1,55.2500010538101,0|2,0:0|0:3,0:0:0:0:
392,44,26078,2,0,L|385:108,2,55.2500010538101,0|2|8,0:0|0:3|0:0,0:0:0:0:
308,16,26590,2,0,P|272:16|219:89,1,110.50000210762,2|2,0:3|0:3,0:0:0:0:
268,144,27101,1,0,0:0:0:0:
328,212,27271,2,0,L|316:292,1,55.2500010538101,2|8,0:3|0:0,0:0:0:0:
268,340,27612,1,2,0:3:0:0:
216,268,27783,1,8,0:3:0:0:
216,268,27953,6,0,P|183:270|145:282,1,55.2500010538101,4|0,0:1|0:0,0:0:0:0:
120,356,28294,2,0,P|87:354|49:342,1,55.2500010538101,2|0,0:3|0:0,0:0:0:0:
24,272,28635,2,0,L|32:199,1,55.2500010538101,2|0,0:3|0:0,0:0:0:0:
100,164,28976,2,0,L|92:91,1,55.2500010538101,2|8,0:3|0:0,0:0:0:0:
136,32,29317,2,0,P|193:31|246:85,1,110.50000210762,2|2,0:3|0:3,0:0:0:0:
266,144,29828,2,0,L|231:212,1,55.2500010538101,0|2,0:0|0:3,0:0:0:0:
160,240,30169,2,0,P|150:262|147:307,2,55.2500010538101,8|10|8,0:3|0:3|0:3,0:0:0:0:
244,208,30681,70,0,B|274:246|274:246|358:248,1,110.50000210762,2|2,0:3|0:3,0:0:0:0:
408,196,31192,1,0,0:0:0:0:
480,244,31362,2,0,L|485:321,1,55.2500010538101,2|0,0:3|0:0,0:0:0:0:
412,348,31703,1,2,0:3:0:0:
336,300,31874,1,8,0:0:0:0:
264,352,32044,2,0,P|229:356|188:354,1,55.2500010538101,2|0,0:3|0:0,0:0:0:0:
160,284,32385,2,0,P|125:280|84:282,1,55.2500010538101,2|0,0:3|0:0,0:0:0:0:
28,236,32726,2,0,L|33:162,1,55.2500010538101,2|8,0:3|0:3,0:0:0:0:
48,96,33067,1,10,0:3:0:0:
48,96,33237,1,8,0:3:0:0:
104,28,33408,6,0,P|148:37|183:109,1,110.50000210762,2|2,0:3|0:3,0:0:0:0:
204,176,33919,1,0,0:0:0:0:
264,240,34090,2,0,P|292:233|331:240,1,55.2500010538101,2|0,0:3|0:0,0:0:0:0:
356,316,34431,2,0,P|327:322|288:315,1,55.2500010538101,2|8,0:3|0:0,0:0:0:0:
216,300,34771,2,0,B|179:286|179:286|90:307,1,110.50000210762,2|2,0:3|0:3,0:0:0:0:
32,344,35283,2,0,P|44:366|83:384,2,55.2500010538101,0|0|8,0:0|0:0|0:0,0:0:0:0:
4,260,35794,1,8,0:3:0:0:
28,176,35965,1,8,0:3:0:0:
4,92,36135,70,0,B|39:78|39:78|123:98,1,110.50000210762,12|2,0:2|0:3,0:0:0:0:
196,116,36646,2,0,P|208:92|208:44,1,55.2500010538101,0|2,3:0|0:3,0:0:0:0:
300,64,36987,2,0,P|303:91|316:116,1,55.2500010538101,0|2,3:0|0:3,0:0:0:0:
364,192,37328,1,8,0:0:0:0:
436,244,37499,2,0,L|496:248,2,55.2500010538101,2|8|0,3:0|0:0|3:0,0:0:0:0:
368,300,38010,2,0,L|308:304,2,55.2500010538101,8|0|8,3:0|3:0|0:3,0:0:0:0:
440,352,38521,1,8,0:3:0:0:
328,216,38862,6,0,L|336:100,1,110.50000210762,4|0,0:1|0:0,0:0:0:0:
284,36,39374,2,0,P|236:40|196:88,1,110.50000210762,2|2,0:3|0:3,0:0:0:0:
120,132,39885,1,8,0:3:0:0:
168,204,40056,1,8,0:3:0:0:
132,284,40226,2,0,L|124:360,1,55.2500010538101,2|0,0:3|0:0,0:0:0:0:
212,352,40567,2,0,L|217:297,1,55.2500010538101,0|2,0:0|0:3,0:0:0:0:
268,224,40908,2,0,P|296:220|332:232,1,55.2500010538101,0|2,0:0|0:3,0:0:0:0:
372,300,41249,2,0,B|396:312|396:312|476:296,1,82.8750015807152,8|2,0:3|0:0,0:0:0:0:
480,288,41590,70,0,L|468:224,1,55.2500010538101,2|0,0:3|0:0,0:0:0:0:
412,168,41931,1,0,0:0:0:0:
412,168,42101,2,0,L|424:104,1,55.2500010538101,2|0,0:3|0:0,0:0:0:0:
448,28,42442,1,2,0:3:0:0:
448,28,42612,2,0,P|424:20|384:28,1,55.2500010538101,8|8,0:3|0:3,0:0:0:0:
324,76,42953,2,0,B|284:88|284:88|208:68,1,110.50000210762,2|0,0:3|0:0,0:0:0:0:
136,36,43465,1,2,0:3:0:0:
56,72,43635,2,0,P|32:112|36:184,1,110.50000210762,0|8,0:0|0:3,0:0:0:0:
72,256,44146,1,8,0:3:0:0:
156,280,44317,6,0,B|180:252|180:252|260:264,1,110.50000210762,4|0,0:1|0:0,0:0:0:0:
312,328,44828,2,0,P|360:328|412:276,1,110.50000210762,2|2,0:3|0:3,0:0:0:0:
457,216,45340,2,0,P|456:190|443:155,1,55.2500010538101,8|8,0:3|0:3,0:0:0:0:
432,72,45681,2,0,L|444:8,1,55.2500010538101,2|0,0:3|0:0,0:0:0:0:
356,0,46021,2,0,L|345:54,1,55.2500010538101,0|2,0:0|0:3,0:0:0:0:
284,116,46362,2,0,P|252:116|220:104,1,55.2500010538101,0|2,0:0|0:3,0:0:0:0:
168,44,46703,2,0,P|124:48|88:80,1,82.8750015807152,8|2,0:3|0:0,0:0:0:0:
80,100,47044,70,0,L|88:156,1,55.2500010538101,2|0,0:3|0:0,0:0:0:0:
24,216,47385,1,0,0:0:0:0:
24,216,47556,2,0,L|16:272,1,55.2500010538101,2|0,0:3|0:0,0:0:0:0:
80,332,47896,1,2,0:3:0:0:
80,332,48067,2,0,B|112:344|112:344|148:336,1,55.2500010538101,8|8,0:3|0:3,0:0:0:0:
184,268,48408,2,0,P|228:256|304:280,1,110.50000210762,2|0,0:3|0:0,0:0:0:0:
308,356,48919,1,2,0:3:0:0:
308,356,49090,2,0,L|328:236,1,110.50000210762,8|8,0:0|0:0,0:0:0:0:
400,200,49601,1,8,0:3:0:0:
392,112,49771,6,0,P|360:80|276:80,1,110.50000210762,4|0,0:1|0:0,0:0:0:0:
228,124,50283,2,0,L|104:112,1,110.50000210762,2|2,0:3|0:3,0:0:0:0:
51,171,50794,2,0,P|63:204|67:237,1,55.2500010538101,8|8,0:3|0:3,0:0:0:0:
40,308,51135,2,0,L|32:376,1,55.2500010538101,2|0,0:3|0:0,0:0:0:0:
120,372,51476,1,0,0:0:0:0:
120,372,51646,2,0,L|126:317,1,55.2500010538101,2|0,0:3|0:0,0:0:0:0:
196,264,51987,2,0,P|224:272|252:288,2,55.2500010538101,2|8|8,0:3|0:3|0:3,0:0:0:0:
156,184,52499,70,0,L|162:129,1,55.2500010538101,2|0,0:3|0:0,0:0:0:0:
216,60,52840,2,0,P|256:56|316:68,1,73.6666680717469,8|8,0:0|0:0,0:0:0:0:
312,88,53181,2,0,L|308:144,2,36.8333340358734,8|8|8,0:0|0:0|0:3,0:0:0:0:
352,72,53521,2,0,L|356:16,2,36.8333340358734,8|8|8,0:3|0:3|0:3,0:0:0:0:
392,96,53862,5,4,0:1:0:0:
440,192,54544,69,4,0:1:0:0:
392,288,55226,5,2,0:3:0:0:
80,48,56590,70,0,P|124:60|164:152,1,146.250005578995,2|2,0:0|0:0,0:0:0:0:
120,296,57442,2,0,B|152:280|152:280|228:308,1,97.50000371933,2|2,0:0|0:0,0:0:0:0:
292,332,57953,6,0,P|320:328|352:304,2,55.2500010538101,8|2|2,0:0|0:3|0:3,0:0:0:0:
284,244,58465,70,0,P|307:228|326:193,2,55.2500010538101,8|2|2,0:0|0:3|0:3,0:0:0:0:
248,164,58976,6,0,P|253:136|242:98,2,55.2500010538101,8|2|2,0:0|0:3|0:3,0:0:0:0:
160,144,59487,69,8,0:0:0:0:
96,204,59658,1,2,0:3:0:0:
36,140,59828,6,0,L|44:76,1,55.2500010538101,2|8,0:3|0:0,0:0:0:0:
104,24,60169,1,2,0:3:0:0:
104,24,60340,2,0,P|136:28|160:40,1,55.2500010538101,2|8,0:3|0:0,0:0:0:0:
228,92,60681,70,0,B|252:84|252:84|292:88,2,55.2500010538101,12|2|2,0:1|0:3|0:3,0:0:0:0:
260,176,61192,2,0,B|285:178|285:178|319:199,2,55.2500010538101,8|2|8,0:1|0:3|0:1,0:0:0:0:
184,224,61703,1,8,0:1:0:0:
220,304,61874,1,2,0:0:0:0:
220,304,61959,1,2,0:0:0:0:
220,304,62044,5,12,0:1:0:0:
80,40,63408,6,0,L|172:52,1,65,4|2,0:1|0:3,0:0:0:0:
216,112,63749,1,8,0:0:0:0:
288,48,63919,2,0,B|336:36|336:36|428:76,1,130,0|2,0:0|0:3,0:0:0:0:
464,152,64431,2,0,L|452:232,1,65,10|2,0:0|0:0,0:0:0:0:
512,296,64771,2,0,P|468:312|380:280,1,130,2|8,0:3|0:0,0:0:0:0:
312,348,65283,2,0,P|268:332|180:364,1,130,0|2,0:0|0:3,0:0:0:0:
95,331,65794,2,0,L|103:255,1,65,10|2,0:0|0:0,0:0:0:0:
72,176,66135,6,0,L|64:100,1,65,2|2,0:3|0:3,0:0:0:0:
120,32,66476,1,8,0:0:0:0:
204,80,66646,2,0,B|232:100|232:100|328:92,1,130,0|2,0:0|0:3,0:0:0:0:
424,80,67158,1,8,0:0:0:0:
424,80,67328,1,2,0:0:0:0:
476,164,67499,2,0,P|488:188|488:240,2,65,2|2|8,0:3|0:3|0:0,0:0:0:0:
424,80,68010,2,0,P|425:47|439:18,2,65,0|2|2,0:0|0:3|0:3,0:0:0:0:
388,172,68521,2,0,L|312:180,1,65,8|2,0:0|0:0,0:0:0:0:
236,220,68862,70,0,P|192:188|176:104,1,130,4|8,0:1|0:0,0:0:0:0:
220,32,69374,1,0,0:0:0:0:
308,68,69544,2,0,L|372:61,1,65,2|2,0:3|0:3,0:0:0:0:
460,104,69885,2,0,P|464:136|456:180,1,65,8|2,0:0|0:0,0:0:0:0:
368,204,70226,2,0,P|364:236|372:280,1,65,4|2,0:1|0:3,0:0:0:0:
324,356,70567,2,0,L|259:349,1,65,8|0,0:0|0:0,0:0:0:0:
180,296,70908,2,0,L|115:302,1,65,2|2,0:3|0:3,0:0:0:0:
28,256,71249,2,0,P|8:216|28:144,1,97.5,8|2,0:0|0:0,0:0:0:0:
36,136,71590,6,0,L|104:144,1,65,4|2,0:1|0:3,0:0:0:0:
180,200,71931,2,0,B|220:200|220:200|260:176,1,65,8|0,0:0|0:0,0:0:0:0:
292,108,72271,2,0,L|360:100,1,65,2|2,0:3|0:3,0:0:0:0:
428,32,72612,1,8,0:0:0:0:
492,108,72783,1,2,0:0:0:0:
492,108,72953,2,0,L|500:180,1,65,12|2,0:1|0:3,0:0:0:0:
484,268,73294,2,0,P|456:272|416:260,1,65,12|2,0:1|0:3,0:0:0:0:
356,192,73635,2,0,P|328:188|288:200,1,65,8|8,0:1|0:0,0:0:0:0:
240,280,73976,1,8,0:0:0:0:
164,340,74146,1,8,0:0:0:0:
164,340,74232,1,8,0:0:0:0:
164,340,74317,70,0,L|152:260,1,65,4|2,0:1|0:3,0:0:0:0:
200,188,74658,1,8,0:0:0:0:
116,140,74828,2,0,P|80:132|40:140,2,65,0|2|2,0:0|0:3|0:3,0:0:0:0:
200,88,75340,2,0,P|236:96|276:88,1,65,8|2,0:0|0:0,0:0:0:0:
356,64,75681,2,0,L|372:0,2,65,2|2|8,0:3|0:3|0:0,0:0:0:0:
416,140,76192,2,0,L|432:204,2,65,0|2|2,0:0|0:3|0:3,0:0:0:0:
320,160,76703,1,8,0:0:0:0:
320,160,76874,1,2,0:0:0:0:
256,236,77044,6,0,P|220:240|168:224,1,65,2|2,0:3|0:3,0:0:0:0:
108,188,77385,2,0,L|128:116,1,65,8|0,0:0|0:0,0:0:0:0:
44,68,77726,2,0,L|26:130,1,65,2|2,0:3|0:3,0:0:0:0:
24,228,78067,2,0,L|6:290,1,65,8|2,0:0|0:0,0:0:0:0:
96,328,78408,2,0,P|136:336|184:320,1,65,2|2,0:3|0:3,0:0:0:0:
224,260,78749,2,0,P|264:252|312:268,1,65,8|0,0:0|0:0,0:0:0:0:
372,304,79090,2,0,L|384:372,1,65,2|2,0:3|0:3,0:0:0:0:
480,364,79431,2,0,L|468:299,1,65,8|8,0:0|0:0,0:0:0:0:
416,216,79771,70,0,P|412:176|432:60,1,130,4|8,0:1|0:0,0:0:0:0:
372,4,80283,1,0,0:0:0:0:
304,76,80453,2,0,L|236:92,1,65,2|2,0:3|0:3,0:0:0:0:
160,148,80794,1,10,0:0:0:0:
72,104,80965,1,2,0:0:0:0:
72,104,81135,2,0,L|88:252,1,130,4|8,0:1|0:0,0:0:0:0:
100,328,81646,1,0,0:0:0:0:
194,354,81817,2,0,P|231:366|271:364,1,65,2|2,0:3|0:3,0:0:0:0:
324,296,82158,2,0,P|384:296|440:332,1,97.5,8|2,0:0|0:0,0:0:0:0:
448,328,82499,6,0,L|440:256,1,65,2|2,0:3|0:3,0:0:0:0:
372,192,82840,2,0,L|380:120,1,65,8|0,0:0|0:0,0:0:0:0:
452,60,83181,1,2,0:3:0:0:
452,60,83351,1,2,0:3:0:0:
364,16,83521,2,0,P|320:20|288:40,1,65,8|2,0:0|0:0,0:0:0:0:
224,88,83862,2,0,L|216:152,1,65,4|2,0:1|0:3,0:0:0:0:
140,216,84203,2,0,L|147:280,1,65,8|0,0:0|3:0,0:0:0:0:
180,372,84544,2,0,P|213:360|242:332,1,65,2|2,0:3|0:3,0:0:0:0:
300,268,84885,1,8,0:0:0:0:
376,332,85056,1,8,0:0:0:0:
376,332,85141,1,8,0:0:0:0:
376,332,85226,70,0,P|408:348|448:348,2,65,12|2|8,0:1|0:3|0:0,0:0:0:0:
300,268,85737,2,0,P|316:236|316:196,2,65,2|8|8,0:3|0:0|0:0,0:0:0:0:
228,336,86249,1,8,0:2:0:0:
171,257,86419,6,0,L|171:212,2,32.5,8|8|12,0:0|0:2|0:1,0:0:0:0:
64,320,90681,38,0,P|124:300|184:312,1,110.50000210762,12|2,0:1|0:3,0:0:0:0:
328,356,91362,2,0,P|328:328|340:292,1,55.2500010538101,2|0,0:3|0:0,0:0:0:0:
400,248,91703,2,0,P|400:220|388:184,1,55.2500010538101,2|0,0:3|0:0,0:0:0:0:
320,156,92044,2,0,B|280:176|280:176|208:168,2,110.50000210762,6|2|2,0:3|0:3|0:3,0:0:0:0:
448,48,93067,1,2,0:3:0:0:
284,16,93408,6,0,P|224:8|168:36,1,110.50000210762,6|2,0:3|0:3,0:0:0:0:
44,120,94090,2,0,L|56:244,1,110.50000210762,2|2,0:3|0:3,0:0:0:0:
172,344,94771,2,0,L|240:336,1,55.2500010538101,6|0,0:3|0:0,0:0:0:0:
288,280,95112,2,0,L|356:288,1,55.2500010538101,2|0,0:3|0:0,0:0:0:0:
404,344,95453,2,0,P|384:320|400:232,1,110.50000210762,2|2,0:3|0:3,0:0:0:0:
496,120,96135,70,0,P|516:96|500:8,1,110.50000210762,6|2,0:3|0:3,0:0:0:0:
344,24,96817,2,0,L|280:40,1,55.2500010538101,2|0,0:3|0:0,0:0:0:0:
224,88,97158,2,0,L|160:72,1,55.2500010538101,2|0,0:3|0:0,0:0:0:0:
88,60,97499,2,0,P|68:104|84:176,2,110.50000210762,6|2|2,0:3|0:3|0:3,0:0:0:0:
168,204,98521,1,2,0:3:0:0:
60,328,98862,6,0,L|184:340,1,110.50000210762,6|2,0:3|0:3,0:0:0:0:
336,356,99544,1,2,0:3:0:0:
408,312,99715,2,0,P|416:292|420:256,2,55.2500010538101,0|2|2,0:0|0:3|0:3,0:0:0:0:
336,268,100226,2,0,B|288:244|288:244|176:268,1,165.75000316143,6|2,0:3|0:0,0:0:0:0:
108,321,100908,2,0,P|124:289|116:193,1,110.50000210762,8|0,0:0|0:0,0:0:0:0:
91,133,101419,1,8,0:3:0:0:
91,133,101590,70,0,L|163:129,1,55.2500010538101,4|0,0:1|0:0,0:0:0:0:
195,56,101931,2,0,L|267:60,1,55.2500010538101,2|0,0:3|0:0,0:0:0:0:
335,38,102271,2,0,P|353:62|359:93,1,55.2500010538101,2|0,0:3|0:0,0:0:0:0:
427,141,102612,2,0,P|409:165|403:196,1,55.2500010538101,2|8,0:3|0:0,0:0:0:0:
456,260,102953,2,0,P|423:237|338:249,1,110.50000210762,2|2,0:3|0:3,0:0:0:0:
288,298,103465,2,0,L|220:285,1,55.2500010538101,0|2,0:0|0:3,0:0:0:0:
145,293,103806,2,0,L|155:370,2,55.2500010538101,8|10|8,0:3|0:3|0:3,0:0:0:0:
81,231,104317,6,0,L|94:104,1,110.50000210762,2|2,0:3|0:3,0:0:0:0:
153,56,104828,1,0,0:0:0:0:
224,108,104999,2,0,L|298:103,1,55.2500010538101,2|0,0:3|0:0,0:0:0:0:
335,36,105340,1,2,0:3:0:0:
403,91,105510,1,8,0:0:0:0:
477,43,105681,2,0,P|488:68|490:109,1,55.2500010538101,2|8,0:3|0:0,0:0:0:0:
443,169,106021,2,0,P|432:194|430:235,1,55.2500010538101,2|0,0:3|0:0,0:0:0:0:
375,292,106362,2,0,L|320:304,1,55.2500010538101,2|8,0:3|0:3,0:0:0:0:
272,229,106703,1,10,0:3:0:0:
272,229,106874,1,8,0:3:0:0:
215,297,107044,70,0,P|146:297|91:272,1,110.50000210762,2|2,0:3|0:3,0:0:0:0:
46,217,107556,1,0,0:0:0:0:
109,155,107726,2,0,L|111:94,1,55.2500010538101,2|0,0:3|0:0,0:0:0:0:
24,79,108067,2,0,L|22:134,1,55.2500010538101,2|8,0:3|0:0,0:0:0:0:
46,217,108408,2,0,B|91:187|91:187|165:199,1,110.50000210762,2|2,0:3|0:3,0:0:0:0:
235,198,108919,2,0,L|236:142,2,55.2500010538101,8|2|8,0:0|0:3|0:0,0:0:0:0:
301,257,109431,1,8,0:3:0:0:
362,193,109601,1,8,0:3:0:0:
429,250,109771,6,0,P|447:207|424:129,1,110.50000210762,12|2,0:2|0:3,0:0:0:0:
375,79,110283,2,0,L|318:95,1,55.2500010538101,0|2,3:0|0:3,0:0:0:0:
241,131,110624,2,0,L|184:115,1,55.2500010538101,0|2,3:0|0:3,0:0:0:0:
105,82,110965,1,8,0:0:0:0:
35,135,111135,2,0,P|30:171|35:202,2,55.2500010538101,2|8|0,3:0|0:0|3:0,0:0:0:0:
105,82,111646,2,0,P|106:54|102:27,2,55.2500010538101,8|0|8,3:0|3:0|0:3,0:0:0:0:
139,164,112158,1,8,0:3:0:0:
13,287,112499,70,0,B|51:306|51:306|134:293,1,110.50000210762,4|0,0:1|0:0,0:0:0:0:
194,345,113010,2,0,P|229:323|309:330,1,110.50000210762,2|2,0:3|0:3,0:0:0:0:
380,351,113521,1,8,0:3:0:0:
423,273,113692,1,8,0:3:0:0:
362,209,113862,2,0,L|358:141,1,55.2500010538101,2|0,0:3|0:0,0:0:0:0:
270,160,114203,2,0,L|273:215,1,55.2500010538101,0|2,0:0|0:3,0:0:0:0:
231,293,114544,2,0,P|194:291|176:281,1,55.2500010538101,0|2,0:0|0:3,0:0:0:0:
116,219,114885,2,0,B|82:205|82:205|19:226,1,82.8750015807152,8|2,0:3|0:0,0:0:0:0:
19,239,115226,6,0,L|24:307,1,55.2500010538101,2|0,0:3|0:0,0:0:0:0:
94,347,115567,1,0,0:0:0:0:
94,347,115737,2,0,L|157:337,1,55.2500010538101,2|0,0:3|0:0,0:0:0:0:
226,296,116078,1,2,0:3:0:0:
226,296,116248,2,0,L|289:306,1,55.2500010538101,8|8,0:3|0:3,0:0:0:0:
356,352,116590,2,0,P|340:323|346:249,1,110.50000210762,2|0,0:3|0:0,0:0:0:0:
403,180,117101,1,2,0:3:0:0:
461,113,117271,2,0,B|423:88|423:88|344:97,1,110.50000210762,0|8,0:0|0:3,0:0:0:0:
269,103,117783,1,8,0:3:0:0:
180,98,117953,70,0,B|115:90|115:90|77:115,1,110.50000210762,4|0,0:1|0:0,0:0:0:0:
24,187,118465,2,0,P|40:220|36:295,1,110.50000210762,2|2,0:3|0:3,0:0:0:0:
102,352,118976,2,0,P|129:334|175:327,1,55.2500010538101,8|8,0:3|0:3,0:0:0:0:
234,355,119317,2,0,L|308:360,1,55.2500010538101,2|0,0:3|0:0,0:0:0:0:
341,287,119658,2,0,L|415:282,1,55.2500010538101,0|2,0:0|0:3,0:0:0:0:
446,210,119999,2,0,P|457:177|456:152,1,55.2500010538101,0|2,0:0|0:3,0:0:0:0:
399,89,120340,2,0,P|362:88|317:135,1,82.8750015807152,8|2,0:3|0:0,0:0:0:0:
306,138,120681,6,0,L|300:76,1,55.2500010538101,2|0,0:3|0:0,0:0:0:0:
214,63,121021,1,0,0:0:0:0:
214,63,121192,2,0,L|219:117,1,55.2500010538101,2|0,0:3|0:0,0:0:0:0:
142,162,121533,1,2,0:3:0:0:
142,162,121703,2,0,L|136:216,1,55.2500010538101,8|8,0:3|0:3,0:0:0:0:
91,293,122044,2,0,P|151:263|196:280,1,110.50000210762,2|0,0:3|0:0,0:0:0:0:
264,323,122556,1,2,0:3:0:0:
264,323,122726,1,8,0:0:0:0:
342,282,122896,2,0,P|362:297|386:337,2,55.2500010538101,10|8|8,0:3|0:0|0:3,0:0:0:0:
389,207,123408,70,0,L|383:79,1,110.50000210762,4|0,0:1|0:0,0:0:0:0:
325,29,123919,2,0,P|290:41|251:106,1,110.50000210762,2|2,0:3|0:3,0:0:0:0:
203,168,124431,2,0,L|208:238,1,55.2500010538101,8|8,0:3|0:3,0:0:0:0:
284,264,124771,2,0,L|279:334,1,55.2500010538101,2|0,0:3|0:0,0:0:0:0:
200,357,125112,2,0,P|168:359|138:347,1,55.2500010538101,0|2,0:0|0:3,0:0:0:0:
119,267,125453,1,0,0:0:0:0:
40,308,125624,2,0,L|35:378,2,55.2500010538101,8|8|8,0:0|0:3|0:3,0:0:0:0:
24,220,126135,6,0,L|27:164,1,55.2500010538101,2|0,0:3|0:0,0:0:0:0:
72,89,126476,2,0,P|121:93|145:109,1,55.2500010538101,8|8,0:0|0:0,0:0:0:0:
148,121,126817,2,0,L|141:172,2,36.8333340358734,8|8|8,0:0|0:0|0:3,0:0:0:0:
189,107,127158,2,0,L|194:70,2,36.8333340358734,8|8|8,0:3|0:3|0:3,0:0:0:0:
226,131,127499,69,4,0:1:0:0:
323,191,128181,5,2,0:3:0:0:
416,264,128862,69,2,0:0:0:0:
83,347,129885,6,0,P|68:303|73:237,1,97.50000371933,0|6,0:0|0:0,0:0:0:0:
118,120,130567,1,2,0:0:0:0:
187,179,130737,2,0,L|288:184,2,97.50000371933,2|2|2,0:0|0:0|0:0,0:0:0:0:
118,120,131590,70,0,P|109:89|114:53,2,55.2500010538101,8|2|2,0:0|0:3|0:3,0:0:0:0:
64,190,132101,6,0,P|42:165|32:130,2,55.2500010538101,8|2|2,0:0|0:3|0:3,0:0:0:0:
68,278,132612,70,0,P|35:275|3:258,2,55.2500010538101,8|2|2,0:0|0:3|0:3,0:0:0:0:
136,334,133124,5,8,0:0:0:0:
197,270,133294,1,2,0:3:0:0:
275,311,133465,70,0,L|274:372,1,55.2500010538101,2|8,0:3|0:0,0:0:0:0:
362,364,133806,1,2,0:3:0:0:
362,364,133976,2,0,L|362:308,1,55.2500010538101,2|8,0:3|0:0,0:0:0:0:
408,232,134317,6,0,P|440:231|488:243,2,55.2500010538101,12|2|2,0:1|0:3|0:3,0:0:0:0:
355,160,134828,2,0,P|323:159|275:171,2,55.2500010538101,8|2|8,0:1|0:3|0:1,0:0:0:0:
427,107,135340,1,8,0:1:0:0:
378,33,135510,1,2,0:0:0:0:
378,33,135595,1,2,0:0:0:0:
378,33,135681,69,12,0:1:0:0:
482,348,137044,70,0,L|469:276,1,65,4|2,0:1|0:3,0:0:0:0:
411,206,137385,1,8,0:0:0:0:
470,128,137556,2,0,P|470:74|391:34,1,130,0|2,0:0|0:3,0:0:0:0:
334,91,138067,2,0,L|264:77,1,65,8|0,0:0|0:0,0:0:0:0:
188,24,138408,2,0,B|151:51|151:51|66:44,1,130,2|8,0:3|0:0,0:0:0:0:
25,132,138919,2,0,P|5:179|35:269,1,130,0|2,0:0|0:3,0:0:0:0:
120,254,139431,2,0,L|201:252,1,65,10|2,0:0|0:0,0:0:0:0:
236,335,139771,70,0,L|317:337,1,65,2|2,0:3|0:3,0:0:0:0:
398,330,140112,1,8,0:0:0:0:
471,265,140283,2,0,L|468:127,1,130,0|2,0:0|0:3,0:0:0:0:
375,104,140794,1,8,0:0:0:0:
375,104,140965,1,2,0:0:0:0:
424,20,141135,2,0,P|464:13|511:20,2,65,2|2|8,0:3|0:3|0:0,0:0:0:0:
375,104,141646,2,0,P|335:111|288:104,2,65,0|2|2,0:0|0:3|0:3,0:0:0:0:
468,134,142158,2,0,L|469:198,1,65,8|2,0:0|0:0,0:0:0:0:
406,274,142499,6,0,B|366:254|366:254|281:275,1,130,4|8,0:1|0:0,0:0:0:0:
191,307,143010,1,0,0:0:0:0:
98,338,143181,2,0,L|31:353,1,65,2|2,0:3|0:3,0:0:0:0:
16,257,143521,2,0,L|0:190,1,65,8|2,0:0|0:0,0:0:0:0:
30,100,143862,2,0,P|72:98|108:121,1,65,4|2,0:1|0:3,0:0:0:0:
157,179,144203,2,0,P|199:181|235:158,1,65,8|0,0:0|0:0,0:0:0:0:
308,211,144544,2,0,L|306:290,1,65,2|2,0:3|0:3,0:0:0:0:
360,357,144885,2,0,P|422:358|460:312,1,97.5,8|2,0:0|0:0,0:0:0:0:
453,303,145226,70,0,L|451:238,1,65,4|2,0:1|0:3,0:0:0:0:
502,154,145567,2,0,L|503:89,1,65,8|0,0:0|0:0,0:0:0:0:
429,24,145908,2,0,P|396:34|370:65,1,65,2|2,0:3|0:3,0:0:0:0:
327,140,146249,1,8,0:0:0:0:
252,77,146419,1,2,0:0:0:0:
252,77,146590,2,0,P|219:81|186:72,1,65,12|2,0:1|0:3,0:0:0:0:
118,5,146931,2,0,P|85:1|52:10,1,65,12|2,0:1|0:3,0:0:0:0:
13,97,147271,2,0,L|16:168,1,65,8|8,0:1|0:0,0:0:0:0:
77,237,147612,1,8,0:0:0:0:
34,325,147783,1,8,0:0:0:0:
34,325,147868,1,8,0:0:0:0:
34,325,147953,6,0,P|69:338|102:333,1,65,4|2,0:1|0:3,0:0:0:0:
165,266,148294,1,8,0:0:0:0:
253,308,148465,2,0,L|264:383,2,65,0|2|2,0:0|0:3|0:3,0:0:0:0:
165,266,148976,2,0,L|174:201,1,65,8|2,0:0|0:0,0:0:0:0:
125,116,149317,2,0,P|90:110|44:122,2,65,2|2|8,0:3|0:3|0:0,0:0:0:0:
195,48,149828,2,0,P|230:54|276:42,2,65,0|2|2,0:0|0:3|0:3,0:0:0:0:
227,140,150340,1,8,0:0:0:0:
227,140,150510,1,2,0:0:0:0:
306,197,150681,70,0,L|296:261,1,65,2|2,0:3|0:3,0:0:0:0:
345,345,151021,2,0,P|379:356|423:342,2,65,8|0|2,0:0|0:0|0:3,0:0:0:0:
246,347,151533,1,2,0:3:0:0:
246,347,151703,1,8,0:0:0:0:
165,292,151874,1,2,0:0:0:0:
165,292,152044,2,0,L|86:298,1,65,2|2,0:3|0:3,0:0:0:0:
49,213,152385,2,0,L|113:208,1,65,8|0,0:0|0:0,0:0:0:0:
197,157,152726,2,0,P|209:128|204:70,1,65,2|2,0:3|0:3,0:0:0:0:
144,22,153067,2,0,L|79:26,1,65,8|8,0:0|0:0,0:0:0:0:
5,91,153408,6,0,B|26:132|26:132|20:233,1,130,4|8,0:1|0:0,0:0:0:0:
68,301,153919,1,0,0:0:0:0:
143,238,154090,2,0,L|226:248,1,65,2|2,0:3|0:3,0:0:0:0:
289,312,154431,1,10,0:0:0:0:
364,250,154601,1,2,0:0:0:0:
364,250,154771,2,0,P|433:226|454:162,1,130,4|8,0:1|0:0,0:0:0:0:
432,81,155283,1,0,0:0:0:0:
356,19,155453,2,0,B|326:6|326:6|279:18,1,65,2|2,0:3|0:3,0:0:0:0:
227,85,155794,2,0,B|185:105|185:105|110:89,1,97.5,8|2,0:0|0:0,0:0:0:0:
103,85,156135,70,0,L|117:167,1,65,2|2,0:3|0:3,0:0:0:0:
43,217,156476,2,0,L|29:299,1,65,8|0,0:0|0:0,0:0:0:0:
103,347,156817,1,2,0:3:0:0:
103,347,156987,1,2,0:3:0:0:
181,288,157158,2,0,L|258:303,1,65,8|2,0:0|0:0,0:0:0:0:
328,351,157499,2,0,P|351:326|366:287,1,65,4|2,0:1|0:3,0:0:0:0:
440,238,157840,2,0,P|417:213|402:174,1,65,8|0,0:0|0:0,0:0:0:0:
343,108,158181,2,0,L|266:123,1,65,2|0,0:3|0:0,0:0:0:0:
205,191,158521,1,8,0:0:0:0:
148,111,158692,1,8,0:0:0:0:
148,111,158777,1,8,0:0:0:0:
148,111,158862,6,0,P|147:78|152:45,2,65,12|2|8,0:1|0:3|0:0,0:0:0:0:
92,192,159374,2,0,P|96:224|95:256,2,65,2|8|8,0:3|0:0|0:0,0:0:0:0:
33,113,159885,1,8,0:2:0:0:
45,16,160056,1,8,0:0:0:0:
135,62,160226,5,12,0:1:0:0:
255,191,161590,1,4,0:1:0:0:
143,323,172328,5,8,0:3:0:0:
143,323,172499,70,0,P|171:323|205:334,2,55.2500010538101,4|0|2,0:1|0:0|0:3,0:0:0:0:
56,344,173010,1,0,0:0:0:0:
29,259,173181,2,0,L|38:142,1,110.50000210762,2|2,0:3|0:3,0:0:0:0:
48,60,173692,1,2,0:0:0:0:
132,34,173862,2,0,P|164:34|203:47,1,55.2500010538101,2|0,0:3|0:0,0:0:0:0:
240,109,174203,1,2,0:3:0:0:
306,50,174374,2,0,B|342:25|342:25|428:39,1,110.50000210762,0|0,0:0|0:0,0:0:0:0:
457,108,174885,2,0,L|444:174,1,55.2500010538101,2|8,0:3|0:0,0:0:0:0:
376,217,175226,6,0,L|399:334,1,110.50000210762,2|2,0:3|0:3,0:0:0:0:
311,348,175737,2,0,P|268:323|201:340,1,110.50000210762,0|0,0:0|0:0,0:0:0:0:
125,359,176249,1,2,0:3:0:0:
60,299,176419,1,8,0:0:0:0:
93,216,176590,2,0,L|101:148,2,55.2500010538101,2|0|2,0:3|0:0|0:3,0:0:0:0:
180,231,177101,2,0,L|243:239,1,55.2500010538101,8|2,0:0|0:3,0:0:0:0:
303,294,177442,2,0,L|366:286,1,55.2500010538101,8|2,0:0|0:3,0:0:0:0:
413,218,177783,1,8,0:3:0:0:
469,149,177953,70,0,P|470:93|417:47,1,110.50000210762,4|2,0:1|0:3,0:0:0:0:
348,75,178465,1,0,0:0:0:0:
348,75,178635,2,0,B|293:91|293:91|232:78,1,110.50000210762,2|2,0:3|0:3,0:0:0:0:
157,50,179146,1,2,0:0:0:0:
82,97,179317,2,0,L|88:168,1,55.2500010538101,4|0,0:1|0:0,0:0:0:0:
134,226,179658,2,0,L|128:297,1,55.2500010538101,2|0,0:3|3:0,0:0:0:0:
191,344,179999,2,0,P|269:322|309:332,1,110.50000210762,2|2,3:3|3:3,0:0:0:0:
381,352,180510,1,8,0:0:0:0:
438,284,180681,6,0,L|426:186,1,82.8750015807152,4|0,0:1|0:0,0:0:0:0:
459,170,181021,2,0,L|471:72,1,82.8750015807152,2|0,0:3|0:0,0:0:0:0:
447,52,181362,2,0,L|379:69,1,55.2500010538101,2|8,0:3|0:0,0:0:0:0:
324,121,181703,2,0,L|256:104,1,55.2500010538101,2|8,0:3|0:0,0:0:0:0:
195,154,182044,2,0,P|189:184|197:221,2,55.2500010538101,2|8|2,0:0|0:0|0:0,0:0:0:0:
130,92,182556,2,0,P|136:62|128:25,2,55.2500010538101,8|2|8,0:0|0:0|0:0,0:0:0:0:
69,156,183067,2,0,L|69:222,1,55.2500010538101,0|8,0:0|0:0,0:0:0:0:
71,299,183408,69,8,0:0:0:0:
456,339,184771,2,0,P|428:316|291:366,1,195.00000743866,2|2,0:0|0:0,0:0:0:0:
80,328,186135,6,0,P|95:263|102:177,2,146.250005578995,8|2|2,0:0|0:0|0:0,0:0:0:0:
234,304,187499,2,0,P|290:274|400:338,1,195.00000743866,2|2,0:0|0:0,0:0:0:0:
405,162,188862,70,0,L|421:15,2,146.250005578995,8|2|2,0:0|0:0|0:0,0:0:0:0:
256,212,190226,2,0,P|200:212|157:186,2,97.50000371933,8|0|2,0:0|0:0|0:0,0:0:0:0:
319,292,191249,1,0,0:0:0:0:
400,357,191590,6,0,P|456:357|499:331,2,97.50000371933,2|0|0,0:0|0:0|0:0,0:0:0:0:
319,292,192612,1,2,0:0:0:0:
151,351,192953,70,0,P|143:329|121:289,1,55.2500010538101,8|0,0:0|0:0,0:0:0:0:
57,247,193294,6,0,P|65:225|87:185,1,55.2500010538101,2|0,0:0|0:0,0:0:0:0:
159,158,193635,70,0,L|220:169,1,55.2500010538101,2|0,0:0|0:0,0:0:0:0:
255,89,193976,6,0,L|316:78,1,55.2500010538101,2|0,0:0|0:0,0:0:0:0:
393,108,194317,70,0,P|415:143|397:219,1,110.50000210762,4|2,0:1|0:0,0:0:0:0:
344,273,194828,1,2,0:0:0:0:
295,347,194999,2,0,B|247:368|230:332|180:360,1,110.50000210762,8|2,0:0|0:0,0:0:0:0:
98,364,195510,1,8,0:0:0:0:
40,296,195681,2,0,L|31:216,1,55.2500010538101,2|8,0:0|0:0,0:0:0:0:
94,177,196021,2,0,L|103:97,1,55.2500010538101,2|0,0:3|0:0,0:0:0:0:
159,56,196362,2,0,P|194:60|278:108,1,110.50000210762,8|0,0:0|0:0,0:0:0:0:
334,143,196874,1,2,0:0:0:0:
393,78,197044,6,0,B|422:108|422:108|414:186,1,110.50000210762,4|2,0:1|0:0,0:0:0:0:
449,258,197556,1,0,0:0:0:0:
377,309,197726,2,0,L|311:297,1,55.2500010538101,8|0,0:0|0:0,0:0:0:0:
257,358,198067,2,0,L|191:346,1,55.2500010538101,8|0,0:0|0:0,0:0:0:0:
116,325,198408,2,0,P|125:282|156:245,1,73.6666680717469,2|8,0:3|0:0,0:0:0:0:
166,225,198749,2,0,L|128:197,2,36.8333340358734,8|8|8,0:0|0:0|0:0,0:0:0:0:
215,200,199090,2,0,L|244:221,2,36.8333340358734,8|8|8,0:3|0:3|0:3,0:0:0:0:
213,155,199431,2,0,L|183:133,2,36.8333340358734,8|8|8,0:3|0:3|0:3,0:0:0:0:
254,133,199771,69,4,0:2:0:0:
442,22,200112,2,0,P|454:51|457:85,1,55.2500010538101,8|8,0:0|0:0,0:0:0:0:
399,141,200453,6,0,P|387:170|384:204,1,55.2500010538101,8|8,0:0|0:0,0:0:0:0:
409,278,200794,70,0,L|475:286,1,55.2500010538101,10|8,0:0|0:0,0:0:0:0:
452,372,201135,6,0,L|397:365,1,55.2500010538101,10|8,0:0|0:0,0:0:0:0:
326,311,201476,69,8,0:0:0:0:
248,352,201646,1,10,0:0:0:0:
181,293,201817,5,8,0:0:0:0:
102,332,201987,1,8,0:0:0:0:
47,262,202158,70,0,L|46:195,1,55.2500010538101,10|8,0:0|0:0,0:0:0:0:
101,137,202499,6,0,P|135:141|158:152,2,55.2500010538101,6|8|0,0:2|0:0|0:0,0:0:0:0:
46,66,203010,2,0,P|72:44|96:36,2,55.2500010538101,2|8|8,0:3|0:0|0:0,0:0:0:0:
8,146,203521,1,8,0:3:0:0:
40,228,203692,1,8,0:3:0:0:
40,240,203778,1,8,0:3:0:0:
40,252,203863,69,4,0:1:0:0:
469,303,205226,6,0,P|429:269|352:278,1,110.50000210762,4|0,0:1|0:0,0:0:0:0:
294,308,205737,2,0,P|254:342|177:333,1,110.50000210762,2|0,0:0|0:0,0:0:0:0:
127,288,206249,2,0,L|133:222,1,55.2500010538101,2|2,0:0|0:0,0:0:0:0:
68,170,206590,2,0,B|107:136|107:136|184:149,1,110.50000210762,8|2,0:0|0:0,0:0:0:0:
232,203,207101,2,0,P|268:197|313:141,1,110.50000210762,2|0,0:0|0:0,0:0:0:0:
321,53,207612,1,2,0:0:0:0:
241,14,207783,1,2,0:0:0:0:
241,14,207953,70,0,L|224:81,1,55.2500010538101,4|0,0:1|3:0,0:0:0:0:
158,123,208294,2,0,L|175:190,1,55.2500010538101,8|0,0:0|3:0,0:0:0:0:
244,226,208635,2,0,P|276:227|306:212,1,55.2500010538101,8|0,0:0|3:0,0:0:0:0:
361,154,208976,1,8,0:0:0:0:
361,154,209061,1,8,0:0:0:0:
361,154,209146,2,0,L|354:115,2,27.6250005269051,8|8|8,0:0|0:0|0:0,0:0:0:0:
432,323,210340,6,0,P|363:306|341:318,1,82.8750015807152,2|0,0:3|0:0,0:0:0:0:
324,332,210681,70,0,P|317:263|314:197,1,130,4|8,0:1|0:0,0:0:0:0:
311,104,211192,1,0,0:0:0:0:
220,69,211362,2,0,L|155:88,1,65,2|2,0:3|0:3,0:0:0:0:
78,145,211703,2,0,P|84:174|81:223,1,65,8|2,0:0|0:0,0:0:0:0:
15,279,212044,2,0,P|9:308|12:357,1,65,4|2,0:1|0:3,0:0:0:0:
106,355,212385,2,0,L|177:345,1,65,8|0,0:0|0:0,0:0:0:0:
238,275,212726,2,0,L|309:285,1,65,2|2,0:3|0:3,0:0:0:0:
395,314,213067,2,0,P|433:288|438:215,1,97.5,8|2,0:0|0:0,0:0:0:0:
425,201,213408,6,0,L|360:191,1,65,4|2,0:1|0:3,0:0:0:0:
281,129,213749,2,0,P|273:101|286:54,1,65,8|0,0:0|0:0,0:0:0:0:
371,33,214090,2,0,P|377:64|369:95,1,65,2|2,0:3|0:3,0:0:0:0:
281,129,214431,1,8,0:0:0:0:
194,83,214601,1,2,0:0:0:0:
194,83,214771,2,0,L|127:73,1,65,12|2,0:1|0:3,0:0:0:0:
42,118,215112,2,0,P|36:155|45:192,1,65,12|2,0:1|0:3,0:0:0:0:
109,251,215453,2,0,L|176:241,1,65,8|8,0:1|0:0,0:0:0:0:
250,300,215794,1,8,0:0:0:0:
306,219,215965,1,8,0:0:0:0:
306,219,216050,1,8,0:0:0:0:
306,219,216135,70,0,P|335:244|352:278,1,65,4|2,0:1|0:3,0:0:0:0:
379,359,216476,1,8,0:0:0:0:
448,290,216646,2,0,L|512:299,2,65,0|2|2,0:0|0:3|0:3,0:0:0:0:
379,359,217158,2,0,L|314:368,1,65,8|2,0:0|0:0,0:0:0:0:
250,300,217499,2,0,P|251:266|280:219,2,65,2|2|8,0:3|0:3|0:0,0:0:0:0:
164,348,218010,2,0,L|99:338,2,65,0|2|2,0:0|0:3|0:3,0:0:0:0:
158,250,218521,1,8,0:0:0:0:
158,250,218692,1,2,0:0:0:0:
81,189,218862,6,0,L|80:124,1,65,2|2,0:3|0:3,0:0:0:0:
150,55,219203,2,0,P|192:62|224:85,2,65,8|0|2,0:0|0:0|0:3,0:0:0:0:
54,30,219715,1,2,0:3:0:0:
54,30,219885,1,8,0:0:0:0:
80,124,220056,1,2,0:0:0:0:
80,124,220226,2,0,L|80:188,1,65,2|2,0:3|0:3,0:0:0:0:
145,262,220567,2,0,P|182:265|223:249,1,65,8|0,0:0|0:0,0:0:0:0:
261,175,220908,2,0,P|298:172|339:188,1,65,2|2,0:3|0:3,0:0:0:0:
388,253,221249,2,0,L|377:329,1,65,8|8,0:0|0:0,0:0:0:0:
296,370,221590,70,0,B|269:339|269:339|182:353,1,130,4|8,0:1|0:0,0:0:0:0:
85,370,222101,1,0,0:0:0:0:
25,293,222271,2,0,L|33:224,1,65,2|2,0:3|0:3,0:0:0:0:
42,131,222612,1,10,0:0:0:0:
122,186,222783,1,2,0:0:0:0:
122,186,222953,2,0,P|173:196|246:153,1,130,4|8,0:1|0:0,0:0:0:0:
289,76,223465,1,0,0:0:0:0:
378,24,223635,2,0,P|416:22|459:42,1,65,2|2,0:3|0:3,0:0:0:0:
481,125,223976,2,0,L|475:229,1,97.5,8|2,0:0|0:0,0:0:0:0:
473,250,224317,6,0,P|429:238|384:250,1,65,2|2,0:3|0:3,0:0:0:0:
332,298,224658,2,0,P|288:310|243:298,1,65,8|0,0:0|0:0,0:0:0:0:
186,255,224999,1,2,0:3:0:0:
186,255,225169,1,2,0:3:0:0:
104,308,225340,2,0,L|95:391,1,65,8|2,0:0|0:0,0:0:0:0:
0,358,225681,2,0,L|7:293,1,65,4|2,0:1|0:3,0:0:0:0:
14,196,226021,2,0,P|58:197|92:216,1,65,8|0,0:0|3:0,0:0:0:0:
167,242,226362,2,0,P|211:241|245:222,1,65,2|2,0:3|0:3,0:0:0:0:
279,148,226703,1,8,0:0:0:0:
205,83,226874,1,8,0:0:0:0:
205,83,226959,1,8,0:0:0:0:
205,83,227044,70,0,L|197:14,2,65,12|2|8,0:1|0:3|0:0,0:0:0:0:
279,148,227556,2,0,L|271:212,2,65,2|8|8,0:3|0:0|0:0,0:0:0:0:
332,65,228067,1,8,0:2:0:0:
389,143,228237,1,8,0:0:0:0:
389,155,228322,1,8,0:0:0:0:
389,167,228408,5,12,0:1:0:0:
95,313,229569,1,8,0:0:0:0:
95,313,229771,70,0,B|137:298|137:298|211:327,1,110.50000210762,4|8,0:1|0:0,0:0:0:0:
278,361,230283,1,0,0:0:0:0:
351,311,230453,2,0,L|358:241,2,55.2500010538101,2|2|8,0:3|0:3|0:0,0:0:0:0:
426,358,230965,1,2,0:0:0:0:
482,290,231135,2,0,P|486:255|458:176,1,110.50000210762,2|8,0:3|0:0,0:0:0:0:
410,113,231646,1,0,0:0:0:0:
410,113,231817,2,0,B|368:98|368:98|294:127,1,110.50000210762,2|8,0:3|0:0,0:0:0:0:
224,88,232328,1,2,0:0:0:0:
185,167,232499,6,0,P|192:192|188:229,1,55.2500010538101,2|0,0:3|0:0,0:0:0:0:
113,265,232840,2,0,P|106:240|110:203,1,55.2500010538101,8|0,0:0|0:0,0:0:0:0:
61,135,233181,2,0,L|-1:139,2,55.2500010538101,2|0|8,0:3|0:0|0:0,0:0:0:0:
119,68,233692,1,2,0:0:0:0:
181,130,233862,2,0,P|225:138|296:104,1,110.50000210762,2|8,0:3|0:0,0:0:0:0:
299,26,234374,1,2,0:0:0:0:
299,26,234544,2,0,L|330:140,1,110.50000210762,2|8,0:3|0:0,0:0:0:0:
423,281,235226,70,0,P|393:270|306:299,1,110.50000210762,2|8,0:3|0:0,0:0:0:0:
254,348,235737,2,0,P|200:353|151:319,1,110.50000210762,0|2,0:0|0:3,0:0:0:0:
105,248,236249,1,8,0:0:0:0:
162,181,236419,1,2,0:0:0:0:
162,181,236590,2,0,L|172:109,1,55.2500010538101,2|0,0:3|0:0,0:0:0:0:
122,51,236931,1,8,0:0:0:0:
203,18,237101,2,0,P|235:36|267:114,1,110.50000210762,0|2,0:3|0:3,0:0:0:0:
272,188,237612,1,8,0:0:0:0:
350,146,237783,1,8,0:0:0:0:
350,146,237953,6,0,L|463:152,1,110.50000210762,12|8,0:1|0:0,0:0:0:0:
481,238,238465,2,0,L|368:244,1,110.50000210762,4|2,0:1|0:3,0:0:0:0:
344,328,238976,2,0,P|299:296|279:245,1,110.50000210762,8|8,0:0|0:0,0:0:0:0:
212,187,239487,2,0,L|222:74,1,110.50000210762,2|2,0:3|0:3,0:0:0:0:
294,26,239999,69,8,0:0:0:0:
358,86,240168,1,8,0:0:0:0:
358,86,240254,1,8,0:0:0:0:
358,86,240340,2,0,P|375:84|410:83,4,27.6250005269051,8|8|8|8|4,0:0|0:0|0:0|0:0|0:1,0:0:0:0:
256,192,241021,12,8,243408,0:3:0:0:
