osu file format v14

[General]
AudioFilename: audio.mp3
AudioLeadIn: 0
PreviewTime: 204374
Countdown: 0
SampleSet: Soft
StackLeniency: 0.7
Mode: 0
LetterboxInBreaks: 0
EpilepsyWarning: 1
WidescreenStoryboard: 1

[Editor]
Bookmarks: 36135,38862,74317,101590,112499,127499,161590,166703,172499,205226,228408,240681
DistanceSpacing: 0.9
BeatDivisor: 4
GridSize: 4
TimelineZoom: 1.3

[Metadata]
Title:SHIORI
TitleUnicode:SHIORI
Artist:ClariS
ArtistUnicode:ClariS
Creator:PantyDev
Version:Extra
Source:終物語
Tags:owarimonogatari ed ending araragi hitagi senjougahara hitagigahara bake monogatari shaft isin nisio TheMefisto piroshki _Hou InternalLight VOFAN keeVY Anime Japanese
BeatmapID:1575386
BeatmapSetID:747684

[Difficulty]
HPDrainRate:5.8
CircleSize:3.9
OverallDifficulty:8.6
ApproachRate:9.2
SliderMultiplier:1.6
SliderTickRate:1

[Events]
//Background and Video events
0,0,"bg.jpg",0,0
//Break Periods
2,161790,166133
//Storyboard Layer 0 (Background)
Sprite,Background,Centre,"sb\visual\square.jpg",320,240 V,0,63408,,7.5,4.5 M,0,63408,86590,320,240
Sprite,Background,Centre,"sb\visual\square.jpg",320,240 V,0,137044,,7.5,4.5 M,0,137044,160226,320,240
Sprite,Background,Centre,"sb\visual\square.jpg",320,240 V,0,205226,,7.5,4.5 M,0,205226,228408,320,240
Sprite,Background,Centre,"sb\sprites\KiaiPattern.png",320,240 S,0,63408,,0.686 C,0,63408,,208,245,244 M,0,63408,74317,320,240,-616,240
Sprite,Background,Centre,"sb\sprites\KiaiPattern.png",320,240 S,0,74317,,0.686 C,0,74317,,208,245,244 M,0,74317,86590,1256,240,320,240
Sprite,Background,Centre,"sb\sprites\KiaiPattern.png",320,240 S,0,63408,,0.686 C,0,63408,,208,245,244 M,0,63408,74317,1256,240,320,240 M,0,74317,86590,320,240,-616,240
Sprite,Background,Centre,"sb\visual\square.jpg",320,240 R,0,74316,,-0.2443634 C,0,74316,,150,200,200 V,1,74316,74999,0,0.5,8,0.5 M,1,74316,86590,483.4909,306.0728,483.4909,311.4364
Sprite,Background,Centre,"sb\lyrics\39.png",320,240 C,0,64431,,100,150,150 F,0,64431,64771,0,0.9832727 M,0,64431,74317,639.38,41.02,-196.6909,41.02 V,0,67372,,0.8952727,1
Sprite,Background,Centre,"sb\lyrics\40.png",320,240 C,0,67158,,100,150,150 V,0,67158,,0.9185,1 F,0,67158,67499,0,1 M,0,67158,74317,611.4545,140.5091,1.1273,141.0909
Sprite,Background,Centre,"sb\lyrics\41.png",320,240 C,0,69885,,100,150,150 V,0,69885,,0.9709091,1 F,0,69885,70226,0,1 M,0,69885,74317,647.5636,240,265.309,240 F,0,70226,74317,1
Sprite,Background,Centre,"sb\lyrics\42.png",320,240 C,0,71590,,100,150,150 V,0,71590,,0.9185452,1 F,0,71590,71931,0,1 M,0,71590,74317,660.9454,340.6545,422.4,339.4909
Sprite,Background,Centre,"sb\lyrics\43.png",320,240 R,0,74316,,-0.2443634 S,0,74317,,0.7614548 F,0,74317,74828,0,1 M,0,74317,77044,964.6546,185.8909,301.9637,354.0363 F,0,74828,76703,1 F,0,76703,77044,1,0
Sprite,Background,Centre,"sb\lyrics\6.png",320,240 S,0,79771,,0.7614548 R,0,79771,,-0.2443634 F,0,79771,80112,0,1 M,0,79771,81135,782.691,235.3454,491.6364,307.4908 F,0,80283,80965,1 F,0,80965,81135,1,0
Sprite,Background,Centre,"sb\lyrics\46.png",320,240 S,0,83181,,0.7614548 R,0,83181,,-0.2443634 F,0,83181,83521,0,1 M,0,83181,86590,782.691,235.3454,301.9637,354.0363 F,0,83521,86419,1 F,0,86419,86590,1,0
Sprite,Background,Centre,"sb\sprites\KiaiSejougahara.png",320,240 F,0,63408,,0.31 S,0,63408,,0.7556363 C,0,63408,,0,0,0 M,1,63408,68862,325,255.6,325,272 R,1,63408,68862,-0.0232724,0.04654571 M,2,68862,74317,325,272,321,262 R,2,68862,74317,0.04654571,0.1396368 M,1,74317,79771,321,262,305,287.6 R,1,74317,79771,0.1396368,0.02327297 M,2,79771,86590,305,287.6,298.7273,252 R,2,79771,86590,0.02327297,-0.04654515
Sprite,Background,Centre,"sb\sprites\KiaiSejougahara.png",320,240 S,0,63408,,0.7556363 C,0,63408,,225,240,255 M,1,63408,68862,323,253.6,323,270 R,1,63408,68862,-0.0232724,0.04654571 M,2,68862,74317,323,270,319,260 R,2,68862,74317,0.04654571,0.1396368 M,1,74317,79771,319,260,303,285.6 R,1,74317,79771,0.1396368,0.02327297 M,2,79771,84036,303,285.6,301.128,271.6733 R,2,79771,86590,0.02327297,-0.04654515 M,0,84036,86590,301.128,271.6733,296.7273,250 F,0,86590,,1
Sprite,Background,Centre,"sb\visual\square.jpg",320,240 R,0,63408,,-0.2443634 C,0,63408,,150,200,200 V,1,63408,64771,0,0.5,8,0.5 M,1,63408,86590,483.4909,436.0728,483.4909,456.4364
Sprite,Background,Centre,"sb\lyrics\44.png",320,240 S,0,77044,,0.7614548 R,0,77044,,-0.2443634 F,0,77044,77556,0,1 F,0,77044,79431,1 M,0,77044,79771,966.4001,329.8546,301.9637,499.0363 F,0,79431,79771,1,0
Sprite,Background,Centre,"sb\lyrics\45.png",320,240 S,0,81135,,0.7614548 R,0,81135,,-0.2443634 F,0,81135,81476,0,1 M,0,81135,83181,803.7092,375.2364,428.8001,468.7817 F,0,81476,83010,1 F,0,83010,83181,1,0
Sprite,Background,Centre,"sb\sprites\KiaiPattern.png",320,240 S,0,137044,,0.686 C,0,137044,,245,208,208 M,0,137044,147953,320,240,1256,240
Sprite,Background,Centre,"sb\sprites\KiaiPattern.png",320,240 S,0,137044,,0.686 C,0,137044,,245,208,208 M,0,137044,147953,-616,240,320,240 M,0,147953,160226,320,240,1256,240
Sprite,Background,Centre,"sb\sprites\KiaiPattern.png",320,240 S,0,147953,,0.686 C,0,147953,,245,208,208 M,0,147953,160226,-616,240,320,240
Sprite,Background,Centre,"sb\sprites\KiaiSejougahara.png",320,240 F,0,137044,,0.31 S,0,137044,,0.6683637 C,0,137044,,0,0,0 P,0,137044,,H M,2,137044,139771,322,242,331.891,244.9091 R,1,137044,139771,0,-0.08145478 M,1,139771,147953,331.891,244.9091,337.7092,247.2364 R,1,139771,147953,-0.08145478,0.0232727 M,1,147953,153408,337.7092,247.2364,310.3637,235.0182 R,1,147953,153408,0.0232727,-0.05818177 M,2,153408,160226,310.3637,235.0182,326.6546,244.9091 R,1,153408,160226,-0.05818177,0.01163635 F,0,160226,,1
Sprite,Background,Centre,"sb\sprites\KiaiSejougahara.png",320,240 S,0,137044,,0.6683637 C,0,137044,,255,217,217 P,0,137044,,H M,2,137044,139771,320,240,329.891,242.9091 R,1,137044,139771,0,-0.08145478 F,0,139165,160226,1 M,1,139771,147953,329.891,242.9091,335.7092,245.2364 R,1,139771,147953,-0.08145478,0.0232727 M,1,147953,153408,335.7092,245.2364,308.3637,233.0182 R,1,147953,153408,0.0232727,-0.05818177 M,2,153408,160226,308.3637,233.0182,324.6546,242.9091 R,1,153408,160226,-0.05818177,0.01163635
Sprite,Background,Centre,"sb\visual\square.jpg",320,240 M,0,137044,,-89.01817,397.6728 R,0,137044,,-0.8 C,0,137044,,180,99,99 V,1,137044,138408,0.6,0,0.6,8 F,0,137044,160226,1
Sprite,Background,Centre,"sb\visual\square.jpg",320,240 M,0,137044,,27.92729,290.0364 R,0,137044,,-0.8 C,0,137044,,180,99,99 V,1,137044,138408,0.8,0,0.8,8 F,0,137044,160226,1
Sprite,Background,Centre,"sb\lyrics\68.png",320,240 S,0,137044,,0.6392 R,0,137044,,0.7716364 C,0,137044,,180,99,99 M,0,137044,147953,68.65454,239.4182,141.3818,309.2364 F,0,137044,147953,1
Sprite,Background,Centre,"sb\lyrics\69.png",320,240 S,0,140794,,0.6392 R,0,140794,,0.7716364 C,0,140794,,255,255,255 F,0,140794,141135,0,1 M,0,140794,147953,50.03637,311.5636,117.5273,375.5637 F,0,141135,147953,1
Sprite,Background,Centre,"sb\lyrics\70.png",320,240 S,0,143521,,0.6392 R,0,143521,,0.7716364 C,0,143521,,180,99,99 F,0,143521,143862,0,1 M,0,143521,147953,2.9091,356.3636,23.27272,376.1455 F,0,143862,147953,1
Sprite,Background,Centre,"sb\lyrics\71.png",320,240 S,0,143521,,0.6392 R,0,147953,,0.7716364 F,0,147953,148294,0,1 M,0,147953,150681,415.9091,659.4909,-54.1091,210.3272 F,0,148294,150340,1 F,0,150340,150681,1,0
Sprite,Background,Centre,"sb\lyrics\72.png",320,240 S,0,150681,,0.6392 R,0,150681,,0.7716364 F,0,150681,151021,0,1 M,0,150681,153408,358.3091,610.8,-54.1091,210.3272 F,0,151021,153063,1 F,0,153063,153408,1,0
Sprite,Background,Centre,"sb\lyrics\6.png",320,240 S,0,153408,,0.5694547 R,0,153408,,0.7679996 C,0,153408,,180,99,99 F,0,153408,153749,0,1 M,0,153408,160226,-40.14545,137.0182,-8.145452,166.6909 F,0,153749,160226,1
Sprite,Background,Centre,"sb\lyrics\45.png",320,240 S,0,154771,,0.5694547 R,0,154771,,0.7679996 C,0,154771,,180,99,99 F,0,154771,155112,0,1 M,0,154771,160226,23.85455,198.1091,49.45456,221.9637 F,0,155112,160226,1
Sprite,Background,Centre,"sb\lyrics\46.png",320,240 S,0,156817,,0.5694547 R,0,156817,,0.7679996 C,0,156817,,180,99,99 F,0,156817,157158,0,1 M,0,156817,160226,102.9818,273.7455,117.5273,287.7091 F,0,157158,160226,1
Sprite,Background,Centre,"sb\sprites\KiaiPattern.png",320,240 C,0,205226,,200,200,200 F,0,205226,210681,1 S,0,205226,210681,0.65,0.75
Sprite,Background,Centre,"sb\sprites\KiaiSejougaharaBW.png",320,240 F,0,205226,,0.31 C,0,205226,,0,0,0 M,0,205226,210681,323,131.291,323,355.291 S,0,205226,210681,0.89,1 R,0,205226,210681,0,0.174
Sprite,Background,Centre,"sb\sprites\KiaiSejougaharaBW.png",320,240 M,0,205226,210681,320,128.291,320,352.291 S,0,205226,210681,0.89,1 R,0,205226,210681,0,0.174
Sprite,Background,Centre,"sb\lyrics\39.png",320,240 C,0,206249,,0,0,0 F,0,206249,206590,0,1 S,0,206249,208976,0.93,0.977 F,0,206590,208976,1 F,0,208976,,1 S,0,208976,,0.9767253
Sprite,Background,Centre,"sb\lyrics\40.png",320,240 F,0,208997,,1 C,0,208997,,0,0,0 S,0,208997,210681,0.977,1
Sprite,Background,Centre,"sb\sprites\KiaiPattern.png",320,240 S,0,210681,,0.686 C,0,210681,,222,155,201 M,0,210681,218862,320,240,-616,240
Sprite,Background,Centre,"sb\sprites\KiaiPattern.png",320,240 S,0,210681,,0.686 C,0,210681,,222,155,201 M,0,210681,218862,1256,240,320,240 M,0,218862,228408,320,240,-616,240
Sprite,Background,Centre,"sb\sprites\KiaiPattern.png",320,240 S,0,218862,,0.686 C,0,218862,,222,155,201 M,0,218862,228408,1256,240,320,240
Sprite,Background,Centre,"sb\lyrics\41.png",320,240 S,0,211703,,0.96 C,0,211703,,177,46,132 F,0,211703,211874,0,1 M,0,211703,216135,569.0182,139.3455,58.76365,139.3455
Sprite,Background,Centre,"sb\lyrics\42.png",320,240 S,0,213408,,0.913 C,0,213408,,177,46,132 F,0,213408,213578,0,1 M,0,213408,216135,741.2364,240,421.8182,240.5818
Sprite,Background,Centre,"sb\lyrics\46.png",320,240 S,0,224999,,0.82 R,0,224999,,-0.395 C,0,224999,,177,46,132 F,0,224999,225340,0,1 M,0,224999,228408,737.1638,203.3454,329.3091,373.2364
Sprite,Background,Centre,"sb\sprites\KiaiSejougahara.png",320,240 F,0,210681,,0.31 S,0,210681,,0.8138182 C,0,210681,,0,0,0 M,0,210681,216135,274.2909,243.7455,284.7636,261.7818 R,0,210681,216135,-0.2560004,-0.1047278 M,0,216135,221590,284.7636,261.7818,366.2124,275.7495 R,0,216135,221590,-0.1047278,0.1861816 M,0,221590,228408,366.2124,275.7495,362.7065,300.1833 R,0,221590,228408,0.1861816,0.1629086
Sprite,Background,Centre,"sb\sprites\KiaiSejougahara.png",320,240 S,0,210681,,0.8138182 C,0,210681,,244,223,238 M,0,210681,216135,272.2909,241.7455,282.7636,259.7818 R,0,210681,216135,-0.2560004,-0.1047278 M,0,216135,221590,282.7636,259.7818,364.2124,273.7495 R,0,216135,221590,-0.1047278,0.1861816 M,0,221590,222953,364.2124,273.7495,362.9297,278.6341 R,0,221590,228408,0.1861816,0.1629086 M,0,222953,228408,362.9297,278.6341,360.7065,298.1833 F,0,224999,,1
Sprite,Background,Centre,"sb\lyrics\43.png",320,240 C,0,216135,,177,46,132 F,0,216135,216476,0,1 M,0,216135,218862,851.7819,249.3091,424.1455,426.1818 S,0,216476,,0.877818 R,0,216476,,-0.395 F,0,216476,218521,1 F,0,218521,218862,1,0
Sprite,Background,Centre,"sb\lyrics\44.png",320,240 C,0,218862,,177,46,132 F,0,218862,219203,0,1 M,0,218862,221590,795.3455,272,357.8182,454.1091 F,0,219203,218521,1 S,0,219203,,0.877818 R,0,219203,,-0.395 F,0,221249,221590,1,0
Sprite,Background,Centre,"sb\lyrics\6.png",320,240 S,0,221590,,0.82 R,0,221590,,-0.395 C,0,221590,,177,46,132 F,0,221590,221931,0,1 M,0,221590,223294,693.5273,221.9636,403.2,344.1454 F,0,221931,222953,1 F,0,222953,223294,1,0
Sprite,Background,Centre,"sb\lyrics\45.png",320,240 S,0,222953,,0.82 R,0,222953,,-0.395 C,0,222953,,177,46,132 F,0,222953,223294,0.05745438,1 M,0,222953,224658,744.1454,300.5091,417.7454,436.6545 F,0,223294,224317,1 F,0,224317,224658,1,0
Sprite,Background,Centre,"sb\visual\square.jpg",320,240 C,0,216135,,177,46,132 M,1,216135,216476,320,425.0182,477.0909,355.2 R,1,216135,216476,1.84,-0.395 V,1,216135,216476,0,0.3,7,0.3 F,0,228408,,1
Sprite,Background,Centre,"sb\visual\square.jpg",320,240 C,0,216135,,177,46,132 M,1,216135,216476,320,525.0182,477.0909,455.2 R,1,216135,216476,1.84,-0.395 V,1,216135,216476,0,0.3,7,0.3 F,0,228408,,1
Sprite,Background,Centre,"sb\visual\circleB.png",0,0 C,0,11590,,204,114,165 M,0,11590,11632,184,240,185.6012,223.1001 F,2,11590,11960,1,0 S,2,11590,11960,1,0.2 P,0,11590,11960,A M,0,11632,11675,185.6012,223.1001,185.4151,206.1435 M,0,11675,11717,185.4151,206.1435,183.1851,189.333 M,0,11717,11760,183.1851,189.333,178.9438,172.9141
Sprite,Background,Centre,"sb\visual\circleB.png",144,92 C,0,11931,,204,114,165 F,2,11931,12131,1,0 S,2,11931,12131,1,0.2 P,0,11931,12131,A
Sprite,Background,Centre,"sb\visual\circleB.png",308,288 C,0,12101,,204,114,165 F,2,12101,12301,1,0 S,2,12101,12301,1,0.2 P,0,12101,12301,A
Sprite,Background,Centre,"sb\visual\circleB.png",296,96 C,0,12271,,204,114,165 F,2,12271,12471,1,0 S,2,12271,12471,1,0.2 P,0,12271,12471,A
Sprite,Background,Centre,"sb\visual\circleB.png",180,340 C,0,12442,,204,114,165 F,2,12442,12642,1,0 S,2,12442,12642,1,0.2 P,0,12442,12642,A
Sprite,Background,Centre,"sb\visual\circleB.png",392,176 C,0,12612,,204,114,165 F,2,12612,12812,1,0 S,2,12612,12812,1,0.2 P,0,12612,12812,A
Sprite,Background,Centre,"sb\visual\circleB.png",108,220 C,0,12783,,204,114,165 F,2,12783,12983,1,0 S,2,12783,12983,1,0.2 P,0,12783,12983,A
Sprite,Background,Centre,"sb\visual\circleB.png",518,246 C,0,14317,,204,114,165 F,2,14317,14517,1,0 S,2,14317,14517,1,0.2 P,0,14317,14517,A
Sprite,Background,Centre,"sb\visual\circleB.png",331,319 C,0,14487,,204,114,165 F,2,14487,14687,1,0 S,2,14487,14687,1,0.2 P,0,14487,14687,A
Sprite,Background,Centre,"sb\visual\circleB.png",413,190 C,0,14658,,204,114,165 F,2,14658,14858,1,0 S,2,14658,14858,1,0.2 P,0,14658,14858,A
Sprite,Background,Centre,"sb\visual\circleB.png",200,146 C,0,14828,,204,114,165 F,2,14828,15028,1,0 S,2,14828,15028,1,0.2 P,0,14828,15028,A
Sprite,Background,Centre,"sb\visual\circleB.png",313,364 C,0,14999,,204,114,165 F,2,14999,15199,1,0 S,2,14999,15199,1,0.2 P,0,14999,15199,A
Sprite,Background,Centre,"sb\visual\circleB.png",349,127 C,0,15169,,204,114,165 F,2,15169,15369,1,0 S,2,15169,15369,1,0.2 P,0,15169,15369,A
Sprite,Background,Centre,"sb\visual\circleB.png",157,286 C,0,15340,,204,114,165 F,2,15340,15540,1,0 S,2,15340,15540,1,0.2 P,0,15340,15540,A
Sprite,Background,Centre,"sb\visual\circleB.png",409,328 C,0,15510,,204,114,165 F,2,15510,15710,1,0 S,2,15510,15710,1,0.2 P,0,15510,15710,A
Sprite,Background,Centre,"sb\visual\circleB.png",263,87 C,0,15681,,204,114,165 F,2,15681,15881,1,0 S,2,15681,15881,1,0.2 P,0,15681,15881,A
Sprite,Background,Centre,"sb\visual\circleB.png",210,376 C,0,15851,,204,114,165 F,2,15851,16051,1,0 S,2,15851,16051,1,0.2 P,0,15851,16051,A
Sprite,Background,Centre,"sb\visual\circleB.png",438,193 C,0,16021,,204,114,165 F,2,16021,16221,1,0 S,2,16021,16221,1,0.2 P,0,16021,16221,A
Sprite,Background,Centre,"sb\visual\circleB.png",123,200 C,0,16192,,204,114,165 F,2,16192,16392,1,0 S,2,16192,16392,1,0.2 P,0,16192,16392,A
Sprite,Background,Centre,"sb\visual\circleB.png",408,359 C,0,16362,,204,114,165 F,2,16362,16562,1,0 S,2,16362,16562,1,0.2 P,0,16362,16562,A
Sprite,Background,Centre,"sb\visual\circleB.png",263,95 C,0,16533,,204,114,165 F,2,16533,16733,1,0 S,2,16533,16733,1,0.2 P,0,16533,16733,A
Sprite,Background,Centre,"sb\visual\circleB.png",96,232 C,0,16703,,204,114,165 F,2,16703,16903,1,0 S,2,16703,16903,1,0.2 P,0,16703,16903,A
Sprite,Background,Centre,"sb\visual\circleB.png",87,278 C,0,16788,,204,114,165 F,2,16788,16988,1,0 S,2,16788,16988,1,0.2 P,0,16788,16988,A
Sprite,Background,Centre,"sb\visual\circleB.png",95,324 C,0,16873,,204,114,165 F,2,16873,17073,1,0 S,2,16873,17073,1,0.2 P,0,16873,17073,A
Sprite,Background,Centre,"sb\visual\circleB.png",118,362 C,0,16958,,204,114,165 F,2,16958,17158,1,0 S,2,16958,17158,1,0.2 P,0,16958,17158,A
Sprite,Background,Centre,"sb\visual\circleB.png",272,372 C,0,55226,,204,114,165 F,2,55226,55426,1,0 S,2,55226,55426,1,0.2 P,0,55226,55426,A
Sprite,Background,Centre,"sb\visual\circleB.png",232,132 C,0,56249,,204,114,165 F,2,56249,56449,1,0 S,2,56249,56449,1,0.2 P,0,56249,56449,A
Sprite,Background,Centre,"sb\visual\circleB.png",160,200 C,0,56590,,204,114,165 F,2,56590,56790,1,0 S,2,56590,56790,1,0.2 P,0,56590,56790,A
Sprite,Background,Centre,"sb\visual\circleB.png",0,0 C,0,57101,,204,114,165 M,0,57101,57143,272,372,281.3422,368.4908 F,2,57101,57982,1,0 S,2,57101,57982,1,0.2 P,0,57101,57982,A M,0,57143,57186,281.3422,368.4908,291.0054,366.0394 M,0,57186,57228,291.0054,366.0394,300.8735,364.6737 M,0,57228,57271,300.8735,364.6737,310.8278,364.4089 M,0,57271,57314,310.8278,364.4089,320.7807,364.9688 M,0,57314,57356,320.7807,364.9688,330.5297,367.0717 M,0,57356,57399,330.5297,367.0717,339.978,370.2379 M,0,57399,57441,339.978,370.2379,349.0128,374.4283 M,0,57441,57484,349.0128,374.4283,339.978,370.2379 M,0,57484,57527,339.978,370.2379,330.5297,367.0717 M,0,57527,57569,330.5297,367.0717,320.7807,364.9688 M,0,57569,57612,320.7807,364.9688,310.8278,364.4089 M,0,57612,57654,310.8278,364.4089,300.8735,364.6737 M,0,57654,57697,300.8735,364.6737,291.0054,366.0394 M,0,57697,57740,291.0054,366.0394,281.3422,368.4908 M,0,57740,57782,281.3422,368.4908,272,372
Sprite,Background,Centre,"sb\visual\circleB.png",180,400 C,0,57953,,204,114,165 F,2,57953,58153,1,0 S,2,57953,58153,1,0.2 P,0,57953,58153,A
Sprite,Background,Centre,"sb\visual\circleB.png",268,240 C,0,58124,,204,114,165 F,2,58124,58324,1,0 S,2,58124,58324,1,0.2 P,0,58124,58324,A
Sprite,Background,Centre,"sb\visual\circleB.png",360,392 C,0,58294,,204,114,165 F,2,58294,58494,1,0 S,2,58294,58494,1,0.2 P,0,58294,58494,A
Sprite,Background,Centre,"sb\visual\circleB.png",168,288 C,0,58465,,204,114,165 F,2,58465,58665,1,0 S,2,58465,58665,1,0.2 P,0,58465,58665,A
Sprite,Background,Centre,"sb\visual\circleB.png",328,140 C,0,58635,,204,114,165 F,2,58635,58835,1,0 S,2,58635,58835,1,0.2 P,0,58635,58835,A
Sprite,Background,Centre,"sb\visual\circleB.png",392,296 C,0,58806,,204,114,165 F,2,58806,59006,1,0 S,2,58806,59006,1,0.2 P,0,58806,59006,A
Sprite,Background,Centre,"sb\visual\circleB.png",200,160 C,0,58976,,204,114,165 F,2,58976,59176,1,0 S,2,58976,59176,1,0.2 P,0,58976,59176,A
Sprite,Background,Centre,"sb\visual\circleB.png",436,104 C,0,59146,,204,114,165 F,2,59146,59346,1,0 S,2,59146,59346,1,0.2 P,0,59146,59346,A
Sprite,Background,Centre,"sb\visual\circleB.png",280,304 C,0,59317,,204,114,165 F,2,59317,59517,1,0 S,2,59317,59517,1,0.2 P,0,59317,59517,A
Sprite,Background,Centre,"sb\visual\circleB.png",256,76 C,0,59487,,204,114,165 F,2,59487,59687,1,0 S,2,59487,59687,1,0.2 P,0,59487,59687,A
Sprite,Background,Centre,"sb\visual\circleB.png",472,240 C,0,59658,,204,114,165 F,2,59658,59858,1,0 S,2,59658,59858,1,0.2 P,0,59658,59858,A
Sprite,Background,Centre,"sb\visual\circleB.png",212,384 C,0,59828,,204,114,165 F,2,59828,60028,1,0 S,2,59828,60028,1,0.2 P,0,59828,60028,A
Sprite,Background,Centre,"sb\visual\circleB.png",276,212 C,0,59999,,204,114,165 F,2,59999,60199,1,0 S,2,59999,60199,1,0.2 P,0,59999,60199,A
Sprite,Background,Centre,"sb\visual\circleB.png",388,340 C,0,60169,,204,114,165 F,2,60169,60369,1,0 S,2,60169,60369,1,0.2 P,0,60169,60369,A
Sprite,Background,Centre,"sb\visual\circleB.png",152,288 C,0,60340,,204,114,165 F,2,60340,60540,1,0 S,2,60340,60540,1,0.2 P,0,60340,60540,A
Sprite,Background,Centre,"sb\visual\circleB.png",296,120 C,0,60510,,204,114,165 F,2,60510,60710,1,0 S,2,60510,60710,1,0.2 P,0,60510,60710,A
Sprite,Background,Centre,"sb\visual\circleB.png",0,0 C,0,60681,,204,114,165 M,0,60681,60723,364,344,366.5002,365.8547 F,2,60681,61051,1,0 S,2,60681,61051,1,0.2 P,0,60681,61051,A M,0,60723,60766,366.5002,365.8547,368.1931,387.7862 M,0,60766,60808,368.1931,387.7862,368.9395,409.7703 M,0,60808,60851,368.9395,409.7703,368.8389,431.766
Sprite,Background,Centre,"sb\visual\circleB.png",172,184 C,0,61021,,204,114,165 F,2,61021,61221,1,0 S,2,61021,61221,1,0.2 P,0,61021,61221,A
Sprite,Background,Centre,"sb\visual\circleB.png",0,0 C,0,61192,,204,114,165 M,0,61192,61234,172,184,171.5641,162.0077 F,2,61192,61562,1,0 S,2,61192,61562,1,0.2 P,0,61192,61562,A M,0,61234,61277,171.5641,162.0077,172.0479,140.0175 M,0,61277,61319,172.0479,140.0175,173.5168,118.0701 M,0,61319,61362,173.5168,118.0701,175.973,96.20992
Sprite,Background,Centre,"sb\visual\circleB.png",248,308 C,0,61533,,204,114,165 F,2,61533,61733,1,0 S,2,61533,61733,1,0.2 P,0,61533,61733,A
Sprite,Background,Centre,"sb\visual\circleB.png",364,184 C,0,61703,,204,114,165 F,2,61703,61903,1,0 S,2,61703,61903,1,0.2 P,0,61703,61903,A
Sprite,Background,Centre,"sb\visual\circleB.png",476,320 C,0,61874,,204,114,165 F,2,61874,62074,1,0 S,2,61874,62074,1,0.2 P,0,61874,62074,A
Sprite,Background,Centre,"sb\visual\circleB.png",480,363 C,0,61959,,204,114,165 F,2,61959,62159,1,0 S,2,61959,62159,1,0.2 P,0,61959,62159,A
Sprite,Background,Centre,"sb\visual\circleB.png",512,296 C,0,128862,,204,114,165 F,2,128862,129062,1,0 S,2,128862,129062,1,0.2 P,0,128862,129062,A
Sprite,Background,Centre,"sb\visual\circleB.png",228,104 C,0,129885,,204,114,165 F,2,129885,130085,1,0 S,2,129885,130085,1,0.2 P,0,129885,130085,A
Sprite,Background,Centre,"sb\visual\circleB.png",230,202 C,0,130226,,204,114,165 F,2,130226,130426,1,0 S,2,130226,130426,1,0.2 P,0,130226,130426,A
Sprite,Background,Centre,"sb\visual\circleB.png",232,300 C,0,130567,,204,114,165 F,2,130567,130767,1,0 S,2,130567,130767,1,0.2 P,0,130567,130767,A
Sprite,Background,Centre,"sb\visual\circleB.png",0,0 C,0,130737,,204,114,165 M,0,130737,130779,232,300,222.8619,304.0614 F,2,130737,131618,1,0 S,2,130737,131618,1,0.2 P,0,130737,131618,A M,0,130779,130822,222.8619,304.0614,213.7238,308.1228 M,0,130822,130864,213.7238,308.1228,204.5857,312.1841 M,0,130864,130907,204.5857,312.1841,195.3972,315.9536 M,0,130907,130950,195.3972,315.9536,185.4267,315.1867 M,0,130950,130992,185.4267,315.1867,175.4561,314.4197 M,0,130992,131035,175.4561,314.4197,165.4856,313.6527 M,0,131035,131077,165.4856,313.6527,155.515,312.8858 M,0,131077,131120,155.515,312.8858,165.4856,313.6527 M,0,131120,131163,165.4856,313.6527,175.4561,314.4197 M,0,131163,131205,175.4561,314.4197,185.4267,315.1867 M,0,131205,131248,185.4267,315.1867,195.3972,315.9536 M,0,131248,131290,195.3972,315.9536,204.5857,312.1841 M,0,131290,131333,204.5857,312.1841,213.7238,308.1228 M,0,131333,131376,213.7238,308.1228,222.8619,304.0614 M,0,131376,131418,222.8619,304.0614,232,300
Sprite,Background,Centre,"sb\visual\circleB.png",352,252 C,0,131590,,204,114,165 F,2,131590,131790,1,0 S,2,131590,131790,1,0.2 P,0,131590,131790,A
Sprite,Background,Centre,"sb\visual\circleB.png",180,208 C,0,131760,,204,114,165 F,2,131760,131960,1,0 S,2,131760,131960,1,0.2 P,0,131760,131960,A
Sprite,Background,Centre,"sb\visual\circleB.png",232,396 C,0,131931,,204,114,165 F,2,131931,132131,1,0 S,2,131931,132131,1,0.2 P,0,131931,132131,A
Sprite,Background,Centre,"sb\visual\circleB.png",280,152 C,0,132101,,204,114,165 F,2,132101,132301,1,0 S,2,132101,132301,1,0.2 P,0,132101,132301,A
Sprite,Background,Centre,"sb\visual\circleB.png",148,320 C,0,132271,,204,114,165 F,2,132271,132471,1,0 S,2,132271,132471,1,0.2 P,0,132271,132471,A
Sprite,Background,Centre,"sb\visual\circleB.png",352,360 C,0,132442,,204,114,165 F,2,132442,132642,1,0 S,2,132442,132642,1,0.2 P,0,132442,132642,A
Sprite,Background,Centre,"sb\visual\circleB.png",196,112 C,0,132612,,204,114,165 F,2,132612,132812,1,0 S,2,132612,132812,1,0.2 P,0,132612,132812,A
Sprite,Background,Centre,"sb\visual\circleB.png",140,416 C,0,132783,,204,114,165 F,2,132783,132983,1,0 S,2,132783,132983,1,0.2 P,0,132783,132983,A
Sprite,Background,Centre,"sb\visual\circleB.png",432,276 C,0,132953,,204,114,165 F,2,132953,133153,1,0 S,2,132953,133153,1,0.2 P,0,132953,133153,A
Sprite,Background,Centre,"sb\visual\circleB.png",108,140 C,0,133124,,204,114,165 F,2,133124,133324,1,0 S,2,133124,133324,1,0.2 P,0,133124,133324,A
Sprite,Background,Centre,"sb\visual\circleB.png",312,440 C,0,133294,,204,114,165 F,2,133294,133494,1,0 S,2,133294,133494,1,0.2 P,0,133294,133494,A
Sprite,Background,Centre,"sb\visual\circleB.png",432,76 C,0,133465,,204,114,165 F,2,133465,133665,1,0 S,2,133465,133665,1,0.2 P,0,133465,133665,A
Sprite,Background,Centre,"sb\visual\circleB.png",320,256 C,0,133635,,204,114,165 F,2,133635,133835,1,0 S,2,133635,133835,1,0.2 P,0,133635,133835,A
Sprite,Background,Centre,"sb\visual\circleB.png",520,328 C,0,133806,,204,114,165 F,2,133806,134006,1,0 S,2,133806,134006,1,0.2 P,0,133806,134006,A
Sprite,Background,Centre,"sb\visual\circleB.png",332,168 C,0,133976,,204,114,165 F,2,133976,134176,1,0 S,2,133976,134176,1,0.2 P,0,133976,134176,A
Sprite,Background,Centre,"sb\visual\circleB.png",200,388 C,0,134146,,204,114,165 F,2,134146,134346,1,0 S,2,134146,134346,1,0.2 P,0,134146,134346,A
Sprite,Background,Centre,"sb\visual\circleB.png",0,0 C,0,134317,,204,114,165 M,0,134317,134359,200,388,197.2712,366.1699 F,2,134317,134687,1,0 S,2,134317,134687,1,0.2 P,0,134317,134687,A M,0,134359,134402,197.2712,366.1699,194.5425,344.3398 M,0,134402,134444,194.5425,344.3398,191.8137,322.5096 M,0,134444,134487,191.8137,322.5096,189.0849,300.6795
Sprite,Background,Centre,"sb\visual\circleB.png",344,100 C,0,134658,,204,114,165 F,2,134658,134858,1,0 S,2,134658,134858,1,0.2 P,0,134658,134858,A
Sprite,Background,Centre,"sb\visual\circleB.png",0,0 C,0,134828,,204,114,165 M,0,134828,134870,344,100,341.2404,121.8262 F,2,134828,135198,1,0 S,2,134828,135198,1,0.2 P,0,134828,135198,A M,0,134870,134913,341.2404,121.8262,338.4807,143.6525 M,0,134913,134955,338.4807,143.6525,335.7211,165.4787 M,0,134955,134998,335.7211,165.4787,333,187
Sprite,Background,Centre,"sb\visual\circleB.png",176,144 C,0,135169,,204,114,165 F,2,135169,135369,1,0 S,2,135169,135369,1,0.2 P,0,135169,135369,A
Sprite,Background,Centre,"sb\visual\circleB.png",312,384 C,0,135340,,204,114,165 F,2,135340,135540,1,0 S,2,135340,135540,1,0.2 P,0,135340,135540,A
Sprite,Background,Centre,"sb\visual\circleB.png",500,200 C,0,135510,,204,114,165 F,2,135510,135710,1,0 S,2,135510,135710,1,0.2 P,0,135510,135710,A
Sprite,Background,Centre,"sb\visual\circleB.png",505,156 C,0,135595,,204,114,165 F,2,135595,135795,1,0 S,2,135595,135795,1,0.2 P,0,135595,135795,A
Sprite,Background,Centre,"sb\visual\circleB.png",440,264 C,0,199771,,204,114,165 F,2,199771,199971,1,0 S,2,199771,199971,1,0.2 P,0,199771,199971,A
Sprite,Background,Centre,"sb\visual\circleB.png",424,264 C,0,200112,,204,114,165 F,2,200112,200312,1,0 S,2,200112,200312,1,0.2 P,0,200112,200312,A
Sprite,Background,Centre,"sb\visual\circleB.png",272,232 C,0,200283,,204,114,165 F,2,200283,200483,1,0 S,2,200283,200483,1,0.2 P,0,200283,200483,A
Sprite,Background,Centre,"sb\visual\circleB.png",444,180 C,0,200453,,204,114,165 F,2,200453,200653,1,0 S,2,200453,200653,1,0.2 P,0,200453,200653,A
Sprite,Background,Centre,"sb\visual\circleB.png",232,312 C,0,200624,,204,114,165 F,2,200624,200824,1,0 S,2,200624,200824,1,0.2 P,0,200624,200824,A
Sprite,Background,Centre,"sb\visual\circleB.png",316,148 C,0,200794,,204,114,165 F,2,200794,200994,1,0 S,2,200794,200994,1,0.2 P,0,200794,200994,A
Sprite,Background,Centre,"sb\visual\circleB.png",432,348 C,0,200965,,204,114,165 F,2,200965,201165,1,0 S,2,200965,201165,1,0.2 P,0,200965,201165,A
Sprite,Background,Centre,"sb\visual\circleB.png",160,240 C,0,201135,,204,114,165 F,2,201135,201335,1,0 S,2,201135,201335,1,0.2 P,0,201135,201335,A
Sprite,Background,Centre,"sb\visual\circleB.png",528,156 C,0,201306,,204,114,165 F,2,201306,201506,1,0 S,2,201306,201506,1,0.2 P,0,201306,201506,A
Sprite,Background,Centre,"sb\visual\circleB.png",132,112 C,0,201476,,204,114,165 F,2,201476,201676,1,0 S,2,201476,201676,1,0.2 P,0,201476,201676,A
Sprite,Background,Centre,"sb\visual\circleB.png",320,384 C,0,201646,,204,114,165 F,2,201646,201846,1,0 S,2,201646,201846,1,0.2 P,0,201646,201846,A
Sprite,Background,Centre,"sb\visual\circleB.png",356,84 C,0,201817,,204,114,165 F,2,201817,202017,1,0 S,2,201817,202017,1,0.2 P,0,201817,202017,A
Sprite,Background,Centre,"sb\visual\circleB.png",128,384 C,0,201987,,204,114,165 F,2,201987,202187,1,0 S,2,201987,202187,1,0.2 P,0,201987,202187,A
Sprite,Background,Centre,"sb\visual\circleB.png",508,300 C,0,202158,,204,114,165 F,2,202158,202358,1,0 S,2,202158,202358,1,0.2 P,0,202158,202358,A
Sprite,Background,Centre,"sb\visual\circleB.png",224,76 C,0,202328,,204,114,165 F,2,202328,202528,1,0 S,2,202328,202528,1,0.2 P,0,202328,202528,A
Sprite,Background,Centre,"sb\visual\circleB.png",0,0 C,0,202499,,204,114,165 M,0,202499,202541,232,416,230.5546,394.1072 F,2,202499,202869,1,0 S,2,202499,202869,1,0.2 P,0,202499,202869,A M,0,202541,202584,230.5546,394.1072,232.8262,372.292 M,0,202584,202626,232.8262,372.292,239.4195,351.3747 M,0,202626,202669,239.4195,351.3747,249.4531,331.8674
Sprite,Background,Centre,"sb\visual\circleB.png",316,252 C,0,202840,,204,114,165 F,2,202840,203040,1,0 S,2,202840,203040,1,0.2 P,0,202840,203040,A
Sprite,Background,Centre,"sb\visual\circleB.png",0,0 C,0,203010,,204,114,165 M,0,203010,203052,152,168,173.8928,166.5547 F,2,203010,203380,1,0 S,2,203010,203380,1,0.2 P,0,203010,203380,A M,0,203052,203095,173.8928,166.5547,195.7081,168.8262 M,0,203095,203137,195.7081,168.8262,216.6253,175.4195 M,0,203137,203180,216.6253,175.4195,236.1326,185.4531
Sprite,Background,Centre,"sb\visual\circleB.png",332,392 C,0,203351,,204,114,165 F,2,203351,203551,1,0 S,2,203351,203551,1,0.2 P,0,203351,203551,A
Sprite,Background,Centre,"sb\visual\circleB.png",332,392 C,0,203436,,204,114,165 F,2,203436,203636,1,0 S,2,203436,203636,1,0.2 P,0,203436,203636,A
Sprite,Background,Centre,"sb\visual\circleB.png",0,0 C,0,203521,,204,114,165 M,0,203521,203563,332,392,338.2431,370.9199 F,2,203521,203806,1,0 S,2,203521,203806,1,0.2 P,0,203521,203806,A M,0,203563,203606,338.2431,370.9199,342.5708,349.3701
Sprite,Background,Centre,"sb\visual\circleB.png",0,0 C,0,203692,,204,114,165 M,0,203692,203734,416,188,420.2624,209.5685 F,2,203692,203977,1,0 S,2,203692,203977,1,0.2 P,0,203692,203977,A M,0,203734,203777,420.2624,209.5685,426,230
//Storyboard Layer 1 (Fail)
//Storyboard Layer 2 (Pass)
//Storyboard Layer 3 (Foreground)
Sprite,Foreground,Centre,"sb\titles\PantyDev.png",320,240 S,0,229793,,0.458909 M,0,229793,235226,598.6909,238.8364,597.5272,271.4182
//Storyboard Sound Samples

[TimingPoints]
681,340.909090909091,4,2,1,55,1,0
681,-125,4,2,1,55,0,0
851,-100,4,2,2,55,0,0
1021,-125,4,2,3,55,0,0
1192,-125,4,2,2,55,0,0
1362,-125,4,2,4,55,0,0
1533,-125,4,2,2,55,0,0
1703,-125,4,2,3,55,0,0
1874,-125,4,2,2,55,0,0
2044,-125,4,2,5,55,0,0
2215,-125,4,2,2,55,0,0
2385,-125,4,2,3,55,0,0
2556,-125,4,2,2,55,0,0
2726,-125,4,2,6,55,0,0
2896,-125,4,2,2,55,0,0
3067,-125,4,2,3,55,0,0
3237,-125,4,2,2,55,0,0
3408,-125,4,2,1,55,0,0
3578,-125,4,2,2,55,0,0
3749,-125,4,2,3,55,0,0
3919,-125,4,2,2,55,0,0
4090,-125,4,2,4,55,0,0
4260,-125,4,2,2,55,0,0
4431,-125,4,2,3,55,0,0
4601,-125,4,2,2,55,0,0
4771,-125,4,2,7,55,0,0
4942,-125,4,2,2,55,0,0
5112,-125,4,2,3,55,0,0
5283,-125,4,2,2,55,0,0
5453,-125,4,2,6,55,0,0
5624,-125,4,2,2,55,0,0
5794,-125,4,2,3,55,0,0
5965,-125,4,2,2,55,0,0
6135,-153.846153846154,4,2,91,60,0,0
7499,-142.857142857143,4,2,91,60,0,0
8862,-133.333333333333,4,2,91,60,0,0
10226,-125,4,2,91,60,0,0
11590,-117.647058823529,4,2,91,60,0,0
11931,-117.647058823529,4,2,91,50,0,0
12101,-117.647058823529,4,2,91,55,0,0
12271,-117.647058823529,4,2,91,60,0,0
12442,-117.647058823529,4,2,91,65,0,0
12612,-117.647058823529,4,2,91,70,0,0
12783,-117.647058823529,4,2,91,75,0,0
12953,-133.333333333333,4,2,91,80,0,0
13294,-133.333333333333,4,2,91,40,0,0
13976,-133.333333333333,4,2,91,45,0,0
14317,-133.333333333333,4,2,91,50,0,0
14658,-133.333333333333,4,2,91,55,0,0
14999,-133.333333333333,4,2,91,60,0,0
15340,-133.333333333333,4,2,91,65,0,0
15681,-133.333333333333,4,2,91,70,0,0
16021,-133.333333333333,4,2,91,85,0,0
16362,-133.333333333333,4,2,91,90,0,0
16703,-133.333333333333,4,2,91,95,0,0
17044,-111.111111111111,4,2,91,60,0,0
36135,-125,4,2,91,60,0,0
38862,-111.111111111111,4,2,91,45,0,0
53862,-166.666666666667,4,2,91,40,0,0
55226,-166.666666666667,4,2,91,30,0,0
56249,-200,4,2,91,30,0,0
57953,-200,4,2,91,45,0,0
58294,-200,4,2,91,50,0,0
58635,-200,4,2,91,55,0,0
58976,-200,4,2,91,60,0,0
59317,-200,4,2,91,65,0,0
59658,-200,4,2,91,70,0,0
59999,-200,4,2,91,75,0,0
60340,-200,4,2,91,80,0,0
60681,-90.9090909090909,4,2,91,85,0,0
61021,-90.9090909090909,4,2,91,90,0,0
61362,-90.9090909090909,4,2,91,95,0,0
61703,-90.9090909090909,4,2,91,100,0,0
62044,-133.333333333333,4,2,91,100,0,0
62556,-133.333333333333,4,2,91,50,0,0
63067,-117.647058823529,4,2,91,60,0,0
63408,-90.9090909090909,4,2,91,70,0,1
72953,-83.3333333333333,4,2,91,70,0,1
73806,-83.3333333333333,4,2,91,80,0,1
73891,-83.3333333333333,4,2,91,70,0,1
73976,-83.3333333333333,4,2,91,60,0,1
74061,-83.3333333333333,4,2,91,50,0,1
74146,-83.3333333333333,4,2,91,40,0,1
74232,-83.3333333333333,4,2,91,30,0,1
74317,-83.3333333333333,4,2,91,70,0,1
79771,-80,4,2,91,70,0,1
81135,-76.9230769230769,4,2,91,70,0,1
82499,-74.0740740740741,4,2,91,70,0,1
83862,-71.4285714285714,4,2,91,70,0,1
85226,-71.4285714285714,4,2,91,60,0,1
85567,-71.4285714285714,4,2,91,65,0,1
85908,-71.4285714285714,4,2,91,70,0,1
86249,-71.4285714285714,4,2,91,75,0,1
86590,-133.333333333333,4,2,91,80,0,0
87271,-133.333333333333,4,2,91,40,0,0
87953,-117.647058823529,4,2,91,40,0,0
89317,-90.9090909090909,4,2,91,45,0,0
89658,-90.9090909090909,4,2,91,50,0,0
89999,-90.9090909090909,4,2,91,55,0,0
90340,-90.9090909090909,4,2,91,60,0,0
90681,-133.333333333333,4,2,91,50,0,0
100226,-166.666666666667,4,2,91,40,0,0
100908,-133.333333333333,4,2,91,45,0,0
101590,-111.111111111111,4,2,91,60,0,0
109771,-125,4,2,91,60,0,0
112499,-111.111111111111,4,2,91,45,0,0
127499,-166.666666666667,4,2,91,40,0,0
128862,-166.666666666667,4,2,91,30,0,0
130737,-200,4,2,91,30,0,0
131590,-200,4,2,91,45,0,0
131931,-200,4,2,91,50,0,0
132271,-200,4,2,91,55,0,0
132612,-200,4,2,91,60,0,0
132953,-200,4,2,91,65,0,0
133294,-200,4,2,91,70,0,0
133635,-200,4,2,91,75,0,0
133976,-200,4,2,91,80,0,0
134317,-90.9090909090909,4,2,91,85,0,0
134658,-90.9090909090909,4,2,91,90,0,0
134999,-90.9090909090909,4,2,91,95,0,0
135340,-90.9090909090909,4,2,91,100,0,0
136192,-133.333333333333,4,2,91,50,0,0
136703,-117.647058823529,4,2,91,60,0,0
137044,-90.9090909090909,4,2,91,70,0,1
146590,-83.3333333333333,4,2,91,70,0,1
147442,-83.3333333333333,4,2,91,80,0,1
147527,-83.3333333333333,4,2,91,70,0,1
147612,-83.3333333333333,4,2,91,60,0,1
147698,-83.3333333333333,4,2,91,50,0,1
147783,-83.3333333333333,4,2,91,40,0,1
147868,-83.3333333333333,4,2,91,30,0,1
147953,-83.3333333333333,4,2,91,70,0,1
153408,-80,4,2,91,70,0,1
154771,-76.9230769230769,4,2,91,70,0,1
156135,-74.0740740740741,4,2,91,70,0,1
157499,-71.4285714285714,4,2,91,70,0,1
158862,-71.4285714285714,4,2,91,60,0,1
159203,-71.4285714285714,4,2,91,65,0,1
159544,-71.4285714285714,4,2,91,70,0,1
159885,-71.4285714285714,4,2,91,75,0,1
160226,-133.333333333333,4,2,91,80,0,0
161590,-133.333333333333,4,2,91,40,0,0
166703,-100,4,2,91,50,0,0
172499,-90.9090909090909,4,2,91,60,0,0
177953,-100,4,2,91,60,0,0
182044,-100,4,2,91,55,0,0
182385,-100,4,2,91,50,0,0
182726,-100,4,2,91,45,0,0
183067,-100,4,2,91,40,0,0
183408,-133.333333333333,4,2,33,35,0,0
184260,-133.333333333333,4,2,31,15,0,0
184431,-133.333333333333,4,2,32,35,0,0
185453,-133.333333333333,4,2,33,35,0,0
186646,-133.333333333333,4,2,35,35,0,0
186987,-133.333333333333,4,2,36,35,0,0
187158,-133.333333333333,4,2,32,35,0,0
188181,-133.333333333333,4,2,33,35,0,0
188862,-133.333333333333,4,2,34,35,0,0
189374,-133.333333333333,4,2,35,35,0,0
189715,-133.333333333333,4,2,36,35,0,0
189885,-133.333333333333,4,2,32,35,0,0
190226,-133.333333333333,4,2,35,35,0,0
190908,-133.333333333333,4,2,37,35,0,0
191590,-133.333333333333,4,2,38,35,0,0
192101,-133.333333333333,4,2,39,15,0,0
192442,-133.333333333333,4,2,40,25,0,0
192612,-133.333333333333,4,2,41,30,0,0
192783,-133.333333333333,4,2,42,35,0,0
192953,-100,4,2,36,35,0,0
193294,-105.263157894737,4,2,43,35,0,0
193635,-117.647058823529,4,2,33,35,0,0
193976,-133.333333333333,4,2,32,35,0,0
194317,-111.111111111111,4,2,91,45,0,0
198408,-105.263157894737,4,2,91,55,0,0
198749,-105.263157894737,4,2,91,50,0,0
199090,-105.263157894737,4,2,91,45,0,0
199431,-105.263157894737,4,2,91,40,0,0
199771,-105.263157894737,4,2,91,55,0,0
200112,-105.263157894737,4,2,91,25,0,0
200453,-105.263157894737,4,2,91,30,0,0
200794,-105.263157894737,4,2,91,35,0,0
201135,-105.263157894737,4,2,91,40,0,0
201476,-105.263157894737,4,2,91,45,0,0
201817,-105.263157894737,4,2,91,50,0,0
202158,-105.263157894737,4,2,91,55,0,0
202499,-90.9090909090909,4,2,91,60,0,0
202840,-90.9090909090909,4,2,91,65,0,0
203181,-90.9090909090909,4,2,91,70,0,0
203521,-90.9090909090909,4,2,91,75,0,0
203862,-90.9090909090909,4,2,91,80,0,0
204374,-133.333333333333,4,2,91,40,0,0
204885,-117.647058823529,4,2,91,50,0,0
205226,-100,4,2,91,60,0,0
207953,-95.2380952380952,4,2,91,30,0,0
208294,-95.2380952380952,4,2,91,35,0,0
208635,-95.2380952380952,4,2,91,40,0,0
208976,-95.2380952380952,4,2,91,45,0,0
209317,-95.2380952380952,4,2,91,50,0,0
209828,-133.333333333333,4,2,91,50,0,0
210340,-117.647058823529,4,2,91,60,0,0
210681,-90.9090909090909,4,2,91,70,0,1
214771,-83.3333333333333,4,2,91,70,0,1
221590,-80,4,2,91,70,0,1
222953,-76.9230769230769,4,2,91,70,0,1
224317,-74.0740740740741,4,2,91,70,0,1
225681,-71.4285714285714,4,2,91,70,0,1
226874,-71.4285714285714,4,2,91,60,0,1
227044,-71.4285714285714,4,2,91,65,0,1
227385,-71.4285714285714,4,2,91,70,0,1
227726,-71.4285714285714,4,2,91,75,0,1
228067,-71.4285714285714,4,2,91,80,0,1
228408,-90.9090909090909,4,2,91,60,0,0
229260,309.278350515464,4,2,91,60,1,0
229771,340.909090909091,4,2,91,60,1,0
237953,-86.9565217391304,4,2,91,60,0,0
241021,-86.9565217391304,4,2,91,55,0,0
241362,-86.9565217391304,4,2,91,50,0,0
241703,-86.9565217391304,4,2,91,45,0,0
242044,-86.9565217391304,4,2,91,40,0,0
242385,-86.9565217391304,4,2,91,35,0,0
242726,-86.9565217391304,4,2,91,30,0,0
243067,-86.9565217391304,4,2,91,25,0,0
243408,-86.9565217391304,4,2,91,40,0,0

[Colours]
Combo1 : 204,63,63
Combo2 : 195,80,135
Combo3 : 145,35,130
Combo4 : 110,160,200
Combo5 : 80,110,160
Combo6 : 203,88,88
SliderBorder : 142,60,147
SliderTrackOverride : 20,20,20

[HitObjects]
300,180,510,5,0,0:0:0:0:
424,32,681,6,0,P|418:73|408:120,1,64,10|2,0:0|0:0,0:0:0:0:
284,96,1021,2,0,P|290:137|300:184,1,64,2|2,0:0|0:0,0:0:0:0:
328,288,1362,1,2,0:0:0:0:
180,212,1533,1,2,0:0:0:0:
244,356,1703,2,0,P|203:362|156:372,1,64,2|2,0:0|0:0,0:0:0:0:
88,216,2044,2,0,P|119:220|151:226,1,64,10|2,0:0|0:0,0:0:0:0:
24,320,2385,1,2,0:0:0:0:
148,108,2556,2,0,P|73:118|-1:132,1,128,2|2,0:0|0:0,0:0:0:0:
113,5,3067,1,2,0:0:0:0:
204,16,3237,1,2,0:0:0:0:
252,204,3408,70,0,P|258:163|268:116,1,64,10|2,0:0|0:0,0:0:0:0:
389,48,3749,2,0,P|395:80|400:112,1,64,2|2,0:0|0:0,0:0:0:0:
352,280,4090,1,2,0:0:0:0:
272,108,4260,1,2,0:0:0:0:
152,232,4431,2,0,P|156:263|162:295,1,64,2|2,0:0|0:0,0:0:0:0:
288,344,4771,2,0,P|348:368|420:344,1,128,10|2,0:0|0:0,0:0:0:0:
492,176,5283,2,0,P|432:152|360:176,1,128,2|2,0:0|0:0,0:0:0:0:
424,252,5794,1,2,0:0:0:0:
272,76,5965,1,2,0:0:0:0:
272,76,6050,1,0,0:0:0:0:
272,76,6135,6,0,P|264:132|268:200,1,103.999995239258,12|0,0:3|0:0,0:0:0:0:
148,324,6817,2,0,P|148:272|141:220,1,103.999995239258,2|2,0:0|0:0,0:0:0:0:
60,72,7328,1,2,0:0:0:0:
60,72,7413,1,0,0:0:0:0:
60,72,7499,70,0,P|108:56|172:80,1,111.999996582031,12|2,3:3|0:0,0:0:0:0:
265,179,8010,2,0,P|292:184|333:187,1,55.9999982910157,10|0,0:3|0:0,0:0:0:0:
452,184,8351,1,10,0:3:0:0:
272,280,8521,2,0,P|310:287|369:291,1,83.9999974365235,10|0,0:3|0:0,0:0:0:0:
376,316,8862,6,0,P|372:340|380:380,1,60.0000022888184,8|2,3:3|0:0,0:0:0:0:
452,164,9374,1,2,0:0:0:0:
502,85,9544,2,0,P|454:69|390:93,1,120.000004577637,0|2,0:0|0:0,0:0:0:0:
312,160,10056,1,2,0:0:0:0:
226,104,10226,70,0,P|207:158|235:231,1,128,12|2,3:3|0:0,0:0:0:0:
233,324,10737,2,0,P|206:319|165:316,1,64,10|2,0:3|0:0,0:0:0:0:
46,319,11078,1,10,0:3:0:0:
228,223,11248,2,0,P|190:216|131:212,1,96,10|0,0:3|0:0,0:0:0:0:
120,184,11590,6,0,P|122:157|112:108,1,68.0000012969971,12|2,0:0|0:0,0:0:0:0:
80,36,11931,69,10,0:0:0:0:
244,232,12101,1,10,0:0:0:0:
232,40,12271,5,10,0:0:0:0:
116,284,12442,1,10,0:0:0:0:
328,120,12612,69,10,0:0:0:0:
44,164,12783,1,10,0:0:0:0:
260,360,12953,5,10,0:3:0:0:
196,20,13294,70,0,P|200:52|204:92,1,60.0000022888184,2|0,0:0|0:0,0:0:0:0:
292,224,13635,2,0,P|295:194|298:164,1,60.0000022888184,2|2,0:0|0:0,0:0:0:0:
400,32,13976,1,2,0:3:0:0:
432,60,14061,1,2,0:3:0:0:
455,98,14146,1,2,0:3:0:0:
463,144,14231,1,2,0:3:0:0:
454,190,14317,5,14,0:0:0:0:
267,263,14487,1,2,0:3:0:0:
349,134,14658,1,2,0:3:0:0:
136,90,14828,69,14,0:0:0:0:
249,308,14999,1,2,0:3:0:0:
285,71,15169,1,2,0:3:0:0:
93,230,15340,5,14,0:0:0:0:
345,272,15510,1,2,0:3:0:0:
199,31,15681,1,2,0:3:0:0:
146,320,15851,69,14,0:0:0:0:
374,137,16021,1,8,0:0:0:0:
59,144,16192,1,2,0:3:0:0:
344,303,16362,5,8,0:0:0:0:
199,39,16533,1,8,0:0:0:0:
32,176,16703,1,8,0:0:0:0:
23,222,16788,1,8,0:0:0:0:
31,268,16873,1,8,0:0:0:0:
54,306,16958,1,8,0:0:0:0:
99,326,17044,70,0,B|127:320|155:323|155:323|192:344|192:344|220:350|250:344,1,143.999995605469,4|2,0:1|0:3,0:0:0:0:
319,240,17556,1,0,0:0:0:0:
412,341,17726,2,0,P|422:300|436:256,1,71.9999978027344,2|0,0:3|0:0,0:0:0:0:
282,169,18067,2,0,P|292:209|306:253,1,71.9999978027344,2|8,0:3|0:0,0:0:0:0:
428,96,18408,2,0,L|348:111,1,71.9999978027344,2|0,0:3|0:0,0:0:0:0:
243,70,18749,1,2,0:3:0:0:
188,172,18919,1,0,0:0:0:0:
114,87,19090,2,0,P|77:76|41:67,1,71.9999978027344,2|8,0:3|0:3,0:0:0:0:
24,212,19431,2,0,P|58:221|93:231,1,71.9999978027344,2|8,0:3|0:3,0:0:0:0:
268,246,19771,6,0,P|298:180|274:111,1,143.999995605469,2|2,0:3|0:3,0:0:0:0:
140,109,20283,1,0,0:0:0:0:
62,206,20453,2,0,P|57:243|54:280,1,71.9999978027344,2|0,0:3|0:0,0:0:0:0:
196,352,20794,2,0,P|193:315|188:277,1,71.9999978027344,2|8,0:3|0:0,0:0:0:0:
242,112,21135,2,0,P|275:100|324:116,1,71.9999978027344,2|0,0:3|0:0,0:0:0:0:
461,178,21476,2,0,P|428:190|379:174,1,71.9999978027344,2|0,0:3|0:0,0:0:0:0:
275,261,21817,2,0,P|278:224|283:187,1,71.9999978027344,2|8,0:3|0:3,0:0:0:0:
377,345,22158,1,2,0:3:0:0:
181,296,22328,1,8,0:3:0:0:
181,296,22413,1,2,0:0:0:0:
181,296,22499,70,0,P|132:285|28:344,1,143.999995605469,2|2,0:3|0:3,0:0:0:0:
39,180,23010,1,0,0:0:0:0:
114,80,23181,2,0,P|151:82|188:87,1,71.9999978027344,2|0,0:3|0:0,0:0:0:0:
334,70,23521,2,0,P|311:41|287:13,1,71.9999978027344,2|8,0:3|0:0,0:0:0:0:
258,154,23862,2,0,P|263:191|267:228,1,71.9999978027344,2|0,0:3|0:0,0:0:0:0:
340,315,24203,1,2,0:3:0:0:
396,183,24374,1,0,0:0:0:0:
446,333,24544,2,0,P|448:296|454:259,1,71.9999978027344,2|8,0:3|0:3,0:0:0:0:
258,154,24885,2,0,P|263:191|267:228,1,71.9999978027344,8|8,0:3|0:3,0:0:0:0:
464,113,25226,6,0,P|395:89|329:120,1,143.999995605469,2|2,0:3|0:3,0:0:0:0:
211,76,25737,1,0,0:0:0:0:
177,210,25908,2,0,P|140:217|103:221,1,71.9999978027344,2|0,0:3|0:0,0:0:0:0:
114,329,26249,1,2,0:3:0:0:
65,136,26419,1,8,0:0:0:0:
218,288,26590,70,0,P|133:304|48:315,1,143.999995605469,2|2,0:3|0:3,0:0:0:0:
256,139,27101,1,0,0:0:0:0:
289,348,27271,1,2,0:3:0:0:
411,213,27442,1,8,0:0:0:0:
177,210,27612,1,2,0:3:0:0:
409,115,27783,1,8,0:3:0:0:
409,115,27868,1,8,0:3:0:0:
409,115,27953,6,0,P|418:184|390:272,1,143.999995605469,4|2,0:1|0:3,0:0:0:0:
269,222,28465,1,0,0:0:0:0:
243,116,28635,2,0,P|243:76|247:28,1,71.9999978027344,2|0,0:3|0:0,0:0:0:0:
160,264,28976,2,0,P|162:299|162:335,1,71.9999978027344,2|8,0:3|0:0,0:0:0:0:
378,250,29317,2,0,L|289:256,1,71.9999978027344,2|0,0:3|0:0,0:0:0:0:
160,264,29658,1,2,0:3:0:0:
242,138,29828,1,0,0:0:0:0:
104,77,29999,2,0,P|68:74|32:74,1,71.9999978027344,2|8,0:3|0:3,0:0:0:0:
88,262,30340,2,0,P|123:264|159:264,1,71.9999978027344,10|8,0:3|0:3,0:0:0:0:
280,40,30681,70,0,P|275:111|275:184,1,143.999995605469,2|2,0:3|0:3,0:0:0:0:
373,295,31192,1,0,0:0:0:0:
480,216,31362,2,0,P|484:180|472:128,1,71.9999978027344,2|0,0:3|0:0,0:0:0:0:
292,264,31703,2,0,P|288:300|300:352,1,71.9999978027344,2|8,0:3|0:0,0:0:0:0:
293,335,31959,1,0,0:0:0:0:
293,335,32044,6,0,P|237:303|157:327,1,143.999995605469,2|2,0:3|0:3,0:0:0:0:
39,244,32556,1,0,0:0:0:0:
135,141,32726,2,0,P|170:139|206:139,1,71.9999978027344,2|8,0:3|0:3,0:0:0:0:
80,24,33067,2,0,P|45:26|9:26,1,71.9999978027344,10|8,0:3|0:3,0:0:0:0:
272,56,33408,70,0,P|252:123|285:185,1,143.999995605469,2|2,0:3|0:3,0:0:0:0:
428,248,33919,1,0,0:0:0:0:
488,96,34090,2,0,L|492:4,1,71.9999978027344,2|0,0:3|0:0,0:0:0:0:
339,120,34431,2,0,L|342:191,1,71.9999978027344,2|8,0:3|0:0,0:0:0:0:
470,343,34771,6,0,L|474:251,1,71.9999978027344,2|0,0:3|0:0,0:0:0:0:
355,262,35112,1,2,0:3:0:0:
259,351,35283,1,0,0:0:0:0:
113,173,35453,1,2,0:3:0:0:
216,232,35624,1,8,0:0:0:0:
232,88,35794,1,8,0:3:0:0:
76,280,35965,1,8,0:3:0:0:
320,322,36135,70,0,P|324:264|324:186,1,128,12|2,0:2|0:3,0:0:0:0:
324,172,36646,2,0,P|355:173|395:177,1,64,0|2,3:0|0:3,0:0:0:0:
208,248,36987,2,0,P|176:246|136:242,1,64,0|2,3:0|0:3,0:0:0:0:
82,144,37328,1,8,0:0:0:0:
174,358,37499,5,2,3:0:0:0:
167,105,37669,1,8,0:0:0:0:
56,240,37840,69,0,3:0:0:0:
287,253,38010,1,8,3:0:0:0:
199,31,38181,5,0,3:0:0:0:
241,163,38351,1,8,0:3:0:0:
344,60,38521,70,0,P|384:72|412:124,1,96,8|2,0:3|0:0,0:0:0:0:
436,136,38862,6,0,L|428:296,1,143.999995605469,4|0,0:1|0:0,0:0:0:0:
316,204,39374,1,2,0:3:0:0:
236,292,39544,2,0,P|200:292|152:288,1,71.9999978027344,0|2,0:0|0:3,0:0:0:0:
156,129,39885,2,0,P|192:129|240:133,1,71.9999978027344,8|8,0:3|0:3,0:0:0:0:
327,258,40226,2,0,P|337:292|331:327,1,71.9999978027344,2|0,0:3|0:0,0:0:0:0:
192,353,40567,1,0,0:0:0:0:
89,265,40737,1,2,0:3:0:0:
190,146,40908,2,0,L|200:60,1,71.9999978027344,0|2,0:0|0:3,0:0:0:0:
334,29,41249,2,0,L|320:167,1,107.999996704102,8|2,0:3|0:0,0:0:0:0:
312,224,41590,70,0,B|228:196|240:260|144:228,1,143.999995605469,2|0,0:3|0:0,0:0:0:0:
88,128,42101,1,2,0:3:0:0:
32,268,42271,2,0,P|28:308|32:348,1,71.9999978027344,0|2,0:0|0:3,0:0:0:0:
192,160,42612,2,0,P|198:99|192:38,1,107.999996704102,8|2,0:3|0:0,0:0:0:0:
194,52,42953,2,0,B|232:32|268:39|268:39|276:100|320:143|320:143|352:128|376:96,1,251.999992309571,2|0,0:3|0:0,0:0:0:0:
365,109,43635,2,0,P|369:149|365:189,1,71.9999978027344,0|2,0:0|0:3,0:0:0:0:
464,336,43976,2,0,P|416:312|360:328,1,107.999996704102,8|2,0:3|0:0,0:0:0:0:
281,355,44317,6,0,P|257:283|285:195,1,143.999995605469,4|0,0:1|0:0,0:0:0:0:
365,109,44828,1,2,0:3:0:0:
244,32,44999,2,0,P|204:28|164:32,1,71.9999978027344,0|2,0:0|0:3,0:0:0:0:
190,169,45340,2,0,P|158:194|133:225,1,71.9999978027344,8|8,0:3|0:3,0:0:0:0:
324,130,45681,2,0,P|364:125|403:129,1,71.9999978027344,2|0,0:3|0:0,0:0:0:0:
504,177,46021,1,0,0:0:0:0:
448,28,46192,1,2,0:3:0:0:
364,212,46362,2,0,L|368:300,1,71.9999978027344,0|2,0:0|0:3,0:0:0:0:
244,96,46703,2,0,L|247:24,1,71.9999978027344,8|8,0:3|0:3,0:0:0:0:
268,256,47044,70,0,P|192:272|112:256,1,143.999995605469,2|0,0:3|0:0,0:0:0:0:
108,136,47556,1,2,0:3:0:0:
220,100,47726,2,0,P|209:143|194:190,1,71.9999978027344,0|2,0:0|0:3,0:0:0:0:
44,312,48067,2,0,P|33:268|18:221,1,71.9999978027344,8|8,0:3|0:3,0:0:0:0:
119,69,48408,2,0,P|107:111|96:159,1,71.9999978027344,2|0,0:3|0:0,0:0:0:0:
25,242,48749,1,0,0:0:0:0:
196,252,48919,1,2,0:3:0:0:
196,252,49004,1,0,0:0:0:0:
196,252,49090,2,0,P|185:295|170:342,1,71.9999978027344,8|2,0:0|0:3,0:0:0:0:
304,188,49431,2,0,P|293:153|284:118,1,71.9999978027344,8|8,0:0|0:3,0:0:0:0:
436,276,49771,6,0,B|352:248|364:312|268:280,1,143.999995605469,4|0,0:1|0:0,0:0:0:0:
164,344,50283,1,2,0:3:0:0:
88,232,50453,2,0,P|76:196|80:152,1,71.9999978027344,0|2,0:0|0:3,0:0:0:0:
237,195,50794,2,0,P|211:219|195:251,1,71.9999978027344,8|8,0:3|0:3,0:0:0:0:
200,84,51135,2,0,L|294:89,1,71.9999978027344,2|0,0:3|0:0,0:0:0:0:
362,0,51476,1,0,0:0:0:0:
449,95,51646,1,2,0:3:0:0:
342,192,51817,2,0,P|340:228|344:264,1,71.9999978027344,0|2,0:0|0:3,0:0:0:0:
449,95,52158,2,0,P|451:59|448:24,1,71.9999978027344,8|8,0:3|0:3,0:0:0:0:
314,280,52499,70,0,P|308:202|317:125,1,143.999995605469,2|8,0:3|0:0,0:0:0:0:
264,48,53067,5,8,0:0:0:0:
232,48,53181,2,0,L|180:28,2,47.9999985351563,8|8|8,0:0|0:0|0:3,0:0:0:0:
212,176,53521,2,0,L|160:196,2,47.9999985351563,8|8|8,0:3|0:3|0:3,0:0:0:0:
324,136,53862,70,8,B|372:120|372:120|416:180|360:248,1,167.999994873047,4|0,0:1|0:0,0:0:0:0:
368,308,54544,2,0,B|348:324|320:324|320:324|284:288|235:291,1,143.999995605469,4|0,0:1|0:0,0:0:0:0:
208,316,55141,1,0,0:0:0:0:
208,316,55226,5,2,0:3:0:0:
168,76,56249,69,2,0:0:0:0:
96,144,56590,1,6,0:0:0:0:
208,316,57101,2,0,P|244:308|300:328,2,80,2|2|2,0:0|0:0|0:0,0:0:0:0:
116,344,57953,5,8,0:0:0:0:
204,184,58124,1,2,0:3:0:0:
296,336,58294,1,2,0:3:0:0:
104,232,58465,69,8,0:0:0:0:
264,84,58635,1,2,0:3:0:0:
328,240,58806,1,2,0:3:0:0:
136,104,58976,5,8,0:0:0:0:
372,48,59146,1,2,0:3:0:0:
216,248,59317,1,2,0:3:0:0:
192,20,59487,69,8,0:0:0:0:
408,184,59658,1,2,0:3:0:0:
148,328,59828,1,2,0:3:0:0:
212,156,59999,5,8,0:0:0:0:
324,284,60169,1,2,0:3:0:0:
88,232,60340,1,2,0:3:0:0:
232,64,60510,1,8,0:0:0:0:
300,288,60681,70,0,P|304:328|304:396,1,88.000002685547,12|2,0:1|0:3,0:0:0:0:
108,128,61021,1,2,0:3:0:0:
108,128,61192,6,0,P|108:84|112:40,1,88.000002685547,8|2,0:1|0:3,0:0:0:0:
184,252,61533,1,8,0:1:0:0:
300,128,61703,1,8,0:1:0:0:
412,264,61874,1,2,0:0:0:0:
416,307,61959,1,2,0:0:0:0:
416,351,62044,69,12,0:1:0:0:
364,60,62556,6,0,P|300:36|236:60,1,120.000004577637,2|0,0:0|0:0,0:0:0:0:
160,136,63067,2,0,P|160:192|164:244,1,102.000001945496,2|0,0:3|0:0,0:0:0:0:
180,264,63408,6,0,P|228:266|276:248,1,88.000002685547,4|2,0:1|0:3,0:0:0:0:
368,352,63749,2,0,B|280:340|280:376|188:368,1,176.000005371094,8|2,0:0|0:3,0:0:0:0:
48,292,64260,1,2,0:3:0:0:
16,148,64431,2,0,P|8:104|8:48,1,88.000002685547,10|2,0:0|0:0,0:0:0:0:
189,176,64771,6,0,P|187:219|180:263,1,88.000002685547,2|2,0:3|0:3,0:0:0:0:
144,60,65112,1,8,0:0:0:0:
144,60,65283,2,0,P|196:48|296:120,1,176.000005371094,0|2,0:0|0:3,0:0:0:0:
468,120,65794,2,0,L|454:33,1,88.000002685547,10|2,0:0|0:0,0:0:0:0:
312,196,66135,70,0,L|296:300,1,88.000002685547,2|2,0:3|0:3,0:0:0:0:
360,112,66476,2,0,B|257:77|271:156|168:121,1,176.000005371094,8|2,0:0|0:3,0:0:0:0:
64,32,66987,1,2,0:3:0:0:
16,184,67158,2,0,P|12:224|20:280,1,88.000002685547,8|2,0:0|0:0,0:0:0:0:
160,276,67499,6,0,P|163:319|158:363,2,88.000002685547,2|2|8,0:3|0:3|0:0,0:0:0:0:
293,123,68010,2,0,P|287:79|291:35,2,88.000002685547,0|2|2,0:0|0:3|0:3,0:0:0:0:
380,328,68521,2,0,P|432:352|496:320,1,132.00000402832,8|2,0:0|0:0,0:0:0:0:
496,288,68862,70,0,B|508:240|508:240|496:192,1,88.000002685547,4|2,0:1|0:3,0:0:0:0:
293,123,69203,2,0,B|283:179|283:179|307:227|307:227|295:291,1,176.000005371094,8|2,0:0|0:3,0:0:0:0:
124,336,69715,1,2,0:3:0:0:
52,184,69885,2,0,P|132:156|192:192,1,132.00000402832,8|2,0:0|0:0,0:0:0:0:
200,192,70226,6,0,L|220:92,1,88.000002685547,4|2,0:1|0:3,0:0:0:0:
292,264,70567,2,0,P|268:292|208:316,1,88.000002685547,8|0,0:0|0:0,0:0:0:0:
360,152,70908,2,0,P|388:176|412:236,1,88.000002685547,2|2,0:3|0:3,0:0:0:0:
240,80,71249,2,0,P|264:48|352:24,1,132.00000402832,8|2,0:0|0:0,0:0:0:0:
372,36,71590,69,4,0:1:0:0:
128,80,71760,1,2,0:3:0:0:
447,155,71931,2,0,P|403:148|359:152,1,88.000002685547,8|0,0:0|0:0,0:0:0:0:
156,240,72271,2,0,P|199:233|243:237,1,88.000002685547,2|2,0:3|0:3,0:0:0:0:
440,312,72612,2,0,P|396:305|353:310,1,88.000002685547,8|2,0:0|0:0,0:0:0:0:
324,336,72868,1,2,0:0:0:0:
324,336,72953,6,0,B|255:308|255:369|175:342,1,143.999995605469,12|0,0:1|0:0,0:0:0:0:
76,300,73294,2,0,P|56:248|104:160,1,143.999995605469,12|0,0:1|0:0,0:0:0:0:
112,152,73635,1,8,0:1:0:0:
220,36,73806,1,8,0:0:0:0:
220,36,73891,1,8,0:0:0:0:
220,36,73976,2,0,L|223:83,1,47.9999985351563,8|8,0:0|0:0,0:0:0:0:
360,244,74146,2,0,L|357:197,1,47.9999985351563,8|8,0:0|0:0,0:0:0:0:
348,56,74317,69,4,0:1:0:0:
248,248,74487,1,2,0:3:0:0:
464,224,74658,1,8,0:0:0:0:
244,116,74828,1,0,0:0:0:0:
368,344,74999,5,2,0:3:0:0:
424,128,75169,1,2,0:3:0:0:
172,184,75340,1,8,0:0:0:0:
352,352,75510,1,2,0:0:0:0:
416,140,75681,70,0,P|424:92|424:20,1,95.9999970703126,2|2,0:3|0:3,0:0:0:0:
276,96,76021,1,8,0:0:0:0:
276,96,76192,2,0,P|276:168|293:267,1,143.999995605469,0|0,0:0|0:0,0:0:0:0:
292,260,76533,1,2,0:3:0:0:
136,128,76703,2,0,P|137:175|145:223,1,95.9999970703126,8|2,0:0|0:0,0:0:0:0:
8,184,77044,5,2,0:3:0:0:
228,96,77214,1,2,0:3:0:0:
204,312,77385,1,8,0:0:0:0:
96,92,77556,1,0,0:0:0:0:
324,192,77726,69,2,0:3:0:0:
108,272,77896,1,2,0:3:0:0:
164,20,78067,1,8,0:0:0:0:
344,208,78237,1,2,0:0:0:0:
344,208,78322,1,2,0:0:0:0:
344,208,78408,6,0,P|392:216|452:200,1,95.9999970703126,2|2,0:3|0:3,0:0:0:0:
224,260,78749,2,0,P|252:299|306:330,1,95.9999970703126,8|0,0:0|0:0,0:0:0:0:
100,224,79090,2,0,P|92:271|108:331,1,95.9999970703126,2|2,0:3|0:3,0:0:0:0:
112,340,79345,1,0,0:0:0:0:
123,362,79431,1,8,0:0:0:0:
240,144,79601,1,8,0:0:0:0:
240,144,79686,1,8,0:0:0:0:
240,144,79771,70,0,P|232:96|208:36,1,100,4|2,0:1|0:3,0:0:0:0:
444,208,80112,2,0,P|426:254|418:304,1,100,8|0,0:0|0:0,0:0:0:0:
439,51,80453,2,0,P|393:34|344:26,1,100,2|2,0:3|0:3,0:0:0:0:
212,244,80794,1,10,0:0:0:0:
261,244,80879,1,2,0:0:0:0:
304,220,80964,1,2,0:0:0:0:
329,177,81049,1,2,0:0:0:0:
336,132,81135,6,0,L|339:235,1,103.999995239258,4|2,0:1|0:3,0:0:0:0:
56,164,81476,2,0,L|60:61,1,103.999995239258,8|0,0:0|0:0,0:0:0:0:
104,296,81817,1,2,0:3:0:0:
104,296,81987,1,2,0:3:0:0:
180,152,82158,2,0,P|244:128|336:148,1,155.999992858887,8|2,0:0|0:0,0:0:0:0:
328,143,82499,70,0,P|376:115|396:63,1,108.000000411987,2|2,0:3|0:3,0:0:0:0:
288,256,82840,2,0,P|341:270|392:247,1,108.000000411987,8|0,0:0|0:0,0:0:0:0:
476,120,83181,1,2,0:3:0:0:
476,120,83351,1,2,0:3:0:0:
312,52,83521,2,0,B|227:23|238:88|153:59,1,162.000000617981,8|2,0:0|0:0,0:0:0:0:
116,64,83862,6,0,P|112:116|112:184,1,111.999996582031,4|2,0:1|0:3,0:0:0:0:
292,360,84203,2,0,P|291:304|287:248,1,111.999996582031,8|0,0:0|3:0,0:0:0:0:
128,300,84544,2,0,P|104:308|68:312,2,55.9999982910157,2|8|2,0:3|0:0|0:3,0:0:0:0:
248,148,84885,1,8,0:0:0:0:
420,256,85056,1,8,0:0:0:0:
420,256,85141,1,8,0:0:0:0:
420,256,85226,69,12,0:1:0:0:
268,56,85396,1,2,0:3:0:0:
368,348,85567,5,8,0:0:0:0:
352,16,85737,1,2,0:3:0:0:
264,360,85908,69,8,0:0:0:0:
194,159,86078,1,8,0:0:0:0:
248,148,86163,1,8,0:0:0:0:
302,162,86248,1,8,0:2:0:0:
355,179,86333,1,8,0:0:0:0:
410,171,86419,2,0,L|420:112,1,55.9999982910157,8|8,0:0|0:2,0:0:0:0:
252,256,86590,69,12,0:1:0:0:
252,256,87271,69,2,0:0:0:0:
152,292,87442,2,0,P|96:288|52:236,1,120.000004577637,2|2,0:0|0:0,0:0:0:0:
132,212,87868,1,2,0:0:0:0:
132,212,87953,6,0,P|124:172|140:120,1,68.0000012969971,4|0,0:1|0:0,0:0:0:0:
168,52,88294,1,0,0:0:0:0:
288,96,88465,1,2,0:3:0:0:
288,96,88550,1,2,0:3:0:0:
288,96,88635,2,0,P|296:136|280:188,1,68.0000012969971,8|8,0:0|0:3,0:0:0:0:
248,264,88976,69,8,0:3:0:0:
352,348,89146,1,8,0:3:0:0:
416,232,89317,5,8,0:0:0:0:
236,360,89487,1,2,0:3:0:0:
304,104,89658,69,8,0:0:0:0:
448,320,89828,1,2,0:3:0:0:
208,184,89999,5,8,0:0:0:0:
412,32,90169,1,2,0:3:0:0:
452,332,90340,70,0,P|456:276|416:184,1,132.00000402832,8|2,0:0|0:0,0:0:0:0:
408,184,90681,6,0,B|386:179|364:181|364:181|335:198|335:198|313:202|290:198,1,120.000004577637,12|2,0:1|0:3,0:0:0:0:
208,240,91192,1,0,0:0:0:0:
132,180,91362,2,0,P|126:140|124:96,1,60.0000022888184,2|0,0:3|0:0,0:0:0:0:
272,52,91703,2,0,P|269:91|263:131,1,60.0000022888184,2|0,0:3|0:0,0:0:0:0:
184,308,92044,70,0,P|151:326|103:329,1,60.0000022888184,6|0,0:3|0:0,0:0:0:0:
292,288,92385,2,0,P|281:324|250:360,1,60.0000022888184,2|0,0:3|0:0,0:0:0:0:
354,197,92726,2,0,P|372:229|375:277,1,60.0000022888184,2|0,0:3|0:0,0:0:0:0:
333,88,93067,2,0,P|369:98|405:129,1,60.0000022888184,2|0,0:3|0:0,0:0:0:0:
224,88,93408,6,0,P|169:117|89:124,1,120.000004577637,6|2,0:3|0:3,0:0:0:0:
56,204,93919,1,0,0:0:0:0:
104,288,94090,2,0,B|171:265|161:316|238:291,1,120.000004577637,2|2,0:3|0:3,0:0:0:0:
264,212,94601,1,0,0:0:0:0:
336,276,94771,70,0,P|347:306|351:359,1,60.0000022888184,6|0,0:3|0:0,0:0:0:0:
424,160,95112,2,0,P|412:190|408:243,1,60.0000022888184,2|0,0:3|0:0,0:0:0:0:
466,69,95453,2,0,L|385:72,1,60.0000022888184,2|0,0:3|0:0,0:0:0:0:
309,27,95794,1,2,0:3:0:0:
244,192,95965,1,0,0:0:0:0:
244,192,96050,1,0,0:0:0:0:
244,192,96135,6,0,B|200:192|200:192|168:208|168:208|104:208,1,120.000004577637,6|2,0:3|0:3,0:0:0:0:
52,268,96646,1,0,0:0:0:0:
148,304,96817,2,0,L|236:304,1,60.0000022888184,2|0,0:3|0:0,0:0:0:0:
248,112,97158,2,0,L|160:112,1,60.0000022888184,2|0,0:3|0:0,0:0:0:0:
352,232,97499,70,0,P|370:264|373:312,1,60.0000022888184,6|0,0:3|0:0,0:0:0:0:
332,124,97840,2,0,P|368:134|404:165,1,60.0000022888184,2|0,0:3|0:0,0:0:0:0:
241,62,98181,2,0,P|273:43|321:40,1,60.0000022888184,2|0,0:3|0:0,0:0:0:0:
132,83,98522,2,0,P|142:46|173:10,1,60.0000022888184,2|0,0:3|0:0,0:0:0:0:
228,184,98862,6,0,B|165:163|174:210|102:186,1,120.000004577637,6|2,0:3|0:3,0:0:0:0:
128,284,99374,1,0,0:0:0:0:
216,324,99544,2,0,P|221:294|218:258,1,60.0000022888184,2|0,0:3|0:0,0:0:0:0:
193,64,99885,2,0,P|190:98|197:133,1,60.0000022888184,2|2,0:3|0:3,0:0:0:0:
172,24,100226,70,0,P|167:104|183:183,1,143.999995605469,6|2,0:3|0:0,0:0:0:0:
212,240,100908,6,0,B|252:204|324:208|324:208|328:248|312:288,1,180.000006866455,8|8,0:0|0:3,0:0:0:0:
416,288,101504,1,8,0:3:0:0:
416,288,101590,70,0,P|422:202|408:116,1,143.999995605469,4|2,0:1|0:3,0:0:0:0:
316,80,102101,1,0,0:0:0:0:
320,208,102271,2,0,P|281:211|228:193,1,71.9999978027344,2|0,0:3|0:0,0:0:0:0:
168,24,102612,2,0,P|206:20|259:38,1,71.9999978027344,2|8,0:3|0:0,0:0:0:0:
441,125,102953,2,0,P|402:128|349:110,1,71.9999978027344,2|0,0:3|0:0,0:0:0:0:
279,212,103294,1,2,0:3:0:0:
201,116,103465,1,0,0:0:0:0:
112,236,103635,2,0,P|102:270|93:322,1,71.9999978027344,2|8,0:3|0:3,0:0:0:0:
259,282,103976,2,0,P|248:247|242:212,1,71.9999978027344,10|8,0:3|0:3,0:0:0:0:
104,80,104317,6,0,P|145:49|248:76,1,143.999995605469,2|2,0:3|0:3,0:0:0:0:
332,144,104828,1,0,0:0:0:0:
348,24,104999,2,0,L|440:8,1,71.9999978027344,2|0,0:3|0:0,0:0:0:0:
180,124,105340,2,0,L|272:140,1,71.9999978027344,2|8,0:3|0:0,0:0:0:0:
272,154,105595,1,0,0:0:0:0:
272,154,105681,69,2,0:3:0:0:
281,276,105851,1,8,0:0:0:0:
382,143,106021,2,0,P|372:177|363:229,1,71.9999978027344,2|0,0:3|0:0,0:0:0:0:
204,365,106362,2,0,P|194:331|185:279,1,71.9999978027344,2|8,0:3|0:3,0:0:0:0:
314,308,106703,2,0,P|349:314|383:324,1,71.9999978027344,10|8,0:3|0:3,0:0:0:0:
285,88,107044,6,0,P|263:165|250:244,1,143.999995605469,2|2,0:3|0:3,0:0:0:0:
148,100,107556,1,0,0:0:0:0:
70,205,107726,2,0,P|30:209|-18:193,1,71.9999978027344,2|0,0:3|0:0,0:0:0:0:
97,54,108067,2,0,P|137:50|185:66,1,71.9999978027344,2|8,0:3|0:0,0:0:0:0:
283,198,108408,2,0,P|243:202|195:186,1,71.9999978027344,2|0,0:3|0:0,0:0:0:0:
254,57,108749,1,2,0:3:0:0:
368,133,108919,1,8,0:0:0:0:
482,70,109090,2,0,L|462:-26,1,71.9999978027344,2|8,0:3|0:0,0:0:0:0:
439,192,109431,2,0,L|422:270,1,71.9999978027344,8|8,0:3|0:3,0:0:0:0:
284,144,109771,70,8,P|236:120|160:132,1,128,12|2,0:2|0:3,0:0:0:0:
140,136,110283,2,0,P|136:96|144:56,1,64,0|2,3:0|0:3,0:0:0:0:
216,228,110624,2,0,P|219:259|215:291,1,64,0|2,3:0|0:3,0:0:0:0:
88,344,110965,1,8,0:0:0:0:
216,208,111135,5,2,3:0:0:0:
12,188,111306,1,8,0:0:0:0:
208,336,111476,69,0,3:0:0:0:
240,72,111646,1,8,3:0:0:0:
124,132,111817,5,0,3:0:0:0:
108,8,111987,1,8,0:3:0:0:
88,220,112158,70,0,B|76:260|76:260|96:340,1,96,8|2,0:3|0:0,0:0:0:0:
112,344,112499,6,0,B|193:316|181:380|249:356,1,143.999995605469,4|0,0:1|0:0,0:0:0:0:
368,284,113010,1,2,0:3:0:0:
236,232,113181,2,0,L|232:144,1,71.9999978027344,0|2,0:0|0:3,0:0:0:0:
388,224,113521,2,0,L|384:299,1,71.9999978027344,8|8,0:3|0:3,0:0:0:0:
270,85,113862,2,0,P|228:73|178:100,1,71.9999978027344,2|0,0:3|0:0,0:0:0:0:
140,208,114203,1,0,0:0:0:0:
232,160,114374,1,2,0:3:0:0:
99,84,114544,2,0,P|91:44|99:-4,1,71.9999978027344,0|2,0:0|0:3,0:0:0:0:
140,208,114885,2,0,P|146:272|132:335,1,107.999996704102,8|2,0:3|0:0,0:0:0:0:
56,332,115226,70,0,B|108:332|108:332|148:360|148:360|216:360,1,143.999995605469,2|0,0:3|0:0,0:0:0:0:
304,280,115737,1,2,0:3:0:0:
412,324,115908,2,0,P|424:288|424:240,1,71.9999978027344,0|2,0:0|0:3,0:0:0:0:
285,78,116249,2,0,P|287:140|307:199,1,107.999996704102,8|2,0:3|0:0,0:0:0:0:
299,183,116590,6,0,B|260:169|221:218|221:218|181:262|130:247|130:247|119:217|126:172,1,251.999992309571,2|0,0:3|0:0,0:0:0:0:
80,124,117271,2,0,P|109:107|155:112,1,71.9999978027344,0|2,0:0|0:3,0:0:0:0:
32,304,117612,2,0,P|12:234|14:170,1,107.999996704102,8|2,0:3|0:0,0:0:0:0:
16,84,117953,70,0,B|83:108|71:44|153:71,1,143.999995605469,4|0,0:1|0:0,0:0:0:0:
292,56,118465,1,2,0:3:0:0:
320,200,118635,2,0,P|324:240|320:292,1,71.9999978027344,0|2,0:0|0:3,0:0:0:0:
408,104,118976,2,0,P|404:64|408:12,1,71.9999978027344,8|8,0:3|0:3,0:0:0:0:
474,180,119317,2,0,P|447:198|386:199,1,71.9999978027344,2|0,0:3|0:0,0:0:0:0:
286,185,119658,1,0,0:0:0:0:
299,70,119828,1,2,0:3:0:0:
186,46,119999,2,0,P|146:54|98:74,1,71.9999978027344,0|2,0:0|0:3,0:0:0:0:
216,166,120340,2,0,P|249:177|285:184,1,71.9999978027344,8|8,0:3|0:3,0:0:0:0:
60,164,120681,6,0,P|73:233|107:316,1,143.999995605469,2|0,0:3|0:0,0:0:0:0:
217,269,121192,1,2,0:3:0:0:
312,352,121362,2,0,L|320:260,1,71.9999978027344,0|2,0:0|0:3,0:0:0:0:
136,108,121703,2,0,L|142:179,1,71.9999978027344,8|8,0:3|0:3,0:0:0:0:
365,201,122044,2,0,P|325:190|279:197,1,71.9999978027344,2|0,0:3|0:0,0:0:0:0:
227,284,122385,1,0,0:0:0:0:
396,312,122556,1,2,0:3:0:0:
396,312,122641,1,8,0:0:0:0:
396,312,122726,1,8,0:0:0:0:
292,104,122896,1,10,0:3:0:0:
232,244,123067,1,8,0:0:0:0:
397,213,123237,1,8,0:3:0:0:
328,24,123408,70,0,B|246:-3|257:59|164:27,1,143.999995605469,4|0,0:1|0:0,0:0:0:0:
64,84,123919,1,2,0:3:0:0:
108,204,124090,2,0,P|112:240|100:292,1,71.9999978027344,0|2,0:0|0:3,0:0:0:0:
296,168,124431,2,0,P|290:132|294:96,1,71.9999978027344,8|8,0:3|0:3,0:0:0:0:
162,14,124771,2,0,L|171:85,1,71.9999978027344,2|0,0:3|0:0,0:0:0:0:
296,168,125112,1,0,0:0:0:0:
301,16,125283,1,2,0:3:0:0:
441,94,125453,2,0,L|465:170,1,71.9999978027344,0|8,0:0|0:0,0:0:0:0:
320,228,125794,2,0,L|341:159,1,71.9999978027344,8|8,0:3|0:3,0:0:0:0:
460,296,126135,6,0,B|408:296|408:296|368:324|368:324|300:324,1,143.999995605469,2|8,0:3|0:0,0:0:0:0:
200,256,126646,69,8,0:0:0:0:
168,256,126818,2,0,L|116:276,2,47.9999985351563,8|8|8,0:0|0:0|0:3,0:0:0:0:
248,128,127158,2,0,L|196:108,2,47.9999985351563,8|8|8,0:3|0:3|0:3,0:0:0:0:
360,108,127499,6,8,B|400:158|354:217|354:217|307:199,1,167.999994873047,4|0,0:1|0:0,0:0:0:0:
304,292,128181,70,0,P|372:308|436:260,1,143.999995605469,2|2,0:3|0:0,0:0:0:0:
448,240,128777,1,2,0:0:0:0:
448,240,128862,5,2,0:0:0:0:
164,48,129885,69,0,0:0:0:0:
166,146,130226,1,6,0:0:0:0:
168,244,130567,1,2,0:0:0:0:
168,244,130737,2,0,B|132:260|132:260|80:256,2,80,2|2|2,0:0|0:0|0:0,0:0:0:0:
288,196,131590,5,8,0:0:0:0:
116,152,131760,1,2,0:3:0:0:
168,340,131931,1,2,0:3:0:0:
216,96,132101,69,8,0:0:0:0:
84,264,132271,1,2,0:3:0:0:
288,304,132442,1,2,0:3:0:0:
132,56,132612,5,8,0:0:0:0:
76,360,132783,1,2,0:3:0:0:
368,220,132953,1,2,0:3:0:0:
44,84,133124,69,8,0:0:0:0:
248,384,133294,1,2,0:3:0:0:
368,20,133465,1,2,0:3:0:0:
256,200,133635,5,8,0:0:0:0:
456,272,133806,1,2,0:3:0:0:
268,112,133976,1,2,0:3:0:0:
136,332,134146,1,8,0:0:0:0:
136,332,134317,70,0,L|124:236,1,88.000002685547,12|2,0:1|0:3,0:0:0:0:
280,44,134658,1,2,0:3:0:0:
280,44,134828,2,0,L|269:131,1,88.000002685547,8|2,0:1|0:3,0:0:0:0:
112,88,135169,1,8,0:1:0:0:
248,328,135340,1,8,0:1:0:0:
436,144,135510,1,2,0:0:0:0:
441,100,135595,1,2,0:0:0:0:
447,56,135680,5,12,0:1:0:0:
472,284,136192,70,0,P|408:292|348:260,1,120.000004577637,2|0,0:0|0:0,0:0:0:0:
315,151,136703,2,0,P|266:144|221:169,1,102.000001945496,2|0,0:3|0:0,0:0:0:0:
221,169,137044,54,0,B|210:122|210:122|222:66,1,88.000002685547,4|2,0:1|0:3,0:0:0:0:
123,35,137385,2,0,B|104:122|104:122|126:225,1,176.000005371094,8|2,0:0|0:3,0:0:0:0:
272,328,137896,1,2,0:3:0:0:
424,208,138067,2,0,B|434:161|434:161|422:105,1,88.000002685547,8|0,0:0|0:0,0:0:0:0:
219,82,138408,6,0,B|210:122|210:122|221:169,1,88.000002685547,2|2,0:3|0:3,0:0:0:0:
484,32,138749,1,8,0:0:0:0:
484,32,138919,2,0,P|420:16|332:76,1,176.000005371094,0|2,0:0|0:3,0:0:0:0:
340,240,139431,2,0,P|348:288|368:340,1,88.000002685547,10|2,0:0|0:0,0:0:0:0:
192,228,139771,70,0,P|206:186|212:142,1,88.000002685547,2|2,0:3|0:3,0:0:0:0:
44,304,140112,2,0,B|144:268|124:348|236:313,1,176.000005371094,8|2,0:0|0:3,0:0:0:0:
296,176,140624,1,2,0:3:0:0:
192,48,140794,2,0,L|192:136,1,88.000002685547,8|2,0:0|0:0,0:0:0:0:
304,288,141135,6,0,P|304:333|275:384,2,88.000002685547,2|2|8,0:3|0:3|0:0,0:0:0:0:
384,112,141646,2,0,P|384:66|412:15,2,88.000002685547,0|2|2,0:0|0:3|0:3,0:0:0:0:
468,348,142158,2,0,B|488:284|488:284|460:220,1,132.00000402832,8|2,0:0|0:0,0:0:0:0:
384,284,142499,70,0,L|348:196,1,88.000002685547,4|2,0:1|0:3,0:0:0:0:
272,48,142840,2,0,B|308:148|228:128|263:240,1,176.000005371094,8|2,0:0|0:3,0:0:0:0:
148,372,143351,1,2,0:3:0:0:
36,240,143521,2,0,P|8:160|44:100,1,132.00000402832,8|2,0:0|0:0,0:0:0:0:
92,172,143862,6,0,L|192:172,1,88.000002685547,4|2,0:1|0:3,0:0:0:0:
292,104,144203,2,0,P|268:76|208:52,1,88.000002685547,8|0,0:0|0:0,0:0:0:0:
360,216,144544,2,0,P|388:192|412:132,1,88.000002685547,2|2,0:3|0:3,0:0:0:0:
240,288,144885,2,0,P|264:320|352:344,1,132.00000402832,8|2,0:0|0:0,0:0:0:0:
372,332,145226,69,4,0:1:0:0:
148,280,145396,1,2,0:3:0:0:
448,208,145567,2,0,P|404:215|360:211,1,88.000002685547,8|0,0:0|0:0,0:0:0:0:
157,123,145907,2,0,P|200:130|244:126,1,88.000002685547,2|2,0:3|0:3,0:0:0:0:
441,51,146248,2,0,P|397:58|354:53,1,88.000002685547,8|2,0:0|0:0,0:0:0:0:
325,27,146504,1,2,0:0:0:0:
325,27,146590,6,0,B|256:55|256:-6|176:21,1,143.999995605469,12|0,0:1|0:0,0:0:0:0:
77,71,146931,2,0,P|57:123|105:211,1,143.999995605469,12|0,0:1|0:0,0:0:0:0:
113,219,147272,1,8,0:1:0:0:
276,300,147442,1,8,0:0:0:0:
276,300,147527,1,8,0:0:0:0:
276,300,147612,2,0,P|296:276|304:244,1,47.9999985351563,8|8,0:0|0:0,0:0:0:0:
180,96,147783,2,0,P|182:127|199:155,1,47.9999985351563,8|8,0:0|0:0,0:0:0:0:
304,120,147953,69,4,0:1:0:0:
160,304,148124,1,2,0:3:0:0:
380,328,148294,1,8,0:0:0:0:
208,112,148465,1,0,0:0:0:0:
272,352,148635,5,2,0:3:0:0:
440,196,148806,1,2,0:3:0:0:
188,96,148976,1,8,0:0:0:0:
256,332,149146,1,2,0:0:0:0:
428,176,149317,70,0,P|384:168|312:172,1,95.9999970703126,2|2,0:3|0:3,0:0:0:0:
484,44,149658,1,8,0:0:0:0:
484,44,149828,2,0,P|418:32|311:38,1,143.999995605469,0|0,0:0|0:0,0:0:0:0:
320,36,150169,1,2,0:3:0:0:
136,120,150340,2,0,P|180:128|252:124,1,95.9999970703126,8|2,0:0|0:0,0:0:0:0:
112,232,150681,5,2,0:3:0:0:
192,40,150851,1,2,0:3:0:0:
288,220,151021,1,8,0:0:0:0:
64,56,151192,1,0,0:0:0:0:
196,284,151362,69,2,0:3:0:0:
316,64,151533,1,2,0:3:0:0:
68,204,151703,1,8,0:0:0:0:
312,328,151874,1,2,0:0:0:0:
312,328,151959,1,2,0:0:0:0:
312,328,152044,6,0,P|360:308|392:264,1,95.9999970703126,2|2,0:3|0:3,0:0:0:0:
276,204,152385,2,0,P|295:155|287:102,1,95.9999970703126,8|0,0:0|0:0,0:0:0:0:
161,140,152726,2,0,P|140:91|96:59,1,95.9999970703126,2|2,0:3|0:3,0:0:0:0:
84,64,152982,1,0,0:0:0:0:
60,64,153067,1,8,0:0:0:0:
288,12,153237,1,8,0:0:0:0:
288,12,153323,1,8,0:0:0:0:
288,12,153408,70,0,P|344:8|408:24,1,100,4|2,0:1|0:3,0:0:0:0:
488,240,153749,2,0,P|432:244|368:228,1,100,8|0,0:0|0:0,0:0:0:0:
408,24,154090,2,0,P|400:72|384:124,1,100,2|2,0:3|0:3,0:0:0:0:
281,285,154431,1,10,0:0:0:0:
290,333,154516,1,2,0:0:0:0:
327,365,154601,1,2,0:0:0:0:
376,369,154686,1,2,0:0:0:0:
415,335,154771,6,0,P|407:287|386:230,1,103.999995239258,4|2,0:1|0:3,0:0:0:0:
160,168,155112,2,0,P|168:216|184:268,1,103.999995239258,8|0,0:0|0:0,0:0:0:0:
292,200,155453,1,2,0:3:0:0:
292,200,155624,1,2,0:3:0:0:
195,71,155794,2,0,B|107:39|120:112|13:79,1,155.999992858887,8|2,0:0|0:0,0:0:0:0:
45,87,156135,70,0,P|32:140|48:212,1,108.000000411987,2|2,0:3|0:3,0:0:0:0:
296,320,156476,2,0,P|303:266|289:214,1,108.000000411987,8|0,0:0|0:0,0:0:0:0:
196,48,156817,1,2,0:3:0:0:
196,48,156987,1,2,0:3:0:0:
360,148,157158,2,0,P|292:124|200:172,1,162.000000617981,8|2,0:0|0:0,0:0:0:0:
184,184,157499,6,0,L|176:304,1,111.999996582031,4|2,0:1|0:3,0:0:0:0:
464,232,157840,2,0,L|456:120,1,111.999996582031,8|0,0:0|0:0,0:0:0:0:
328,28,158181,2,0,P|300:20|260:24,2,55.9999982910157,2|0|0,0:3|0:0|0:0,0:0:0:0:
236,168,158521,1,8,0:0:0:0:
324,336,158692,1,8,0:0:0:0:
324,336,158777,1,8,0:0:0:0:
324,336,158862,69,12,0:1:0:0:
219,89,159033,1,2,0:3:0:0:
424,312,159203,5,8,0:0:0:0:
143,156,159374,1,2,0:3:0:0:
464,224,159544,69,8,0:0:0:0:
119,258,159715,1,8,0:0:0:0:
448,132,159885,5,8,0:2:0:0:
157,364,160056,1,8,0:0:0:0:
388,60,160226,69,12,0:1:0:0:
256,192,161590,5,4,0:1:0:0:
404,276,166703,5,8,0:3:0:0:
418,238,166788,1,2,0:0:0:0:
417,199,166873,1,8,0:3:0:0:
401,162,166958,1,8,0:3:0:0:
373,135,167044,6,0,B|332:124|332:124|272:144,1,80,4|0,0:1|0:0,0:0:0:0:
140,288,167385,2,0,B|181:277|181:277|241:297,1,80,2|0,0:3|0:0,0:0:0:0:
352,32,167726,2,0,L|260:60,1,80,2|0,0:3|0:0,0:0:0:0:
140,176,168067,2,0,L|232:204,1,80,2|8,0:3|0:0,0:0:0:0:
240,208,168323,1,2,0:0:0:0:
240,208,168408,69,2,0:3:0:0:
144,360,168578,1,8,0:0:0:0:
28,224,168749,2,0,P|16:176|24:136,1,80,2|0,0:3|0:0,0:0:0:0:
168,20,169090,2,0,P|180:68|172:108,1,80,2|0,0:3|0:0,0:0:0:0:
140,176,169345,1,0,0:0:0:0:
140,176,169431,1,2,0:3:0:0:
296,128,169601,1,2,0:0:0:0:
334,139,169686,1,2,0:0:0:0:
372,151,169771,6,0,P|362:199|338:232,1,80,2|0,0:3|0:0,0:0:0:0:
432,272,170112,2,0,P|402:312|367:331,1,80,2|0,0:3|0:0,0:0:0:0:
156,320,170453,2,0,P|165:271|189:238,1,80,2|0,0:3|0:0,0:0:0:0:
96,199,170794,2,0,P|125:158|160:139,1,80,2|0,0:3|0:0,0:0:0:0:
272,296,171135,69,2,0:3:0:0:
316,88,171306,1,8,0:0:0:0:
244,172,171476,5,2,0:3:0:0:
192,72,171646,1,8,0:3:0:0:
364,200,171817,69,8,0:3:0:0:
172,260,171987,1,8,0:3:0:0:
320,376,172158,5,8,0:3:0:0:
448,240,172328,1,8,0:3:0:0:
448,240,172413,1,8,0:3:0:0:
448,240,172499,70,0,P|452:192|440:148,1,88.000002685547,4|0,0:1|0:0,0:0:0:0:
468,44,172840,2,0,P|420:40|376:52,1,88.000002685547,2|0,0:3|0:0,0:0:0:0:
280,12,173181,2,0,B|244:112|324:92|289:204,1,176.000005371094,2|2,0:3|0:3,0:0:0:0:
180,156,173692,1,2,0:0:0:0:
168,284,173862,6,0,L|256:296,2,88.000002685547,2|0|2,0:3|0:0|0:3,0:0:0:0:
60,344,174374,2,0,P|44:284|92:184,1,176.000005371094,0|0,0:0|0:0,0:0:0:0:
104,64,174885,1,2,0:3:0:0:
168,284,175056,1,8,0:0:0:0:
344,200,175226,70,0,P|360:240|352:304,1,88.000002685547,2|0,0:3|0:0,0:0:0:0:
372,92,175567,1,2,0:3:0:0:
216,156,175737,2,0,P|232:116|283:76,1,88.000002685547,0|2,0:0|0:3,0:0:0:0:
264,256,176078,1,0,0:0:0:0:
264,256,176249,1,2,0:3:0:0:
148,68,176419,1,8,0:0:0:0:
52,232,176590,6,0,L|56:336,2,88.000002685547,2|0|2,0:3|0:0|0:3,0:0:0:0:
184,344,177101,1,8,0:0:0:0:
280,108,177271,1,2,0:3:0:0:
160,228,177442,1,8,0:0:0:0:
80,30,177612,1,2,0:3:0:0:
120,128,177783,1,8,0:3:0:0:
204,52,177953,70,0,P|256:16|344:44,1,160,4|2,0:1|0:3,0:0:0:0:
396,140,178465,1,0,0:0:0:0:
344,240,178635,2,0,P|332:280|328:328,1,80,2|0,0:3|0:0,0:0:0:0:
160,224,178976,2,0,P|155:184|143:146,1,80,2|2,0:3|0:0,0:0:0:0:
488,160,179317,6,0,B|392:194|411:118|305:151,1,160,4|2,0:1|0:3,0:0:0:0:
248,236,179828,2,0,P|241:255|236:284,2,40,0|0|2,3:0|3:0|3:3,0:0:0:0:
216,68,180169,2,0,P|209:48|204:20,2,40,0|0|2,3:0|3:0|3:3,0:0:0:0:
352,224,180510,1,8,0:0:0:0:
140,152,180681,70,0,B|116:155|94:167|94:167|82:208|122:258,1,120,4|0,0:1|0:0,0:0:0:0:
120,264,181021,5,2,0:3:0:0:
120,264,181362,69,2,0:3:0:0:
276,140,181533,1,8,0:0:0:0:
272,328,181703,5,2,0:3:0:0:
140,152,181874,1,8,0:0:0:0:
132,112,181959,1,2,0:0:0:0:
135,73,182044,69,2,0:0:0:0:
216,220,182215,1,8,0:0:0:0:
32,176,182385,5,2,0:0:0:0:
144,36,182556,1,8,0:0:0:0:
120,292,182726,69,2,0:0:0:0:
352,152,182896,1,8,0:0:0:0:
48,80,183067,5,0,0:0:0:0:
264,344,183237,1,8,0:0:0:0:
352,140,183408,69,8,0:0:0:0:
288,248,184260,2,0,P|312:248|346:235,2,60.0000022888184,2|2|0,0:0|0:0|0:0,0:0:0:0:
240,336,184771,6,0,B|168:296|140:372|60:336,1,180.000006866455,2|0,0:0|0:0,0:0:0:0:
66,338,185453,1,2,0:0:0:0:
384,164,186135,70,0,P|412:204|400:292,1,120.000004577637,8|0,0:0|0:0,0:0:0:0:
400,292,186646,2,0,L|460:272,1,60.0000022888184,2|0,0:0|0:0,0:0:0:0:
384,60,186987,2,0,L|324:80,1,60.0000022888184,2|2,0:0|0:0,0:0:0:0:
228,116,187328,1,0,0:0:0:0:
160,196,187499,6,0,P|130:152|134:66,1,120.000004577637,2|0,0:0|0:0,0:0:0:0:
208,28,188010,1,0,0:0:0:0:
276,208,188181,2,0,P|266:260|202:318,1,120.000004577637,2|0,0:0|0:0,0:0:0:0:
140,344,188862,70,0,B|198:333|198:333|252:357|252:357|314:346,1,180.000006866455,8|2,0:0|0:0,0:0:0:0:
436,228,189715,1,2,0:0:0:0:
456,148,189885,1,2,0:0:0:0:
432,68,190056,1,0,0:0:0:0:
380,12,190226,6,0,P|356:64|388:132,1,120.000004577637,8|0,0:0|0:0,0:0:0:0:
218,159,190908,2,0,B|160:184|160:184|96:164,1,120.000004577637,2|0,0:0|0:0,0:0:0:0:
239,52,191590,70,0,P|207:112|231:176,1,120.000004577637,2|0,0:0|0:0,0:0:0:0:
288,224,192101,2,0,P|300:256|296:296,1,60.0000022888184,2|0,0:0|0:0,0:0:0:0:
244,344,192442,1,2,0:0:0:0:
172,300,192612,1,2,0:0:0:0:
112,360,192783,1,2,0:0:0:0:
40,316,192953,6,0,P|24:280|40:196,1,120,8|0,0:0|0:0,0:0:0:0:
106,154,193294,70,0,B|154:146|174:174|222:158,1,113.999996955872,2|0,0:0|0:0,0:0:0:0:
304,144,193635,6,0,P|318:110|304:31,1,102.000001945496,2|0,0:0|0:0,0:0:0:0:
388,176,193976,70,0,P|379:223|396:269,1,90.0000034332277,2|0,0:0|0:0,0:0:0:0:
412,292,194317,6,0,B|356:292|356:292|316:312|316:312|260:312,1,143.999995605469,4|2,0:1|0:0,0:0:0:0:
232,208,194828,1,2,0:0:0:0:
160,260,194999,2,0,P|145:191|184:133,1,143.999995605469,8|2,0:0|0:0,0:0:0:0:
304,144,195510,1,8,0:0:0:0:
388,68,195681,70,0,P|424:80|464:112,1,71.9999978027344,2|8,0:0|0:0,0:0:0:0:
388,176,196021,2,0,P|404:209|410:260,1,71.9999978027344,2|0,0:3|0:0,0:0:0:0:
232,196,196362,2,0,P|196:184|156:152,1,71.9999978027344,8|0,0:0|0:0,0:0:0:0:
232,88,196703,2,0,P|215:54|212:0,1,71.9999978027344,0|2,0:0|0:0,0:0:0:0:
100,268,197044,6,0,B|184:240|172:304|268:272,1,143.999995605469,4|2,0:1|0:0,0:0:0:0:
239,279,197726,1,8,0:0:0:0:
104,96,198067,2,0,P|92:64|92:8,1,71.9999978027344,8|0,0:0|0:0,0:0:0:0:
240,96,198408,70,0,P|236:147|218:196,1,101.333330627441,2|8,0:3|0:0,0:0:0:0:
239,279,198749,6,0,L|303:283,2,50.6666653137207,8|8|8,0:0|0:0|0:0,0:0:0:0:
344,360,199090,2,0,L|408:364,2,50.6666653137207,8|8|8,0:3|0:3|0:3,0:0:0:0:
456,288,199431,2,0,L|520:292,2,50.6666653137207,8|8|8,0:3|0:3|0:3,0:0:0:0:
376,208,199771,69,4,0:2:0:0:
360,208,200112,5,8,0:0:0:0:
208,176,200283,1,8,0:0:0:0:
380,124,200453,69,8,0:0:0:0:
168,256,200624,1,8,0:0:0:0:
252,92,200794,5,10,0:0:0:0:
368,292,200965,1,8,0:0:0:0:
96,184,201135,69,10,0:0:0:0:
464,100,201306,1,8,0:0:0:0:
68,56,201476,5,8,0:0:0:0:
256,328,201646,1,10,0:0:0:0:
292,28,201817,69,8,0:0:0:0:
64,328,201987,1,8,0:0:0:0:
444,244,202158,5,10,0:0:0:0:
160,20,202328,1,8,0:0:0:0:
168,360,202499,70,0,P|168:320|188:272,1,88.000002685547,6|8,0:2|0:0,0:0:0:0:
252,196,202840,1,0,0:0:0:0:
88,112,203010,2,0,P|128:112|176:132,1,88.000002685547,2|8,0:3|0:0,0:0:0:0:
268,336,203351,1,8,0:0:0:0:
268,336,203436,1,8,0:0:0:0:
268,336,203521,2,0,P|276:308|280:284,1,44.0000013427735,8|8,0:3|0:3,0:0:0:0:
352,132,203692,2,0,P|356:153|362:174,1,44.0000013427735,8|8,0:3|0:3,0:0:0:0:
428,376,203862,5,4,0:1:0:0:
44,328,204374,2,0,P|104:332|172:332,1,120.000004577637,2|0,0:0|0:0,0:0:0:0:
240,244,204885,2,0,P|252:212|204:144,1,102.000001945496,2|0,0:0|0:0,0:0:0:0:
200,140,205226,70,0,P|164:140|108:156,1,80,4|0,0:1|0:0,0:0:0:0:
192,20,205567,1,0,0:0:0:0:
364,60,205737,2,0,P|328:60|272:44,1,80,2|0,0:0|0:0,0:0:0:0:
300,204,206079,1,0,0:0:0:0:
472,160,206249,2,0,P|436:160|380:176,1,80,2|2,0:0|0:0,0:0:0:0:
200,328,206590,6,0,B|277:285|277:350|366:302,1,160,8|2,0:0|0:0,0:0:0:0:
168,208,207101,2,0,P|120:228|88:332,1,160,2|0,0:0|0:0,0:0:0:0:
60,148,207612,2,0,P|56:112|60:52,1,80,2|2,0:0|0:0,0:0:0:0:
240,44,207953,70,0,L|288:52,3,41.9999987182618,4|0|0|0,0:1|3:0|3:0|3:0,0:0:0:0:
272,152,208294,2,0,L|313:145,3,41.9999987182618,8|0|0|0,0:0|3:0|3:0|3:0,0:0:0:0:
169,112,208635,1,8,0:0:0:0:
158,165,208720,1,0,3:0:0:0:
170,217,208805,1,0,3:0:0:0:
187,269,208890,1,0,3:0:0:0:
184,324,208976,2,0,P|204:328|236:328,1,41.9999987182618,8|8,0:0|0:0,0:0:0:0:
348,348,209146,2,0,P|364:336|387:314,1,41.9999987182618,8|8,0:0|0:0,0:0:0:0:
424,208,209317,5,8,0:0:0:0:
458,14,209658,1,2,0:0:0:0:
480,132,209828,2,0,P|476:76|456:8,1,120.000004577637,2|2,0:0|0:0,0:0:0:0:
332,84,210340,70,0,P|315:141|310:201,1,102.000001945496,2|0,0:3|0:0,0:0:0:0:
310,183,210681,2,0,P|264:180|211:183,1,88.000002685547,4|2,0:1|0:3,0:0:0:0:
352,328,211021,2,0,P|270:322|176:329,1,176.000005371094,8|2,0:0|0:3,0:0:0:0:
444,264,211533,1,2,0:3:0:0:
296,100,211703,2,0,P|324:179|288:240,1,132.00000402832,8|2,0:0|0:0,0:0:0:0:
307,220,212044,6,0,P|283:247|222:272,1,88.000002685547,4|2,0:1|0:3,0:0:0:0:
224,160,212385,2,0,P|196:136|172:76,1,88.000002685547,8|0,0:0|0:0,0:0:0:0:
340,320,212726,2,0,P|316:348|256:372,1,88.000002685547,2|2,0:3|0:3,0:0:0:0:
428,108,213067,2,0,P|460:132|484:220,1,132.00000402832,8|2,0:0|0:0,0:0:0:0:
472,240,213408,69,4,0:1:0:0:
380,32,213578,1,2,0:3:0:0:
340,320,213749,2,0,P|348:276|336:212,1,88.000002685547,8|0,0:0|0:0,0:0:0:0:
252,36,214090,2,0,P|256:84|248:144,1,88.000002685547,2|2,0:3|0:3,0:0:0:0:
168,316,214431,2,0,P|176:272|164:208,1,88.000002685547,8|2,0:0|0:0,0:0:0:0:
140,196,214686,1,2,0:0:0:0:
140,196,214771,6,0,B|124:132|164:120|146:47,1,143.999995605469,12|0,0:1|0:0,0:0:0:0:
44,112,215112,2,0,P|32:172|52:272,1,143.999995605469,12|0,0:1|0:0,0:0:0:0:
64,288,215453,1,8,0:1:0:0:
256,340,215624,1,8,0:0:0:0:
256,340,215709,1,8,0:0:0:0:
256,340,215794,2,0,P|280:344|308:340,1,47.9999985351563,8|8,0:0|0:0,0:0:0:0:
336,124,215965,2,0,P|312:120|284:124,1,47.9999985351563,8|8,0:0|0:0,0:0:0:0:
288,228,216135,69,4,0:1:0:0:
200,56,216306,1,2,0:3:0:0:
392,56,216476,1,8,0:0:0:0:
172,168,216646,1,0,0:0:0:0:
296,8,216817,5,2,0:3:0:0:
404,212,216987,1,2,0:3:0:0:
200,40,217158,1,8,0:0:0:0:
192,292,217328,1,2,0:0:0:0:
404,196,217499,70,0,B|356:188|356:188|308:196,1,95.9999970703126,2|2,0:3|0:3,0:0:0:0:
80,128,217840,1,8,0:0:0:0:
80,128,218010,2,0,B|152:140|152:140|224:128,1,143.999995605469,0|0,0:0|0:0,0:0:0:0:
244,124,218351,1,2,0:3:0:0:
108,292,218521,2,0,B|156:300|156:300|204:292,1,95.9999970703126,8|2,0:0|0:0,0:0:0:0:
384,256,218862,5,2,0:3:0:0:
244,124,219033,1,2,0:3:0:0:
192,312,219203,1,8,0:0:0:0:
368,128,219374,1,0,0:0:0:0:
304,364,219544,69,2,0:3:0:0:
128,200,219715,1,2,0:3:0:0:
400,264,219885,1,8,0:0:0:0:
320,44,220056,1,2,0:0:0:0:
320,44,220141,1,2,0:0:0:0:
320,44,220226,6,0,P|273:36|213:52,1,95.9999970703126,2|2,0:3|0:3,0:0:0:0:
272,144,220567,2,0,P|233:172|202:226,1,95.9999970703126,8|0,0:0|0:0,0:0:0:0:
308,248,220908,2,0,P|300:296|316:356,1,95.9999970703126,2|2,0:3|0:3,0:0:0:0:
332,344,221163,1,0,0:0:0:0:
356,344,221249,1,8,0:0:0:0:
88,344,221419,1,8,0:0:0:0:
88,344,221504,1,8,0:0:0:0:
88,344,221590,70,0,P|98:292|89:240,1,100,4|2,0:1|0:3,0:0:0:0:
138,118,221931,2,0,L|40:100,1,100,8|0,0:0|0:0,0:0:0:0:
268,46,222271,2,0,P|261:95|271:143,1,100,2|2,0:3|0:3,0:0:0:0:
452,250,222612,1,10,0:0:0:0:
482,211,222697,1,2,0:0:0:0:
496,163,222782,1,2,0:0:0:0:
489,114,222867,1,2,0:0:0:0:
464,72,222953,6,0,L|350:93,1,103.999995239258,4|2,0:1|0:3,0:0:0:0:
360,280,223294,2,0,P|387:321|432:352,1,103.999995239258,8|0,0:0|0:0,0:0:0:0:
224,284,223635,1,2,0:3:0:0:
224,284,223806,1,2,0:3:0:0:
80,169,223976,2,0,B|168:201|155:128|262:161,1,155.999992858887,8|2,0:0|0:0,0:0:0:0:
230,153,224317,70,0,P|238:215|225:276,1,108.000000411987,2|2,0:3|0:3,0:0:0:0:
285,17,224658,2,0,P|334:54|369:107,1,108.000000411987,8|0,0:0|0:0,0:0:0:0:
488,228,224999,1,2,0:3:0:0:
488,228,225169,1,2,0:3:0:0:
344,352,225340,2,0,P|332:271|349:191,1,162.000000617981,8|2,0:0|0:0,0:0:0:0:
376,172,225681,6,0,L|488:180,1,111.999996582031,4|2,0:1|0:3,0:0:0:0:
216,280,226021,2,0,L|104:288,1,111.999996582031,8|0,0:0|3:0,0:0:0:0:
232,148,226362,2,0,L|227:79,2,55.9999982910157,2|8|2,0:3|0:0|0:3,0:0:0:0:
324,356,226703,1,8,0:0:0:0:
104,303,226874,1,8,0:0:0:0:
104,303,226959,1,8,0:0:0:0:
104,303,227044,69,12,0:1:0:0:
424,272,227215,1,2,0:3:0:0:
104,287,227385,5,8,0:0:0:0:
440,144,227556,1,2,0:3:0:0:
104,276,227726,69,8,0:0:0:0:
309,4,227896,1,8,0:0:0:0:
298,58,227981,1,8,0:0:0:0:
312,112,228067,1,8,0:0:0:0:
323,166,228151,1,8,0:0:0:0:
312,221,228237,2,0,L|293:284,1,55.9999982910157,8|8,0:0|0:2,0:0:0:0:
389,53,228408,5,12,0:1:0:0:
64,44,229569,1,8,0:0:0:0:
64,44,229646,1,8,0:0:0:0:
64,44,229771,70,0,P|140:36|220:60,1,160,4|8,0:1|0:0,0:0:0:0:
328,128,230283,1,0,0:0:0:0:
376,244,230453,2,0,P|380:280|384:328,1,80,2|2,0:3|0:3,0:0:0:0:
239,257,230794,2,0,P|239:217|239:177,1,80,8|2,0:0|0:0,0:0:0:0:
123,338,231135,6,0,P|119:284|113:231,1,80,2|0,0:3|0:0,0:0:0:0:
95,140,231476,1,8,0:0:0:0:
108,28,231646,1,0,0:0:0:0:
108,28,231732,1,0,0:0:0:0:
108,28,231817,2,0,P|160:36|188:56,1,80,2|0,0:3|0:0,0:0:0:0:
320,48,232158,2,0,P|312:99|292:128,1,80,8|0,0:0|0:0,0:0:0:0:
184,296,232499,70,0,B|268:268|260:332|349:303,1,160,2|8,0:3|0:0,0:0:0:0:
464,208,233010,1,0,0:0:0:0:
300,136,233181,2,0,L|312:232,1,80,2|0,0:3|0:0,0:0:0:0:
172,129,233521,2,0,L|181:49,1,80,8|2,0:0|0:0,0:0:0:0:
88,228,233862,6,0,P|64:308|92:376,1,160,2|8,0:3|0:0,0:0:0:0:
240,260,234374,1,2,0:0:0:0:
240,260,234459,1,2,0:0:0:0:
240,260,234544,2,0,P|226:306|242:345,1,80,2|2,0:3|0:0,0:0:0:0:
392,272,234885,1,8,0:0:0:0:
56,112,235226,70,0,B|112:112|112:112|164:132|164:132|212:132,1,160,2|8,0:3|0:0,0:0:0:0:
360,128,235737,1,0,0:0:0:0:
264,28,235908,2,0,P|228:24|176:28,1,80,2|0,0:3|0:0,0:0:0:0:
184,232,236249,2,0,P|220:236|272:232,1,80,8|0,0:0|0:0,0:0:0:0:
364,220,236504,1,2,0:0:0:0:
364,220,236590,6,0,B|336:304|400:296|371:385,1,160,2|8,0:3|0:0,0:0:0:0:
444,256,237101,1,0,0:3:0:0:
472,112,237271,2,0,P|480:72|471:32,1,80,2|2,0:3|0:3,0:0:0:0:
272,216,237612,2,0,P|264:256|272:295,1,80,8|8,0:0|0:0,0:0:0:0:
188,336,237868,1,8,0:0:0:0:
188,336,237953,70,0,P|112:348|52:292,1,138.000002632141,12|0,0:1|0:0,0:0:0:0:
72,288,238294,1,8,0:0:0:0:
48,112,238465,6,0,P|124:100|184:156,1,138.000002632141,4|0,0:1|0:0,0:0:0:0:
164,160,238806,1,2,0:3:0:0:
300,56,238976,69,8,0:0:0:0:
300,56,239146,1,2,0:3:0:0:
352,252,239317,5,8,0:0:0:0:
352,252,239487,1,2,0:3:0:0:
472,112,239658,69,8,0:0:0:0:
472,112,239828,1,2,0:3:0:0:
248,228,239999,5,8,0:0:0:0:
460,312,240169,1,8,0:0:0:0:
415,298,240254,1,8,0:0:0:0:
370,299,240339,1,8,0:0:0:0:
327,316,240424,1,8,0:0:0:0:
285,333,240509,1,8,0:0:0:0:
239,335,240595,1,8,0:0:0:0:
195,325,240680,69,4,0:1:0:0:
256,192,240766,12,8,243408,0:3:0:0:
