osu file format v14

[General]
AudioFilename: audio.mp3
AudioLeadIn: 0
PreviewTime: 204253
Countdown: 0
SampleSet: Soft
StackLeniency: 0.7
Mode: 0
LetterboxInBreaks: 0
WidescreenStoryboard: 0

[Editor]
Bookmarks: 731,17094,38912,53912,63458,74367,86640,101640,112549,127549,137094,148003,160276,172549,183458,194367,205276,216185,228458
DistanceSpacing: 0.7
BeatDivisor: 4
GridSize: 16
TimelineZoom: 2.3

[Metadata]
Title:SHIORI
TitleUnicode:SHIORI
Artist:ClariS
ArtistUnicode:ClariS
Creator:PantherVor
Version:Luminosity
Source:終物語
Tags:
BeatmapID:2107109
BeatmapSetID:1006839

[Difficulty]
HPDrainRate:5
CircleSize:3.8
OverallDifficulty:8.4
ApproachRate:9
SliderMultiplier:1.4
SliderTickRate:1

[Events]
//Background and Video events
0,0,"shiori.jpg",0,0
//Break Periods
2,90931,99676
2,161840,166153
2,183658,192403
//Storyboard Layer 0 (Background)
//Storyboard Layer 1 (Fail)
//Storyboard Layer 2 (Pass)
//Storyboard Layer 3 (Foreground)
//Storyboard Sound Samples

[TimingPoints]
731,340.909090909091,4,2,11,53,1,0
731,-133.333333333333,4,2,11,53,0,0
5844,-200,4,2,11,53,0,0
6100,-200,4,2,11,5,0,0
6185,-100,4,2,10,53,0,0
8571,-200,4,2,10,53,0,0
8827,-100,4,2,10,5,0,0
8912,-100,4,2,10,53,0,0
11299,-200,4,2,10,53,0,0
11554,-100,4,2,10,5,0,0
11640,-100,4,2,10,68,0,1
13003,-100,4,2,10,68,0,0
14367,-100,4,2,10,68,0,1
17094,-100,4,2,10,56,0,0
18458,-100,4,2,10,56,0,0
18713,-100,4,2,10,5,0,0
18799,-100,4,2,10,56,0,0
21185,-100,4,2,10,56,0,0
21441,-100,4,2,10,5,0,0
21526,-100,4,2,10,56,0,0
29367,-100,4,2,10,56,0,0
29623,-100,4,2,10,5,0,0
29708,-100,4,2,10,56,0,0
32350,-100,4,2,10,5,0,0
32435,-100,4,2,10,56,0,0
34395,-100,4,2,10,5,0,0
34481,-100,4,2,10,56,0,0
49481,-200,4,2,10,56,0,0
49736,-100,4,2,10,5,0,0
49821,-100,4,2,10,56,0,0
53912,-66.6666666666667,4,2,10,62,0,0
54424,-66.6666666666667,4,2,10,5,0,0
54594,-100,4,2,10,62,0,0
55106,-100,4,2,10,5,0,0
55276,-100,4,2,11,30,0,0
58003,-100,4,2,10,68,0,1
62094,-200,4,2,10,68,0,0
62435,-200,4,2,10,5,0,0
62606,-133.333333333333,4,2,10,68,0,0
62946,-200,4,2,10,5,0,0
63117,-266.666666666667,4,2,10,68,0,0
63458,-80,4,2,10,68,0,1
68827,-80,4,2,10,5,0,1
68912,-80,4,2,10,68,0,1
82463,-80,4,2,10,5,0,1
82549,-80,4,2,10,68,0,1
83827,-80,4,2,10,5,0,1
83912,-80,4,2,10,68,0,1
86640,-80,4,2,10,68,0,0
100276,-100,4,2,11,56,0,0
100958,-200,4,2,11,56,0,0
101640,-100,4,2,10,56,0,0
116554,-100,4,2,10,5,0,0
116640,-100,4,2,10,56,0,0
117918,-100,4,2,10,5,0,0
118003,-100,4,2,10,56,0,0
119282,-100,4,2,10,5,0,0
119367,-100,4,2,10,56,0,0
124736,-100,4,2,10,5,0,0
124821,-100,4,2,10,56,0,0
126100,-100,4,2,10,5,0,0
126185,-100,4,2,10,56,0,0
127549,-66.6666666666667,4,2,10,56,0,0
128231,-100,4,2,10,56,0,0
128912,-100,4,2,11,30,0,0
131639,-100,4,2,10,20,0,0
131640,-83.3333333333333,4,2,10,68,0,1
132151,-71.4285714285714,4,2,10,68,0,1
132662,-62.5,4,2,10,68,0,1
135731,-200,4,2,10,68,0,0
136071,-200,4,2,10,5,0,0
136242,-133.333333333333,4,2,10,68,0,0
136583,-133.333333333333,4,2,10,5,0,0
136753,-266.666666666667,4,2,10,68,0,0
137094,-83.3333333333333,4,2,10,68,0,1
142463,-83.3333333333333,4,2,10,5,0,1
142549,-83.3333333333333,4,2,10,68,0,1
156100,-83.3333333333333,4,2,10,5,0,1
156185,-83.3333333333333,4,2,10,68,0,1
160276,-83.3333333333333,4,2,10,68,0,0
161640,-83.3333333333333,4,2,10,53,0,0
167094,-100,4,2,10,53,0,0
180986,-100,4,2,10,5,0,0
181071,-100,4,2,10,53,0,0
183458,-100,4,2,11,40,0,0
194367,-100,4,2,10,50,0,0
199821,-83.3333333333333,4,2,10,53,0,0
200077,-100,4,2,10,5,0,0
200162,-100,4,2,10,68,0,1
202549,-66.6666666666667,4,2,10,68,0,1
203912,-66.6666666666667,4,2,10,68,0,0
204956,-66.6666666666667,4,2,10,5,0,0
205276,-100,4,2,10,68,0,0
208003,-100,4,2,10,68,0,1
209367,-100,4,2,10,68,0,0
210390,-133.333333333333,4,2,10,68,0,0
210645,-83.3333333333333,4,2,10,5,0,0
210731,-83.3333333333333,4,2,10,68,0,1
213373,-83.3333333333333,4,2,10,5,0,1
213458,-83.3333333333333,4,2,10,68,0,1
228458,-83.3333333333333,4,2,10,68,0,0
240731,-133.333333333333,4,2,10,68,0,0
241412,-133.333333333333,4,2,10,48,0,0
242094,-133.333333333333,4,2,10,26,0,0
242606,-133.333333333333,4,2,10,13,0,0
243117,-133.333333333333,4,2,10,5,0,0
243287,-133.333333333333,4,2,10,68,0,0

[HitObjects]
395,78,560,5,0,0:0:0:0:
395,78,731,2,0,L|400:150,1,52.5000020027161,4|0,0:0|0:0,0:0:0:0:
314,104,1071,2,0,L|309:176,1,52.5000020027161,0|0,0:0|0:0,0:0:0:0:
218,194,1412,2,0,L|213:122,1,52.5000020027161,2|0,0:0|0:0,0:0:0:0:
304,156,1753,2,0,L|309:84,1,52.5000020027161,0|0,0:0|0:0,0:0:0:0:
168,39,2094,2,0,P|192:30|222:30,1,52.5000020027161,2|0,0:0|0:0,0:0:0:0:
258,92,2435,2,0,P|286:103|315:102,1,52.5000020027161,0|0,0:0|0:0,0:0:0:0:
454,131,2776,2,0,P|427:119|397:120,1,52.5000020027161,2|0,0:0|0:0,0:0:0:0:
364,185,3117,2,0,P|337:197|307:196,1,52.5000020027161,0|0,0:0|0:0,0:0:0:0:
323,66,3458,6,0,L|327:134,1,52.5000020027161,4|0,0:0|0:0,0:0:0:0:
232,200,3799,2,0,L|236:140,1,52.5000020027161,0|0,0:0|0:0,0:0:0:0:
206,43,4140,2,0,L|136:39,1,52.5000020027161,2|0,0:0|0:0,0:0:0:0:
73,128,4481,2,0,L|133:124,1,52.5000020027161,0|0,0:0|0:0,0:0:0:0:
313,186,4821,2,0,B|198:190,1,105.000004005432,2|0,0:0|0:0,0:0:0:0:
230,58,5333,1,0,0:0:0:0:
230,58,5503,2,0,P|221:97|226:130,1,52.5000020027161,2|0,0:0|0:0,0:0:0:0:
341,240,5844,2,0,L|345:181,1,52.5,0|0,0:0|0:0,0:0:0:0:
348,170,6185,6,0,P|286:150|255:272,1,210,4|0,3:2|0:0,0:0:0:0:
343,309,6867,1,0,0:0:0:0:
486,211,7549,2,0,L|257:199,1,210,4|8,3:2|0:0,0:0:0:0:
176,154,8231,2,0,P|159:120|173:61,1,70,0|0,0:0|0:0,0:0:0:0:
301,100,8571,2,0,L|237:104,1,52.5,4|0,0:3|0:0,0:0:0:0:
231,103,8912,6,0,B|179:135|110:113|149:110|75:85|24:114,1,210,4|0,3:2|0:0,0:0:0:0:
25,303,9594,2,0,B|61:273|75:246|77:198|77:198|76:231|96:263|133:271,1,210,0|0,0:0|0:0,0:0:0:0:
281,222,10276,2,0,P|209:189|129:212,1,140,4|0,3:2|0:0,0:0:0:0:
197,350,10787,2,0,L|203:271,1,70,8|0,0:3|0:0,0:0:0:0:
304,139,11128,1,0,0:0:0:0:
336,326,11299,2,0,L|333:260,1,52.5,4|0,0:3|0:0,0:0:0:0:
331,256,11640,5,4,3:2:0:0:
210,369,11810,1,0,0:0:0:0:
235,162,11981,1,8,0:2:0:0:
302,348,12151,1,8,0:0:0:0:
326,120,12321,1,8,0:2:0:0:
193,301,12492,1,8,0:0:0:0:
245,27,12662,1,8,0:0:0:0:
321,282,12833,1,8,0:2:0:0:
103,49,13003,5,8,0:0:0:0:
455,65,14026,5,2,0:0:0:0:
455,65,14111,1,2,0:0:0:0:
455,65,14196,1,2,0:0:0:0:
455,65,14282,1,2,0:0:0:0:
455,65,14367,5,14,0:0:0:0:
277,32,14537,1,0,3:2:0:0:
388,162,14708,1,0,3:2:0:0:
189,59,14878,5,14,0:0:0:0:
367,26,15048,1,0,3:2:0:0:
256,156,15219,1,0,3:2:0:0:
493,202,15390,5,14,0:2:0:0:
327,100,15560,1,0,3:2:0:0:
381,318,15731,1,0,3:2:0:0:
438,104,15901,5,10,0:0:0:0:
297,309,16071,1,8,0:2:0:0:
255,63,16242,1,0,3:0:0:0:
436,248,16412,5,10,0:0:0:0:
116,213,16583,1,10,0:0:0:0:
426,33,16753,1,10,0:0:0:0:
426,55,16838,1,8,0:0:0:0:
425,77,16923,1,8,0:0:0:0:
424,100,17008,1,8,0:0:0:0:
423,122,17094,6,0,L|420:201,1,70,6|0,3:2|0:0,0:0:0:0:
317,209,17435,2,0,L|321:288,1,70,0|2,0:0|0:0,0:0:0:0:
365,373,17776,2,0,P|328:383|278:375,1,70,0|0,3:2|0:0,0:0:0:0:
169,312,18117,2,0,P|203:302|238:304,1,70,0|8,3:2|0:0,0:0:0:0:
425,291,18458,2,0,L|314:278,1,105,2|0,3:2|0:0,0:0:0:0:
305,276,18799,2,0,P|296:242|301:208,1,70,0|0,3:2|0:0,0:0:0:0:
344,93,19140,2,0,P|320:117|288:130,1,70,2|8,3:2|0:3,0:0:0:0:
167,150,19481,2,0,P|201:159|228:180,1,70,0|4,3:2|0:3,0:0:0:0:
191,351,19821,6,0,P|150:309|168:225,1,140,2|0,3:2|0:0,0:0:0:0:
230,277,20333,1,2,0:0:0:0:
308,102,20503,2,0,L|313:250,1,140,0|0,3:2|3:2,0:0:0:0:
399,146,21015,1,8,0:0:0:0:
489,291,21185,2,0,P|450:270|387:277,1,105,2|0,3:2|0:0,0:0:0:0:
378,286,21526,2,0,L|368:189,1,70,0|0,3:2|0:0,0:0:0:0:
214,211,21867,2,0,L|224:114,1,70,2|8,3:2|0:3,0:0:0:0:
361,110,22208,2,0,L|351:13,1,70,0|0,3:2|0:0,0:0:0:0:
464,186,22549,6,0,B|426:166|387:186|407:186|368:205|329:186,1,140,2|0,3:2|0:0,0:0:0:0:
431,262,23060,1,2,0:0:0:0:
305,323,23231,2,0,P|266:325|224:305,1,70,0|0,3:2|0:0,0:0:0:0:
195,233,23571,2,0,P|156:231|114:251,1,70,0|8,3:2|0:0,0:0:0:0:
51,347,23912,2,0,L|50:272,1,70,2|0,3:2|0:0,0:0:0:0:
0,165,24253,2,0,P|36:185|83:183,1,70,0|0,3:2|0:0,0:0:0:0:
179,80,24594,2,0,P|144:101|122:142,1,70,2|0,3:2|0:0,0:0:0:0:
164,277,24935,2,0,P|164:235|139:196,1,70,2|0,3:2|0:0,0:0:0:0:
26,148,25276,6,0,P|92:123|179:135,1,140,2|0,3:2|0:0,0:0:0:0:
246,192,25787,2,0,L|242:104,1,70,2|0,0:0|0:0,0:0:0:0:
314,24,26128,2,0,L|318:93,2,70,0|0|8,0:0|3:2|0:0,0:0:0:0:
505,131,26640,2,0,P|440:162|366:155,1,140,2|0,3:2|0:0,0:0:0:0:
415,31,27151,1,0,0:0:0:0:
298,192,27321,2,0,P|291:150|316:103,1,70,0|8,0:0|0:0,0:0:0:0:
451,112,27662,1,4,0:3:0:0:
287,33,27833,1,4,0:3:0:0:
287,33,27918,1,4,0:3:0:0:
287,33,28003,6,0,L|130:46,1,140,6|0,3:2|0:0,0:0:0:0:
46,14,28515,1,2,0:0:0:0:
9,180,28685,2,0,P|-2:131|7:98,1,70,0|0,3:2|0:0,0:0:0:0:
117,228,29026,2,0,P|128:179|119:146,1,70,0|8,3:2|0:0,0:0:0:0:
99,337,29367,2,0,P|151:332|193:301,1,105,2|0,3:2|0:0,0:0:0:0:
194,284,29708,2,0,L|203:192,1,70,0|0,3:2|0:0,0:0:0:0:
285,135,30049,2,0,L|294:227,1,70,0|0,3:2|0:0,0:0:0:0:
427,266,30390,2,0,P|390:276|344:267,1,70,0|0,3:2|0:0,0:0:0:0:
218,358,30731,6,0,P|281:341|368:381,1,140,2|0,3:2|0:0,0:0:0:0:
466,319,31242,1,2,0:0:0:0:
375,198,31412,2,0,P|371:240|384:275,1,70,0|0,0:0|0:0,0:0:0:0:
468,222,31753,1,0,3:2:0:0:
336,71,31924,1,10,0:0:0:0:
336,71,32009,1,2,0:0:0:0:
336,71,32094,2,0,L|223:76,1,105,2|0,3:2|0:0,0:0:0:0:
206,72,32435,2,0,P|202:37|210:3,1,70,0|0,3:2|0:0,0:0:0:0:
25,25,32776,2,0,P|59:16|94:20,1,70,0|0,3:2|0:0,0:0:0:0:
65,173,33117,2,0,L|61:103,1,70,0|0,3:2|0:0,0:0:0:0:
1,237,33458,6,0,P|72:263|133:231,1,140,2|0,3:2|0:0,0:0:0:0:
99,126,33969,1,2,0:0:0:0:
211,257,34140,2,0,L|206:145,1,105,0|0,3:2|0:0,0:0:0:0:
203,134,34481,2,0,P|153:122|119:130,1,70,0|8,3:2|0:0,0:0:0:0:
69,299,34821,2,0,L|62:156,2,140,2|0|0,3:2|3:2|3:2,0:0:0:0:
138,372,35674,1,8,0:0:0:0:
238,359,35844,1,0,3:2:0:0:
286,270,36015,1,0,0:0:0:0:
52,292,36185,6,0,B|149:304|149:304|191:275,1,140,6|0,3:2|0:0,0:0:0:0:
210,172,36696,2,0,P|171:162|134:163,1,70,2|0,0:0|0:0,0:0:0:0:
58,259,37037,1,0,0:0:0:0:
95,96,37208,1,2,3:2:0:0:
157,273,37378,1,10,0:0:0:0:
199,56,37549,5,6,3:2:0:0:
101,333,37719,1,10,0:0:0:0:
27,66,37890,1,2,3:2:0:0:
280,210,38060,1,8,0:3:0:0:
0,195,38231,1,2,3:2:0:0:
253,68,38401,1,4,0:3:0:0:
136,299,38571,2,0,L|134:226,1,70,2|0,3:2|0:0,0:0:0:0:
234,163,38912,6,0,P|183:124|84:118,1,140,6|0,3:2|0:0,0:0:0:0:
42,252,39424,1,2,3:2:0:0:
197,273,39594,2,0,P|253:267|284:255,1,70,0|0,0:0|0:0,0:0:0:0:
395,172,39935,2,0,P|362:164|327:162,1,70,4|0,0:3|0:0,0:0:0:0:
416,358,40276,2,0,B|420:259|420:259|460:233,1,140,2|0,3:2|0:0,0:0:0:0:
510,316,40787,1,0,0:0:0:0:
454,145,40958,2,0,P|471:190|466:215,1,70,2|0,0:0|0:0,0:0:0:0:
372,293,41299,2,0,P|371:259|386:228,1,70,4|0,0:3|0:0,0:0:0:0:
354,149,41640,6,0,P|266:141|205:169,1,140,2|0,3:2|0:0,0:0:0:0:
294,254,42151,1,2,3:2:0:0:
218,348,42321,2,0,L|143:352,1,70,0|0,0:0|0:0,0:0:0:0:
87,251,42662,2,0,L|18:248,1,70,4|0,0:3|0:0,0:0:0:0:
40,352,43003,2,0,P|131:361|179:316,1,140,2|0,3:2|0:0,0:0:0:0:
87,251,43515,1,0,3:2:0:0:
0,107,43685,2,0,L|8:265,1,140,2|8,0:0|0:0,0:0:0:0:
84,146,44196,1,0,0:0:0:0:
0,16,44367,6,0,P|78:44|136:39,1,140,4|0,3:2|0:0,0:0:0:0:
255,0,44878,1,2,3:2:0:0:
184,120,45049,2,0,P|176:162|181:195,1,70,0|0,0:0|0:0,0:0:0:0:
304,305,45390,2,0,P|312:271|309:237,1,70,4|0,0:3|0:0,0:0:0:0:
90,285,45731,2,0,P|159:299|225:266,1,140,2|0,3:2|0:0,0:0:0:0:
144,191,46242,1,0,0:0:0:0:
337,122,46412,2,0,P|303:115|269:120,1,70,2|0,0:0|0:0,0:0:0:0:
432,257,46753,2,0,P|398:262|364:255,1,70,4|0,0:3|0:0,0:0:0:0:
414,48,47094,6,0,B|429:152|429:152|405:177,1,140,2|0,3:2|0:0,0:0:0:0:
337,122,47606,1,2,3:2:0:0:
231,202,47776,2,0,L|310:197,1,70,0|0,0:0|0:0,0:0:0:0:
129,69,48117,2,0,L|208:74,1,70,4|0,0:3|0:0,0:0:0:0:
366,2,48458,2,0,B|338:18|291:5|304:3|271:-18|231:0,1,140,2|0,3:2|0:0,0:0:0:0:
334,108,48969,1,2,3:2:0:0:
334,108,49054,1,2,0:0:0:0:
334,108,49140,2,0,P|287:104|252:75,1,70,2|0,3:2|0:0,0:0:0:0:
89,24,49481,2,0,L|157:19,1,52.5,8|0,0:0|0:0,0:0:0:0:
159,19,49821,6,0,P|174:89|141:168,1,140,6|0,3:2|0:0,0:0:0:0:
5,174,50333,1,2,3:2:0:0:
85,269,50503,2,0,P|128:281|166:281,1,70,0|0,0:0|0:0,0:0:0:0:
227,371,50844,2,0,P|253:347|272:318,1,70,4|0,0:3|0:0,0:0:0:0:
371,243,51185,2,0,P|309:196|240:203,1,140,2|0,3:2|0:0,0:0:0:0:
181,282,51696,1,0,0:0:0:0:
101,147,51867,2,0,L|107:217,1,70,2|0,0:0|0:0,0:0:0:0:
216,57,52208,2,0,L|210:127,1,70,4|0,0:3|0:0,0:0:0:0:
90,8,52549,6,0,L|104:164,1,140,2|0,3:2|0:0,0:0:0:0:
134,315,53060,1,8,0:0:0:0:
134,315,53145,1,8,0:0:0:0:
134,315,53231,6,0,L|68:326,2,46.6666666666667,10|0|0,0:0|0:0|0:0,0:0:0:0:
268,268,53571,2,0,L|334:279,2,46.6666666666667,8|0|0,0:3|0:0|0:0,0:0:0:0:
150,70,53912,6,0,L|167:389,1,315.000012016297,4|0,3:2|0:0,0:0:0:0:
240,121,54594,6,0,L|252:334,1,210.000008010865,4|0,3:2|0:0,0:0:0:0:
330,225,55276,5,4,0:0:0:0:
330,225,56640,5,2,0:0:0:0:
294,128,58003,5,10,0:0:0:0:
294,257,58174,1,8,0:0:0:0:
182,192,58344,1,8,0:0:0:0:
343,143,58515,5,10,0:0:0:0:
256,292,58686,1,8,0:0:0:0:
170,143,58856,1,8,0:0:0:0:
392,159,59026,5,10,0:0:0:0:
219,327,59196,1,8,0:0:0:0:
159,94,59367,1,8,0:0:0:0:
442,176,59537,5,10,0:0:0:0:
131,256,59708,1,8,0:0:0:0:
414,306,59878,5,8,0:0:0:0:
307,69,60049,1,10,0:0:0:0:
206,347,60219,1,8,0:0:0:0:
205,44,60390,1,8,0:0:0:0:
320,361,60560,1,8,0:0:0:0:
408,125,60731,5,14,0:0:0:0:
120,234,60901,1,0,3:2:0:0:
408,343,61071,1,0,3:2:0:0:
81,105,61242,5,10,0:0:0:0:
369,214,61412,1,0,3:2:0:0:
81,323,61582,1,10,0:0:0:0:
221,126,61753,5,2,3:2:0:0:
222,105,61838,1,2,0:0:0:0:
225,83,61923,1,4,0:3:0:0:
227,61,62008,1,4,0:3:0:0:
230,39,62094,6,0,P|208:17|196:43,1,70,6|0,3:2|0:0,0:0:0:0:
326,129,62606,6,0,L|340:252,1,105.000004005432,0|0,0:0|0:0,0:0:0:0:
409,151,63117,6,0,L|413:187,1,26.2500010013581,0|0,0:0|0:0,0:0:0:0:
503,263,63458,6,0,P|453:289|324:266,1,175,6|8,3:2|0:0,0:0:0:0:
304,97,63969,1,2,0:0:0:0:
210,314,64140,1,0,3:2:0:0:
409,158,64310,1,0,3:2:0:0:
183,189,64481,2,0,L|269:199,1,87.5,10|0,0:0|0:0,0:0:0:0:
304,205,64736,1,0,0:0:0:0:
338,210,64821,6,0,P|352:152|348:112,1,87.5,2|0,3:2|0:0,0:0:0:0:
256,9,65162,1,10,0:0:0:0:
148,176,65333,2,0,P|154:117|172:81,1,87.5,2|0,0:0|3:2,0:0:0:0:
353,43,65674,1,2,3:2:0:0:
203,268,65844,1,10,0:0:0:0:
62,67,66015,1,2,0:0:0:0:
62,67,66100,1,2,0:0:0:0:
62,67,66185,6,0,L|70:192,1,87.5,2|0,3:2|0:0,0:0:0:0:
134,352,66526,2,0,L|139:265,1,87.5,8|2,0:0|0:2,0:0:0:0:
182,121,66867,1,0,3:2:0:0:
28,263,67037,1,0,0:0:0:0:
278,289,67208,2,0,P|235:303|191:297,1,87.5,8|0,0:0|0:0,0:0:0:0:
93,43,67549,6,0,P|79:86|85:130,1,87.5,2|2,3:2|3:2,0:0:0:0:
228,213,67890,1,10,0:0:0:0:
180,94,68060,1,2,0:0:0:0:
373,237,68231,1,2,3:2:0:0:
373,237,68316,1,0,0:0:0:0:
373,237,68401,1,2,3:2:0:0:
280,3,68571,2,0,B|289:88|289:88|329:117,1,131.25,10|0,0:0|0:0,0:0:0:0:
358,130,68912,6,0,P|311:119|262:137,1,87.5,6|0,3:2|0:0,0:0:0:0:
112,230,69253,2,0,P|153:242|195:231,1,87.5,8|0,0:0|0:0,0:0:0:0:
241,21,69594,1,0,0:0:0:0:
152,148,69765,1,0,3:2:0:0:
380,179,69935,2,0,P|339:191|297:180,1,87.5,8|0,0:0|0:0,0:0:0:0:
270,157,70191,1,0,0:0:0:0:
250,129,70276,6,0,L|254:27,1,87.5,6|0,3:2|0:0,0:0:0:0:
504,0,70617,2,0,L|500:88,1,87.5,8|0,0:0|0:0,0:0:0:0:
230,137,70958,2,0,L|234:35,1,87.5,2|0,3:2|3:2,0:0:0:0:
485,8,71299,2,0,L|481:96,1,87.5,8|0,0:0|0:0,0:0:0:0:
343,259,71640,5,6,3:2:0:0:
306,66,71810,1,0,3:2:0:0:
498,198,71981,2,0,P|455:206|412:197,1,87.5,10|0,0:0|0:0,0:0:0:0:
439,34,72321,1,0,3:2:0:0:
317,214,72492,1,0,3:2:0:0:
251,6,72662,2,0,P|244:58|254:92,1,87.5,8|2,0:0|3:2,0:0:0:0:
273,121,72918,1,2,0:0:0:0:
301,142,73003,5,14,0:0:0:0:
33,37,73174,1,0,0:0:0:0:
403,83,73344,5,14,0:0:0:0:
135,188,73515,1,0,0:0:0:0:
135,188,73600,1,0,0:0:0:0:
135,188,73685,6,0,L|141:257,1,43.75,10|0,0:0|0:0,0:0:0:0:
316,384,73856,2,0,L|312:341,1,43.75,8|8,0:0|0:0,0:0:0:0:
253,117,74026,6,0,L|259:186,1,43.75,10|8,0:0|0:0,0:0:0:0:
434,313,74197,2,0,L|430:270,1,43.75,8|8,0:0|0:0,0:0:0:0:
391,89,74367,5,6,3:2:0:0:
275,286,74537,1,0,3:2:0:0:
260,42,74708,1,8,0:0:0:0:
376,239,74878,1,2,0:0:0:0:
171,172,75049,2,0,P|221:160|262:165,1,87.5,0|0,3:2|3:2,0:0:0:0:
407,334,75390,2,0,P|363:337|321:326,1,87.5,8|2,0:0|0:0,0:0:0:0:
292,306,75645,1,0,0:0:0:0:
277,274,75731,6,0,P|275:326|285:365,1,87.5,2|0,3:2|0:0,0:0:0:0:
299,100,76071,1,10,0:0:0:0:
453,172,76242,2,0,P|457:228|445:268,1,87.5,0|2,0:0|3:2,0:0:0:0:
287,384,76583,1,0,3:2:0:0:
512,359,76753,1,10,0:0:0:0:
279,275,76924,1,2,0:0:0:0:
485,176,77094,5,2,3:2:0:0:
404,353,77265,1,0,3:2:0:0:
366,161,77435,2,0,L|373:262,1,87.5,8|2,0:0|0:0,0:0:0:0:
488,41,77776,2,0,L|481:142,1,87.5,0|0,3:2|3:2,0:0:0:0:
344,41,78117,1,8,0:0:0:0:
467,255,78287,1,2,0:0:0:0:
217,131,78458,5,2,3:2:0:0:
508,132,78628,1,0,0:0:0:0:
271,271,78799,1,10,0:0:0:0:
392,21,78969,2,0,P|403:72|388:124,1,87.5,0|2,0:0|3:2,0:0:0:0:
274,186,79310,1,0,3:2:0:0:
506,203,79481,1,10,0:0:0:0:
172,307,79651,1,8,0:0:0:0:
172,307,79736,1,0,0:0:0:0:
172,307,79821,6,0,L|180:184,1,87.5,6|0,3:2|0:0,0:0:0:0:
377,88,80162,2,0,L|371:176,1,87.5,8|0,0:0|0:0,0:0:0:0:
196,100,80503,1,0,3:2:0:0:
391,295,80674,1,0,3:2:0:0:
102,270,80844,1,10,0:0:0:0:
102,270,80929,1,2,0:0:0:0:
102,270,81015,1,2,0:0:0:0:
102,270,81100,1,2,0:0:0:0:
102,270,81185,6,0,P|169:284|208:276,1,87.5,6|0,3:2|0:0,0:0:0:0:
347,103,81526,2,0,P|305:91|261:92,1,87.5,8|0,0:0|0:0,0:0:0:0:
293,248,81867,1,2,3:2:0:0:
94,118,82037,1,0,3:2:0:0:
280,374,82208,2,0,B|300:331|300:331|292:230,1,131.25,8|0,0:0|0:0,0:0:0:0:
290,213,82549,6,0,P|350:207|401:237,1,87.5,6|0,3:2|3:2,0:0:0:0:
126,339,82890,2,0,P|83:348|41:336,1,87.5,8|0,0:0|0:0,0:0:0:0:
87,101,83231,1,2,3:2:0:0:
369,378,83401,1,0,3:2:0:0:
297,80,83571,2,0,P|311:158|301:214,1,131.25,8|8,0:0|0:0,0:0:0:0:
290,242,83912,6,0,L|180:244,1,87.5,2|0,3:2|3:2,0:0:0:0:
333,12,84253,2,0,L|420:11,1,87.5,8|0,0:0|0:0,0:0:0:0:
455,13,84509,1,0,0:0:0:0:
489,12,84594,1,2,3:2:0:0:
213,154,84765,1,0,3:2:0:0:
440,328,84935,1,8,0:0:0:0:
308,63,85106,1,8,0:0:0:0:
308,63,85191,1,8,0:0:0:0:
308,63,85276,5,6,3:2:0:0:
204,321,85446,1,10,0:0:0:0:
351,79,85617,5,10,0:0:0:0:
161,305,85787,1,10,0:0:0:0:
394,95,85958,5,10,0:0:0:0:
118,289,86128,2,0,L|162:292,1,43.75,10|8,0:0|0:0,0:0:0:0:
437,111,86299,6,0,L|393:108,1,43.75,10|8,0:0|0:0,0:0:0:0:
75,273,86469,2,0,L|119:276,1,43.75,10|8,0:0|0:0,0:0:0:0:
480,127,86640,5,10,0:0:0:0:
92,175,88003,6,0,P|71:271|178:217,1,262.5,6|10,3:2|0:0,0:0:0:0:
178,197,88600,1,10,0:0:0:0:
162,166,88685,1,10,0:0:0:0:
275,203,88856,1,8,0:3:0:0:
391,179,89026,1,4,0:3:0:0:
479,101,89196,1,4,0:3:0:0:
328,324,89367,5,14,0:0:0:0:
236,79,89537,1,10,0:0:0:0:
245,378,89708,1,10,0:0:0:0:
337,133,89878,1,10,0:0:0:0:
115,242,90049,1,10,0:0:0:0:
404,248,90219,1,2,3:2:0:0:
165,381,90390,2,0,L|173:279,1,87.5,10|0,0:0|0:0,0:0:0:0:
202,277,90645,1,0,0:0:0:0:
234,264,90731,5,6,0:0:0:0:
154,307,100276,6,0,P|125:208|159:111,1,210,2|0,0:0|0:0,0:0:0:0:
225,259,100958,6,0,P|210:210|227:161,1,105,2|4,0:0|0:3,0:0:0:0:
296,212,101554,1,4,0:3:0:0:
296,212,101640,6,0,L|367:214,1,70,6|0,3:2|0:0,0:0:0:0:
480,104,101981,2,0,L|410:103,1,70,0|0,3:2|0:0,0:0:0:0:
303,131,102321,2,0,P|300:97|313:65,1,70,0|0,3:2|0:0,0:0:0:0:
440,178,102662,2,0,P|453:211|450:245,1,70,0|0,3:2|0:0,0:0:0:0:
238,220,103003,2,0,P|290:243|371:222,1,140,2|0,3:2|3:2,0:0:0:0:
306,140,103515,1,2,0:0:0:0:
265,316,103685,2,0,P|299:321|334:319,1,70,0|0,3:2|0:0,0:0:0:0:
461,199,104026,1,0,3:2:0:0:
412,369,104196,1,8,0:0:0:0:
357,151,104367,6,0,L|368:301,1,140,2|0,3:2|3:2,0:0:0:0:
491,336,104878,1,2,0:0:0:0:
322,368,105049,2,0,P|363:381|401:372,1,70,0|0,3:2|0:0,0:0:0:0:
512,252,105390,2,0,P|477:248|444:261,1,70,0|10,3:2|0:0,0:0:0:0:
469,376,105731,1,2,3:2:0:0:
306,247,105901,1,8,0:0:0:0:
492,149,106071,2,0,P|456:162|400:151,1,70,0|2,3:2|0:0,0:0:0:0:
358,53,106412,5,0,3:2:0:0:
272,0,106583,1,8,0:3:0:0:
174,24,106753,1,4,0:3:0:0:
128,115,106924,1,0,0:0:0:0:
167,210,107094,6,0,B|201:245|201:245|310:230,1,140,2|0,3:2|3:2,0:0:0:0:
236,154,107606,1,2,0:0:0:0:
82,235,107776,2,0,P|78:198|91:163,1,70,0|0,3:2|0:0,0:0:0:0:
173,365,108117,2,0,P|177:328|164:293,1,70,0|10,3:2|0:0,0:0:0:0:
24,338,108458,2,0,L|100:342,1,70,2|0,3:2|0:0,0:0:0:0:
232,211,108799,2,0,L|162:207,1,70,0|8,3:2|0:0,0:0:0:0:
128,288,109140,1,2,3:2:0:0:
225,294,109310,1,8,0:3:0:0:
312,251,109481,2,0,P|320:204|307:166,1,70,4|2,0:3|0:0,0:0:0:0:
204,119,109821,6,0,B|243:133|283:117|261:105|302:91|339:104,1,140,6|0,3:2|3:2,0:0:0:0:
369,16,110333,2,0,P|421:61|422:149,1,140,2|2,0:0|0:0,0:0:0:0:
363,234,110844,1,2,3:2:0:0:
338,105,111015,1,10,0:0:0:0:
262,335,111185,5,6,3:2:0:0:
444,151,111356,1,10,0:0:0:0:
195,238,111526,1,2,3:2:0:0:
445,304,111697,1,8,0:3:0:0:
327,143,111867,2,0,L|245:134,1,70,2|4,3:2|0:3,0:0:0:0:
149,338,112208,2,0,L|231:329,1,70,2|4,3:2|0:3,0:0:0:0:
369,252,112549,6,0,P|300:258|241:222,1,140,6|0,3:2|0:0,0:0:0:0:
290,21,113060,2,0,P|328:77|326:146,1,140,2|0,3:2|0:0,0:0:0:0:
153,107,113571,2,0,L|223:111,1,70,4|0,0:3|0:0,0:0:0:0:
80,199,113912,2,0,P|41:142|43:73,1,140,2|0,3:2|0:0,0:0:0:0:
129,0,114424,1,0,3:2:0:0:
237,120,114594,2,0,L|168:115,1,70,2|8,0:0|0:0,0:0:0:0:
76,79,114935,2,0,L|6:84,1,70,4|0,0:3|0:0,0:0:0:0:
150,143,115276,6,0,P|171:77|147:13,1,140,2|0,3:2|0:0,0:0:0:0:
54,182,115787,2,0,P|99:233|167:244,1,140,2|0,3:2|0:0,0:0:0:0:
176,330,116299,2,0,P|224:313|250:269,1,105,4|0,0:3|0:0,0:0:0:0:
261,244,116640,2,0,B|272:347|272:347|315:374,1,140,2|0,3:2|0:0,0:0:0:0:
356,294,117151,1,0,3:2:0:0:
473,369,117321,2,0,L|371:365,1,70,2|0,0:0|3:2,0:0:0:0:
266,201,117662,2,0,L|400:206,1,105,8|0,0:0|0:0,0:0:0:0:
395,193,118003,6,0,B|406:145|406:145|369:62,1,140,6|0,3:2|0:0,0:0:0:0:
188,110,118515,2,0,B|223:143|223:143|314:153,1,140,2|0,3:2|0:0,0:0:0:0:
421,68,119026,2,0,B|303:55|303:55,1,105,4|0,0:3|0:0,0:0:0:0:
288,58,119367,2,0,P|274:144|209:177,1,140,2|0,3:2|0:0,0:0:0:0:
195,79,119878,1,0,3:2:0:0:
155,205,120049,2,0,L|165:295,1,70,2|8,0:0|0:0,0:0:0:0:
33,364,120390,2,0,L|43:274,1,70,4|0,0:3|0:0,0:0:0:0:
13,185,120731,6,0,P|74:222|163:215,1,140,2|0,3:2|0:0,0:0:0:0:
111,43,121242,2,0,L|105:122,1,70,2|0,3:2|0:0,0:0:0:0:
208,162,121583,1,0,0:0:0:0:
257,19,121753,1,4,0:3:0:0:
68,136,121924,1,2,0:0:0:0:
266,236,122094,2,0,P|190:273|116:262,1,140,2|0,3:2|0:0,0:0:0:0:
173,136,122606,1,10,0:0:0:0:
173,136,122691,1,10,0:0:0:0:
173,136,122776,1,10,0:0:0:0:
260,211,122946,1,8,0:3:0:0:
359,149,123117,1,4,0:3:0:0:
331,37,123287,1,4,0:3:0:0:
216,30,123458,6,0,L|222:192,1,140,6|0,3:2|0:0,0:0:0:0:
310,66,123969,1,2,3:2:0:0:
320,197,124140,2,0,L|317:127,1,70,0|0,0:0|0:0,0:0:0:0:
410,33,124481,2,0,L|414:155,1,105,4|0,0:3|0:0,0:0:0:0:
417,166,124821,6,0,P|352:192|286:168,1,140,2|0,3:2|0:0,0:0:0:0:
350,78,125333,1,0,3:2:0:0:
490,207,125503,1,2,0:0:0:0:
273,251,125674,1,8,0:0:0:0:
458,307,125844,2,0,P|410:334|356:336,1,105,4|0,0:3|0:0,0:0:0:0:
338,354,126185,2,0,L|481:365,1,140,2|0,3:2|0:0,0:0:0:0:
238,361,126696,1,8,0:0:0:0:
238,361,126782,1,8,0:0:0:0:
238,361,126867,6,0,L|231:289,2,46.6666666666667,10|8|8,0:0|0:0|0:3,0:0:0:0:
149,167,127208,2,0,L|144:213,2,46.6666666666667,8|4|4,0:3|0:3|0:3,0:0:0:0:
30,246,127549,6,0,P|148:332|255:234,1,315.000012016297,6|0,3:2|0:0,0:0:0:0:
64,233,128231,6,0,P|142:289|212:224,1,210,4|0,3:2|0:0,0:0:0:0:
138,213,128912,5,4,0:0:0:0:
138,213,130276,5,2,0:0:0:0:
166,266,131640,6,0,P|193:235|202:195,1,83.9999974365235,10|8,0:0|0:0,0:0:0:0:
204,61,131981,1,8,0:0:0:0:
359,326,132151,6,0,P|316:302|289:262,1,97.9999970092774,10|8,0:0|0:0,0:0:0:0:
298,98,132492,1,8,0:0:0:0:
160,384,132662,6,0,L|181:252,1,112,10|8,0:0|0:0,0:0:0:0:
250,64,133003,1,8,0:0:0:0:
67,258,133174,1,10,0:0:0:0:
367,248,133344,1,8,0:0:0:0:
133,101,133515,1,8,0:0:0:0:
303,295,133685,5,10,0:0:0:0:
53,162,133856,1,8,0:0:0:0:
415,125,134026,5,8,0:0:0:0:
165,258,134197,1,8,0:0:0:0:
327,10,134367,6,0,P|302:76|290:158,1,112,14|0,0:0|3:2,0:0:0:0:
237,352,134708,1,0,3:2:0:0:
38,27,134878,6,0,P|44:97|75:175,1,112,10|0,0:0|3:2,0:0:0:0:
358,323,135219,1,10,0:0:0:0:
28,270,135390,5,2,3:2:0:0:
28,270,135475,1,2,0:0:0:0:
28,270,135560,1,4,0:3:0:0:
28,270,135645,1,4,0:3:0:0:
28,270,135731,6,0,B|20:320|20:320|46:311,1,70,6|0,3:2|0:0,0:0:0:0:
169,317,136242,6,0,P|241:332|278:321,1,105.000004005432,0|0,0:0|0:0,0:0:0:0:
213,250,136753,6,0,P|231:253|240:251,1,26.2500010013581,0|0,0:0|0:0,0:0:0:0:
331,91,137094,6,0,L|350:267,1,167.999994873047,6|8,3:2|0:0,0:0:0:0:
451,310,137606,1,2,0:0:0:0:
263,332,137776,1,0,3:2:0:0:
498,204,137946,1,0,3:2:0:0:
169,246,138117,2,0,L|165:340,1,83.9999974365235,10|2,0:0|0:0,0:0:0:0:
135,346,138373,1,0,0:0:0:0:
107,365,138458,6,0,P|54:373|11:352,1,83.9999974365235,2|0,3:2|0:0,0:0:0:0:
23,178,138799,1,8,0:0:0:0:
231,325,138969,2,0,P|271:334|311:323,1,83.9999974365235,2|0,0:0|0:0,0:0:0:0:
275,126,139310,1,0,3:2:0:0:
128,253,139481,1,10,0:0:0:0:
362,213,139651,1,2,0:0:0:0:
362,213,139736,1,0,0:0:0:0:
362,213,139821,6,0,B|367:97|367:97|333:47,1,167.999994873047,2|8,3:2|0:0,0:0:0:0:
275,126,140333,1,2,0:0:0:0:
305,289,140503,1,0,3:2:0:0:
326,18,140674,1,0,3:2:0:0:
356,181,140844,1,8,0:0:0:0:
183,102,141015,1,0,0:0:0:0:
215,293,141185,6,0,L|207:191,1,83.9999974365235,2|0,3:2|0:0,0:0:0:0:
87,354,141526,1,10,0:0:0:0:
101,158,141696,2,0,L|93:260,1,83.9999974365235,2|2,0:0|3:2,0:0:0:0:
174,371,142037,1,2,3:2:0:0:
280,224,142208,2,0,P|308:298|290:358,1,125.999996154785,10|0,0:0|0:0,0:0:0:0:
281,372,142549,6,0,P|396:381|396:381,1,83.9999974365235,6|0,3:2|0:0,0:0:0:0:
137,302,142890,2,0,P|252:293|252:293,1,83.9999974365235,8|2,0:0|0:0,0:0:0:0:
101,101,143231,1,2,3:2:0:0:
33,238,143401,1,0,3:2:0:0:
177,64,143571,2,0,P|185:121|163:159,1,83.9999974365235,8|2,0:0|0:0,0:0:0:0:
149,166,143827,1,2,0:0:0:0:
119,181,143912,6,0,L|112:69,1,83.9999974365235,6|0,3:2|3:2,0:0:0:0:
334,12,144253,2,0,L|339:95,1,83.9999974365235,8|0,0:0|0:0,0:0:0:0:
97,169,144594,2,0,L|90:57,1,83.9999974365235,2|0,3:2|3:2,0:0:0:0:
312,0,144935,2,0,L|317:83,1,83.9999974365235,8|0,0:0|0:0,0:0:0:0:
171,258,145276,5,6,3:2:0:0:
242,73,145446,1,0,3:2:0:0:
272,346,145617,2,0,L|261:229,1,83.9999974365235,10|0,0:0|0:0,0:0:0:0:
376,52,145958,1,0,3:2:0:0:
343,264,146128,1,0,3:2:0:0:
512,97,146299,2,0,P|465:109|405:83,1,83.9999974365235,8|2,0:0|3:2,0:0:0:0:
407,77,146554,1,2,0:0:0:0:
386,50,146640,5,14,0:0:0:0:
274,328,146810,1,0,3:2:0:0:
260,0,146981,5,14,0:0:0:0:
372,295,147151,1,0,3:2:0:0:
107,186,147321,5,10,0:0:0:0:
409,107,147492,1,8,0:0:0:0:
409,107,147577,1,8,0:0:0:0:
409,107,147662,2,0,L|355:104,1,41.9999987182618,10|8,0:0|0:0,0:0:0:0:
191,216,147833,2,0,L|245:213,1,41.9999987182618,8|8,0:0|0:0,0:0:0:0:
477,182,148003,5,6,3:2:0:0:
238,124,148174,1,0,3:2:0:0:
383,329,148344,2,0,L|392:238,1,83.9999974365235,8|2,0:0|0:0,0:0:0:0:
319,13,148685,1,0,3:2:0:0:
250,182,148856,1,0,3:2:0:0:
441,100,149026,1,8,0:0:0:0:
155,11,149196,1,2,0:0:0:0:
155,11,149282,1,0,0:0:0:0:
155,11,149367,6,0,P|203:-2|247:1,1,83.9999974365235,2|0,3:2|3:2,0:0:0:0:
195,266,149708,2,0,P|236:266|276:254,1,83.9999974365235,10|0,0:0|0:0,0:0:0:0:
79,184,150049,2,0,L|67:99,1,83.9999974365235,2|0,3:2|3:2,0:0:0:0:
329,135,150390,2,0,L|317:51,1,83.9999974365235,10|2,0:0|0:0,0:0:0:0:
100,7,150731,5,2,3:2:0:0:
169,237,150901,2,0,P|182:197|179:156,1,83.9999974365235,0|8,3:2|0:0,0:0:0:0:
23,107,151242,1,2,0:0:0:0:
221,25,151412,1,0,3:2:0:0:
61,249,151583,1,0,3:2:0:0:
358,180,151753,1,8,0:0:0:0:
125,119,151924,1,2,0:0:0:0:
125,119,152009,1,2,0:0:0:0:
125,119,152094,6,0,L|129:33,1,83.9999974365235,2|0,3:2|3:2,0:0:0:0:
378,129,152435,2,0,L|374:212,1,83.9999974365235,10|0,0:0|0:0,0:0:0:0:
125,119,152776,5,2,3:2:0:0:
125,98,152861,1,8,0:0:0:0:
126,77,152946,1,0,3:2:0:0:
127,56,153031,1,0,0:0:0:0:
128,35,153116,1,10,0:0:0:0:
374,212,153287,5,8,0:0:0:0:
374,212,153373,1,8,0:0:0:0:
374,212,153458,2,0,L|278:215,1,83.9999974365235,6|0,3:2|0:0,0:0:0:0:
66,28,153799,2,0,L|149:25,1,83.9999974365235,8|0,0:0|0:0,0:0:0:0:
359,126,154140,1,0,3:2:0:0:
51,293,154310,1,0,3:2:0:0:
192,19,154481,1,10,0:0:0:0:
192,19,154566,1,2,0:0:0:0:
192,19,154651,1,2,0:0:0:0:
192,19,154736,1,2,0:0:0:0:
192,19,154821,6,0,P|198:87|181:119,1,83.9999974365235,6|0,3:2|0:0,0:0:0:0:
4,300,155162,2,0,P|-2:232|15:200,1,83.9999974365235,8|0,0:0|0:0,0:0:0:0:
117,56,155503,1,2,3:2:0:0:
150,355,155674,1,0,3:2:0:0:
408,157,155844,2,0,P|346:127|275:147,1,125.999996154785,8|0,0:0|0:0,0:0:0:0:
266,158,156185,6,0,P|280:83|273:64,1,83.9999974365235,6|0,3:2|3:2,0:0:0:0:
71,0,156526,2,0,P|57:75|64:94,1,83.9999974365235,8|0,0:0|0:0,0:0:0:0:
195,251,156867,1,2,3:2:0:0:
300,0,157037,1,0,3:2:0:0:
392,327,157208,2,0,L|381:213,1,83.9999974365235,8|8,0:0|0:0,0:0:0:0:
365,215,157463,1,8,0:0:0:0:
341,190,157549,6,0,P|283:183|248:207,1,83.9999974365235,6|0,3:2|3:2,0:0:0:0:
124,336,157890,1,8,0:0:0:0:
213,22,158060,1,8,0:0:0:0:
213,22,158145,1,8,0:0:0:0:
213,22,158231,1,2,3:2:0:0:
394,271,158401,1,0,3:2:0:0:
321,47,158571,1,8,0:0:0:0:
168,317,158742,1,8,0:0:0:0:
168,317,158827,1,8,0:0:0:0:
168,317,158912,5,6,3:2:0:0:
344,67,159083,1,10,0:0:0:0:
106,303,159253,5,10,0:0:0:0:
405,80,159424,1,10,0:0:0:0:
54,269,159594,5,10,0:0:0:0:
457,114,159765,1,10,0:0:0:0:
17,218,159935,5,10,0:0:0:0:
494,165,160106,1,10,0:0:0:0:
2,157,160276,5,10,0:0:0:0:
256,192,161640,5,0,0:0:0:0:
61,229,166753,5,0,0:0:0:0:
61,229,166838,1,0,0:0:0:0:
61,229,166924,1,0,0:0:0:0:
61,229,167009,1,0,0:0:0:0:
61,229,167094,2,0,B|165:189|275:234|233:286|361:332|456:243,1,420,0|0,0:0|0:0,0:0:0:0:
345,141,168287,5,0,0:0:0:0:
345,141,168373,1,0,0:0:0:0:
345,141,168458,2,0,P|351:333|502:254,1,420,0|0,0:0|0:0,0:0:0:0:
407,240,169651,5,0,0:0:0:0:
407,240,169736,1,0,0:0:0:0:
407,240,169821,2,0,B|203:234|203:234|116:281,2,280,0|0|0,0:0|0:0|0:0,0:0:0:0:
444,116,171356,5,0,0:0:0:0:
386,45,171526,1,0,0:0:0:0:
296,28,171696,1,0,0:0:0:0:
217,74,171867,1,0,0:0:0:0:
186,160,172037,1,0,0:0:0:0:
219,245,172208,1,0,0:0:0:0:
341,165,172378,1,4,0:3:0:0:
341,165,172463,1,4,0:3:0:0:
341,165,172549,6,0,L|333:261,1,70,6|0,3:2|0:0,0:0:0:0:
439,338,172890,2,0,L|433:268,1,70,0|2,3:2|0:0,0:0:0:0:
349,336,173231,2,0,P|272:311|235:253,1,140,0|0,3:2|0:0,0:0:0:0:
352,170,173742,1,0,0:0:0:0:
233,67,173912,2,0,L|317:78,1,70,2|0,3:2|0:0,0:0:0:0:
406,83,174253,1,0,3:2:0:0:
189,184,174424,2,0,L|273:173,1,70,2|0,0:0|0:0,0:0:0:0:
434,195,174765,2,0,P|387:169|355:171,1,70,0|2,0:0|3:2,0:0:0:0:
257,259,175106,1,8,0:0:0:0:
284,31,175276,6,0,L|277:112,1,70,6|0,3:2|0:0,0:0:0:0:
202,198,175617,1,0,3:2:0:0:
155,4,175787,2,0,L|162:85,1,70,2|0,0:0|0:0,0:0:0:0:
202,198,176128,1,0,0:0:0:0:
80,104,176299,1,0,3:2:0:0:
333,106,176469,1,8,0:0:0:0:
114,250,176640,6,0,P|142:279|255:284,1,140,6|0,3:2|3:2,0:0:0:0:
202,198,177151,1,8,0:0:0:0:
202,198,177236,1,0,0:0:0:0:
202,198,177321,2,0,L|192:109,1,70,0|8,0:0|0:0,0:0:0:0:
136,35,177662,1,0,3:2:0:0:
250,44,177833,1,4,0:3:0:0:
325,127,178003,6,0,B|340:221|340:221|305:286,1,140,6|0,3:2|0:0,0:0:0:0:
250,202,178515,1,0,0:0:0:0:
293,40,178685,2,0,B|329:30|371:39|353:47|393:58|430:45,1,140,0|0,3:2|3:2,0:0:0:0:
499,120,179196,1,0,0:0:0:0:
418,206,179367,2,0,B|408:106|408:106|435:52,1,140,6|0,3:2|0:0,0:0:0:0:
295,14,179878,1,0,0:0:0:0:
295,14,179963,1,0,0:0:0:0:
295,14,180049,2,0,P|271:92|301:165,1,140,2|0,3:2|3:2,0:0:0:0:
376,85,180560,1,8,0:0:0:0:
234,228,180731,6,0,P|291:245|346:226,1,105,6|0,3:2|0:0,0:0:0:0:
357,219,181071,1,8,0:0:0:0:
134,124,181242,1,0,0:0:0:0:
250,351,181412,1,0,0:0:0:0:
287,140,181583,1,0,0:0:0:0:
100,265,181753,1,8,0:0:0:0:
396,327,181924,1,2,0:0:0:0:
396,327,182009,1,2,0:0:0:0:
396,327,182094,5,10,0:0:0:0:
154,357,182265,1,10,0:0:0:0:
408,245,182435,1,10,0:0:0:0:
141,263,182606,1,10,0:0:0:0:
421,164,182776,1,10,0:0:0:0:
129,169,182946,1,10,0:0:0:0:
433,83,183117,1,10,0:0:0:0:
116,75,183287,1,10,0:0:0:0:
256,192,183458,5,4,0:0:0:0:
256,192,193003,5,2,0:0:0:0:
256,192,193344,1,2,0:0:0:0:
256,192,193685,6,0,L|266:266,2,46.6666666666667,2|0|0,0:0|0:0|0:0,0:0:0:0:
368,57,194026,2,0,L|374:10,2,46.6666666666667,2|0|0,0:0|0:0|0:0,0:0:0:0:
196,127,194367,6,0,P|260:103|322:132,1,140,6|0,3:2|0:0,0:0:0:0:
404,318,195049,2,0,L|417:96,1,210,8|10,0:0|0:0,0:0:0:0:
417,80,195645,1,2,0:0:0:0:
419,51,195731,1,2,0:0:0:0:
232,53,195901,1,8,0:0:0:0:
314,179,196071,2,0,L|323:18,2,140,0|10|0,3:2|0:0|0:0,0:0:0:0:
105,204,197094,6,0,P|172:190|238:222,1,140,6|0,3:2|0:0,0:0:0:0:
278,384,197776,1,8,0:0:0:0:
160,281,198117,1,8,0:0:0:0:
307,114,198458,2,0,L|302:225,1,93.3333333333333,2|8,3:2|0:0,0:0:0:0:
391,314,198799,6,0,P|424:322|460:321,2,46.6666666666667,10|8|8,0:0|0:0|0:0,0:0:0:0:
209,242,199140,6,0,P|185:244|163:250,2,46.6666666666667,8|8|8,0:3|0:3|0:3,0:0:0:0:
290,349,199481,5,4,0:3:0:0:
293,297,199594,5,4,0:3:0:0:
297,245,199708,5,4,0:3:0:0:
300,193,199821,6,0,P|368:174|426:207,1,125.999996154785,4|0,3:2|0:0,0:0:0:0:
435,216,200162,5,8,0:0:0:0:
225,141,200333,1,8,0:0:0:0:
325,332,200503,5,8,0:0:0:0:
180,163,200674,1,8,0:0:0:0:
171,378,200844,5,10,0:0:0:0:
130,159,201015,1,10,0:0:0:0:
14,340,201185,5,10,0:0:0:0:
283,358,201356,1,8,0:0:0:0:
64,250,201526,5,8,0:0:0:0:
320,349,201696,1,10,0:0:0:0:
114,160,201867,5,10,0:0:0:0:
357,340,202037,1,8,0:0:0:0:
164,70,202208,5,10,0:0:0:0:
394,331,202378,1,8,0:0:0:0:
451,1,202549,5,6,3:2:0:0:
222,167,202719,2,0,P|203:218|227:279,1,105.000004005432,10|2,0:0|0:0,0:0:0:0:
417,384,203060,1,2,3:2:0:0:
288,221,203231,1,10,0:0:0:0:
480,305,203401,2,0,P|451:305|423:299,1,52.5000020027161,8|8,0:0|0:0,0:0:0:0:
141,193,203571,2,0,P|166:188|192:188,1,52.5000020027161,8|8,0:3|0:3,0:0:0:0:
503,131,203742,1,4,0:3:0:0:
508,160,203827,1,4,0:3:0:0:
512,188,203912,5,8,0:0:0:0:
172,84,204935,6,0,L|171:98,12,13.125000500679,0|0|0|0|0|0|0|0|0|0|0|0|0,0:0|0:0|0:0|0:0|0:0|0:0|0:0|0:0|0:0|0:0|0:0|0:0|0:0,0:0:0:0:
221,271,205276,6,0,B|267:334|433:408|488:270|472:196|392:164|334:182|303:235,1,420,6|0,3:2|0:0,0:0:0:0:
121,345,206640,6,0,B|156:227|109:96|109:96|140:159|185:178|248:167,1,420,2|2,0:0|0:0,0:0:0:0:
218,54,208003,5,6,3:2:0:0:
245,13,208088,1,0,0:0:0:0:
293,0,208173,1,0,0:0:0:0:
337,21,208258,1,0,0:0:0:0:
359,64,208344,5,8,0:0:0:0:
382,111,208429,1,8,0:0:0:0:
430,134,208514,1,8,0:0:0:0:
482,119,208599,1,8,0:0:0:0:
512,75,208685,5,8,0:0:0:0:
457,101,208770,1,8,0:0:0:0:
428,153,208855,1,8,0:0:0:0:
434,213,208940,1,8,0:0:0:0:
474,258,209026,5,8,0:0:0:0:
482,184,209111,1,8,0:0:0:0:
430,131,209196,1,8,0:0:0:0:
356,138,209281,1,8,0:0:0:0:
315,199,209366,5,8,0:0:0:0:
175,111,210390,6,0,L|170:195,1,78.7500030040742,0|0,0:0|0:0,0:0:0:0:
167,223,210731,6,0,P|249:182|318:222,1,167.999994873047,6|8,3:2|0:0,0:0:0:0:
244,275,211242,1,0,0:0:0:0:
317,68,211412,1,0,3:0:0:0:
359,315,211583,1,0,3:2:0:0:
460,103,211753,2,0,L|450:203,1,83.9999974365235,8|0,0:0|0:0,0:0:0:0:
427,210,212009,1,0,0:0:0:0:
399,229,212094,6,0,P|334:222|294:246,1,83.9999974365235,6|0,3:2|0:0,0:0:0:0:
432,384,212435,2,0,P|472:393|512:383,1,83.9999974365235,8|0,0:0|0:0,0:0:0:0:
509,192,212776,2,0,L|508:287,1,83.9999974365235,2|0,3:2|3:2,0:0:0:0:
316,384,213117,2,0,L|317:237,1,125.999996154785,8|0,0:0|0:0,0:0:0:0:
312,224,213458,6,0,P|269:204|206:217,1,83.9999974365235,6|0,3:2|0:0,0:0:0:0:
136,384,213799,2,0,P|116:341|129:278,1,83.9999974365235,10|0,0:0|0:0,0:0:0:0:
179,124,214140,1,0,3:2:0:0:
207,325,214310,1,0,3:2:0:0:
36,193,214481,1,8,0:0:0:0:
347,161,214651,1,2,3:2:0:0:
347,161,214736,1,2,3:2:0:0:
347,161,214821,5,14,0:0:0:0:
139,375,214992,1,0,3:2:0:0:
181,87,215162,5,14,0:0:0:0:
389,301,215333,1,0,3:2:0:0:
347,13,215503,5,10,0:0:0:0:
295,31,215588,1,0,0:0:0:0:
270,80,215673,1,8,0:0:0:0:
284,133,215758,1,8,0:0:0:0:
331,162,215843,1,10,0:0:0:0:
384,152,215929,1,8,0:0:0:0:
417,108,216015,2,0,L|357:106,1,41.9999987182618,8|8,0:0|0:0,0:0:0:0:
119,247,216185,5,6,3:2:0:0:
236,56,216356,1,0,3:2:0:0:
282,281,216526,1,8,0:0:0:0:
165,90,216697,1,2,0:0:0:0:
119,314,216867,1,0,3:2:0:0:
236,123,217038,1,0,3:2:0:0:
282,348,217208,1,8,0:0:0:0:
165,157,217379,1,2,0:0:0:0:
445,166,217549,6,0,L|354:155,1,83.9999974365235,2|0,3:2|0:0,0:0:0:0:
194,260,217890,1,10,0:0:0:0:
504,308,218060,2,0,L|413:319,1,83.9999974365235,0|2,0:0|3:2,0:0:0:0:
212,373,218401,1,0,3:2:0:0:
254,120,218571,1,10,0:0:0:0:
397,244,218742,1,2,0:0:0:0:
167,273,218912,5,2,3:2:0:0:
331,116,219082,1,0,3:2:0:0:
277,299,219253,2,0,P|264:246|268:214,1,83.9999974365235,8|2,0:0|0:0,0:0:0:0:
495,242,219594,2,0,P|507:202|504:160,1,83.9999974365235,0|0,3:2|3:2,0:0:0:0:
320,30,219935,1,8,0:0:0:0:
372,288,220106,1,2,0:0:0:0:
372,288,220191,1,2,0:0:0:0:
372,288,220276,5,2,3:2:0:0:
169,137,220446,1,0,3:2:0:0:
462,111,220617,1,10,0:0:0:0:
262,328,220787,2,0,L|273:209,1,83.9999974365235,0|2,0:0|3:2,0:0:0:0:
380,33,221128,2,0,L|391:152,1,83.9999974365235,0|10,3:2|0:0,0:0:0:0:
185,218,221469,1,8,0:0:0:0:
185,218,221554,1,0,0:0:0:0:
185,218,221640,6,0,P|240:157|325:171,1,167.999994873047,6|8,3:2|0:0,0:0:0:0:
396,338,222151,1,0,0:0:0:0:
479,84,222321,1,0,3:2:0:0:
272,237,222492,1,0,3:2:0:0:
210,52,222662,2,0,P|225:14|227:-19,2,55.9999982910157,10|0|0,0:0|0:0|0:0,0:0:0:0:
75,136,223003,6,0,L|86:317,1,167.999994873047,6|8,3:2|0:0,0:0:0:0:
212,350,223515,1,0,0:0:0:0:
405,119,223685,1,2,3:2:0:0:
176,206,223856,1,0,3:2:0:0:
395,325,224026,2,0,P|402:255|392:213,1,83.9999974365235,8|0,0:0|0:0,0:0:0:0:
109,116,224367,6,0,L|212:109,1,83.9999974365235,6|0,3:2|0:0,0:0:0:0:
392,217,224708,2,0,L|308:222,1,83.9999974365235,8|0,0:0|0:0,0:0:0:0:
131,202,225049,1,2,3:2:0:0:
344,40,225219,1,0,3:2:0:0:
322,316,225390,2,0,P|303:241|313:214,1,83.9999974365235,8|0,0:0|0:0,0:0:0:0:
322,209,225645,1,8,0:0:0:0:
349,189,225731,6,0,L|468:184,1,83.9999974365235,6|0,3:2|3:2,0:0:0:0:
177,48,226071,2,0,L|93:51,1,83.9999974365235,8|0,0:0|0:0,0:0:0:0:
90,245,226412,1,2,3:2:0:0:
335,37,226583,1,0,3:2:0:0:
325,357,226753,1,8,0:0:0:0:
195,73,226924,1,8,0:0:0:0:
195,73,227009,1,8,0:0:0:0:
195,73,227094,5,6,3:2:0:0:
317,311,227265,1,10,0:0:0:0:
128,82,227435,5,10,0:0:0:0:
384,302,227606,1,10,0:0:0:0:
74,123,227776,5,10,0:0:0:0:
438,261,227946,2,0,L|387:258,1,41.9999987182618,10|8,0:0|0:0,0:0:0:0:
47,185,228117,6,0,L|88:187,1,41.9999987182618,10|8,0:0|0:0,0:0:0:0:
465,199,228287,2,0,L|414:196,1,41.9999987182618,10|8,0:0|0:0,0:0:0:0:
54,252,228458,5,10,0:0:0:0:
256,192,229651,5,8,0:0:0:0:
256,192,229736,1,8,0:0:0:0:
256,192,229821,2,0,L|276:19,1,167.999994873047,6|8,3:2|0:0,0:0:0:0:
131,113,230333,1,2,0:0:0:0:
356,88,230503,2,0,L|368:190,1,83.9999974365235,0|0,3:0|3:0,3:0:0:0:
187,293,230844,1,10,0:0:0:0:
266,69,231015,1,2,0:0:0:0:
430,254,231185,6,0,P|332:218|270:238,1,167.999994873047,2|8,3:2|0:0,0:0:0:0:
350,330,231696,1,2,0:0:0:0:
350,330,231782,1,2,0:0:0:0:
350,330,231867,1,2,3:2:0:0:
378,139,232037,1,0,3:2:0:0:
465,362,232208,2,0,P|472:305|460:265,1,83.9999974365235,8|0,0:0|0:0,0:0:0:0:
185,233,232549,6,0,L|357:223,1,167.999994873047,2|8,3:2|0:0,0:0:0:0:
485,139,233060,2,0,P|441:124|398:130,1,83.9999974365235,2|0,0:0|3:0,0:0:0:0:
303,332,233401,1,2,3:2:0:0:
435,203,233571,1,10,0:0:0:0:
164,236,233742,1,2,0:0:0:0:
483,336,233912,6,0,B|373:364|373:364|321:342,1,167.999994873047,2|8,3:2|0:0,0:0:0:0:
209,217,234424,1,2,0:0:0:0:
209,217,234509,1,2,0:0:0:0:
209,217,234594,2,0,P|310:216|368:287,1,167.999994873047,2|8,3:2|0:0,0:0:0:0:
256,323,235106,1,0,0:0:0:0:
452,93,235276,6,0,L|436:272,1,167.999994873047,6|8,3:2|0:0,0:0:0:0:
266,139,235787,2,0,P|342:128|366:144,1,83.9999974365235,2|0,0:0|3:2,0:0:0:0:
316,232,236128,1,0,3:2:0:0:
192,42,236299,1,8,0:0:0:0:
438,104,236469,1,2,0:0:0:0:
438,104,236554,1,2,0:0:0:0:
438,104,236640,6,0,B|392:84|338:104|369:119|322:135|274:116,1,167.999994873047,2|8,3:2|0:0,0:0:0:0:
200,8,237151,1,0,0:0:0:0:
118,201,237321,1,0,3:2:0:0:
109,47,237492,1,0,3:2:0:0:
209,263,237662,1,8,0:0:0:0:
382,17,237833,1,8,0:0:0:0:
382,17,237918,1,8,0:0:0:0:
382,17,238003,6,0,L|377:208,1,167.999994873047,6|0,3:2|0:0,0:0:0:0:
90,76,238515,2,0,P|164:47|267:80,1,167.999994873047,6|0,3:2|0:0,0:0:0:0:
370,377,239026,5,10,0:0:0:0:
178,174,239196,1,0,3:2:0:0:
464,102,239367,5,12,0:0:0:0:
272,305,239537,1,2,3:2:0:0:
178,29,239708,5,12,0:0:0:0:
370,233,239878,1,0,3:2:0:0:
27,238,240049,5,12,0:0:0:0:
377,87,240220,5,8,0:0:0:0:
426,125,240305,1,0,0:0:0:0:
439,188,240390,1,8,0:0:0:0:
409,243,240475,1,0,0:0:0:0:
350,266,240560,1,8,0:0:0:0:
290,246,240646,1,0,0:0:0:0:
257,191,240731,6,0,B|241:153|252:110|283:84|283:84|314:58|358:55|392:77|392:77|427:99|442:142|431:181|431:181|419:220|383:247|342:247|342:247|310:245|283:269|281:302|281:302|278:334|303:362|335:364|335:364|367:367|395:344|398:311,1,735.000028038026,6|0,3:2|0:0,0:0:0:0:
342,155,243287,6,0,L|324:181,3,17.500000667572,0|0|0|0,3:0|3:0|3:0|3:2,3:0:0:0:
