osu file format v14

[General]
AudioFilename: audio.mp3
AudioLeadIn: 0
PreviewTime: -1
Countdown: 1
SampleSet: Normal
StackLeniency: 0.7
Mode: 0
LetterboxInBreaks: 0
WidescreenStoryboard: 1

[Editor]
DistanceSpacing: 0.5
BeatDivisor: 4
GridSize: 4
TimelineZoom: 1

[Metadata]
Title:SHIORI
TitleUnicode:SHIORI
Artist:ClariS
ArtistUnicode:ClariS
Creator:Le Dyguidour
Version:Easy
Source:
Tags:
BeatmapID:1489139
BeatmapSetID:701091

[Difficulty]
HPDrainRate:2
CircleSize:2
OverallDifficulty:2
ApproachRate:3
SliderMultiplier:1.4
SliderTickRate:1

[Events]
//Background and Video events
//Break Periods
//Storyboard Layer 0 (Background)
//Storyboard Layer 1 (Fail)
//Storyboard Layer 2 (Pass)
//Storyboard Layer 3 (Foreground)
//Storyboard Sound Samples

[TimingPoints]
1478,340.909090909091,4,1,0,100,1,0
1478,-200,4,1,0,100,0,0
1819,340.909090909091,4,1,0,100,1,0
1819,-133.333333333333,4,1,0,100,0,0
22273,-128.205128205128,4,1,0,100,0,0
22373,-133.333333333333,4,1,0,100,0,0

[HitObjects]
80,64,1819,6,0,B|160:96|272:32|400:76,1,315.000012016297
391,73,3182,1,0,0:0:0:0:
336,172,3864,1,0,0:0:0:0:
391,271,4546,6,0,B|271:312|159:248|79:280,1,315.000012016297
79,280,5909,1,0,0:0:0:0:
140,184,6591,1,0,0:0:0:0:
140,184,7273,6,0,B|208:100|208:100|320:100,1,210.000008010865
372,200,8637,2,0,B|304:284|304:284|202:284,1,210.000008010865
256,192,10000,1,0,0:0:0:0:
356,120,10682,6,0,P|376:216|296:308,1,210.000008010865
156,264,12046,6,0,P|136:168|216:76,1,210.000008010865
256,192,12898,12,0,14091,0:0:0:0:
200,192,14432,6,0,L|316:192,3,105.000004005432
256,192,15625,12,0,17841,0:0:0:0:
256,192,18182,5,0,0:0:0:0:
292,120,18864,2,0,P|340:116|404:144,1,105.000004005432
328,228,19546,2,0,P|336:275|315:341,1,105.000004005432
220,264,20228,2,0,P|172:268|108:240,1,105.000004005432
184,156,20909,5,0,0:0:0:0:
220,264,21591,1,0,0:0:0:0:
328,226,22273,2,0,P|325:178|288:116,3,109.200003665772
212,56,23637,1,0,0:0:0:0:
212,56,24319,6,0,L|96:56,1,105.000004005432
52,148,25000,2,0,L|168:148,1,105.000004005432
212,240,25682,2,0,L|96:240,1,105.000004005432
52,332,26364,2,0,L|224:332,1,157.500006008148
328,272,27216,6,0,L|364:212,3,52.5000020027161
408,108,28409,1,0,0:0:0:0:
308,108,29091,1,0,0:0:0:0:
308,108,29773,6,0,L|200:108,3,105.000004005432
92,108,31137,2,0,P|80:168|88:216,1,105.000004005432
132,304,31819,1,0,0:0:0:0:
132,304,32841,5,0,0:0:0:0:
224,224,33182,2,0,L|336:224,1,105.000004005432
421,304,33864,2,0,P|452:240|444:188,2,105.000004005432
296,328,35057,6,0,L|296:264,1,52.5000020027161
296,168,35569,1,0,0:0:0:0:
212,64,35909,2,0,L|100:64,1,105.000004005432
40,168,36591,2,0,L|145:168,1,105.000004005432
256,192,37273,1,0,0:0:0:0:
256,192,37444,12,0,39659,0:0:0:0:
256,192,40000,5,0,0:0:0:0:
288,88,40341,2,0,L|360:88,1,52.5000020027161
456,80,40682,2,0,B|456:152|404:180,1,105.000004005432
452,280,41364,2,0,B|382:297|342:253,1,105.000004005432
252,324,42046,2,0,B|218:260|250:211,1,105.000004005432
304,116,42728,1,0,0:0:0:0:
216,48,43069,2,0,P|148:36|104:48,2,105.000004005432
304,116,44091,1,0,0:0:0:0:
264,136,44773,1,0,0:0:0:0:
236,168,45284,2,0,L|180:156,1,52.5000020027161
