osu file format v14

[General]
AudioFilename: audio.mp3
AudioLeadIn: 0
PreviewTime: 9732
Countdown: 0
SampleSet: Soft
StackLeniency: 0.7
Mode: 0
LetterboxInBreaks: 1
WidescreenStoryboard: 1

[Editor]
DistanceSpacing: 0.2
BeatDivisor: 4
GridSize: 32
TimelineZoom: 2.3

[Metadata]
Title:SHIORI
TitleUnicode:SHIORI
Artist:ClariS
ArtistUnicode:ClariS
Creator:Emychi
Version:Insane
Source:終物語
Tags:claris shiori tale story of end monogatari bakemonogatari owarimonogatari second season ending short cut ver penguiness emychi xenon potatoboy sdk neko-san da
BeatmapID:1693020
BeatmapSetID:805791

[Difficulty]
HPDrainRate:5
CircleSize:3.5
OverallDifficulty:8
ApproachRate:9
SliderMultiplier:1.6
SliderTickRate:1

[Events]
//Background and Video events
0,0,"call cops plis.jpg",0,0
//Break Periods
//Storyboard Layer 0 (Background)
//Storyboard Layer 1 (Fail)
//Storyboard Layer 2 (Pass)
//Storyboard Layer 3 (Foreground)
//Storyboard Sound Samples

[TimingPoints]
1039,340.909090909091,4,2,1,50,1,0
1635,-100,4,2,1,5,0,0
1720,-100,4,2,1,50,0,0
2317,-100,4,2,1,5,0,0
2402,-90.9090909090909,4,2,1,50,0,0
10584,-83.3333333333333,4,2,1,65,0,1
21493,-83.3333333333333,4,2,1,65,0,0
34107,-125,4,2,1,35,0,0
36493,-100,4,2,1,5,0,0

[Colours]
Combo1 : 0,128,255
Combo2 : 255,255,255
Combo3 : 0,128,255
Combo4 : 255,255,255

[HitObjects]
56,104,1039,6,0,B|120:72|200:104|200:104|280:136|336:104,1,280,10|0,0:0|0:0,0:0:0:0:
327,108,1720,2,0,P|371:221|318:203,1,280,10|0,0:0|0:0,0:0:0:0:
319,204,2402,1,6,0:0:0:0:
128,48,3425,6,0,P|63:112|72:192,1,176.000005371094,2|2,0:0|0:0,0:0:0:0:
232,272,4277,1,2,0:0:0:0:
296,79,4618,1,2,0:0:0:0:
168,144,4959,1,2,0:0:0:0:
264,176,5129,5,10,0:0:0:0:
148,45,5300,1,0,0:0:0:0:
93,211,5470,1,8,0:0:0:0:
296,79,5641,1,10,0:0:0:0:
168,144,5811,1,0,0:0:0:0:
360,160,5982,1,8,0:0:0:0:
176,0,6152,5,10,0:0:0:0:
264,176,6323,1,0,0:0:0:0:
399,65,6493,1,8,0:0:0:0:
168,144,6664,1,10,0:0:0:0:
326,252,6834,1,0,0:0:0:0:
296,79,7004,5,10,0:0:0:0:
229,266,7175,1,10,0:0:0:0:
360,160,7345,1,10,0:0:0:0:
395,354,7516,1,10,0:0:0:0:
478,124,7686,1,10,0:0:0:0:
326,252,7857,6,0,P|272:256|208:232,1,88.000002685547,14|0,0:0|0:0,0:0:0:0:
72,112,8198,1,8,0:0:0:0:
159,312,8368,1,10,0:0:0:0:
288,152,8539,2,0,P|342:147|406:171,1,88.000002685547,0|0,0:0|0:0,0:0:0:0:
512,272,8879,1,8,0:0:0:0:
392,48,9050,1,0,1:0:0:0:
392,48,9135,1,0,1:0:0:0:
392,48,9220,1,4,0:0:0:0:
326,252,9732,6,0,B|277:239|221:263|221:263|181:247|181:247|125:271|69:255,1,264.000008056641,2|2,0:0|0:0,0:0:0:0:
288,344,10584,6,0,P|392:328|424:232,1,191.999994140625,14|0,0:0|1:0,0:0:0:0:
376,64,11095,2,0,P|368:112|376:160,1,95.9999970703126,0|0,0:0|0:0,0:0:0:0:
426,256,11436,1,0,0:0:0:0:
376,64,11607,2,0,P|328:56|281:63,1,95.9999970703126,2|0,1:2|0:0,0:0:0:0:
136,152,11948,2,0,B|176:136|232:152|232:152|288:168|328:152,1,191.999994140625,2|0,0:0|1:0,0:0:0:0:
376,64,12459,2,0,P|424:168|384:240,1,191.999994140625,2|0,0:0|0:0,0:0:0:0:
230,153,12970,2,0,P|277:145|324:153,1,95.9999970703126,2|0,1:2|0:0,0:0:0:0:
176,240,13311,6,0,P|128:136|175:64,1,191.999994140625,2|0,0:0|1:0,0:0:0:0:
324,153,13823,2,0,P|276:160|229:152,1,95.9999970703126,0|0,0:0|0:0,0:0:0:0:
160,74,14164,1,0,0:0:0:0:
324,153,14334,2,0,P|354:190|370:234,1,95.9999970703126,2|0,1:2|0:0,0:0:0:0:
229,152,14675,2,0,P|286:65|390:81,1,191.999994140625,2|0,0:0|1:0,0:0:0:0:
370,235,15186,2,0,B|318:218|274:235|274:235|230:250|181:236,1,191.999994140625,2|0,0:0|0:0,0:0:0:0:
40,152,15698,2,0,P|87:144|134:152,1,95.9999970703126,2|0,1:2|0:0,0:0:0:0:
328,320,16039,6,0,P|432:312|464:200,1,191.999994140625,2|0,0:0|1:0,0:0:0:0:
424,56,16550,2,0,P|415:103|423:150,1,95.9999970703126,0|0,0:0|0:0,0:0:0:0:
470,242,16891,1,0,0:0:0:0:
424,56,17061,2,0,P|376:47|329:55,1,95.9999970703126,2|0,1:2|0:0,0:0:0:0:
224,176,17402,6,0,L|320:160,1,95.9999970703126,2|0,0:0|0:0,0:0:0:0:
232,72,17743,2,0,L|137:87,1,95.9999970703126,2|0,1:2|0:0,0:0:0:0:
302,254,18084,2,0,L|318:158,1,95.9999970703126,2|0,0:0|0:0,0:0:0:0:
137,87,18425,2,0,L|121:181,1,95.9999970703126,2|0,1:2|0:0,0:0:0:0:
302,254,18766,6,0,P|349:262|396:254,1,95.9999970703126,2|0,0:0|0:0,0:0:0:0:
392,80,19107,2,0,P|361:116|344:161,1,95.9999970703126,2|0,1:2|0:0,0:0:0:0:
496,248,19448,2,0,P|479:203|448:166,1,95.9999970703126,2|0,0:0|0:0,0:0:0:0:
250,161,19789,2,0,P|297:169|344:161,1,95.9999970703126,2|0,1:2|1:2,0:0:0:0:
352,152,20044,1,2,0:0:0:0:
360,144,20129,6,0,P|407:136|454:144,1,95.9999970703126,10|0,0:0|0:0,0:0:0:0:
296,256,20470,2,0,P|249:264|202:256,1,95.9999970703126,10|0,0:0|0:0,0:0:0:0:
136,168,20811,1,10,0:0:0:0:
184,64,20982,2,0,L|232:72,1,47.9999985351563,0|0,0:0|0:0,0:0:0:0:
320,88,21152,5,0,0:0:0:0:
343,91,21237,1,0,0:0:0:0:
367,95,21322,1,0,0:0:0:0:
391,98,21407,1,0,0:0:0:0:
414,102,21493,6,0,P|458:118|495:149,1,95.9999970703126,10|0,0:0|0:0,0:0:0:0:
408,296,21834,2,0,P|399:249|408:202,1,95.9999970703126,10|10,1:2|0:0,0:0:0:0:
326,342,22175,1,2,0:0:0:0:
314,201,22345,1,8,0:0:0:0:
198,282,22516,1,10,1:2:0:0:
186,142,22686,1,2,0:0:0:0:
314,201,22857,6,0,L|410:201,1,95.9999970703126,2|0,0:0|0:0,0:0:0:0:
198,282,23198,1,2,1:2:0:0:
80,136,23368,2,0,P|95:90|126:54,1,95.9999970703126,2|0,0:0|0:0,0:0:0:0:
280,142,23709,2,0,P|233:150|186:142,1,95.9999970703126,2|0,0:0|1:0,0:0:0:0:
48,16,24050,1,2,0:0:0:0:
0,184,24220,6,0,P|15:229|46:265,1,95.9999970703126,10|0,0:0|0:0,0:0:0:0:
185,141,24561,2,0,P|231:132|278:140,1,95.9999970703126,10|10,1:2|0:0,0:0:0:0:
436,262,24902,1,0,0:0:0:0:
390,88,25073,1,8,0:0:0:0:
263,215,25243,1,10,1:2:0:0:
217,41,25414,1,0,0:0:0:0:
112,144,25584,6,0,P|127:189|158:225,1,95.9999970703126,2|0,0:0|0:0,0:0:0:0:
310,297,25925,2,0,P|294:251|263:215,1,95.9999970703126,2|2,1:2|0:0,0:0:0:0:
65,225,26266,2,0,P|111:233|158:224,1,95.9999970703126,0|2,0:0|0:0,0:0:0:0:
356,215,26607,2,0,P|309:206|262:215,1,95.9999970703126,0|2,1:2|0:0,0:0:0:0:
256,224,26862,1,0,0:0:0:0:
248,232,26948,6,0,P|144:184|176:128,2,191.999994140625,14|0|0,0:0|1:0|0:0,0:0:0:0:
296,128,27800,1,0,0:0:0:0:
208,48,27970,2,0,P|161:39|114:47,1,95.9999970703126,0|0,1:0|0:0,0:0:0:0:
296,128,28311,6,0,L|488:128,2,191.999994140625,2|0|0,0:0|1:0|0:0,0:0:0:0:
161,139,29164,1,0,0:0:0:0:
248,224,29334,2,0,P|294:232|341:224,1,95.9999970703126,0|0,1:0|0:0,0:0:0:0:
161,139,29675,6,0,P|131:174|114:219,1,95.9999970703126,10|0,0:0|0:0,0:0:0:0:
176,336,30016,1,0,1:0:0:0:
248,224,30186,1,0,0:0:0:0:
320,336,30357,2,0,P|366:344|413:336,1,95.9999970703126,2|0,0:0|0:0,0:0:0:0:
408,144,30698,2,0,P|378:179|361:224,1,95.9999970703126,0|0,1:0|0:0,0:0:0:0:
296,112,31039,6,0,P|249:103|203:111,1,95.9999970703126,2|0,0:0|0:0,0:0:0:0:
113,220,31379,1,0,1:0:0:0:
64,88,31550,1,0,0:0:0:0:
248,216,31720,1,0,0:0:0:0:
248,216,31806,1,0,0:0:0:0:
248,216,31891,2,0,P|295:225|341:217,1,95.9999970703126,0|0,0:0|1:0,0:0:0:0:
489,97,32232,2,0,L|504:48,1,47.9999985351563,10|2,0:0|0:0,0:0:0:0:
421,263,32402,5,10,0:0:0:0:
314,48,32573,1,2,0:0:0:0:
293,304,32743,5,10,0:0:0:0:
322,56,32914,1,2,0:0:0:0:
163,273,33084,5,10,0:0:0:0:
330,63,33254,1,2,0:0:0:0:
77,178,33424,5,10,0:0:0:0:
337,70,33595,1,2,0:0:0:0:
67,46,33766,5,14,0:0:0:0:
248,216,34448,6,0,P|272:208|248:200,1,64,2|2,0:0|0:0,0:0:0:0:
136,208,34959,1,2,0:0:0:0:
256,192,35129,12,0,36493,0:0:0:0:
