osu file format v14

[General]
AudioFilename: audio.mp3
AudioLeadIn: 0
PreviewTime: 5799
Countdown: 0
SampleSet: Normal
StackLeniency: 0.7
Mode: 0
LetterboxInBreaks: 0
WidescreenStoryboard: 0

[Editor]
Bookmarks: 16793,30430,35884,38611,44066,57702,63157,69975,74066,79520,88895
DistanceSpacing: 1.4
BeatDivisor: 4
GridSize: 4
TimelineZoom: 2.699999

[Metadata]
Title:SHIORI
TitleUnicode:SHIORI
Artist:ClariS
ArtistUnicode:ClariS
Creator:- Sophia
Version:Dazzling
Source:終物語
Tags:trynna alexsander dzy ataraxia -brites- bakemonogatari monogatari owarimonogatari ougi oshino kanbara araragi ending tv size mix
BeatmapID:1512153
BeatmapSetID:715577

[Difficulty]
HPDrainRate:6
CircleSize:4.2
OverallDifficulty:8
ApproachRate:9.3
SliderMultiplier:1.8
SliderTickRate:1

[Events]
//Background and Video events
0,0,"775908.jpg",0,0
//Break Periods
//Storyboard Layer 0 (Background)
//Storyboard Layer 1 (Fail)
//Storyboard Layer 2 (Pass)
//Storyboard Layer 3 (Foreground)
//Storyboard Sound Samples

[TimingPoints]
430,340.909090909091,4,2,0,60,1,0
430,-133.333333333333,4,2,0,60,0,0
5884,-200,4,2,1,60,0,0
7248,-166.666666666667,4,2,1,60,0,0
7759,-166.666666666667,4,3,1,60,0,0
8270,-166.666666666667,4,3,1,40,0,0
8441,-166.666666666667,4,3,2,60,0,0
8611,-142.857142857143,4,2,1,60,0,0
9975,-125,4,2,1,60,0,0
10486,-125,4,3,1,60,0,0
11339,-125,4,2,1,60,0,0
12702,-125,4,2,1,60,0,0
13725,-100,4,2,1,60,0,0
14066,-100,4,2,96,60,0,0
14236,-100,4,3,1,60,0,0
14577,-100,4,2,95,60,0,0
14748,-100,4,3,1,60,0,0
15089,-100,4,2,94,60,0,0
15259,-100,4,3,1,60,0,0
15600,-100,4,2,93,60,0,0
15770,-100,4,2,93,40,0,0
15941,-100,4,3,1,40,0,0
16111,-100,4,2,92,40,0,0
16452,-100,4,2,91,40,0,0
16793,-100,4,2,1,60,0,0
17986,-100,4,2,2,60,0,0
18157,-100,4,2,1,60,0,0
19009,-100,4,3,1,60,0,0
19520,-100,4,2,1,60,0,0
20458,-100,4,2,1,5,0,0
20543,-100,4,2,1,60,0,0
20714,-100,4,2,2,60,0,0
20884,-100,4,2,1,60,0,0
21566,-100,4,2,92,60,0,0
21736,-100,4,3,1,60,0,0
22077,-100,4,2,1,60,0,0
22248,-100,4,2,95,60,0,0
22333,-100,4,2,1,60,0,0
23441,-100,4,2,2,60,0,0
23611,-100,4,2,1,60,0,0
24464,-100,4,3,1,60,0,0
24634,-100,4,2,1,60,0,0
24805,-100,4,3,1,60,0,0
24975,-100,4,2,1,60,0,0
25231,-100,4,2,1,5,0,0
25316,-100,4,2,1,60,0,0
26168,-100,4,2,2,60,0,0
26339,-100,4,2,95,60,0,0
26680,-100,4,2,1,60,0,0
27020,-100,4,2,96,60,0,0
27191,-100,4,2,1,60,0,0
27361,-100,4,3,1,60,0,0
27532,-100,4,3,1,50,0,0
27617,-100,4,3,1,40,0,0
27702,-100,4,2,99,60,0,0
27787,-100,4,2,1,60,0,0
28895,-100,4,2,2,60,0,0
29066,-100,4,2,95,60,0,0
29236,-100,4,2,1,60,0,0
29918,-100,4,3,1,60,0,0
30089,-100,4,2,1,60,0,0
30259,-100,4,3,1,60,0,0
30430,-100,4,2,94,60,0,0
30515,-100,4,2,1,60,0,0
31623,-100,4,2,2,60,0,0
31793,-100,4,2,1,60,0,0
32645,-100,4,3,1,60,0,0
33157,-100,4,2,95,60,0,0
33242,-100,4,2,1,60,0,0
34520,-100,4,2,94,60,0,0
34691,-100,4,2,1,60,0,0
35373,-100,4,2,2,60,0,0
35543,-100,4,3,1,60,0,0
35884,-100,4,2,1,60,0,0
36907,-100,4,2,91,60,0,0
37077,-100,4,2,92,60,0,0
37248,-100,4,2,93,60,0,0
37418,-100,4,2,94,60,0,0
37589,-100,4,2,95,60,0,0
37759,-100,4,2,96,60,0,0
37930,-100,4,2,1,60,0,0
38100,-100,4,3,1,60,0,0
38270,-100,4,2,1,60,0,0
38441,-100,4,3,1,60,0,0
38611,-100,4,2,1,60,0,0
39975,-100,4,2,95,60,0,0
40316,-100,4,2,1,60,0,0
40657,-100,4,2,94,60,0,0
40827,-100,4,2,2,60,0,0
40998,-100,4,3,1,60,0,0
41339,-100,4,2,93,60,0,0
42702,-100,4,2,95,60,0,0
43043,-100,4,2,1,60,0,0
43384,-100,4,2,94,60,0,0
43725,-100,4,2,2,60,0,0
43895,-100,4,2,1,60,0,0
45089,-100,4,3,1,60,0,0
45259,-100,4,2,1,60,0,0
45430,-100,4,2,95,60,0,0
45600,-100,4,2,1,60,0,0
46111,-100,4,2,94,60,0,0
46282,-100,4,2,1,60,0,0
46452,-100,4,3,1,60,0,0
46623,-100,4,2,1,60,0,0
48157,-100,4,2,99,60,0,0
48839,-100,4,2,98,60,0,0
49180,-100,4,2,2,60,0,0
49350,-100,4,2,1,60,0,0
50884,-100,4,2,95,60,0,0
51225,-100,4,2,1,60,0,0
51566,-100,4,2,94,60,0,0
51736,-100,4,2,2,50,0,0
51907,-100,4,3,1,60,0,0
52248,-100,4,2,1,60,0,0
52930,-100,4,2,94,60,0,0
53043,-100,4,2,1,60,0,0
53157,-100,4,3,1,60,0,0
53611,-133.333333333333,4,2,1,60,0,0
54890,-133.333333333333,4,2,1,5,0,0
54975,-133.333333333333,4,2,1,60,0,0
55998,-200,4,2,1,60,0,0
57702,-100,4,2,2,60,0,0
57873,-100,4,2,1,60,0,0
58043,-100,4,2,2,60,0,0
58214,-100,4,2,1,60,0,0
58384,-100,4,2,2,60,0,0
58555,-100,4,2,1,60,0,0
58725,-100,4,2,2,60,0,0
58895,-100,4,2,1,60,0,0
59066,-100,4,2,2,60,0,0
59236,-100,4,2,1,60,0,0
59407,-100,4,2,2,60,0,0
59577,-100,4,1,91,60,0,0
59748,-100,4,1,92,60,0,0
59918,-100,4,1,93,60,0,0
60089,-100,4,1,94,60,0,0
60259,-100,4,1,95,60,0,0
60430,-100,4,2,1,60,0,0
60600,-100,4,3,1,60,0,0
60941,-100,4,2,2,60,0,0
61111,-100,4,3,1,60,0,0
61282,-100,4,2,2,60,0,0
61452,-100,4,3,1,60,0,0
61708,-100,4,3,1,40,0,0
61793,-100,4,2,1,60,0,0
62219,-100,4,2,1,5,0,0
62305,-200,4,2,1,50,0,0
62816,-100,4,2,1,50,0,0
63157,-100,4,2,69,50,0,1
63242,-100,4,2,1,70,0,1
64180,-100,4,2,2,70,0,1
64520,-100,4,2,1,70,0,1
64861,-100,4,2,2,70,0,1
65032,-100,4,2,1,70,0,1
65543,-100,4,2,2,70,0,1
65714,-100,4,2,1,70,0,1
66225,-100,4,2,2,70,0,1
66395,-100,4,2,1,70,0,1
66907,-100,4,2,2,70,0,1
67077,-100,4,2,1,70,0,1
67589,-100,4,2,2,70,0,1
67759,-100,4,2,1,70,0,1
68270,-100,4,2,2,70,0,1
68441,-100,4,2,1,70,0,1
68952,-100,4,2,2,70,0,1
69123,-100,4,2,1,70,0,1
69634,-100,4,2,2,70,0,1
69805,-100,4,2,1,70,0,1
70316,-100,4,2,2,70,0,1
70486,-100,4,3,1,70,0,1
70998,-100,4,2,2,70,0,1
71168,-100,4,2,1,70,0,1
71680,-100,4,2,2,70,0,1
71850,-100,4,2,1,70,0,1
72361,-100,4,2,2,70,0,1
72532,-100,4,2,1,70,0,1
73043,-100,4,2,2,70,0,1
73214,-100,4,2,1,70,0,1
74066,-100,4,2,1,70,0,1
74577,-100,4,2,2,70,0,1
74748,-100,4,2,1,70,0,1
75089,-100,4,2,2,70,0,1
75259,-100,4,2,1,70,0,1
75770,-100,4,2,2,70,0,1
75941,-100,4,2,1,70,0,1
77134,-100,4,2,2,70,0,1
77305,-100,4,2,1,70,0,1
77816,-100,4,2,2,70,0,1
77986,-100,4,2,1,70,0,1
78157,-100,4,2,91,70,0,1
78498,-100,4,1,92,70,0,1
78668,-100,4,2,92,70,0,1
78839,-100,4,2,93,70,0,1
79009,-100,4,2,1,70,0,1
79180,-100,4,1,94,70,0,1
79350,-100,4,2,1,70,0,1
79861,-100,4,2,2,70,0,1
80202,-100,4,2,1,70,0,1
80543,-100,4,2,2,70,0,1
80714,-100,4,2,1,70,0,1
81225,-100,4,2,2,70,0,1
81395,-100,4,2,1,70,0,1
81907,-100,4,2,2,70,0,1
82077,-100,4,2,1,70,0,1
82248,-100,4,2,99,70,0,1
84975,-100,4,2,99,50,0,1
85145,-100,4,2,1,50,0,1
85316,-100,4,2,1,55,0,1
85657,-100,4,2,1,60,0,1
85998,-100,4,2,1,65,0,1
86339,-100,4,2,1,70,0,0
87020,-200,4,2,1,70,0,0
88895,-200,4,2,1,5,0,0

[Colours]
Combo1 : 122,122,122
Combo2 : 101,203,252
Combo3 : 255,106,106

[HitObjects]
128,80,259,5,0,0:0:0:0:
128,80,430,2,0,B|120:116|136:168,1,67.5000025749208,2|0,0:0|0:0,0:0:0:0:
252,160,770,1,0,0:0:0:0:
252,160,941,2,0,B|264:128|260:93,2,67.5000025749208,0|2|0,0:0|0:0|0:0,0:0:0:0:
168,212,1452,2,0,P|132:216|88:212,1,67.5000025749208
32,272,1793,5,2,0:0:0:0:
88,348,1964,1,0,0:0:0:0:
180,328,2134,1,0,0:0:0:0:
272,348,2305,1,0,0:0:0:0:
272,348,2475,2,0,P|304:356|348:344,1,67.5000025749208,2|0,0:0|0:0,0:0:0:0:
396,276,2816,1,0,0:0:0:0:
384,184,2986,1,0,0:0:0:0:
348,96,3157,6,0,P|312:92|276:96,1,67.5000025749208,2|0,0:0|0:0,0:0:0:0:
192,144,3498,2,0,P|156:148|120:144,1,67.5000025749208,2|0,0:0|0:0,0:0:0:0:
56,80,3839,1,0,0:0:0:0:
20,168,4009,1,0,0:0:0:0:
68,248,4180,1,2,0:0:0:0:
164,252,4350,1,0,0:0:0:0:
268,312,4520,6,0,P|300:316|340:308,1,67.5000025749208,2|0,0:0|0:0,0:0:0:0:
372,224,4861,2,0,P|340:220|300:228,2,67.5000025749208,0|0|2,0:0|0:0|0:0,0:0:0:0:
460,288,5373,1,0,0:0:0:0:
460,288,5543,2,0,P|462:321|458:355,1,67.5000025749208
295,139,5884,6,0,B|371:135|371:135|415:155|415:155|471:152,1,180,12|0,0:0|0:0,0:0:0:0:
376,288,6907,2,0,B|376:264|376:264|380:240,1,45,0|0,0:0|0:0,0:0:0:0:
452,76,7248,6,0,P|472:156|460:244,1,161.999995056153,12|4,0:0|0:0,0:0:0:0:
436,360,7930,1,0,0:0:0:0:
296,344,8100,1,8,0:0:0:0:
296,344,8270,2,0,P|268:340|240:340,1,53.9999983520508,8|0,0:0|0:0,0:0:0:0:
88,236,8611,6,0,B|80:60|80:60|116:136,1,251.999992309571,12|0,0:0|0:0,0:0:0:0:
184,296,9464,2,0,P|184:264|192:224,1,62.9999980773926,0|0,0:0|0:0,0:0:0:0:
264,57,9805,1,0,0:0:0:0:
264,57,9975,2,0,B|288:104|288:104|280:284,1,216,12|4,0:0|0:0,0:0:0:0:
368,372,10657,1,0,0:0:0:0:
448,284,10827,1,2,0:0:0:0:
448,284,10998,2,0,B|456:248|456:248|452:200,1,72,4|0,0:0|0:0,0:0:0:0:
160,268,11339,5,4,0:0:0:0:
368,128,11509,1,0,0:0:0:0:
112,212,11680,1,2,0:0:0:0:
400,196,11850,1,2,0:0:0:0:
80,144,12020,1,2,0:0:0:0:
412,272,12191,1,2,0:0:0:0:
104,76,12361,1,2,0:0:0:0:
376,336,12532,1,2,0:0:0:0:
164,28,12702,5,0,0:0:0:0:
400,232,13725,5,0,0:0:0:0:
417,205,13810,1,0,0:0:0:0:
424,173,13895,1,0,0:0:0:0:
418,142,13980,1,0,0:0:0:0:
400,112,14066,6,0,P|352:100|292:104,1,90,2|8,0:0|0:0,0:0:0:0:
228,280,14407,1,8,0:0:0:0:
224,96,14577,2,0,P|216:52|224:0,1,90,2|8,0:0|0:0,0:0:0:0:
228,280,14918,1,8,0:0:0:0:
141,167,15089,2,0,P|96:167|52:176,1,90,2|8,0:0|0:0,0:0:0:0:
228,280,15430,5,8,0:0:0:0:
324,108,15600,1,2,0:0:0:0:
428,304,15770,2,0,P|436:264|436:208,1,90,2|8,0:0|0:0,0:0:0:0:
280,168,16111,1,2,0:0:0:0:
292,332,16282,1,2,0:0:0:0:
148,352,16452,1,2,0:0:0:0:
111,350,16537,1,0,0:0:0:0:
80,334,16622,1,0,0:0:0:0:
58,305,16707,1,0,0:0:0:0:
40,270,16793,6,0,P|32:174|60:90,1,180,4|8,0:0|0:0,0:0:0:0:
260,28,17305,1,2,0:0:0:0:
260,28,17475,2,0,P|264:72|256:120,1,90,8|2,0:0|0:0,0:0:0:0:
176,208,17816,1,8,0:0:0:0:
352,84,17986,1,8,0:0:0:0:
352,84,18157,6,0,P|356:176|336:268,1,180,8|8,0:0|0:0,0:0:0:0:
176,208,18668,1,2,0:0:0:0:
264,80,18839,2,0,P|275:120|272:184,1,90,8|8,0:0|0:0,0:0:0:0:
100,260,19180,2,0,P|92:216|96:160,1,90,8|4,0:0|0:0,0:0:0:0:
248,316,19520,6,0,P|332:344|424:316,1,180,8|0,0:0|0:0,0:0:0:0:
496,184,20032,1,2,0:0:0:0:
496,184,20202,2,0,P|500:228|492:288,1,90,8|0,0:0|0:0,0:0:0:0:
288,204,20543,1,8,0:0:0:0:
400,120,20714,1,8,0:0:0:0:
244,72,20884,6,0,P|199:66|155:74,1,90,8|2,0:0|0:0,0:0:0:0:
200,232,21225,2,0,P|208:188|200:140,1,90,8|2,0:0|0:0,0:0:0:0:
16,280,21566,1,2,0:0:0:0:
220,328,21736,1,8,0:0:0:0:
201,143,21907,1,8,0:0:0:0:
88,240,22077,1,2,0:0:0:0:
280,276,22248,6,0,B|336:272|336:272|392:296|392:296|460:292,1,180,2|8,0:0|0:0,0:0:0:0:
448,124,22759,1,2,0:0:0:0:
448,124,22930,2,0,P|408:120|336:128,1,90,8|2,0:0|0:0,0:0:0:0:
152,136,23270,1,8,0:0:0:0:
260,28,23441,1,8,0:0:0:0:
208,272,23611,6,0,B|208:228|208:228|216:176,1,90,8|2,0:0|0:0,0:0:0:0:
280,24,23952,2,0,B|292:64|292:64|288:120,1,90,8|2,0:0|0:0,0:0:0:0:
272,340,24293,1,8,0:0:0:0:
344,216,24464,1,8,0:0:0:0:
136,268,24634,1,8,0:0:0:0:
268,352,24805,1,8,0:0:0:0:
136,268,24975,6,0,P|120:172|136:76,1,180,8|8,0:0|0:0,0:0:0:0:
376,36,25486,1,2,0:0:0:0:
376,36,25657,2,0,P|384:80|372:132,1,90,8|2,0:0|0:0,0:0:0:0:
240,188,25998,2,0,P|232:144|244:92,1,90,8|8,0:0|0:0,0:0:0:0:
392,32,26339,6,0,P|400:76|388:128,1,90,2|0,0:0|0:0,0:0:0:0:
228,200,26680,2,0,P|220:156|232:104,1,90,8|2,0:0|0:0,0:0:0:0:
416,272,27020,1,2,0:0:0:0:
232,356,27191,1,8,0:0:0:0:
308,252,27361,1,8,0:0:0:0:
396,368,27532,1,8,0:0:0:0:
148,328,27702,6,0,B|152:236|152:236|160:204|160:204|164:140,1,180,2|8,0:0|0:0,0:0:0:0:
332,36,28214,1,2,0:0:0:0:
332,36,28384,2,0,P|324:76|328:136,1,90,8|2,0:0|0:0,0:0:0:0:
505,278,28725,2,0,P|460:268|397:270,1,90,8|8,0:0|0:0,0:0:0:0:
164,148,29066,6,0,P|208:156|272:156,1,90,2|2,0:0|0:0,0:0:0:0:
300,341,29407,2,0,P|312:296|308:241,1,90,8|2,0:0|0:0,0:0:0:0:
444,80,29748,2,0,P|452:124|440:172,1,90,8|8,0:0|0:0,0:0:0:0:
252,154,30089,2,0,P|244:110|256:62,1,90,8|8,0:0|0:0,0:0:0:0:
92,104,30430,6,0,P|104:188|80:288,1,180,2|8,0:0|0:0,0:0:0:0:
232,352,30941,1,2,0:0:0:0:
232,352,31111,2,0,P|236:308|224:252,1,90,8|2,0:0|0:0,0:0:0:0:
372,168,31452,2,0,P|368:212|380:268,1,90,8|8,0:0|0:0,0:0:0:0:
420,56,31793,6,0,B|376:44|376:44|320:44,1,90,8|2,0:0|0:0,0:0:0:0:
68,96,32134,2,0,B|112:96|112:96|157:85,1,90,8|2,0:0|0:0,0:0:0:0:
372,168,32475,2,0,B|327:158|327:158|282:157,1,90,8|8,0:0|0:0,0:0:0:0:
104,208,32816,1,8,0:0:0:0:
283,157,32986,1,8,0:0:0:0:
200,352,33157,6,0,B|208:152,1,180,2|8,0:0|0:0,0:0:0:0:
296,344,33668,1,2,0:0:0:0:
296,344,33839,2,0,L|384:328,1,90,8|2,0:0|0:0,0:0:0:0:
500,248,34180,2,0,L|412:232,1,90,8|8,0:0|0:0,0:0:0:0:
332,44,34520,6,0,P|288:40|236:44,1,90,2|0,0:0|0:0,0:0:0:0:
116,140,34861,2,0,P|72:144|20:140,1,90,8|2,0:0|0:0,0:0:0:0:
184,88,35202,2,0,P|196:128|188:180,1,90,8|8,0:0|0:0,0:0:0:0:
56,328,35543,1,8,0:0:0:0:
176,256,35714,1,8,0:0:0:0:
26,140,35884,6,0,P|18:188|26:232,1,90,4|0,0:0|0:0,0:0:0:0:
212,344,36225,1,8,0:0:0:0:
56,328,36395,1,2,0:0:0:0:
176,256,36566,2,8,P|223:245|268:255,1,90,8|10,0:0|0:0,0:0:0:0:
356,152,36907,1,2,0:0:0:0:
400,324,37077,1,2,0:0:0:0:
240,164,37248,5,2,0:0:0:0:
488,220,37418,1,2,0:0:0:0:
420,76,37589,1,2,0:0:0:0:
396,216,37759,1,0,0:0:0:0:
492,136,37930,1,8,0:0:0:0:
288,120,38100,1,8,0:0:0:0:
336,356,38270,1,8,0:0:0:0:
224,228,38441,1,8,0:0:0:0:
396,216,38611,6,0,P|464:280|456:368,1,180,4|0,0:0|0:0,0:0:0:0:
236,364,39123,1,8,0:0:0:0:
152,152,39293,2,0,L|160:256,1,90,0|0,0:0|0:0,0:0:0:0:
56,352,39634,2,0,L|64:248,1,90,8|0,0:0|0:0,0:0:0:0:
100,72,39975,6,0,B|144:52|144:52|288:48,1,180,2|2,0:0|0:0,0:0:0:0:
464,168,40486,2,0,B|432:176|432:176|356:172,1,90,8|2,0:0|0:0,0:0:0:0:
220,140,40827,1,8,0:0:0:0:
62,262,40998,2,0,B|94:270|94:270|170:266,1,90,8|0,0:0|0:0,0:0:0:0:
360,384,41339,6,0,B|376:336|376:336|376:196,1,180,2|0,0:0|0:0,0:0:0:0:
296,20,41850,1,2,0:0:0:0:
240,200,42020,2,0,B|232:244|232:244|236:292,1,90,0|0,0:0|0:0,0:0:0:0:
32,176,42361,2,0,B|36:132|36:132|28:84,1,90,2|0,0:0|0:0,0:0:0:0:
336,132,42702,6,0,L|328:320,1,180,10|0,0:0|0:0,0:0:0:0:
144,332,43214,1,8,0:0:0:0:
268,76,43384,2,0,L|260:264,1,180,2|8,0:0|0:0,0:0:0:0:
144,332,43895,1,2,0:0:0:0:
196,40,44066,6,0,L|188:228,1,180,4|0,0:0|0:0,0:0:0:0:
304,360,44577,1,8,0:0:0:0:
304,360,44748,2,0,P|312:316|312:268,1,90,0|0,0:0|0:0,0:0:0:0:
264,72,45089,2,0,P|256:116|256:164,1,90,8|2,0:0|0:0,0:0:0:0:
444,228,45430,6,0,P|476:152|456:60,1,180,2|2,0:0|0:0,0:0:0:0:
264,24,45941,2,0,P|216:24|152:16,1,90,8|2,0:0|0:0,0:0:0:0:
40,12,46282,1,0,0:0:0:0:
20,168,46452,2,0,P|64:164|132:176,1,90,8|2,0:0|0:0,0:0:0:0:
444,228,46793,6,0,L|264:220,1,180,4|0,0:0|0:0,0:0:0:0:
52,292,47305,1,8,0:0:0:0:
52,292,47475,2,0,L|156:296,1,90,0|0,0:0|0:0,0:0:0:0:
352,268,47816,2,0,P|360:224|360:176,1,90,8|2,0:0|0:0,0:0:0:0:
174,17,48157,6,0,P|162:105|170:201,1,180,2|0,0:0|0:0,0:0:0:0:
336,336,48668,1,0,0:0:0:0:
336,336,48839,2,0,P|380:340|432:328,1,90,2|0,0:0|0:0,0:0:0:0:
230,290,49180,2,0,P|186:286|134:298,1,90,8|2,0:0|0:0,0:0:0:0:
336,336,49520,6,0,P|348:256|340:152,1,180,4|2,0:0|0:0,0:0:0:0:
136,72,50032,1,8,0:0:0:0:
136,72,50202,2,0,P|140:116|128:168,1,90,0|0,0:0|0:0,0:0:0:0:
296,100,50543,2,0,P|292:56|304:4,1,90,8|2,0:0|0:0,0:0:0:0:
446,157,50884,6,0,P|454:245|422:333,1,180,2|2,0:0|0:0,0:0:0:0:
240,356,51395,2,0,L|148:352,1,90,8|2,0:0|0:0,0:0:0:0:
12,244,51736,1,8,0:0:0:0:
160,262,51907,2,0,L|149:351,1,90,8|8,0:0|0:0,0:0:0:0:
232,200,52248,6,0,L|252:12,1,180,8|2,0:0|0:0,0:0:0:0:
448,112,52759,1,0,0:0:0:0:
464,240,52930,2,0,P|472:272|472:304,2,60,8|0|8,0:3|0:3|0:0,0:0:0:0:
396,284,53270,2,0,P|404:316|404:348,2,60,4|8|8,0:0|0:0|0:0,0:0:0:0:
298,226,53611,6,0,B|166:226|166:226|234:198,1,202.500007724762,4|0,0:0|0:0,0:0:0:0:
384,140,54293,6,0,B|449:113|449:113|317:113,1,202.500007724762,4|0,0:0|0:0,0:0:0:0:
224,112,54975,6,0,L|20:112,1,202.500007724762,4|0,0:0|0:0,0:0:0:0:
56,296,55998,6,0,P|96:300|164:296,1,90,0|2,0:0|0:0,0:0:0:0:
336,64,56850,2,0,P|368:92|384:136,2,90,0|0|0,0:0|0:0|0:0,0:0:0:0:
229,208,57702,5,8,0:0:0:0:
47,243,57873,1,8,0:0:0:0:
290,277,58043,5,8,0:0:0:0:
78,157,58214,1,8,0:0:0:0:
257,362,58384,5,8,0:0:0:0:
167,140,58555,1,8,0:0:0:0:
166,375,58725,5,8,0:0:0:0:
256,123,58895,1,8,0:0:0:0:
128,256,59066,5,8,0:0:0:0:
384,156,59236,1,8,0:0:0:0:
112,80,59407,5,8,0:0:0:0:
316,300,59577,1,2,0:0:0:0:
276,32,59748,5,2,0:0:0:0:
172,272,59918,1,2,0:0:0:0:
448,224,60089,1,2,0:0:0:0:
160,168,60259,1,2,0:0:0:0:
240,344,60430,6,0,P|280:328|317:295,1,90,4|8,0:0|0:0,0:0:0:0:
456,204,60770,1,8,0:0:0:0:
272,124,60941,2,0,P|227:128|185:144,1,90,8|8,0:0|0:0,0:0:0:0:
264,360,61282,1,8,0:0:0:0:
364,216,61452,5,12,0:0:0:0:
84,320,61623,1,8,0:0:0:0:
84,320,61708,1,8,0:0:0:0:
84,320,61793,1,4,0:0:0:0:
296,228,62305,6,0,P|336:192|280:200,1,135,2|2,0:0|0:0,0:0:0:0:
109,33,63157,6,0,B|96:120|96:120|104:212,1,180,4|2,0:0|0:0,0:0:0:0:
280,60,63668,1,0,0:0:0:0:
280,60,63839,2,0,B|288:108|288:108|280:156,1,90,8|8,0:0|0:0,0:0:0:0:
192,288,64180,2,0,B|184:240|184:240|192:192,1,90,8|0,0:0|0:0,0:0:0:0:
408,149,64520,6,0,B|416:236|416:236|404:328,1,180,8|8,0:0|0:0,0:0:0:0:
190,199,65032,2,0,P|102:203|6:187,1,180,2|8,0:0|0:0,0:0:0:0:
268,152,65543,2,0,P|280:196|264:248,1,90,8|0,0:0|0:0,0:0:0:0:
88,352,65884,6,0,L|272:360,1,180,8|8,0:0|0:0,0:0:0:0:
480,304,66395,1,2,0:0:0:0:
480,304,66566,2,0,L|384:300,1,90,8|8,0:0|0:0,0:0:0:0:
183,241,66907,2,0,L|279:237,1,90,8|0,0:0|0:0,0:0:0:0:
468,232,67248,6,0,L|476:48,1,180,8|8,0:0|0:0,0:0:0:0:
284,80,67759,2,0,B|224:92|224:92|96:88,1,180,2|8,0:0|0:0,0:0:0:0:
44,236,68270,2,0,P|84:252|136:240,1,90,8|0,0:0|0:0,0:0:0:0:
467,231,68611,6,0,P|384:202|299:226,1,180,4|8,0:0|0:0,0:0:0:0:
212,312,69123,1,2,0:0:0:0:
212,312,69293,2,0,B|204:272|204:272|204:222,1,90,8|8,0:0|0:0,0:0:0:0:
348,112,69634,2,0,B|356:64|356:64|356:23,1,90,8|2,0:0|0:0,0:0:0:0:
112,132,69975,6,0,P|72:196|76:308,1,180,4|8,0:0|0:0,0:0:0:0:
280,356,70486,1,8,0:0:0:0:
280,356,70657,2,0,P|324:360|376:356,1,90,8|8,0:0|0:0,0:0:0:0:
472,192,70998,2,0,P|428:188|360:196,1,90,8|0,0:0|0:0,0:0:0:0:
200,268,71339,6,0,B|192:136|192:136|204:76,1,180,12|8,0:0|0:0,0:0:0:0:
352,36,71850,1,2,0:0:0:0:
352,36,72020,2,0,B|360:92|360:92|356:128,1,90,0|8,0:0|0:0,0:0:0:0:
244,320,72361,2,0,P|200:336|148:312,1,90,8|8,0:0|0:0,0:0:0:0:
136,304,72617,1,0,0:0:0:0:
136,304,72702,6,0,P|123:261|139:220,1,90,4|8,0:0|0:0,0:0:0:0:
240,88,73043,2,0,P|244:129|236:177,1,90,8|8,0:0|0:0,0:0:0:0:
164,40,73384,1,8,0:0:0:0:
390,84,73554,1,8,0:0:0:0:
392,107,73639,1,0,0:0:0:0:
393,129,73724,1,8,0:0:0:0:
395,152,73810,1,8,0:0:0:0:
396,174,73895,1,8,0:0:0:0:
398,197,73980,1,0,0:0:0:0:
399,219,74065,5,4,0:0:0:0:
328,356,74236,1,8,0:0:0:0:
248,232,74407,1,8,0:0:0:0:
420,300,74577,1,8,0:0:0:0:
244,328,74748,1,8,0:0:0:0:
288,144,74918,1,8,0:0:0:0:
328,264,75089,1,8,0:0:0:0:
120,200,75259,1,8,0:0:0:0:
176,48,75430,6,0,P|220:40|276:44,1,90,8|8,0:0|0:0,0:0:0:0:
180,264,75770,1,8,0:0:0:0:
288,144,75941,2,0,P|336:148|388:140,1,90,2|8,0:0|0:0,0:0:0:0:
316,280,76282,1,2,0:0:0:0:
292,48,76452,1,8,0:0:0:0:
448,112,76623,1,2,0:0:0:0:
204,56,76793,6,0,P|196:100|204:156,1,90,0|8,0:0|0:0,0:0:0:0:
376,240,77134,1,8,0:0:0:0:
124,256,77305,1,8,0:0:0:0:
328,336,77475,1,8,0:0:0:0:
228,164,77645,1,8,0:0:0:0:
176,320,77816,1,8,0:0:0:0:
420,332,77986,1,8,0:0:0:0:
456,120,78157,6,0,P|464:164|464:220,1,90,2|0,0:0|0:0,0:0:0:0:
272,272,78498,1,2,0:0:0:0:
324,56,78668,2,0,P|336:100|332:148,1,90,0|2,0:0|0:0,0:0:0:0:
136,92,79009,1,0,0:0:0:0:
232,216,79180,1,2,0:0:0:0:
244,68,79350,1,8,0:0:0:0:
96,180,79520,6,0,B|120:304|120:304|144:256,1,180,4|8,0:0|0:0,0:0:0:0:
244,68,80032,1,0,0:0:0:0:
244,68,80202,2,0,P|260:112|256:164,1,90,2|8,0:0|0:0,0:0:0:0:
288,312,80543,2,0,L|384:316,1,90,8|0,0:0|0:0,0:0:0:0:
468,88,80884,6,0,P|483:176|471:265,1,180,4|8,0:0|0:0,0:0:0:0:
252,364,81395,1,2,0:0:0:0:
252,364,81566,2,0,P|244:312|248:272,1,90
368,96,81907,2,0,P|371:140|363:184,1,90,8|0,0:0|0:0,0:0:0:0:
176,60,82248,6,0,L|164:244,1,180,2|0,0:0|0:0,0:0:0:0:
48,364,82759,1,0,0:0:0:0:
48,364,82930,2,0,L|36:180,1,180,2|0,0:0|0:0,0:0:0:0:
188,248,83441,5,0,0:0:0:0:
188,248,83526,1,0,0:0:0:0:
188,248,83611,2,0,P|272:263|376:251,1,180,2|0,0:0|0:0,0:0:0:0:
476,88,84123,1,0,0:0:0:0:
476,88,84293,2,0,P|488:132|482:177,1,90,2|0,0:0|0:0,0:0:0:0:
256,28,84634,1,0,0:0:0:0:
380,84,84804,1,0,0:0:0:0:
380,120,84889,1,0,0:0:0:0:
380,156,84975,5,2,0:0:0:0:
252,368,85145,1,2,0:0:0:0:
260,104,85316,1,2,0:0:0:0:
356,368,85486,1,2,0:0:0:0:
184,136,85657,1,2,0:0:0:0:
428,328,85827,1,2,0:0:0:0:
132,208,85998,1,2,0:0:0:0:
460,260,86168,1,2,0:0:0:0:
100,292,86339,5,0,0:0:0:0:
56,196,87020,5,0,0:0:0:0:
56,196,87191,2,0,P|56:152|64:104,1,90,0|0,0:0|0:0,0:0:0:0:
176,48,87702,6,0,B|332:16|320:136|488:44,1,315,2|0,0:0|0:0,0:0:0:0:
