osu file format v14

[General]
AudioFilename: audio.mp3
AudioLeadIn: 0
PreviewTime: 49199
Countdown: 0
SampleSet: Soft
StackLeniency: 0.5
Mode: 0
LetterboxInBreaks: 0
WidescreenStoryboard: 0

[Editor]
DistanceSpacing: 2
BeatDivisor: 4
GridSize: 4
TimelineZoom: 2.1

[Metadata]
Title:PRIMALove -TV Mix-
TitleUnicode:PRIMALove -TV Mix-
Artist:ClariS
ArtistUnicode:ClariS
Creator:NeonLights
Version:ailv's Insane
Source:BEATLESS
Tags:ending ed ambrew aliv ailv shanipika theReaL_Gatorix kz(livetune) Karen Clara
BeatmapID:1530409
BeatmapSetID:724759

[Difficulty]
HPDrainRate:4
CircleSize:4
OverallDifficulty:7
ApproachRate:9
SliderMultiplier:1.6
SliderTickRate:1

[Events]
//Background and Video events
0,0,"lacia_bestgirl.jpg",0,0
//Break Periods
2,3937,7275
//Storyboard Layer 0 (Background)
//Storyboard Layer 1 (Fail)
//Storyboard Layer 2 (Pass)
//Storyboard Layer 3 (Foreground)
//Storyboard Sound Samples

[TimingPoints]
427,413.793103448276,4,2,17,40,1,0
10358,-200,4,2,17,40,0,0
23599,-125,4,2,17,50,0,0
36840,-125,4,2,17,70,0,0
48840,-66.6666666666667,4,2,17,80,0,0
49668,-200,4,2,17,80,0,0
50082,-66.6666666666667,4,2,17,80,0,1
52358,-76.9230769230769,4,2,17,80,0,1
52771,-58.8235294117647,4,2,17,80,0,1
53392,-66.6666666666667,4,2,17,80,0,1
54840,-66.6666666666667,4,2,17,80,0,1
55668,-76.9230769230769,4,2,17,80,0,1
56082,-58.8235294117647,4,2,17,80,0,1
56702,-76.9230769230769,4,2,17,80,0,1
57323,-58.8235294117647,4,2,17,80,0,1
58358,-66.6666666666667,4,2,17,80,0,1
60013,-76.9230769230769,4,2,17,80,0,1
60427,-66.6666666666667,4,2,17,80,0,1
60633,-66.6666666666667,4,2,17,80,0,1
61047,-58.8235294117647,4,2,17,80,0,1
61668,-58.8235294117647,4,2,17,80,0,1
63323,-66.6666666666667,4,2,17,80,0,1
65599,-76.9230769230769,4,2,17,80,0,1
66013,-58.8235294117647,4,2,17,80,0,1
66633,-66.6666666666667,4,2,17,80,0,1
67875,-58.8235294117647,4,2,17,80,0,1
68082,-66.6666666666667,4,2,17,80,0,1
68909,-76.9230769230769,4,2,17,80,0,1
69323,-58.8235294117647,4,2,17,80,0,1
69944,-76.9230769230769,4,2,17,80,0,1
70564,-66.6666666666667,4,2,17,80,0,1
71599,-76.9230769230769,4,2,17,80,0,1
72220,-58.8235294117647,4,2,17,80,0,1
75323,-66.6666666666667,4,2,17,80,0,1
76151,-200,4,2,17,70,0,0
76564,-83.3333333333333,4,2,17,70,0,0

[Colours]
Combo1 : 238,155,157
Combo2 : 85,166,255
Combo3 : 161,161,161

[HitObjects]
256,192,427,12,2,3737,0:2:0:0:
256,192,7875,12,0,10151,0:2:0:0:
196,62,10358,5,2,0:2:0:0:
192,56,10771,5,0,0:2:0:0:
296,57,10978,2,0,P|278:134|277:136,1,80,2|0,0:2|0:2,0:2:0:0:
337,207,11599,5,0,0:2:0:0:
283,295,11806,2,0,P|251:272|226:241,1,80,2|0,0:2|0:2,0:2:0:0:
128,256,12427,5,0,0:2:0:0:
78,165,12634,2,0,P|113:148|153:142,1,80,2|0,0:2|0:2,0:2:0:0:
242,31,13254,5,0,0:2:0:0:
311,89,13461,2,0,P|306:142|296:174,1,80,2|0,0:2|0:2,0:2:0:0:
410,146,14082,5,0,0:2:0:0:
394,234,14289,2,0,P|345:256|312:263,1,80,2|0,0:2|0:2,0:2:0:0:
346,353,14909,5,0,0:2:0:0:
261,383,15116,2,0,P|217:352|194:327,1,80,2|0,0:2|0:2,0:2:0:0:
48,372,15737,5,0,0:2:0:0:
64,283,15944,2,0,P|112:260|145:252,1,80,2|0,0:2|0:2,0:2:0:0:
180,104,16564,5,0,0:2:0:0:
249,162,16771,2,0,P|244:215|234:248,1,80,2|0,0:2|0:2,0:2:0:0:
207,269,18220,5,0,0:2:0:0:
275,337,18427,2,0,P|325:339|365:330,1,80,2|0,0:2|0:2,0:2:0:0:
437,298,19047,6,0,P|416:267|402:257,1,40,2|0,0:2|0:2,0:2:0:0:
425,176,19461,2,0,P|387:178|371:185,1,40,2|0,0:2|0:2,0:2:0:0:
313,125,19875,2,0,P|296:158|294:175,1,40,2|0,0:2|0:2,0:2:0:0:
222,261,20289,6,0,P|181:269|129:256,1,80,2|0,0:2|0:2,0:2:0:0:
72,328,20909,5,0,0:2:0:0:
16,252,21116,2,0,P|29:212|66:173,1,80,2|0,0:2|0:2,0:2:0:0:
256,192,21944,12,0,23392,0:2:0:0:
512,306,23599,6,0,P|483:311|425:304,1,64,4|0,0:2|0:2,0:2:0:0:
363,279,24013,1,0,1:2:0:0:
286,355,24220,2,0,P|261:294|269:213,1,128,2|0,0:2|0:2,0:2:0:0:
142,162,24840,5,0,1:2:0:0:
81,220,25047,2,0,P|77:310|90:349,1,128,2|0,0:2|0:2,0:2:0:0:
216,369,25668,5,0,1:2:0:0:
192,287,25875,2,0,P|277:255|307:268,1,128,2|0,0:2|0:2,0:2:0:0:
446,298,26495,5,0,1:2:0:0:
389,363,26702,2,0,P|322:329|315:266,1,128,2|0,0:2|0:2,0:2:0:0:
433,186,27323,5,0,1:2:0:0:
395,105,27530,2,0,L|259:94,1,128,2|0,0:2|0:2,0:2:0:0:
187,195,28151,6,0,L|255:189,1,64,0|2,1:2|0:2,1:2:0:0:
169,80,28564,2,0,L|101:74,1,64,0|0,1:2|0:2,0:2:0:0:
25,208,28978,5,0,1:2:0:0:
96,166,29185,2,0,P|146:206|158:288,1,128,2|0,0:2|0:2,0:2:0:0:
88,384,29806,5,0,1:2:0:0:
27,330,30013,2,0,P|72:284|154:281,1,128,2|0,0:2|0:2,0:2:0:0:
256,192,30633,5,0,1:0:0:0:
256,192,31047,1,0,1:0:0:0:
467,88,31461,5,0,1:2:0:0:
510,159,31668,2,0,P|421:122|374:129,1,128,2|0,0:2|0:2,0:2:0:0:
284,82,32289,2,0,P|278:124|291:165,1,64,2|0,1:2|0:2,0:2:0:0:
183,161,32702,2,0,P|198:200|230:229,1,64,2|0,1:2|0:2,0:2:0:0:
135,279,33116,2,0,P|168:305|210:314,1,64,2|0,1:2|0:2,0:2:0:0:
387,273,33530,6,0,P|316:262|245:284,1,128,2|0,1:2|0:2,0:2:0:0:
384,364,34151,5,0,0:2:0:0:
473,294,34358,2,0,P|471:240|403:192,1,128,2|0,1:2|0:2,0:2:0:0:
262,275,35185,5,0,1:0:0:0:
262,275,35599,1,0,1:0:0:0:
143,220,36013,5,8,3:3:0:0:
189,165,36220,1,0,3:2:0:0:
254,137,36426,1,8,3:3:0:0:
326,140,36633,1,0,3:2:0:0:
408,200,36840,6,0,P|458:211|507:196,2,96,4|0|0,0:2|0:2|0:2,0:2:0:0:
256,256,37668,1,8,0:1:0:0:
284,116,37875,1,0,0:2:0:0:
150,199,38082,6,0,L|35:210,2,96,0|0|0,1:2|0:2|0:1,0:2:0:0:
198,274,38909,2,0,L|127:280,1,64,0|0,0:2|0:2,0:2:0:0:
6,356,39323,6,0,L|139:368,1,128,2|0,1:2|0:2,0:2:0:0:
221,293,39944,1,0,0:2:0:0:
305,365,40151,2,0,P|369:345|390:311,1,96,2|0,1:2|0:2,0:2:0:0:
394,307,40564,1,0,0:2:0:0:
307,174,40771,2,0,P|292:239|311:274,1,96,0|0,0:2|0:2,0:2:0:0:
315,281,41184,1,0,0:2:0:0:
466,208,41392,6,0,P|392:214|360:226,2,96,0|0|0,1:2|0:2|0:2,0:2:0:0:
512,300,42220,2,0,P|467:292|425:293,1,64,0|0,0:2|0:2,0:2:0:0:
321,359,42633,5,8,1:2:0:0:
273,277,42840,1,0,1:1:0:0:
189,232,43047,1,0,1:1:0:0:
95,238,43254,1,0,1:1:0:0:
18,293,43461,6,0,L|140:288,1,96,4|0,1:2|0:2,0:2:0:0:
176,340,43875,2,0,L|239:342,1,64,2|0,0:2|0:2,0:2:0:0:
418,284,44289,6,0,L|296:289,1,96,0|0,1:2|0:2,0:2:0:0:
265,236,44703,2,0,L|267:172,1,64,2|0,0:2|0:2,0:2:0:0:
339,30,45116,6,0,L|434:25,1,96,0|0,1:2|0:2,0:2:0:0:
492,78,45530,2,0,L|489:141,1,64,2|0,0:2|0:2,0:2:0:0:
360,231,45944,6,0,L|238:236,1,96,0|0,1:2|0:2,0:2:0:0:
202,185,46358,2,0,L|138:182,1,64,2|0,0:2|0:2,0:2:0:0:
59,257,46771,6,0,L|20:258,5,32,0|0|0|0|0|0,3:2|3:2|3:2|3:2|3:2|0:2,0:2:0:0:
104,332,47392,2,0,L|135:332,1,32,0|0,3:2|3:2,0:2:0:0:
196,268,47599,2,0,L|228:268,3,32,0|0|0|0,3:2|3:2|0:2|0:2,0:2:0:0:
320,244,48013,5,0,3:2:0:0:
321,275,48116,1,0,3:2:0:0:
322,307,48219,1,0,3:2:0:0:
324,339,48323,1,0,3:2:0:0:
325,371,48426,5,2,3:2:0:0:
504,308,48633,1,2,3:2:0:0:
416,172,48840,5,0,0:2:0:0:
416,172,48944,1,0,0:2:0:0:
416,172,49047,2,0,L|357:168,1,60,0|0,0:2|0:2,0:2:0:0:
257,215,49254,5,0,0:2:0:0:
257,215,49358,1,0,0:2:0:0:
257,215,49461,2,0,L|198:219,1,60,0|0,0:2|0:2,0:2:0:0:
112,142,49668,6,0,L|47:138,1,60,10|0,0:2|0:2,0:2:0:0:
53,139,50082,6,0,P|144:169|136:237,1,180.000006866455,4|0,1:2|0:2,0:2:0:0:
0,324,50495,2,0,B|94:288|86:346|184:316,1,180.000006866455,8|0,0:2|0:2,0:2:0:0:
269,235,50909,6,0,L|270:294,1,60.0000022888184,0|0,1:2|0:2,0:2:0:0:
375,362,51116,1,0,0:2:0:0:
375,362,51220,1,0,0:2:0:0:
375,362,51323,2,0,L|377:279,1,60.0000022888184,8|0,0:2|0:2,0:2:0:0:
364,182,51530,6,0,P|436:156|437:233,1,180.000006866455,2|0,0:2|0:2,0:2:0:0:
259,207,51944,2,0,B|199:195|152:232|152:232|104:246|48:207,1,180.000006866455,2|0,0:2|0:2,0:2:0:0:
42,66,52358,6,0,P|92:119|197:93,1,155.999992858887,0|0,0:2|0:2,0:2:0:0:
242,69,52771,6,0,P|246:25|255:-3,1,68.0000012969971,2|0,0:2|0:2,0:2:0:0:
323,148,52978,2,0,P|359:173|378:195,1,68.0000012969971,10|0,0:2|0:2,0:2:0:0:
214,178,53185,2,0,P|173:196|145:202,1,68.0000012969971,2|0,0:2|0:2,0:2:0:0:
25,325,53392,6,0,P|93:327|126:229,1,180.000006866455,0|0,1:2|0:2,0:2:0:0:
65,125,53806,2,0,P|40:208|65:333,1,180.000006866455,8|0,0:2|0:2,0:2:0:0:
163,384,54220,6,0,L|169:324,1,60.0000022888184,0|0,1:2|0:2,0:2:0:0:
251,177,54427,2,0,L|257:236,1,60.0000022888184,0|0,0:2|0:2,0:2:0:0:
363,381,54633,2,0,L|369:321,1,60.0000022888184,8|0,0:2|0:2,0:2:0:0:
360,192,54840,6,0,P|430:244|385:308,1,180.000006866455,2|0,0:2|0:2,0:2:0:0:
242,340,55254,2,0,B|211:315|159:324|159:324|114:354|63:346,1,180.000006866455,2|0,0:2|0:2,0:2:0:0:
0,219,55668,6,0,P|72:246|154:204,1,155.999992858887,0|0,0:2|0:2,0:2:0:0:
159,129,56082,6,0,P|123:118|70:122,1,68.0000012969971,2|0,0:2|0:2,0:2:0:0:
245,212,56289,2,0,P|253:246|269:276,1,68.0000012969971,2|0,0:2|0:2,0:2:0:0:
275,96,56495,2,0,P|301:73|319:44,1,68.0000012969971,2|0,0:2|0:2,0:2:0:0:
509,60,56702,6,0,P|433:57|400:136,1,155.999992858887,0|0,1:2|0:2,0:2:0:0:
405,144,57116,1,8,0:2:0:0:
445,293,57323,6,0,L|531:280,1,68.0000012969971,0|0,0:2|0:2,0:2:0:0:
313,354,57530,2,0,L|380:364,1,68.0000012969971,0|0,1:2|0:2,0:2:0:0:
391,226,57737,2,0,L|323:236,1,68.0000012969971,2|0,0:2|0:2,0:2:0:0:
222,112,57944,6,0,L|264:165,1,68.0000012969971,2|0,0:2|0:2,0:2:0:0:
208,315,58151,2,0,L|232:251,1,68.0000012969971,2|0,0:2|0:2,0:2:0:0:
41,181,58358,6,0,P|41:257|127:239,1,180.000006866455,0|0,1:2|0:2,0:2:0:0:
92,120,58771,2,0,P|46:103|-4:110,1,60.0000022888184,10|0,0:2|0:2,0:2:0:0:
144,54,58978,2,0,P|217:38|326:55,1,180.000006866455,0|0,0:2|0:2,0:2:0:0:
437,27,59392,6,0,P|411:60|405:114,1,60.0000022888184,2|0,0:2|0:2,0:2:0:0:
501,253,59599,2,0,P|485:213|441:181,1,60.0000022888184,10|0,0:2|0:2,0:2:0:0:
273,195,59806,2,0,P|314:201|364:179,1,60.0000022888184,2|0,0:2|0:2,0:2:0:0:
429,364,60013,6,0,P|352:315|248:321,1,155.999992858887,0|0,1:2|0:2,0:2:0:0:
199,381,60427,2,0,P|212:329|205:294,1,60.0000022888184,10|0,0:2|0:2,0:2:0:0:
37,233,60633,6,0,P|35:294|154:328,1,180.000006866455,0|0,0:2|0:2,0:2:0:0:
218,225,61047,6,0,P|177:231|128:260,1,68.0000012969971,2|0,0:2|0:2,0:2:0:0:
329,155,61254,2,0,P|344:116|343:59,1,68.0000012969971,10|0,0:2|0:2,0:2:0:0:
334,286,61461,2,0,P|359:318|409:346,1,68.0000012969971,2|0,0:2|0:2,0:2:0:0:
503,193,61668,5,0,1:2:0:0:
312,254,61875,1,0,1:2:0:0:
297,292,61978,1,0,1:2:0:0:
309,338,62082,1,0,1:2:0:0:
206,222,62289,1,0,1:2:0:0:
162,221,62392,1,0,1:2:0:0:
128,245,62495,5,0,1:2:0:0:
178,268,62599,1,0,0:2:0:0:
231,242,62702,1,0,0:2:0:0:
247,188,62806,1,0,0:2:0:0:
226,142,62909,1,8,0:2:0:0:
48,192,63116,1,0,0:2:0:0:
16,17,63323,6,0,P|67:97|146:36,1,180.000006866455,4|0,1:2|0:2,0:2:0:0:
226,142,63737,2,0,B|265:105|321:116|321:116|352:156|415:142,1,180.000006866455,8|0,0:2|0:2,0:2:0:0:
491,22,64151,2,0,P|444:-12|396:84,1,180.000006866455,0|0,1:2|0:2,0:2:0:0:
485,168,64564,6,0,P|481:109|469:84,1,60.0000022888184,8|0,0:2|0:2,0:2:0:0:
466,263,64771,2,0,P|421:225|286:248,1,180.000006866455,2|0,0:2|0:2,0:2:0:0:
234,348,65185,2,0,P|329:330|316:248,1,180.000006866455,2|0,0:2|0:2,0:2:0:0:
203,186,65599,6,0,B|159:173|116:185|116:185|84:222|35:212,1,155.999992858887,0|0,0:2|0:2,0:2:0:0:
7,90,66013,6,0,P|44:119|66:162,1,68.0000012969971,2|0,0:2|0:2,0:2:0:0:
138,322,66220,2,0,P|144:275|170:234,1,68.0000012969971,2|0,0:2|0:2,0:2:0:0:
274,93,66427,2,0,P|230:110|182:108,1,68.0000012969971,2|0,0:2|0:2,0:2:0:0:
436,193,66633,6,0,P|347:164|266:208,1,180.000006866455,0|0,1:2|0:2,0:2:0:0:
143,252,67047,2,0,P|228:288|202:354,1,180.000006866455,8|0,0:2|0:2,0:2:0:0:
24,377,67461,6,0,P|91:348|200:340,1,180.000006866455,0|0,1:2|0:2,0:2:0:0:
295,384,67875,2,0,P|296:347|317:304,1,68.0000012969971,2|0,0:2|0:2,0:2:0:0:
462,278,68082,6,0,P|467:360|385:369,1,180.000006866455,2|0,0:2|0:2,0:2:0:0:
274,247,68495,2,0,B|231:218|181:228|181:228|144:259|70:248,1,180.000006866455,2|0,0:2|0:2,0:2:0:0:
8,91,68909,6,0,P|55:151|147:157,1,155.999992858887,0|0,0:2|0:2,0:2:0:0:
199,98,69323,6,0,P|166:79|113:71,1,68.0000012969971,2|0,0:2|0:2,0:2:0:0:
304,82,69530,2,0,P|336:63|369:21,1,68.0000012969971,10|0,0:2|0:2,0:2:0:0:
265,180,69736,2,0,P|265:213|273:246,1,68.0000012969971,2|0,0:2|0:2,0:2:0:0:
490,254,69944,6,0,P|404:182|367:207,1,155.999992858887,0|0,1:2|0:2,0:2:0:0:
363,215,70358,1,8,0:2:0:0:
390,346,70564,6,0,L|331:355,1,60.0000022888184,0|0,0:2|0:2,0:2:0:0:
209,302,70771,2,0,L|186:357,1,60.0000022888184,0|0,1:2|0:2,0:2:0:0:
315,222,70978,2,0,L|278:174,1,60.0000022888184,2|0,0:2|0:2,0:2:0:0:
11,177,71185,6,0,P|66:157|107:158,1,60.0000022888184,10|0,0:2|0:2,0:2:0:0:
188,21,71392,2,0,P|177:78|156:113,1,60.0000022888184,0|0,0:2|0:2,0:2:0:0:
234,252,71599,6,0,P|155:231|71:289,1,155.999992858887,0|0,1:2|0:2,0:2:0:0:
77,282,72013,1,8,0:2:0:0:
264,333,72220,6,0,P|307:300|321:257,1,68.0000012969971,2|0,0:2|0:2,0:2:0:0:
505,199,72427,2,0,P|454:178|410:187,1,68.0000012969971,2|0,1:2|0:2,0:2:0:0:
269,58,72633,2,0,P|276:111|306:145,1,68.0000012969971,2|0,0:2|0:2,0:2:0:0:
473,322,72840,6,0,L|449:257,1,68.0000012969971,10|0,0:2|0:2,0:2:0:0:
393,27,73047,2,0,L|348:80,1,68.0000012969971,2|0,0:2|0:2,0:2:0:0:
207,198,73254,5,0,1:2:0:0:
30,107,73461,1,0,1:2:0:0:
175,279,73668,5,0,1:2:0:0:
56,87,73875,1,0,1:2:0:0:
93,338,74082,5,0,1:2:0:0:
98,87,74289,1,0,1:2:0:0:
9,287,74495,5,0,1:2:0:0:
9,287,74599,1,0,1:2:0:0:
9,287,74702,1,0,3:2:0:0:
149,231,74909,5,8,3:3:0:0:
252,335,75116,1,8,3:3:0:0:
412,269,75323,5,0,3:2:0:0:
412,269,75427,1,0,3:2:0:0:
412,269,75530,2,0,L|316:275,1,60.0000022888184,0|0,3:2|3:2,0:2:0:0:
205,374,75737,5,8,3:2:0:0:
205,374,75841,1,0,3:2:0:0:
205,374,75944,2,0,L|247:287,1,60.0000022888184,0|0,1:2|3:2,0:2:0:0:
217,142,76151,6,0,L|270:222,1,60.0000022888184,10|0,0:2|0:2,0:2:0:0:
250,191,76564,6,0,P|309:182|384:187,1,95.9999970703126,4|0,1:2|0:2,0:2:0:0:
477,126,76978,1,8,0:2:0:0:
477,126,77185,2,0,P|456:181|414:244,1,95.9999970703126,0|0,0:2|1:2,0:2:0:0:
420,355,77599,1,0,0:2:0:0:
420,355,77806,2,0,P|381:309|348:241,1,95.9999970703126,8|0,0:2|0:2,0:2:0:0:
161,296,78220,6,0,P|206:308|243:338,1,95.9999970703126,0|0,1:2|0:2,0:2:0:0:
78,257,78633,1,8,0:2:0:0:
78,257,78840,2,0,P|44:290|0:307,1,95.9999970703126,0|0,0:2|1:2,0:2:0:0:
153,204,79254,1,0,0:2:0:0:
153,204,79461,2,0,P|141:157|148:110,1,95.9999970703126,8|0,0:2|0:2,0:2:0:0:
371,32,79875,6,0,L|246:59,1,95.9999970703126,0|0,1:2|0:2,0:2:0:0:
406,182,80289,1,8,0:2:0:0:
406,182,80496,2,0,L|445:60,1,95.9999970703126,0|0,0:2|1:2,0:2:0:0:
258,137,80910,1,0,0:2:0:0:
258,137,81116,2,0,L|343:231,1,95.9999970703126,8|0,0:2|0:2,0:2:0:0:
512,193,81530,6,0,L|383:218,1,95.9999970703126,0|0,1:2|0:2,0:2:0:0:
292,344,81944,1,8,0:2:0:0:
292,344,82151,2,0,L|421:369,1,95.9999970703126,0|0,0:2|1:2,0:2:0:0:
261,211,82564,1,0,0:2:0:0:
261,211,82771,2,0,L|132:236,1,95.9999970703126,8|0,0:2|0:2,0:2:0:0:
0,325,83185,6,0,P|67:316|114:278,1,95.9999970703126,0|0,1:2|0:2,0:2:0:0:
92,110,83599,1,8,0:2:0:0:
92,110,83806,2,0,P|66:172|75:232,1,95.9999970703126,0|0,0:2|1:2,0:2:0:0:
232,297,84220,1,0,0:2:0:0:
232,297,84427,2,0,P|190:243|134:221,1,95.9999970703126,8|0,0:2|0:2,0:2:0:0:
340,384,84840,6,0,P|339:331|353:285,1,95.9999970703126,0|0,1:2|3:2,0:2:0:0:
418,244,85151,1,0,3:2:0:0:
418,244,85254,2,0,L|488:238,1,47.9999985351563,8|0,3:2|3:2,3:2:0:0:
512,159,85461,2,0,L|442:165,1,47.9999985351563,0|0,3:2|3:2,3:2:0:0:
264,121,85668,5,0,1:2:0:0:
249,165,85771,1,0,3:2:0:0:
274,204,85874,1,0,3:2:0:0:
320,211,85978,1,0,3:2:0:0:
354,180,86081,5,8,0:2:0:0:
400,4,86289,1,0,0:2:0:0:
220,40,86495,5,2,0:2:0:0:
