osu file format v14

[General]
AudioFilename: audio.mp3
AudioLeadIn: 0
PreviewTime: 49199
Countdown: 0
SampleSet: Soft
StackLeniency: 0.7
Mode: 0
LetterboxInBreaks: 0
WidescreenStoryboard: 1

[Editor]
DistanceSpacing: 1.2
BeatDivisor: 4
GridSize: 4
TimelineZoom: 2.1

[Metadata]
Title:PRIMALove -TV Mix-
TitleUnicode:PRIMALove -TV Mix-
Artist:ClariS
ArtistUnicode:ClariS
Creator:NeonLights
Version:ailv's Hard
Source:BEATLESS
Tags:ending ed ambrew aliv ailv shanipika theReaL_Gatorix kz(livetune) Karen Clara
BeatmapID:1539285
BeatmapSetID:724759

[Difficulty]
HPDrainRate:5
CircleSize:4
OverallDifficulty:6
ApproachRate:7
SliderMultiplier:1.5
SliderTickRate:1

[Events]
//Background and Video events
0,0,"lacia_bestgirl.jpg",0,0
//Break Periods
2,3937,6975
//Storyboard Layer 0 (Background)
//Storyboard Layer 1 (Fail)
//Storyboard Layer 2 (Pass)
//Storyboard Layer 3 (Foreground)
//Storyboard Sound Samples

[TimingPoints]
427,413.793103448276,4,2,17,40,1,0
10358,-100,4,2,17,40,0,0
23599,-100,4,2,17,50,0,0
36840,-100,4,2,17,70,0,0
48633,-100,4,2,17,80,0,0
50082,-83.3333333333333,4,2,17,80,0,1
76564,-100,4,2,17,70,0,0

[Colours]
Combo1 : 238,155,157
Combo2 : 85,166,255
Combo3 : 161,161,161

[HitObjects]
256,192,427,12,2,3737,0:0:0:0:
256,192,7875,12,0,10151,0:0:0:0:
28,183,10358,6,0,L|127:176,1,75,0|0,1:1|2:1,2:1:0:0:
177,143,10771,1,0,2:1:0:0:
237,199,10978,2,0,P|209:276|220:365,1,150,2|0,2:3|2:1,2:1:0:0:
292,320,11599,1,0,2:1:0:0:
361,365,11806,2,0,P|462:350|479:306,1,150,0|0,1:1|2:1,2:1:0:0:
453,236,12427,1,0,2:1:0:0:
474,156,12633,2,0,L|457:-2,1,150,2|0,2:3|2:1,2:1:0:0:
379,33,13254,1,0,2:1:0:0:
322,92,13461,6,0,P|240:104|161:84,1,150,0|0,1:1|2:1,2:1:0:0:
102,129,14082,1,0,2:1:0:0:
119,209,14289,2,0,L|298:195,1,150,2|0,2:3|2:1,2:1:0:0:
348,177,14909,1,0,2:1:0:0:
363,258,15116,2,0,P|317:317|231:327,1,150,0|0,1:1|2:1,2:1:0:0:
166,307,15737,1,0,2:1:0:0:
94,348,15944,2,0,L|76:180,1,150,0|0,1:1|2:1,2:1:0:0:
78,198,16564,1,0,2:1:0:0:
148,155,16771,2,0,L|158:80,1,75,0|2,2:1|2:1,2:1:0:0:
473,167,18220,5,0,2:1:0:0:
393,143,18427,2,0,P|346:203|331:282,1,150,2|0,2:1|2:1,2:1:0:0:
267,326,19047,2,0,P|213:335|169:333,1,75,2|0,2:2|2:1,2:1:0:0:
136,274,19461,2,0,B|82:265|30:300|38:267,1,75,2|0,2:2|2:1,2:1:0:0:
28,203,19875,2,0,B|37:149|1:97|35:105,1,75,2|0,2:2|2:1,2:1:0:0:
81,71,20289,6,0,P|140:101|223:72,1,150,2|0,2:2|2:1,2:1:0:0:
291,115,20909,1,0,2:1:0:0:
238,178,21116,2,0,P|224:268|242:344,1,150,0|0,2:1|2:1,2:1:0:0:
256,192,21944,12,0,23392,2:1:0:0:
499,161,23599,6,0,L|425:157,1,75,4|0,1:2|2:1,2:1:0:0:
348,122,24013,1,0,1:1:0:0:
299,188,24220,2,0,P|298:241|302:278,2,75,2|0|0,2:2|1:1|2:2,2:1:0:0:
242,127,24840,1,0,1:1:0:0:
178,179,25047,1,2,2:2:0:0:
178,179,25254,6,0,P|91:162|81:163,1,75,0|0,1:1|2:1,2:1:0:0:
44,217,25668,1,0,2:1:0:0:
84,289,25875,2,0,P|68:320|64:364,2,75,2|0|0,2:2|2:1|2:1,2:1:0:0:
163,268,26495,1,0,2:1:0:0:
224,332,26702,1,2,2:2:0:0:
224,332,26909,6,0,L|309:323,1,75,4|0,1:1|2:1,2:1:0:0:
375,354,27323,1,0,1:1:0:0:
425,288,27530,2,0,P|491:298|523:292,2,75,2|0|0,2:2|1:1|2:1,2:1:0:0:
370,225,28151,1,0,1:1:0:0:
429,168,28358,1,2,2:2:0:0:
429,168,28564,6,0,L|415:76,1,75,0|0,1:2|2:1,2:1:0:0:
346,51,28978,1,0,2:1:0:0:
288,110,29185,2,0,P|237:121|185:117,1,75,2|0,2:2|1:1,2:1:0:0:
152,65,29599,2,0,P|101:54|49:58,1,75,0|0,2:1|1:1,2:1:0:0:
46,130,30013,1,2,2:2:0:0:
46,130,30220,6,0,L|53:228,1,75,0|0,1:1|2:1,2:1:0:0:
111,262,30633,1,0,1:1:0:0:
82,339,30840,2,0,P|28:346|2:353,2,75,2|0|0,2:2|1:1|2:1,2:1:0:0:
158,371,31461,1,0,1:1:0:0:
233,336,31668,1,0,2:2:0:0:
233,336,31875,6,0,L|247:251,1,75,2|0,1:2|2:1,2:1:0:0:
225,181,32289,2,0,L|211:96,1,75,2|0,1:2|2:1,2:1:0:0:
267,45,32702,2,0,L|352:31,1,75,2|0,1:2|2:1,2:1:0:0:
402,88,33116,2,0,L|476:100,1,75,2|0,1:2|2:1,2:1:0:0:
441,175,33530,6,0,P|377:229|310:201,1,150,2|0,1:2|2:1,2:1:0:0:
250,166,34151,1,0,2:1:0:0:
205,235,34358,2,0,L|191:334,1,75,2|0,1:2|2:1,2:1:0:0:
121,347,34771,2,0,L|22:333,1,75,0|0,2:1|2:1,2:1:0:0:
12,261,35185,5,0,1:1:0:0:
12,261,35599,1,0,1:1:0:0:
100,121,36013,5,8,3:3:0:0:
63,195,36220,1,0,3:2:0:0:
136,231,36427,1,8,3:3:0:0:
108,308,36633,1,0,3:2:0:0:
166,366,36840,6,0,L|307:348,2,112.5,4|0|0,2:1|2:1|2:1,2:1:0:0:
166,366,37668,1,8,2:2:0:0:
88,319,37875,1,0,2:1:0:0:
147,251,38082,6,0,L|150:126,2,112.5,0|0|0,1:2|2:1|0:2,2:1:0:0:
234,271,38909,2,0,P|294:277|330:260,1,75,0|0,2:1|2:1,2:1:0:0:
378,216,39323,2,0,L|372:172,2,37.5,2|0|0,1:2|2:1|2:1,2:1:0:0:
450,270,39737,1,0,2:1:0:0:
498,194,39944,1,0,2:1:0:0:
481,105,40151,6,0,L|358:88,2,112.5,2|0|0,1:2|2:1|0:2,2:1:0:0:
481,105,40978,1,8,2:2:0:0:
468,15,41185,1,0,2:1:0:0:
378,8,41392,6,0,L|239:25,2,112.5,2|0|0,1:2|2:1|2:1,2:1:0:0:
468,15,42220,2,0,L|460:106,1,75,0|0,2:1|2:1,2:1:0:0:
423,171,42633,5,8,1:2:0:0:
350,223,42840,1,0,1:2:0:0:
275,172,43047,1,0,1:2:0:0:
205,229,43254,1,0,1:2:0:0:
146,160,43461,6,0,L|140:66,1,75,4|0,1:1|2:1,2:1:0:0:
59,46,43875,2,0,L|54:120,1,75,8|0,2:1|2:1,2:1:0:0:
40,210,44289,2,0,P|85:266|102:292,1,75,0|0,1:1|2:1,2:1:0:0:
164,222,44702,2,0,P|174:292|176:324,1,75,8|0,2:1|2:1,2:1:0:0:
249,348,45116,6,0,L|350:342,1,75,0|0,1:1|2:1,2:1:0:0:
384,276,45530,2,0,L|458:280,1,75,8|0,2:1|2:1,2:1:0:0:
496,198,45944,2,0,L|500:123,1,75,0|0,1:1|2:1,2:1:0:0:
420,81,46358,2,0,L|415:155,1,75,8|0,2:1|2:1,2:1:0:0:
345,212,46771,6,0,L|307:209,3,37.5,8|0|0|0,2:1|2:1|2:1|2:1,2:1:0:0:
269,234,47185,2,0,L|231:231,3,37.5,8|0|0|0,2:1|2:1|2:1|2:1,2:1:0:0:
197,202,47599,2,0,L|159:199,3,37.5,8|0|0|0,2:1|2:1|2:1|2:1,2:1:0:0:
121,224,48013,2,0,L|83:221,3,37.5,8|0|0|0,2:1|2:1|2:1|2:1,2:1:0:0:
46,195,48427,5,0,0:0:0:0:
23,108,48633,1,0,0:0:0:0:
84,42,48840,1,0,0:0:0:0:
121,224,49254,5,0,2:0:0:0:
179,294,49460,1,0,2:0:0:0:
266,280,49667,1,0,2:0:0:0:
456,200,50082,6,0,L|353:188,1,89.9999972534181,4|0,1:1|2:1,2:1:0:0:
285,104,50495,2,0,P|249:158|246:210,1,89.9999972534181,8|0,1:1|2:1,2:1:0:0:
252,299,50909,2,0,P|201:298|152:275,1,89.9999972534181,0|0,1:1|2:1,2:1:0:0:
81,201,51323,1,8,1:1:0:0:
144,102,51530,2,0,L|153:2,1,89.9999972534181,0|0,2:1|2:1,2:1:0:0:
253,72,51944,2,0,L|261:161,1,89.9999972534181,0|8,2:1|2:1,2:1:0:0:
342,246,52358,6,0,P|401:250|431:226,1,89.9999972534181,0|0,2:1|2:1,2:1:0:0:
497,142,52771,1,0,2:1:0:0:
379,139,52978,1,8,1:1:0:0:
368,22,53185,1,0,2:1:0:0:
276,94,53392,6,0,L|173:87,1,89.9999972534181,0|0,1:1|2:1,2:1:0:0:
88,21,53806,2,0,L|-1:27,1,89.9999972534181,8|0,1:1|2:1,2:1:0:0:
55,129,54220,1,0,1:1:0:0:
123,224,54427,1,0,2:1:0:0:
39,305,54633,1,8,1:1:0:0:
143,358,54840,2,0,L|258:344,1,89.9999972534181,0|0,2:1|2:1,2:1:0:0:
356,384,55254,2,0,L|345:294,1,89.9999972534181,0|8,2:1|2:1,2:1:0:0:
271,203,55668,6,0,P|322:171|384:175,1,89.9999972534181,0|0,2:1|2:1,2:1:0:0:
475,222,56082,1,0,2:1:0:0:
421,117,56289,1,8,1:1:0:0:
496,33,56495,1,0,2:1:0:0:
379,42,56702,6,0,L|183:52,1,179.999994506836,4|8,1:1|1:1,2:1:0:0:
86,16,57323,1,0,2:1:0:0:
147,115,57530,1,0,1:1:0:0:
58,191,57737,1,0,2:1:0:0:
153,259,57944,1,8,1:1:0:0:
97,362,58151,6,0,L|218:347,1,89.9999972534181,0|0,2:1|2:1,2:1:0:0:
186,350,58564,1,0,2:1:0:0:
276,275,58771,2,0,L|365:286,1,89.9999972534181,8|0,1:1|2:1,2:1:0:0:
481,303,59185,1,0,1:1:0:0:
481,303,59392,1,0,2:1:0:0:
478,185,59599,1,8,1:1:0:0:
478,185,59806,1,0,2:1:0:0:
361,199,60013,6,0,L|371:103,1,89.9999972534181,0|0,1:1|2:1,2:1:0:0:
285,28,60427,1,8,1:1:0:0:
212,119,60633,2,0,L|118:110,1,89.9999972534181,0|0,2:1|1:1,2:1:0:0:
19,167,61047,1,0,2:1:0:0:
85,263,61254,2,0,L|179:254,1,89.9999972534181,8|0,1:1|2:1,2:1:0:0:
257,338,61668,5,0,1:1:0:0:
331,247,61875,2,0,L|393:256,2,44.999998626709,0|0|0,1:1|1:1|1:1,2:1:0:0:
230,185,62289,1,0,1:1:0:0:
327,121,62495,2,0,L|397:113,2,44.999998626709,0|0|0,1:1|1:1|1:1,2:1:0:0:
227,58,62909,2,0,L|157:50,2,44.999998626709,8|0|0,1:1|2:1|2:1,2:1:0:0:
340,26,63323,6,0,L|448:32,1,89.9999972534181,4|0,1:1|2:1,2:1:0:0:
484,135,63737,2,0,L|478:243,1,89.9999972534181,8|0,1:1|2:1,2:1:0:0:
392,304,64151,2,0,P|326:275|271:280,1,89.9999972534181,0|0,1:1|2:1,2:1:0:0:
214,343,64564,1,8,1:1:0:0:
135,256,64771,2,0,L|147:156,1,89.9999972534181,0|0,2:1|2:1,2:1:0:0:
240,96,65185,2,0,L|228:-4,1,89.9999972534181,0|8,2:1|2:1,2:1:0:0:
124,59,65599,6,0,P|65:63|35:39,1,89.9999972534181,0|0,2:1|2:1,2:1:0:0:
10,159,66012,1,0,2:1:0:0:
101,232,66219,1,8,1:1:0:0:
20,317,66426,1,0,2:1:0:0:
128,361,66633,6,0,L|231:354,1,89.9999972534181,0|0,1:1|2:1,2:1:0:0:
280,255,67047,2,0,L|369:261,1,89.9999972534181,8|0,1:1|2:1,2:1:0:0:
445,171,67461,6,0,P|394:139|332:143,1,89.9999972534181,0|0,1:1|2:1,2:1:0:0:
252,167,67875,1,8,1:1:0:0:
242,50,68082,1,0,2:1:0:0:
152,125,68289,5,0,1:1:0:0:
152,125,68495,2,0,L|39:112,1,89.9999972534181,0|8,2:1|2:1,2:1:0:0:
2,216,68909,2,0,L|115:203,1,89.9999972534181,0|0,2:1|2:1,2:1:0:0:
206,232,69324,1,0,2:2:0:0:
186,350,69531,1,8,1:2:0:0:
295,309,69737,1,0,2:2:0:0:
391,375,69944,6,0,L|512:360,1,89.9999972534181,0|0,1:1|2:1,2:1:0:0:
480,363,70358,1,8,1:1:0:0:
411,269,70564,2,0,L|290:254,1,89.9999972534181,0|0,2:1|2:1,2:1:0:0:
321,257,70978,1,0,2:1:0:0:
247,347,71185,1,8,1:1:0:0:
194,242,71392,1,0,2:1:0:0:
106,320,71599,6,0,L|89:112,1,179.999994506836,0|8,1:1|1:1,2:1:0:0:
186,71,72220,1,0,2:1:0:0:
186,71,72427,1,0,1:1:0:0:
277,142,72633,1,0,2:1:0:0:
277,142,72840,1,8,1:1:0:0:
367,68,73047,1,0,2:1:0:0:
454,146,73254,6,0,L|441:258,1,89.9999972534181,0|0,1:1|1:1,0:1:0:0:
358,316,73668,2,0,L|368:226,1,89.9999972534181,0|0,1:1|1:1,1:1:0:0:
294,134,74082,2,0,L|281:246,1,89.9999972534181,0|0,1:1|1:1,1:1:0:0:
198,304,74495,2,0,L|208:214,1,89.9999972534181,0|0,1:1|1:1,1:1:0:0:
155,110,74909,5,8,3:3:0:0:
155,110,75116,1,8,3:3:0:0:
52,166,75323,2,0,L|-21:145,2,44.999998626709,0|0|0,3:3|3:3|3:3,3:3:0:0:
145,237,75737,2,0,L|218:216,2,44.999998626709,8|0|0,3:2|3:1|3:1,3:1:0:0:
50,306,76151,2,0,L|-23:285,2,44.999998626709,10|0|0,0:2|0:1|0:1,3:1:0:0:
156,353,76564,6,0,P|216:351|266:347,1,75,4|0,1:1|2:1,2:1:0:0:
328,358,76978,1,8,1:1:0:0:
328,358,77185,2,0,P|325:282|329:262,1,75,0|0,2:1|2:1,2:1:0:0:
422,272,77599,1,0,2:1:0:0:
422,272,77806,2,0,P|425:196|421:176,1,75,8|0,1:1|2:1,2:1:0:0:
452,103,78220,6,0,L|360:116,1,75,0|0,1:1|2:1,2:1:0:0:
305,48,78633,1,8,1:1:0:0:
305,48,78840,2,0,L|231:105,1,75,0|0,2:1|2:1,2:1:0:0:
164,39,79254,1,0,2:1:0:0:
164,39,79461,2,0,L|129:125,1,75,8|2,1:1|2:1,2:1:0:0:
76,186,79875,6,0,P|97:242|98:267,1,75,0|0,1:1|2:1,2:1:0:0:
52,343,80289,1,8,1:1:0:0:
52,343,80495,2,0,L|157:333,1,75,0|0,2:1|2:1,2:1:0:0:
194,265,80909,1,0,2:1:0:0:
194,265,81116,2,0,L|299:275,1,75,8|0,1:1|2:1,2:1:0:0:
335,344,81530,6,0,P|411:313|425:296,1,75,0|0,1:1|2:1,2:1:0:0:
457,236,81944,1,8,1:1:0:0:
457,236,82151,2,0,P|435:168|432:142,1,75,0|8,2:1|2:1,2:1:0:0:
362,97,82564,1,0,2:1:0:0:
362,97,82771,2,0,P|353:133|339:168,1,75,8|0,1:1|2:1,2:1:0:0:
254,216,83185,6,0,L|165:209,1,75,4|0,1:1|2:1,2:1:0:0:
100,152,83599,1,8,1:1:0:0:
100,152,83806,2,0,L|84:232,1,75,0|0,2:1|2:1,2:1:0:0:
26,304,84220,1,0,2:1:0:0:
26,304,84427,2,0,L|42:384,1,75,8|0,1:1|2:1,2:1:0:0:
124,326,84840,6,0,P|207:293|251:290,2,112.5,0|0|0,3:1|3:1|3:1,3:1:0:0:
109,221,85668,2,0,P|25:188|-18:185,2,112.5,0|0|0,1:1|1:1|1:1,1:1:0:0:
212,202,86495,5,2,2:2:0:0:
