osu file format v14

[General]
AudioFilename: audio.mp3
AudioLeadIn: 0
PreviewTime: 49199
Countdown: 0
SampleSet: Soft
StackLeniency: 0.5
Mode: 0
LetterboxInBreaks: 0
WidescreenStoryboard: 0

[Editor]
DistanceSpacing: 0.5
BeatDivisor: 8
GridSize: 4
TimelineZoom: 2.1

[Metadata]
Title:PRIMALove -TV Mix-
TitleUnicode:PRIMALove -TV Mix-
Artist:ClariS
ArtistUnicode:ClariS
Creator:NeonLights
Version:Soulless
Source:BEATLESS
Tags:ending ed ambrew aliv ailv shanipika theReaL_Gatorix kz(livetune) Karen Clara
BeatmapID:1530374
BeatmapSetID:724759

[Difficulty]
HPDrainRate:5
CircleSize:4
OverallDifficulty:8
ApproachRate:9
SliderMultiplier:2
SliderTickRate:1

[Events]
//Background and Video events
0,0,"lacia_bestgirl.jpg",0,0
//Break Periods
//Storyboard Layer 0 (Background)
//Storyboard Layer 1 (Fail)
//Storyboard Layer 2 (Pass)
//Storyboard Layer 3 (Foreground)
//Storyboard Sound Samples

[TimingPoints]
427,413.793103448276,4,2,0,30,1,0
427,-133.333333333333,4,2,0,30,0,0
2909,-133.333333333333,4,2,0,50,0,0
3323,-133.333333333333,4,2,0,45,0,0
3737,-133.333333333333,4,2,0,40,0,0
4047,-133.333333333333,4,2,0,5,0,0
4151,-133.333333333333,4,2,0,40,0,0
7358,-133.333333333333,4,2,0,5,0,0
7461,-133.333333333333,4,2,0,40,0,0
8702,-133.333333333333,4,2,0,55,0,0
10358,-133.333333333333,4,2,2,60,0,0
18013,-133.333333333333,4,2,2,5,0,0
18220,-133.333333333333,4,2,2,65,0,0
22978,-133.333333333333,4,3,0,65,0,0
23599,-133.333333333333,4,2,2,60,0,0
36013,-100,4,3,0,65,0,0
36840,-80,4,2,2,50,0,0
37047,-80,4,2,2,5,0,0
37151,-66.6666666666667,4,2,2,70,0,0
37358,-66.6666666666667,4,2,2,5,0,0
37461,-66.6666666666667,4,2,2,60,0,0
37668,-66.6666666666667,4,2,2,50,0,0
37875,-66.6666666666667,4,2,2,65,0,0
38082,-66.6666666666667,4,2,2,50,0,0
38392,-66.6666666666667,4,2,2,70,0,0
38599,-66.6666666666667,4,2,2,5,0,0
38702,-57.1428571428571,4,2,2,70,0,0
38909,-57.1428571428571,4,2,2,5,0,0
39013,-50,4,2,2,70,0,0
39220,-50,4,2,2,5,0,0
39323,-50,4,3,0,50,0,0
39737,-50,4,2,2,70,0,0
40151,-66.6666666666667,4,2,2,90,0,0
40358,-66.6666666666667,4,2,2,70,0,0
40978,-66.6666666666667,4,2,2,40,0,0
41082,-66.6666666666667,4,2,2,60,0,0
41599,-66.6666666666667,4,2,2,5,0,0
41702,-57.1428571428571,4,2,2,60,0,0
41909,-57.1428571428571,4,2,2,5,0,0
42013,-50,4,2,2,60,0,0
42220,-50,4,2,2,5,0,0
42323,-44.4444444444445,4,2,2,60,0,0
42530,-44.4444444444445,4,2,2,5,0,0
42633,-66.6666666666667,4,2,2,60,0,0
42840,-66.6666666666667,4,2,2,55,0,0
43461,-66.6666666666667,4,2,2,45,0,0
43513,-66.6666666666667,4,2,2,50,0,0
43875,-66.6666666666667,4,2,3,40,0,0
43927,-66.6666666666667,4,2,2,50,0,0
44289,-66.6666666666667,4,2,3,50,0,0
44392,-66.6666666666667,4,2,2,50,0,0
44702,-66.6666666666667,4,2,3,60,0,0
44754,-66.6666666666667,4,2,2,60,0,0
45116,-66.6666666666667,4,2,4,70,0,0
46771,-66.6666666666667,4,3,0,70,0,0
47599,-50,4,2,2,80,0,0
48633,-50,4,3,0,80,0,0
49151,-50,4,2,2,90,0,0
49254,-50,4,2,2,90,0,0
49668,-50,4,2,4,90,0,0
49875,-50,4,2,2,90,0,0
50082,-66.6666666666667,4,2,2,80,0,1
52461,-66.6666666666667,4,2,2,40,0,1
52564,-66.6666666666667,4,2,2,80,0,1
61668,-50,4,2,2,85,0,1
61875,-50,4,3,0,85,0,1
62392,-50,4,2,2,85,0,1
62909,-50,4,2,2,75,0,1
63116,-50,4,2,2,90,0,1
63323,-66.6666666666667,4,2,2,80,0,1
74909,-66.6666666666667,4,3,0,80,0,0
75633,-66.6666666666667,4,2,4,60,0,0
75737,-133.333333333333,4,3,0,80,0,0
76151,-133.333333333333,4,2,2,90,0,0
76564,-66.6666666666667,4,2,2,80,0,0
86082,-66.6666666666667,4,2,2,80,0,0
86547,-66.6666666666667,4,2,2,5,0,0
86702,-66.6666666666667,4,2,2,70,0,0
88978,-66.6666666666667,4,2,2,5,0,0

[Colours]
Combo1 : 238,155,157
Combo2 : 85,166,255
Combo3 : 161,161,161

[HitObjects]
396,152,427,6,0,P|409:190|397:234,2,75.0000028610231,8|0|0,0:2|0:1|0:1,0:1:0:0:
332,196,1047,1,0,0:1:0:0:
256,116,1254,2,0,L|248:194,1,75.0000028610231,8|0,0:2|0:1,0:1:0:0:
168,276,1668,2,0,L|160:196,1,75.0000028610231,8|0,0:2|0:1,0:1:0:0:
186,96,2082,6,0,P|223:96|255:115,1,75.0000028610231,8|0,0:2|0:1,0:1:0:0:
372,192,2495,2,0,P|334:191|302:172,1,75.0000028610231,8|0,0:2|0:1,0:1:0:0:
358,114,2909,1,8,0:2:0:0:
254,114,3116,1,8,0:2:0:0:
312,216,3323,2,0,L|351:219,5,25.0000009536744,8|0|0|0|0|0,0:0|0:0|0:0|0:0|0:0|0:0,0:0:0:0:
302,172,3737,6,0,P|317:113|384:78,1,112.500004291535,2|0,0:2|0:1,0:1:0:0:
356,83,4151,1,0,0:1:0:0:
386,163,4358,2,0,L|460:157,2,75.0000028610231,0|0|0,0:1|0:1|0:1,0:1:0:0:
249,190,4978,6,0,B|209:278|217:338|217:338|211:295|161:258|161:258|93:294|33:242,1,375.000014305115,2|0,0:2|0:1,0:1:0:0:
107,169,6220,2,0,B|158:99|111:32|111:32|150:64|194:48,1,225.000008583069,0|0,0:1|0:1,0:1:0:0:
268,104,7047,6,0,P|332:128|424:96,1,150.000005722046,2|0,0:2|0:1,0:1:0:0:
456,200,7668,2,0,L|449:279,2,75.0000028610231,0|0|0,0:1|0:1|0:1,0:1:0:0:
468,60,8289,1,2,0:2:0:0:
183,216,8702,5,2,0:2:0:0:
182,164,8806,1,2,0:2:0:0:
213,123,8909,1,2,0:2:0:0:
263,110,9013,1,2,0:2:0:0:
310,132,9116,1,0,0:1:0:0:
333,177,9220,1,0,0:1:0:0:
323,228,9323,1,0,0:1:0:0:
284,261,9427,1,0,0:1:0:0:
239,272,9530,5,0,0:1:0:0:
269,249,9633,1,0,0:1:0:0:
306,239,9737,1,0,0:1:0:0:
343,243,9840,1,0,0:1:0:0:
379,257,9944,1,0,0:1:0:0:
415,272,10047,1,0,0:1:0:0:
453,277,10151,1,0,0:1:0:0:
488,264,10254,1,0,0:1:0:0:
498,192,10358,6,0,L|508:75,1,112.500004291535,8|0,1:1|0:1,0:1:0:0:
507,79,10771,1,0,0:1:0:0:
421,183,10978,2,0,P|350:142|271:172,1,150.000005722046,2|0,0:3|0:1,0:1:0:0:
139,189,11599,1,0,0:1:0:0:
226,72,11806,2,0,L|230:117,1,37.5000014305115
274,228,12013,6,0,P|273:191|287:157,1,75.0000028610231,8|0,1:1|0:0,0:0:0:0:
354,291,12427,1,0,0:1:0:0:
287,157,12633,2,0,L|436:170,1,150.000005722046,2|0,0:3|0:1,0:1:0:0:
355,90,13254,1,0,0:1:0:0:
414,256,13461,2,0,L|465:251,1,37.5000014305115
344,239,13668,6,0,L|231:248,1,112.500004291535,8|0,1:1|0:1,0:1:0:0:
231,247,14082,1,0,0:1:0:0:
158,218,14289,2,0,P|161:291|220:333,1,150.000005722046,2|0,0:3|0:1,0:1:0:0:
372,328,14909,1,0,0:1:0:0:
276,212,15116,1,0,0:2:0:0:
428,179,15323,6,0,L|437:66,1,112.500004291535,8|0,1:1|0:1,0:1:0:0:
436,66,15737,1,0,0:1:0:0:
332,20,15944,1,0,0:1:0:0:
232,70,16151,2,0,B|204:151|204:151|218:219,1,150.000005722046,8|0,1:1|0:1,0:1:0:0:
286,156,16771,1,0,0:0:0:0:
136,112,16978,6,0,P|52:78|120:216,1,375.000014305115,8|0,1:1|0:0,0:0:0:0:
202,206,18220,5,0,0:1:0:0:
205,235,18427,1,0,0:1:0:0:
208,264,18633,2,0,P|279:249|335:285,1,112.500004291535,8|0,1:1|0:1,0:1:0:0:
313,263,19047,1,0,0:1:0:0:
267,120,19461,1,0,0:1:0:0:
139,193,19875,1,0,0:1:0:0:
139,193,20289,6,0,L|126:342,1,150.000005722046,8|0,1:1|0:1,0:1:0:0:
56,227,20909,1,0,0:1:0:0:
163,91,21116,2,0,P|222:132|243:206,1,150.000005722046,0|0,0:0|0:1,0:1:0:0:
163,91,21944,5,2,0:2:0:0:
209,62,22048,1,2,0:2:0:0:
263,68,22151,1,2,0:2:0:0:
301,107,22255,1,2,0:2:0:0:
306,161,22358,1,0,0:0:0:0:
278,204,22462,1,0,0:0:0:0:
231,219,22565,1,0,0:0:0:0:
184,202,22669,1,0,0:0:0:0:
146,179,22770,5,0,0:1:0:0:
101,178,22874,1,0,0:1:0:0:
65,205,22977,1,0,0:0:0:0:
54,249,23081,1,0,0:0:0:0:
66,287,23184,1,0,0:0:0:0:
103,305,23288,1,0,0:0:0:0:
146,297,23391,1,0,0:0:0:0:
170,264,23495,1,0,0:0:0:0:
224,308,23599,6,0,L|299:314,1,75.0000028610231,4|0,0:2|0:1,0:1:0:0:
361,186,24013,2,0,L|354:262,1,75.0000028610231,8|0,0:1|0:1,0:1:0:0:
345,373,24427,1,8,0:1:0:0:
446,326,24633,2,0,L|450:277,1,37.5000014305115
257,295,24840,1,8,0:1:0:0:
196,157,25047,6,0,P|177:156|158:158,1,37.5000014305115,0|0,0:1|0:1,0:1:0:0:
24,202,25254,2,0,P|62:209|99:202,1,75.0000028610231,8|0,0:1|0:1,0:1:0:0:
102,66,25668,1,8,0:1:0:0:
102,66,25875,2,0,P|103:84|107:102,1,37.5000014305115,0|0,0:1|0:1,0:1:0:0:
167,231,26082,2,0,P|169:192|157:156,1,75.0000028610231,8|0,0:1|0:1,0:1:0:0:
222,294,26495,2,0,P|240:294|259:292,1,37.5000014305115,8|0,0:1|0:1,0:1:0:0:
317,204,26702,2,0,P|314:222|315:241,1,37.5000014305115,0|0,0:1|0:1,0:1:0:0:
332,314,26909,6,0,L|420:321,1,75.0000028610231,8|0,0:1|0:1,0:1:0:0:
503,204,27323,2,0,L|414:196,1,75.0000028610231,8|0,0:1|0:1,0:1:0:0:
302,145,27737,5,8,0:1:0:0:
428,197,27944,2,0,B|431:236,1,37.5000014305115,0|0,0:1|0:1,0:1:0:0:
406,319,28151,1,8,0:1:0:0:
302,145,28358,2,0,L|307:98,1,37.5000014305115,0|0,0:1|0:1,0:1:0:0:
278,220,28565,6,0,L|284:296,1,75.0000028610231,8|0,0:1|0:1,0:1:0:0:
173,193,28978,1,8,0:1:0:0:
185,340,29185,2,0,P|203:340|222:338,1,37.5000014305115,0|0,0:1|0:1,0:1:0:0:
357,295,29392,2,0,P|319:288|282:295,1,75.0000028610231,8|0,0:1|0:1,0:1:0:0:
432,316,29806,2,0,L|438:241,1,75.0000028610231,8|0,0:1|0:1,0:1:0:0:
449,90,30220,5,8,0:1:0:0:
317,162,30427,2,0,L|320:124,1,37.5000014305115,0|0,0:1|0:1,0:1:0:0:
256,78,30633,1,8,0:1:0:0:
236,226,30840,2,0,L|231:168,1,37.5000014305115,0|0,0:1|0:1,0:1:0:0:
256,78,31047,2,0,P|218:74|184:88,1,75.0000028610231,8|0,0:1|0:1,0:1:0:0:
81,198,31461,1,8,0:1:0:0:
194,328,31668,2,0,L|198:291,1,37.5000014305115,0|0,0:1|0:1,0:1:0:0:
229,151,31875,6,0,L|236:226,1,75.0000028610231,8|0,0:1|0:1,0:1:0:0:
320,271,32289,2,0,L|394:263,1,75.0000028610231,8|0,0:1|0:1,0:1:0:0:
456,127,32702,2,0,P|446:163|450:200,1,75.0000028610231,8|0,0:1|0:1,0:1:0:0:
388,337,33116,2,0,P|397:300|393:263,1,75.0000028610231,8|0,0:1|0:1,0:1:0:0:
302,146,33530,6,0,P|264:142|228:151,1,75.0000028610231,8|0,0:1|0:1,0:1:0:0:
224,180,33840,1,0,0:0:0:0:
222,210,33944,1,8,0:1:0:0:
127,144,34151,2,0,L|132:191,1,37.5000014305115,0|0,0:1|0:1,0:1:0:0:
153,283,34358,2,0,P|116:274|79:278,1,75.0000028610231,8|0,0:1|0:1,0:1:0:0:
224,317,34771,2,0,P|260:326|298:322,1,75.0000028610231,8|0,0:1|0:1,0:1:0:0:
333,118,35185,5,0,0:1:0:0:
265,252,35392,1,8,0:1:0:0:
184,129,35599,1,8,0:1:0:0:
184,129,36013,6,0,L|178:192,1,50,8|0,0:0|0:0,0:0:0:0:
287,318,36220,2,0,L|282:263,1,50,8|0,0:0|0:0,0:0:0:0:
268,112,36427,1,0,0:0:0:0:
281,96,36530,1,0,0:0:0:0:
293,81,36633,2,0,L|348:76,1,50
456,120,36840,6,0,P|449:176|429:139,1,125,6|0,0:2|0:0,0:0:0:0:
366,237,37151,6,0,P|331:284|339:238,1,150.000005722046,2|0,0:0|0:0,0:0:0:0:
224,279,37461,6,0,P|234:322|254:356,1,75.0000028610231,2|0,0:0|0:0,0:0:0:0:
179,117,37668,5,8,0:0:0:0:
179,117,37875,1,0,0:0:0:0:
265,38,38082,2,0,L|268:0,4,37.5000014305115,10|0|0|0|0,0:0|0:0|0:0|0:0|0:0,0:0:0:0:
370,78,38392,6,0,P|428:83|384:100,1,150.000005722046,2|0,0:0|0:0,0:0:0:0:
433,209,38702,6,0,P|484:246|434:235,1,175.00000166893,2|0,0:0|0:0,0:0:0:0:
355,316,39013,6,0,P|340:382|332:330,1,200,2|0,0:0|0:0,0:0:0:0:
205,354,39323,5,0,0:3:0:0:
199,298,39426,1,0,0:3:0:0:
194,242,39529,1,0,0:3:0:0:
189,186,39633,1,0,0:0:0:0:
185,131,39737,5,2,0:2:0:0:
218,168,39840,1,2,0:2:0:0:
265,183,39943,1,2,0:2:0:0:
312,171,40047,1,2,0:2:0:0:
342,148,40151,2,0,P|394:112|481:146,1,150.000005722046,8|0,0:1|0:0,0:0:0:0:
369,273,40564,5,0,0:0:0:0:
400,230,40667,1,0,0:0:0:0:
412,180,40770,1,0,0:0:0:0:
401,128,40874,1,0,0:0:0:0:
370,86,40977,1,8,0:0:0:0:
324,61,41081,1,0,0:0:0:0:
273,57,41184,1,0,0:0:0:0:
94,153,41392,6,0,B|86:135|65:126|65:126|124:150|182:121,1,150.000005722046,10|0,0:0|0:0,0:0:0:0:
393,212,41702,6,0,B|399:182|425:173|425:173|356:198|305:172,1,175.00000166893,2|0,0:0|0:0,0:0:0:0:
93,282,42013,6,0,B|85:249|64:240|64:240|141:269|220:233,1,200,2|0,0:0|0:0,0:0:0:0:
408,327,42323,6,0,B|420:295|446:284|446:284|349:328|248:256,1,225.000008583069,2|0,0:0|0:0,0:0:0:0:
150,62,42633,5,8,0:0:0:0:
360,136,42840,1,8,0:1:0:0:
207,238,43047,1,8,0:1:0:0:
329,302,43254,1,8,0:1:0:0:
195,91,43461,6,0,B|185:164|185:164|213:262,1,150.000005722046,4|0,0:0|0:0,0:0:0:0:
335,163,43771,1,0,0:0:0:0:
335,163,43875,2,0,B|294:153|294:153|239:161,1,75.0000028610231,8|0,0:1|0:0,0:0:0:0:
291,243,44082,1,0,0:0:0:0:
92,7,44289,5,8,0:1:0:0:
92,7,44392,2,0,B|103:124|103:124|111:93,1,150.000005722046
227,22,44702,2,0,P|279:4|374:25,1,150.000005722046,8|0,0:1|0:1,0:1:0:0:
373,61,45013,1,0,0:0:0:0:
376,102,45116,5,8,0:1:0:0:
144,184,45323,1,0,0:0:0:0:
423,250,45530,1,8,0:1:0:0:
423,250,45633,2,0,B|412:368|412:368|404:338,1,150.000005722046
291,260,45944,2,0,P|238:277|143:256,1,150.000005722046,8|0,0:1|0:1,0:1:0:0:
38,194,46254,1,0,0:0:0:0:
38,194,46358,2,0,L|45:282,1,75.0000028610231,8|0,0:1|0:0,0:0:0:0:
111,92,46564,2,0,L|212:83,1,75.0000028610231
298,152,46771,5,0,3:0:0:0:
328,189,46874,1,0,3:0:0:0:
337,241,46977,1,0,3:0:0:0:
318,289,47081,1,0,3:0:0:0:
276,321,47184,1,0,3:0:0:0:
223,328,47288,1,0,3:0:0:0:
174,306,47391,1,0,3:0:0:0:
147,264,47495,1,0,3:0:0:0:
140,168,47599,6,0,L|256:178,1,100,8|0,0:1|0:1,0:1:0:0:
437,252,47806,2,0,L|318:240,1,100,8|0,0:1|0:1,0:1:0:0:
331,32,48013,2,0,P|347:85|338:140,1,100,8|0,0:1|0:1,0:1:0:0:
249,384,48220,2,0,P|233:331|242:276,1,100,8|0,0:1|0:1,0:1:0:0:
404,171,48427,6,0,P|373:217|325:245,1,100,2|0,0:0|0:1,0:1:0:0:
104,336,48633,1,0,0:0:0:0:
97,265,48737,1,0,0:0:0:0:
91,195,48840,2,0,L|81:88,2,100,8|0|0,0:0|0:0|0:0,0:0:0:0:
212,88,49151,1,8,0:0:0:0:
212,88,49254,2,0,B|263:80|263:80|332:97,1,100,8|0,0:0|0:0,0:0:0:0:
368,299,49461,5,8,0:1:0:0:
258,158,49668,1,8,0:1:0:0:
185,324,49875,1,8,0:1:0:0:
46,157,50082,6,0,P|86:137|189:160,1,150.000005722046,8|0,0:1|0:1,0:1:0:0:
192,196,50392,1,0,0:1:0:0:
196,232,50495,1,8,0:1:0:0:
424,204,50702,1,0,0:1:0:0:
421,240,50805,1,0,0:1:0:0:
417,277,50909,1,8,0:1:0:0:
471,111,51116,1,0,0:1:0:0:
310,194,51323,1,8,0:1:0:0:
456,365,51530,6,0,P|412:373|360:356,1,75.0000028610231,0|0,0:1|0:1,0:1:0:0:
315,341,51736,1,8,0:1:0:0:
232,130,51944,1,0,0:1:0:0:
229,94,52047,1,0,0:1:0:0:
225,57,52151,1,8,0:1:0:0:
121,117,52358,6,0,B|40:124|40:124|42:122,1,75.0000028610231,0|0,0:1|0:1,0:1:0:0:
236,168,52564,2,0,L|313:175,1,75.0000028610231,8|0,0:1|0:1,0:1:0:0:
92,228,52771,2,0,L|11:235,1,75.0000028610231,0|0,0:1|0:1,0:1:0:0:
232,304,52978,2,0,L|382:321,1,150.000005722046,8|0,0:1|0:1,0:1:0:0:
340,84,53392,5,8,0:1:0:0:
111,159,53599,1,0,0:1:0:0:
108,195,53702,1,0,0:1:0:0:
104,232,53806,1,8,0:1:0:0:
28,113,54013,1,0,0:1:0:0:
193,265,54220,6,0,P|260:277|337:251,1,150.000005722046,8|0,0:1|0:1,0:1:0:0:
442,81,54633,1,8,0:1:0:0:
439,118,54736,1,0,0:1:0:0:
435,156,54839,1,0,0:1:0:0:
432,193,54943,1,0,0:1:0:0:
429,231,55047,5,8,0:1:0:0:
270,347,55254,2,0,P|282:273|258:203,1,150.000005722046,0|8,0:1|0:1,0:1:0:0:
143,44,55668,1,0,0:1:0:0:
150,51,55771,1,0,0:1:0:0:
150,51,55875,1,8,0:1:0:0:
373,124,56082,1,0,0:1:0:0:
150,197,56289,1,8,0:1:0:0:
290,10,56495,1,0,0:1:0:0:
291,237,56702,5,8,0:1:0:0:
373,124,56909,1,0,0:1:0:0:
377,162,57013,1,0,0:1:0:0:
380,199,57116,1,8,0:1:0:0:
465,98,57323,1,0,0:1:0:0:
229,222,57530,1,8,0:1:0:0:
498,274,57737,1,0,0:1:0:0:
329,107,57944,1,8,0:1:0:0:
329,347,58151,1,0,0:0:0:0:
103,270,58358,5,8,0:1:0:0:
198,128,58564,2,0,L|189:211,1,75.0000028610231,0|0,0:1|0:1,0:1:0:0:
297,283,58771,2,0,L|288:199,1,75.0000028610231,8|0,0:1|0:1,0:1:0:0:
369,132,58978,1,0,0:1:0:0:
180,302,59185,1,8,0:1:0:0:
142,59,59392,1,0,0:1:0:0:
96,180,59599,2,0,P|181:181|256:124,1,150.000005722046,8|0,0:1|0:1,0:1:0:0:
380,76,60013,6,0,L|372:-4,1,75.0000028610231,8|0,0:1|0:1,0:1:0:0:
468,163,60220,2,0,L|475:83,1,75.0000028610231,0|0,0:1|0:1,0:1:0:0:
369,180,60427,1,8,0:1:0:0:
376,320,60633,1,0,0:1:0:0:
378,345,60737,1,0,0:1:0:0:
380,367,60840,2,0,P|304:343|226:378,1,150.000005722046,8|0,0:1|0:1,0:1:0:0:
69,247,61254,2,0,P|145:271|223:236,1,150.000005722046,8|0,0:1|0:1,0:1:0:0:
308,104,61668,6,0,B|322:85|322:85|316:161,1,100,2|0,0:0|0:0,0:0:0:0:
69,247,61874,1,0,0:0:0:0:
62,176,61978,1,0,0:0:0:0:
56,106,62082,2,0,L|46:-1,2,100,8|0|0,0:0|0:0|0:0,0:0:0:0:
224,84,62392,1,8,0:1:0:0:
224,84,62495,2,0,B|275:76|275:76|344:93,1,100,8|0,0:1|0:0,0:0:0:0:
348,122,62702,5,0,0:0:0:0:
352,171,62806,1,0,0:0:0:0:
357,220,62909,1,8,0:0:0:0:
164,24,63116,1,0,0:1:0:0:
202,320,63323,6,0,P|161:339|58:316,1,150.000005722046,8|0,0:1|0:0,0:0:0:0:
56,280,63633,1,0,0:1:0:0:
51,242,63736,1,8,0:1:0:0:
318,225,63943,1,0,0:1:0:0:
321,261,64046,1,0,0:1:0:0:
324,298,64151,2,0,P|360:303|397:295,1,75.0000028610231,8|0,0:1|0:0,0:0:0:0:
235,234,64358,2,0,P|198:228|161:236,1,75.0000028610231,0|0,0:1|0:0,0:0:0:0:
469,340,64564,2,0,L|482:180,1,150.000005722046,8|0,0:1|0:1,0:1:0:0:
235,234,64977,5,8,0:1:0:0:
221,85,65185,1,0,0:1:0:0:
218,44,65288,1,0,0:1:0:0:
213,1,65392,1,8,0:1:0:0:
50,266,65599,6,0,P|77:290|114:295,1,75.0000028610231,0|0,0:1|0:1,0:1:0:0:
215,367,65806,2,0,P|221:330|208:296,1,75.0000028610231,8|0,0:1|0:1,0:1:0:0:
218,175,66013,2,0,P|182:186|159:215,1,75.0000028610231,0|0,0:1|0:1,0:1:0:0:
283,249,66220,2,0,L|461:233,1,150.000005722046,8|0,0:1|0:1,0:1:0:0:
442,10,66633,5,8,0:1:0:0:
202,209,66840,1,0,0:1:0:0:
205,253,66944,1,0,0:1:0:0:
209,297,67047,1,8,0:1:0:0:
356,126,67254,1,0,0:1:0:0:
359,82,67358,1,0,0:1:0:0:
364,45,67461,2,0,L|263:48,1,75.0000028610231,8|0,0:1|0:1,0:1:0:0:
204,122,67668,2,0,L|305:125,1,75.0000028610231,0|0,0:1|0:1,0:1:0:0:
146,58,67875,1,8,0:1:0:0:
318,303,68082,1,0,0:1:0:0:
278,124,68289,5,8,0:1:0:0:
93,377,68495,1,0,0:1:0:0:
90,336,68598,1,0,0:1:0:0:
86,293,68702,1,8,0:1:0:0:
393,227,68909,2,0,B|413:299|413:299|399:383,1,150.000005722046,0|8,0:1|0:1,0:1:0:0:
312,150,69323,1,0,0:1:0:0:
164,337,69530,1,8,0:1:0:0:
400,373,69737,1,0,0:1:0:0:
360,0,69944,5,8,0:1:0:0:
395,237,70151,1,0,0:1:0:0:
395,237,70254,1,0,0:1:0:0:
395,237,70358,1,8,0:1:0:0:
172,150,70564,1,0,0:1:0:0:
360,0,70771,2,0,P|360:72|346:161,1,150.000005722046,8|0,0:1|0:1,0:1:0:0:
272,329,71185,1,8,0:1:0:0:
500,256,71392,1,0,0:1:0:0:
172,147,71599,5,8,0:1:0:0:
355,120,71806,1,0,0:1:0:0:
352,157,71909,1,0,0:1:0:0:
348,193,72013,1,8,0:1:0:0:
255,38,72220,1,0,0:1:0:0:
255,38,72427,2,0,P|257:113|269:190,1,150.000005722046,8|0,0:1|0:1,0:1:0:0:
349,376,72840,1,8,0:1:0:0:
110,320,73047,1,0,0:1:0:0:
174,94,73254,5,8,0:1:0:0:
268,307,73461,1,8,0:1:0:0:
268,0,73668,1,8,0:1:0:0:
149,354,73875,1,8,0:1:0:0:
497,123,74082,5,8,0:1:0:0:
28,225,74289,1,8,0:1:0:0:
388,247,74495,1,8,0:1:0:0:
410,249,74599,1,8,0:1:0:0:
431,251,74702,1,8,0:1:0:0:
346,12,74909,5,8,0:0:0:0:
222,369,75116,1,8,0:0:0:0:
186,75,75323,1,0,0:0:0:0:
191,120,75427,1,0,0:0:0:0:
197,166,75530,1,0,0:0:0:0:
202,210,75633,1,8,0:1:0:0:
210,292,75737,6,0,L|215:241,1,37.5000014305115,0|0,3:0|0:0,0:0:0:0:
367,150,75944,2,0,L|363:200,1,37.5000014305115,0|0,3:0|0:0,0:0:0:0:
476,360,76151,1,10,0:0:0:0:
476,54,76564,5,8,0:1:0:0:
290,180,76771,2,0,L|282:266,1,75.0000028610231,0|0,0:1|0:1,0:1:0:0:
207,310,76978,1,8,0:1:0:0:
203,272,77082,1,0,0:1:0:0:
200,234,77185,1,0,0:1:0:0:
16,103,77392,2,0,B|-10:169|-10:169|21:259,1,150.000005722046,8|0,0:1|0:1,0:1:0:0:
183,90,77806,1,8,0:1:0:0:
186,52,77909,1,0,0:1:0:0:
190,14,78013,1,0,0:1:0:0:
68,171,78220,6,0,P|144:195|222:160,1,150.000005722046,8|0,0:1|0:1,0:1:0:0:
334,129,78633,6,0,L|340:79,2,50.0000019073487,8|0|0,0:1|0:1|0:1,0:1:0:0:
302,179,78840,2,0,L|292:130,2,50.0000019073487,0|0|0,0:1|0:1|0:1,0:1:0:0:
326,213,79047,2,0,P|402:189|480:224,1,150.000005722046,8|0,0:1|0:1,0:1:0:0:
465,211,79358,1,0,0:0:0:0:
207,172,79461,2,0,L|219:321,1,150.000005722046,8|0,0:1|0:1,0:1:0:0:
76,172,79875,6,0,P|93:94|162:44,1,150.000005722046,8|0,0:1|0:1,0:1:0:0:
180,40,80185,1,0,0:0:0:0:
216,44,80289,1,0,0:0:0:0:
351,186,80495,6,0,L|355:119,2,50.0000019073487,0|0|0,0:1|0:1|0:1,0:1:0:0:
372,206,80702,2,0,P|442:183|511:207,1,150.000005722046,8|0,0:1|0:1,0:1:0:0:
354,44,81116,1,8,0:1:0:0:
294,262,81323,6,0,L|286:320,2,50.0000019073487,0|0|0,0:1|0:1|0:1,0:1:0:0:
273,242,81530,2,0,P|202:264|133:240,1,150.000005722046,8|0,0:1|0:1,0:1:0:0:
36,94,81944,2,0,L|50:261,1,150.000005722046,8|0,0:1|0:1,0:1:0:0:
349,155,82358,2,0,B|272:139|272:139|185:155,1,150.000005722046,8|0,0:1|0:1,0:1:0:0:
275,382,82771,2,0,P|297:311|273:242,1,150.000005722046,8|0,0:1|0:1,0:1:0:0:
29,309,83185,6,0,B|106:325|106:325|177:313,1,150.000005722046,8|0,0:1|0:1,0:1:0:0:
378,91,83599,2,0,L|381:21,2,50.0000019073487,8|0|0,0:1|0:1|0:1,0:1:0:0:
358,119,83806,2,0,P|321:109|282:121,1,75.0000028610231,0|0,0:1|0:1,0:1:0:0:
91,169,84013,2,0,P|160:193|231:171,1,150.000005722046,8|0,0:1|0:1,0:1:0:0:
3,82,84427,2,0,L|17:252,1,150.000005722046,8|0,0:1|0:1,0:1:0:0:
243,34,84840,5,8,0:1:0:0:
268,308,85047,2,0,L|276:394,1,75.0000028610231,0|0,0:1|0:1,0:1:0:0:
360,299,85254,2,0,L|363:229,4,50.0000019073487,8|0|0|0|0,0:1|0:1|0:1|0:1|0:1,0:1:0:0:
164,40,85668,5,8,0:1:0:0:
128,29,85771,1,8,0:1:0:0:
91,32,85874,1,8,0:1:0:0:
58,50,85978,1,8,0:1:0:0:
33,78,86082,2,0,L|41:166,1,75.0000028610231,8|0,0:0|0:0,0:0:0:0:
176,288,86289,2,0,L|183:213,1,75.0000028610231
317,80,86495,6,0,L|320:117,1,37.5000014305115,2|0,0:2|0:0,0:0:0:0:
256,192,86599,12,0,88978,0:0:0:0:
