osu file format v14

[General]
AudioFilename: audio.mp3
AudioLeadIn: 0
PreviewTime: 49199
Countdown: 0
SampleSet: Soft
StackLeniency: 0.5
Mode: 0
LetterboxInBreaks: 0
WidescreenStoryboard: 0

[Editor]
Bookmarks: 43199,46509,49820,63061,72992,76302
DistanceSpacing: 1.4
BeatDivisor: 4
GridSize: 4
TimelineZoom: 2.1

[Metadata]
Title:PRIMALove -TV Mix-
TitleUnicode:PRIMALove -TV Mix-
Artist:ClariS
ArtistUnicode:ClariS
Creator:NeonLights
Version:Shani's Light Insane
Source:BEATLESS
Tags:ending ed ambrew aliv ailv shanipika theReaL_Gatorix kz(livetune) Karen Clara
BeatmapID:1531436
BeatmapSetID:724759

[Difficulty]
HPDrainRate:5
CircleSize:4
OverallDifficulty:6
ApproachRate:8
SliderMultiplier:1.7
SliderTickRate:1

[Events]
//Background and Video events
0,0,"lacia_bestgirl.jpg",0,0
//Break Periods
//Storyboard Layer 0 (Background)
//Storyboard Layer 1 (Fail)
//Storyboard Layer 2 (Pass)
//Storyboard Layer 3 (Foreground)
//Storyboard Sound Samples

[TimingPoints]
427,413.793103448276,4,2,0,30,1,0
427,-133.333333333333,4,2,0,30,0,0
3737,-142.857142857143,4,2,0,20,0,0
4151,-142.857142857143,4,2,0,35,0,0
10358,-100,4,2,0,45,0,0
23599,-83.3333333333333,4,2,0,35,0,0
23806,-83.3333333333333,4,2,0,50,0,0
36840,-76.9230769230769,4,2,0,55,0,0
43461,-100,4,2,0,55,0,0
46771,-76.9230769230769,4,2,0,65,0,0
50082,-66.6666666666667,4,2,0,70,0,1
74909,-83.3333333333333,4,2,0,70,0,0
76564,-71.4285714285714,4,2,0,70,0,0
88564,-71.4285714285714,4,2,0,5,0,0

[Colours]
Combo1 : 238,155,157
Combo2 : 85,166,255
Combo3 : 161,161,161

[HitObjects]
63,28,427,5,2,0:0:0:0:
63,28,633,2,0,P|55:82|70:115,1,63.7500024318696
93,163,1047,1,2,0:0:0:0:
93,163,1254,2,0,P|101:199|94:232,1,63.7500024318696
59,300,1668,1,2,0:0:0:0:
59,300,1875,1,0,0:0:0:0:
125,347,2082,5,2,0:0:0:0:
125,347,2289,2,0,P|177:358|207:341,1,63.7500024318696
236,293,2702,1,2,0:0:0:0:
236,293,2909,2,0,P|288:282|317:296,1,63.7500024318696
367,323,3323,2,0,L|413:344,3,31.8750012159348,2|0|0|0,0:0|0:0|0:0|0:0,0:0:0:0:
418,344,3737,6,0,P|424:284|393:217,1,118.999996368408,6|0,0:0|0:0,0:0:0:0:
347,167,4358,2,0,P|332:104|378:43,1,118.999996368408
411,115,4978,2,0,B|331:131|247:93|190:-35|93:72|101:142|192:126|189:72,1,356.999989105225,2|0,0:0|0:0,0:0:0:0:
74,28,7047,6,0,P|55:89|79:165,1,118.999996368408,2|0,0:0|0:0,0:0:0:0:
119,204,7668,2,0,P|134:267|99:323,1,118.999996368408
55,253,8289,1,2,0:0:0:0:
204,287,8702,5,2,0:0:0:0:
228,292,8806,1,2,0:0:0:0:
253,305,8909,2,0,L|231:333,1,29.7499990921021,2|0,0:0|0:0,0:0:0:0:
275,323,9116,2,0,L|246:341,1,29.7499990921021,0|2,0:0|0:0,0:0:0:0:
295,341,9323,2,0,L|244:349,1,29.7499990921021,2|0,0:0|0:0,0:0:0:0:
322,321,9530,2,0,L|352:302,1,29.7499990921021,2|0,0:0|0:0,0:0:0:0:
382,291,9737,2,0,L|414:286,1,29.7499990921021,0|2,0:0|0:0,0:0:0:0:
454,288,9944,2,0,L|492:304,3,29.7499990921021,2|0|0|0,0:0|0:0|0:0|0:0,0:0:0:0:
436,258,10358,6,0,P|415:210|445:114,1,127.5,4|0,0:3|0:0,0:0:0:0:
448,104,10771,1,2,0:3:0:0:
448,104,10978,2,0,P|394:91|343:126,1,85,0|2,0:0|0:3,0:0:0:0:
343,117,11289,1,0,0:0:0:0:
228,19,11599,5,2,0:3:0:0:
228,19,11806,2,0,P|210:39|181:55,1,42.5,2|2,0:0|0:0,0:0:0:0:
159,60,12013,2,0,P|149:108|165:154,1,85,8|0,0:2|0:0,0:0:0:0:
193,214,12427,2,0,P|186:264|175:280,1,42.5,2|0,0:3|0:0,0:0:0:0:
172,288,12633,1,0,3:0:0:0:
172,288,12840,1,2,0:3:0:0:
251,311,13047,1,0,0:0:0:0:
328,293,13254,1,2,0:3:0:0:
328,293,13461,1,2,0:0:0:0:
392,245,13668,6,0,P|346:215|268:232,1,127.5,8|0,1:1|0:0,0:0:0:0:
271,199,14082,1,2,0:3:0:0:
271,199,14289,2,0,P|279:146|316:104,1,85,0|2,0:0|0:3,0:0:0:0:
318,100,14599,1,0,0:0:0:0:
211,38,14909,5,2,0:3:0:0:
211,38,15116,2,0,P|154:35|140:44,1,42.5,2|2,0:0|0:0,0:0:0:0:
128,45,15323,2,0,P|149:81|153:123,1,85,8|0,0:1|0:0,0:0:0:0:
111,196,15737,1,2,0:3:0:0:
121,270,15944,1,0,0:0:0:0:
191,234,16151,2,0,P|211:229|232:232,3,42.5,2|0|2|0,3:2|3:2|3:3|3:3,3:2:0:0:
268,250,16564,1,2,1:3:0:0:
268,250,16771,1,2,0:0:0:0:
345,272,16978,6,0,P|345:229|286:170,2,127.5,8|0|0,1:0|0:0|0:0,0:0:0:0:
287,339,17806,1,2,0:3:0:0:
261,348,17909,1,2,0:0:0:0:
405,335,18220,1,2,0:3:0:0:
405,335,18427,2,0,P|420:315|425:272,1,42.5,2|2,0:0|0:0,0:0:0:0:
423,264,18633,6,0,P|403:213|422:151,1,85,8|0,0:1|0:0,0:0:0:0:
429,107,19047,2,0,P|432:67|429:56,1,42.5,2|0,0:3|0:0,0:0:0:0:
418,28,19254,1,0,3:0:0:0:
418,28,19461,1,2,0:3:0:0:
347,79,19668,1,0,0:0:0:0:
269,55,19875,2,0,P|226:46|163:65,1,85,2|0,0:3|0:0,0:0:0:0:
106,89,20289,6,0,P|142:149|123:233,1,127.5,8|0,1:0|0:0,0:0:0:0:
125,240,20702,1,2,0:3:0:0:
125,240,20909,1,0,1:0:0:0:
55,269,21116,2,0,P|28:289|17:305,1,42.5,2|0,3:3|0:0,0:0:0:0:
8,325,21323,1,0,1:3:0:0:
8,325,21530,1,2,0:3:0:0:
88,363,21737,1,0,1:0:0:0:
173,347,21944,5,2,0:0:0:0:
208,329,22047,1,2,0:0:0:0:
232,304,22151,2,0,L|192:273,1,42.5,2|0,0:0|0:0,0:0:0:0:
250,270,22358,2,0,L|194:254,1,42.5,2|0,0:0|0:0,0:0:0:0:
258,231,22564,2,0,L|185:244,1,42.5,2|0,0:0|0:0,0:0:0:0:
288,242,22771,2,0,P|312:248|331:265,1,42.5,2|0,0:3|0:0,0:0:0:0:
346,284,22978,2,0,P|363:311|365:343,1,42.5,8|0,0:3|0:0,0:0:0:0:
379,353,23185,1,0,1:0:0:0:
418,332,23289,1,8,0:3:0:0:
438,306,23392,2,0,P|444:281|447:247,1,42.5,4|0,0:3|0:0,0:0:0:0:
444,227,23599,6,0,P|430:173|444:107,1,101.999996887207,4|2,1:2|3:2,0:0:0:0:
453,94,23909,1,2,0:0:0:0:
425,85,24013,2,0,P|375:84|347:99,1,50.9999984436036,0|0,1:0|0:0,0:0:0:0:
341,96,24220,1,2,3:2:0:0:
252,63,24427,1,0,1:0:0:0:
160,96,24633,1,2,3:2:0:0:
184,120,24737,1,2,0:0:0:0:
200,156,24840,2,0,L|145:177,1,50.9999984436036,0|0,1:0|0:0,0:0:0:0:
121,188,25047,2,0,P|71:148|66:129,1,50.9999984436036,2|0,3:2|0:0,0:0:0:0:
59,135,25254,6,0,P|43:195|64:251,1,101.999996887207,4|2,1:0|3:2,0:0:0:0:
75,258,25564,1,2,0:0:0:0:
95,237,25668,2,0,P|146:214|163:217,1,50.9999984436036,0|0,1:2|0:0,0:0:0:0:
173,212,25875,1,2,3:2:0:0:
236,269,26082,1,0,1:0:0:0:
322,285,26289,1,2,3:2:0:0:
345,321,26392,1,2,0:0:0:0:
349,360,26495,2,0,L|396:324,1,50.9999984436036,0|0,1:0|0:0,0:0:0:0:
414,312,26702,2,0,P|435:302|461:273,1,50.9999984436036,2|0,3:2|0:0,0:0:0:0:
475,261,26909,6,0,P|451:217|443:166,1,101.999996887207,4|2,1:0|3:2,0:0:0:0:
444,145,27220,1,2,0:0:0:0:
412,136,27323,2,0,P|371:112|362:81,1,50.9999984436036,0|0,1:0|0:0,0:0:0:0:
344,84,27530,1,2,3:2:0:0:
266,37,27737,1,0,1:0:0:0:
176,48,27944,1,2,3:2:0:0:
170,90,28047,1,2,2:2:0:0:
184,129,28151,2,0,L|237:175,1,50.9999984436036,0|0,1:0|0:0,0:0:0:0:
240,181,28358,2,0,P|198:202|165:199,1,50.9999984436036,2|0,3:2|0:0,0:0:0:0:
155,205,28564,6,0,P|103:194|52:215,1,101.999996887207,4|2,1:0|3:2,0:0:0:0:
36,229,28875,1,2,0:0:0:0:
48,201,28978,2,0,P|51:146|38:125,1,50.9999984436036,0|0,1:0|0:0,0:0:0:0:
41,122,29185,1,2,3:2:0:0:
5,53,29392,1,0,1:0:0:0:
83,56,29599,1,2,3:2:0:0:
111,80,29702,1,2,0:0:0:0:
128,111,29806,1,0,1:0:0:0:
143,182,30013,1,2,3:2:0:0:
114,252,30220,6,0,P|176:251|211:212,1,101.999996887207,4|2,1:0|3:2,0:0:0:0:
217,201,30530,1,2,0:0:0:0:
221,160,30633,2,0,P|238:131|254:118,1,50.9999984436036,0|0,1:0|0:0,0:0:0:0:
278,108,30840,1,2,3:2:0:0:
371,122,31047,1,0,1:0:0:0:
460,117,31254,1,2,3:2:0:0:
452,150,31357,1,2,0:0:0:0:
426,184,31461,1,0,1:0:0:0:
374,238,31668,6,0,P|417:261|444:256,1,50.9999984436036,2|0,3:2|0:0,0:0:0:0:
452,261,31875,2,0,P|417:310|353:322,1,101.999996887207,4|2,1:0|3:2,0:0:0:0:
351,321,32185,1,2,0:0:0:0:
308,316,32289,2,0,P|270:321|244:337,1,50.9999984436036,0|0,1:0|0:0,0:0:0:0:
233,341,32495,1,2,3:2:0:0:
146,320,32702,1,0,1:0:0:0:
61,339,32909,1,2,3:2:0:0:
27,323,33013,1,2,0:0:0:0:
6,289,33116,1,0,1:0:0:0:
20,214,33323,1,2,3:2:0:0:
8,141,33530,6,0,P|62:152|93:202,1,101.999996887207,4|2,1:0|3:2,0:0:0:0:
98,217,33840,1,2,0:0:0:0:
107,261,33944,2,0,P|152:289|171:289,1,50.9999984436036,0|0,1:0|0:0,0:0:0:0:
179,294,34151,2,0,P|182:231|178:218,1,50.9999984436036,2|0,3:2|0:0,0:0:0:0:
176,213,34358,2,0,P|240:216|252:223,1,50.9999984436036,0|0,1:0|0:0,0:0:0:0:
261,213,34564,1,2,3:2:0:0:
262,175,34668,1,2,0:0:0:0:
247,138,34771,1,0,1:0:0:0:
195,78,34978,1,2,3:2:0:0:
276,65,35185,6,0,L|325:94,1,50.9999984436036,2|0,1:2|0:0,0:0:0:0:
311,64,35392,2,2,L|344:105,1,50.9999984436036,2|2,3:2|0:0,0:0:0:0:
347,77,35599,2,0,L|363:128,1,50.9999984436036,0|0,1:0|0:0,0:0:0:0:
381,96,35806,2,0,L|375:157,1,50.9999984436036,2|0,3:2|0:0,0:0:0:0:
408,122,36013,1,8,3:0:0:0:
440,188,36220,1,4,1:3:0:0:
451,264,36427,1,0,1:0:0:0:
412,256,36530,1,0,1:0:0:0:
397,285,36633,1,8,1:3:0:0:
414,312,36737,1,4,1:3:0:0:
451,299,36840,6,0,P|350:331|292:378,1,165.749992412568,4|2,1:2|0:0,0:0:0:0:
162,367,37461,1,2,3:2:0:0:
193,345,37564,1,0,3:3:0:0:
236,334,37668,2,0,P|177:298|109:309,1,110.499994941712,8|0,1:0|3:3,0:0:0:0:
52,325,38082,2,0,P|52:264|124:146,1,165.749992412568,4|2,1:0|0:0,0:0:0:0:
64,11,38702,2,0,P|57:62|61:79,1,55.2499974708558,2|0,3:2|0:0,0:0:0:0:
68,98,38909,2,0,P|119:60|198:49,1,110.499994941712,4|0,3:1|0:0,0:0:0:0:
243,67,39323,5,4,1:2:0:0:
273,79,39427,1,0,1:0:0:0:
311,79,39530,1,8,0:3:0:0:
342,60,39633,1,4,0:3:0:0:
372,46,39737,2,0,L|416:89,1,55.2499974708558,8|0,1:0|0:0,0:0:0:0:
412,42,39944,2,0,L|440:98,1,55.2499974708558,4|2,3:0|0:0,0:0:0:0:
455,52,40151,6,0,P|432:130|461:208,1,165.749992412568,4|0,1:0|0:0,0:0:0:0:
475,226,40564,2,0,L|414:265,1,55.2499974708558,0|0,3:2|0:0,0:0:0:0:
488,264,40771,2,0,L|421:282,1,55.2499974708558,2|0,0:0|0:0,0:0:0:0:
488,312,40978,1,8,1:0:0:0:
426,361,41185,1,2,3:2:0:0:
351,337,41392,2,0,P|271:328|188:354,1,165.749992412568,4|0,1:0|0:0,0:0:0:0:
162,361,41806,6,0,P|124:365|84:353,7,55.2499974708558,2|0|0|0|0|0|0|0,3:2|0:0|0:0|0:0|0:0|0:0|0:0|0:0,0:0:0:0:
72,349,42633,1,0,1:0:0:0:
25,282,42840,1,4,1:3:0:0:
9,203,43047,2,0,L|63:178,1,55.2499974708558,8|0,1:3|0:0,0:0:0:0:
8,168,43254,2,2,L|76:165,1,55.2499974708558,2|0,3:2|0:0,3:2:0:0:
15,127,43461,6,0,P|71:141|98:170,1,85,4|0,1:2|0:0,0:0:0:0:
106,181,43771,1,2,0:0:0:0:
123,209,43875,1,2,1:2:0:0:
165,271,44082,1,2,0:0:0:0:
230,304,44289,1,2,1:2:0:0:
265,310,44392,1,2,0:0:0:0:
410,243,44702,6,0,P|365:229|295:242,1,85,0|0,1:0|0:0,0:0:0:0:
300,235,45013,1,2,0:0:0:0:
257,231,45116,1,2,1:2:0:0:
195,188,45323,1,2,0:0:0:0:
139,134,45530,1,2,1:2:0:0:
128,96,45633,1,2,0:0:0:0:
186,0,45944,6,0,P|221:49|228:89,1,85,0|0,1:0|0:0,0:0:0:0:
235,110,46254,1,2,0:0:0:0:
267,143,46358,1,2,1:2:0:0:
331,186,46564,2,0,P|377:186|396:172,1,42.5,2|0,3:2|0:0,0:0:0:0:
393,179,46771,6,0,L|449:149,3,55.2499974708558,8|0|0|0,3:2|3:0|3:0|3:0,3:0:0:0:
455,115,47185,2,0,L|466:54,3,55.2499974708558,0|0|0|0,3:0|3:0|3:0|3:0,3:0:0:0:
457,30,47599,2,0,L|408:-3,3,55.2499974708558,0|0|0|0,3:0|3:0|3:0|3:0,3:0:0:0:
374,6,48013,2,0,L|341:71,1,55.2499974708558,0|0,1:0|3:0,3:0:0:0:
336,24,48220,2,0,L|325:89,1,55.2499974708558,2|0,1:3|3:0,3:0:0:0:
304,55,48427,1,4,1:3:0:0:
226,83,48633,6,0,P|265:127|292:135,1,55.2499974708558,8|2,3:0|3:0,0:0:0:0:
292,138,48840,2,0,L|352:138,2,55.2499974708558,8|0|0,1:0|3:0|3:0,3:0:0:0:
263,161,49151,2,0,P|240:186|227:222,1,55.2499974708558,8|0,3:2|3:0,0:0:0:0:
226,234,49358,1,8,3:2:0:0:
229,274,49461,2,0,L|288:269,1,55.2499974708558,14|0,3:2|3:0,3:0:0:0:
310,266,49668,1,8,1:0:0:0:
456,346,50082,6,0,P|414:295|316:272,1,127.500004863739,4|2,1:2|0:0,0:0:0:0:
310,266,50392,1,2,0:0:0:0:
267,277,50495,1,0,1:0:0:0:
212,340,50702,1,2,3:2:0:0:
172,270,50909,2,0,P|133:212|53:184,1,127.500004863739,0|2,1:0|3:2,0:0:0:0:
37,188,51220,1,2,0:0:0:0:
0,204,51323,1,0,1:0:0:0:
7,111,51530,2,0,P|63:110|84:122,1,63.7500024318696,2|0,3:2|0:0,0:0:0:0:
83,91,51737,6,0,P|145:56|202:59,1,127.500004863739,4|2,1:0|3:2,0:0:0:0:
230,73,52047,1,2,0:0:0:0:
271,95,52151,1,0,1:0:0:0:
334,143,52358,2,0,P|405:126|442:73,1,127.500004863739,2|0,3:2|1:0,0:0:0:0:
477,165,52771,1,2,3:2:0:0:
459,205,52875,1,2,0:0:0:0:
424,235,52978,1,0,1:0:0:0:
348,275,53185,1,2,3:2:0:0:
345,359,53392,6,0,P|284:330|269:271,1,127.500004863739,4|2,1:0|3:2,0:0:0:0:
268,234,53702,1,2,0:0:0:0:
244,193,53806,1,0,1:0:0:0:
195,136,54013,2,0,P|229:118|269:121,1,63.7500024318696,2|0,3:2|0:0,0:0:0:0:
243,80,54220,2,0,P|176:63|128:105,1,127.500004863739,0|2,1:0|3:2,0:0:0:0:
117,132,54530,1,2,0:0:0:0:
113,174,54633,1,0,1:0:0:0:
61,231,54840,6,0,P|103:278|106:317,1,63.7500024318696,2|0,3:2|0:0,0:0:0:0:
115,313,55047,1,4,1:0:0:0:
141,384,55254,1,2,3:2:0:0:
179,360,55357,1,2,0:0:0:0:
194,321,55461,1,0,1:0:0:0:
189,242,55668,2,0,P|268:247|308:296,1,127.500004863739,2|0,3:2|1:0,0:0:0:0:
354,338,56082,2,2,L|406:275,1,63.7500024318696,2|0,3:2|0:0,0:0:0:0:
399,359,56289,2,0,L|416:278,1,63.7500024318696,0|0,1:2|0:0,0:0:0:0:
446,358,56495,2,0,L|432:273,1,63.7500024318696,2|0,3:2|0:0,0:0:0:0:
488,342,56702,6,0,P|466:275|399:240,1,127.500004863739,4|2,1:0|3:2,0:0:0:0:
388,238,57013,1,2,2:2:0:0:
346,216,57116,1,0,1:0:0:0:
275,175,57323,2,0,P|240:211|216:222,1,63.7500024318696,2|0,3:2|0:0,0:0:0:0:
191,224,57530,1,0,1:0:0:0:
142,167,57737,2,0,L|90:230,1,63.7500024318696,2|0,3:2|0:0,0:0:0:0:
97,146,57944,2,0,L|80:227,1,63.7500024318696,0|0,1:2|0:0,0:0:0:0:
50,147,58150,2,0,L|64:232,1,63.7500024318696,2|0,3:2|0:0,0:0:0:0:
8,163,58358,6,0,P|30:230|97:265,1,127.500004863739,4|2,1:0|3:2,0:0:0:0:
116,263,58668,1,2,0:0:0:0:
157,263,58771,2,0,P|219:267|256:297,1,63.7500024318696,0|0,1:0|0:0,0:0:0:0:
264,283,58978,2,0,P|252:203|148:151,1,191.250007295609,2|0,3:2|1:0,0:0:0:0:
116,151,59392,1,2,3:2:0:0:
136,105,59495,1,2,0:0:0:0:
169,74,59599,1,0,1:0:0:0:
239,54,59806,1,2,3:2:0:0:
314,67,60013,5,4,1:0:0:0:
376,115,60220,1,2,3:2:0:0:
388,160,60323,1,2,0:0:0:0:
383,205,60427,1,0,1:0:0:0:
362,278,60633,2,0,P|429:268|458:217,1,127.500004863739,2|0,3:2|1:0,0:0:0:0:
466,140,61047,2,0,P|459:127|413:94,1,63.7500024318696,2|0,3:2|0:0,0:0:0:0:
460,106,61254,2,0,P|404:84|377:84,1,63.7500024318696,0|0,1:2|0:0,0:0:0:0:
445,70,61461,1,2,3:2:0:0:
388,15,61668,5,4,1:3:0:0:
310,22,61875,1,0,1:0:0:0:
276,44,61978,1,8,1:3:0:0:
258,79,62082,1,4,1:3:0:0:
243,149,62289,1,2,1:2:0:0:
182,103,62495,1,2,1:3:0:0:
141,101,62599,1,2,1:3:0:0:
106,116,62702,1,2,1:3:0:0:
83,149,62806,1,4,1:3:0:0:
78,192,62909,1,8,1:0:0:0:
21,264,63116,1,0,3:2:0:0:
56,346,63323,6,0,P|98:295|196:272,1,127.500004863739,4|2,1:2|3:2,0:0:0:0:
202,266,63633,1,2,0:0:0:0:
245,277,63736,1,0,1:0:0:0:
300,340,63943,1,2,3:2:0:0:
340,270,64151,2,0,P|379:212|459:184,1,127.500004863739,0|2,1:0|3:2,0:0:0:0:
475,188,64461,1,2,0:0:0:0:
512,204,64564,1,0,1:0:0:0:
505,111,64771,2,0,P|449:110|428:122,1,63.7500024318696,2|0,3:2|0:0,0:0:0:0:
429,91,64978,6,0,P|367:56|310:59,1,127.500004863739,4|2,1:0|3:2,0:0:0:0:
282,73,65288,1,2,0:0:0:0:
241,95,65392,1,0,1:0:0:0:
178,143,65599,2,0,P|107:126|70:73,1,127.500004863739,2|0,3:2|1:0,0:0:0:0:
35,165,66012,1,2,3:2:0:0:
53,205,66116,1,2,0:0:0:0:
88,235,66219,1,0,1:0:0:0:
164,275,66426,1,2,3:2:0:0:
167,359,66633,6,0,P|228:330|243:271,1,127.500004863739,4|2,1:0|3:2,0:0:0:0:
244,234,66943,1,2,0:0:0:0:
268,193,67047,1,0,1:2:0:0:
317,136,67254,2,0,P|283:118|243:121,1,63.7500024318696,2|0,3:2|0:0,0:0:0:0:
269,80,67461,2,0,P|336:63|384:105,1,127.500004863739,0|2,1:0|3:2,0:0:0:0:
395,132,67771,1,2,0:0:0:0:
399,174,67874,1,0,1:0:0:0:
451,231,68082,6,0,P|409:278|406:317,1,63.7500024318696,2|0,3:2|0:0,0:0:0:0:
397,313,68288,1,4,1:0:0:0:
371,384,68495,1,2,3:2:0:0:
333,360,68598,1,2,0:0:0:0:
318,321,68702,1,0,1:0:0:0:
323,242,68909,2,0,P|244:247|204:296,1,127.500004863739,2|0,3:2|1:0,0:0:0:0:
158,338,69323,2,0,L|106:275,1,63.7500024318696,2|0,3:2|0:0,0:0:0:0:
113,359,69530,2,0,L|96:278,1,63.7500024318696,0|0,1:2|0:0,0:0:0:0:
66,358,69736,2,0,L|80:273,1,63.7500024318696,2|0,3:2|0:0,0:0:0:0:
24,342,69944,6,0,P|46:275|113:240,1,127.500004863739,4|2,1:0|3:2,0:0:0:0:
124,238,70254,1,2,0:0:0:0:
166,216,70357,1,0,1:0:0:0:
237,175,70564,2,0,P|272:211|296:222,1,63.7500024318696,2|0,3:2|0:0,0:0:0:0:
321,224,70771,1,0,1:0:0:0:
370,167,70978,2,0,L|422:230,1,63.7500024318696,2|0,3:2|0:0,0:0:0:0:
415,146,71185,2,0,L|432:227,1,63.7500024318696,0|0,1:2|0:0,0:0:0:0:
462,147,71391,2,0,L|448:232,1,63.7500024318696,2|0,3:2|0:0,0:0:0:0:
504,163,71599,6,0,P|482:230|415:265,1,127.500004863739,4|2,1:0|3:2,0:0:0:0:
405,270,71909,1,2,0:0:0:0:
367,291,72013,1,0,1:0:0:0:
300,319,72220,2,0,P|237:320|191:279,1,127.500004863739,2|0,3:2|1:0,0:0:0:0:
246,223,72633,2,0,L|183:171,1,63.7500024318696,2|0,3:2|0:0,0:0:0:0:
267,178,72840,2,0,L|186:161,1,63.7500024318696,0|0,1:2|0:0,0:0:0:0:
266,131,73047,2,0,L|181:145,1,63.7500024318696,2|0,3:2|0:0,0:0:0:0:
250,89,73254,5,0,1:0:0:0:
191,46,73461,1,0,1:0:0:0:
118,30,73668,1,0,1:0:0:0:
53,60,73875,1,0,1:0:0:0:
12,121,74082,1,0,1:0:0:0:
2,192,74289,1,0,1:0:0:0:
13,267,74495,2,0,P|61:291|85:287,2,63.7500024318696,0|4|4,1:0|0:3|0:3,0:0:0:0:
46,334,74909,1,10,0:3:0:0:
92,269,75116,1,6,0:3:0:0:
161,231,75323,6,0,L|239:222,2,50.9999984436036,8|0|0,1:0|3:3|1:0,0:0:0:0:
140,203,75633,1,8,3:2:0:0:
127,167,75737,1,8,3:2:0:0:
134,131,75840,1,0,1:0:0:0:
159,98,75944,2,0,L|210:125,1,50.9999984436036,14|0,1:2|3:3,0:0:0:0:
231,142,76151,1,8,1:0:0:0:
374,0,76564,6,0,P|292:46|270:133,1,178.499994552612,4|2,1:3|0:0,0:0:0:0:
274,161,76978,1,0,1:2:0:0:
266,243,77185,2,0,P|226:286|169:302,2,118.999996368408,2|0|0,3:2|1:0|0:0,0:0:0:0:
284,210,77702,1,2,0:0:0:0:
323,191,77806,1,2,1:2:0:0:
366,188,77909,1,0,0:0:0:0:
408,200,78013,1,2,0:0:0:0:
476,243,78220,6,0,P|436:196|429:78,1,178.499994552612,4|2,1:0|0:0,0:0:0:0:
443,54,78633,1,0,1:0:0:0:
349,41,78840,2,0,P|289:46|237:78,2,118.999996368408,2|0|0,3:2|1:0|0:0,0:0:0:0:
341,79,79358,1,2,0:0:0:0:
322,116,79461,1,2,1:2:0:0:
296,146,79564,1,0,0:0:0:0:
265,165,79668,1,2,0:0:0:0:
178,173,79875,6,0,P|143:94|43:49,1,178.499994552612,4|2,1:0|0:0,0:0:0:0:
31,51,80289,1,0,1:0:0:0:
114,35,80495,2,0,P|181:33|244:56,2,118.999996368408,2|0|0,3:2|1:0|0:0,0:0:0:0:
86,44,81013,1,2,0:0:0:0:
51,74,81116,1,2,1:2:0:0:
39,116,81220,1,0,0:0:0:0:
37,154,81323,1,2,0:0:0:0:
47,240,81530,6,0,P|120:207|147:111,1,178.499994552612,4|0,1:0|0:0,0:0:0:0:
144,94,81944,2,0,P|204:63|314:93,1,178.499994552612,2|0,1:2|0:0,0:0:0:0:
330,108,82358,2,0,P|257:141|219:249,1,178.499994552612,2|0,1:2|0:0,0:0:0:0:
217,254,82771,2,0,P|306:230|382:286,1,178.499994552612,6|0,1:2|0:0,0:0:0:0:
395,301,83185,6,0,P|393:235|456:140,1,178.499994552612,4|2,1:1|0:0,0:0:0:0:
481,130,83599,1,0,1:0:0:0:
396,90,83806,2,0,P|334:54|296:2,2,118.999996368408,2|0|0,3:2|1:0|0:0,0:0:0:0:
356,96,84323,1,2,0:0:0:0:
319,119,84427,1,2,1:2:0:0:
290,150,84530,1,0,0:0:0:0:
278,191,84633,1,2,0:0:0:0:
268,268,84840,6,0,L|265:332,3,59.4999981842042,8|0|0|2,3:0|3:0|3:0|3:0,0:0:0:0:
235,345,85254,2,0,P|198:347|157:328,1,59.4999981842042,4|0,1:3|3:0,0:0:0:0:
152,326,85461,2,0,P|106:289|101:268,1,59.4999981842042,8|0,1:3|3:0,0:0:0:0:
101,261,85668,1,10,0:3:0:0:
105,219,85771,1,2,0:3:0:0:
96,180,85875,1,2,0:3:0:0:
71,148,85978,1,4,1:3:0:0:
33,126,86082,1,8,1:0:0:0:
89,57,86289,1,2,3:2:0:0:
170,75,86495,1,6,0:0:0:0:
256,192,86599,12,0,88564,0:0:0:0:
