osu file format v14

[General]
AudioFilename: audio.mp3
AudioLeadIn: 0
PreviewTime: 49199
Countdown: 0
SampleSet: Soft
StackLeniency: 0.5
Mode: 0
LetterboxInBreaks: 0
WidescreenStoryboard: 0

[Editor]
Bookmarks: 43199,46509,49820,63061,72992,76302
DistanceSpacing: 1.4
BeatDivisor: 4
GridSize: 4
TimelineZoom: 2.1

[Metadata]
Title:PRIMALove -TV Mix-
TitleUnicode:PRIMALove -TV Mix-
Artist:ClariS
ArtistUnicode:ClariS
Creator:NeonLights
Version:Advanced
Source:BEATLESS
Tags:ending ed ambrew aliv ailv shanipika theReaL_Gatorix kz(livetune) Karen Clara
BeatmapID:1531492
BeatmapSetID:724759

[Difficulty]
HPDrainRate:4
CircleSize:3
OverallDifficulty:6
ApproachRate:5
SliderMultiplier:1.1
SliderTickRate:1

[Events]
//Background and Video events
0,0,"lacia_bestgirl.jpg",0,0
//Break Periods
//Storyboard Layer 0 (Background)
//Storyboard Layer 1 (Fail)
//Storyboard Layer 2 (Pass)
//Storyboard Layer 3 (Foreground)
//Storyboard Sound Samples

[TimingPoints]
427,413.793103448276,4,2,0,30,1,0
427,-133.333333333333,4,2,0,30,0,0
2909,-133.333333333333,4,2,0,50,0,0
3323,-133.333333333333,4,2,0,45,0,0
3737,-133.333333333333,4,2,0,40,0,0
4047,-133.333333333333,4,2,0,5,0,0
4151,-133.333333333333,4,2,0,40,0,0
7358,-133.333333333333,4,2,0,5,0,0
7461,-133.333333333333,4,2,0,40,0,0
8702,-133.333333333333,4,2,0,55,0,0
10358,-133.333333333333,4,2,2,60,0,0
17806,-133.333333333333,4,2,2,60,0,0
18013,-133.333333333333,4,2,2,5,0,0
18220,-133.333333333333,4,2,2,65,0,0
22978,-133.333333333333,4,3,0,65,0,0
23599,-133.333333333333,4,2,2,60,0,0
36013,-133.333333333333,4,3,0,65,0,0
36840,-133.333333333333,4,2,2,50,0,0
37047,-133.333333333333,4,2,2,5,0,0
37151,-133.333333333333,4,2,2,70,0,0
37358,-133.333333333333,4,2,2,5,0,0
37461,-133.333333333333,4,2,2,60,0,0
37668,-133.333333333333,4,2,2,50,0,0
37875,-133.333333333333,4,2,2,65,0,0
38082,-133.333333333333,4,2,2,50,0,0
38392,-133.333333333333,4,2,2,70,0,0
38599,-133.333333333333,4,2,2,5,0,0
38702,-133.333333333333,4,2,2,70,0,0
39013,-133.333333333333,4,2,2,70,0,0
39220,-133.333333333333,4,2,2,5,0,0
39323,-133.333333333333,4,3,0,50,0,0
39737,-133.333333333333,4,2,2,70,0,0
40151,-133.333333333333,4,2,2,90,0,0
40358,-133.333333333333,4,2,2,70,0,0
40978,-133.333333333333,4,2,2,40,0,0
41082,-133.333333333333,4,2,2,60,0,0
41599,-133.333333333333,4,2,2,5,0,0
41702,-133.333333333333,4,2,2,60,0,0
41909,-133.333333333333,4,2,2,5,0,0
42013,-133.333333333333,4,2,2,60,0,0
42323,-133.333333333333,4,2,2,60,0,0
42530,-133.333333333333,4,2,2,5,0,0
42633,-133.333333333333,4,2,2,60,0,0
42840,-133.333333333333,4,2,2,55,0,0
43461,-133.333333333333,4,2,2,45,0,0
43513,-133.333333333333,4,2,2,50,0,0
43875,-133.333333333333,4,2,3,40,0,0
43927,-133.333333333333,4,2,2,50,0,0
44289,-133.333333333333,4,2,3,50,0,0
44340,-133.333333333333,4,2,3,50,0,0
44392,-133.333333333333,4,2,2,50,0,0
44702,-133.333333333333,4,2,3,60,0,0
44754,-133.333333333333,4,2,2,60,0,0
45116,-133.333333333333,4,2,4,70,0,0
46771,-133.333333333333,4,3,0,70,0,0
47599,-133.333333333333,4,2,2,80,0,0
48633,-133.333333333333,4,3,0,80,0,0
49151,-133.333333333333,4,2,2,90,0,0
49254,-133.333333333333,4,2,2,90,0,0
49668,-133.333333333333,4,2,4,90,0,0
49875,-133.333333333333,4,2,2,90,0,0
50082,-133.333333333333,4,2,2,80,0,1
52461,-133.333333333333,4,2,2,40,0,1
52564,-133.333333333333,4,2,2,80,0,1
61668,-133.333333333333,4,2,2,85,0,1
61875,-133.333333333333,4,3,0,85,0,1
62392,-133.333333333333,4,2,2,85,0,1
62909,-133.333333333333,4,2,2,75,0,1
63116,-133.333333333333,4,2,2,90,0,1
63323,-133.333333333333,4,2,2,80,0,1
74909,-133.333333333333,4,3,0,80,0,0
75633,-133.333333333333,4,2,4,60,0,0
75737,-133.333333333333,4,3,0,80,0,0
76151,-133.333333333333,4,2,2,90,0,0
76564,-133.333333333333,4,2,2,80,0,0
86082,-133.333333333333,4,2,2,80,0,0
86185,-133.333333333333,4,2,2,80,0,0
86547,-133.333333333333,4,2,2,5,0,0
86702,-133.333333333333,4,2,2,70,0,0
88978,-133.333333333333,4,2,2,5,0,0

[Colours]
Combo1 : 238,155,157
Combo2 : 85,166,255
Combo3 : 161,161,161

[HitObjects]
436,32,427,6,0,P|447:77|436:122,1,82.5000031471254,8|0,0:2|0:1,0:0:0:0:
356,180,1254,2,0,L|349:272,1,82.5000031471254,8|8,0:2|0:2,0:0:0:0:
248,296,2082,2,0,P|227:294|208:287,1,41.2500015735627,8|0,0:2|0:1,0:0:0:0:
136,251,2496,2,0,P|115:252|96:259,1,41.2500015735627,8|0,0:2|0:1,0:0:0:0:
76,336,2910,2,0,L|72:377,1,41.2500015735627,8|8,0:2|0:2,0:0:0:0:
11,289,3323,2,0,L|7:247,1,41.2500015735627,8|0,0:0|0:0,0:0:0:0:
44,172,3737,6,0,P|155:146|213:180,1,165.000006294251,2|0,0:2|0:1,0:0:0:0:
292,216,4978,2,0,P|423:279|374:172,1,330.000012588501,2|0,0:2|0:0,0:0:0:0:
324,108,7047,6,0,P|247:85|171:115,1,165.000006294251,2|0,0:2|0:1,0:0:0:0:
120,208,8289,1,2,0:2:0:0:
216,252,8702,6,0,L|224:284,3,20.6250007867813,2|2|2|2,0:2|0:2|0:2|0:2,0:2:0:0:
268,287,9116,2,0,L|272:328,1,41.2500015735627,0|0,0:1|0:1,0:0:0:0:
336,248,9530,2,0,L|340:206,1,41.2500015735627,0|0,0:1|0:1,0:0:0:0:
268,168,9944,2,0,P|264:152|264:126,1,41.2500015735627,0|0,0:1|0:1,0:0:0:0:
304,56,10358,6,0,P|251:45|213:60,1,82.5000031471254,8|0,1:1|0:1,0:0:0:0:
164,100,10978,2,0,P|111:111|73:96,1,82.5000031471254,2|0,0:3|0:1,0:0:0:0:
84,156,11599,1,0,0:1:0:0:
88,208,11806,1,0,0:0:0:0:
92,260,12013,6,0,P|84:300|95:339,1,82.5000031471254,8|0,1:1|0:1,0:0:0:0:
196,300,12840,2,0,L|291:307,1,82.5000031471254,0|0,0:0|0:1,0:0:0:0:
356,232,13668,6,0,L|364:138,1,82.5000031471254,8|0,1:1|0:1,0:0:0:0:
428,100,14289,2,0,P|381:71|341:72,1,82.5000031471254,2|0,0:3|0:1,0:0:0:0:
279,99,14909,2,0,L|273:149,1,41.2500015735627,0|0,0:1|0:2,0:0:0:0:
256,216,15323,6,0,P|203:225|165:210,1,82.5000031471254,8|0,1:1|0:1,0:0:0:0:
116,168,15944,1,0,0:1:0:0:
116,168,16151,2,0,P|72:155|30:165,1,82.5000031471254,8|0,1:1|0:1,0:0:0:0:
76,264,16978,6,0,L|82:346,1,82.5000031471254,8|0,1:1|0:0,0:0:0:0:
180,296,17806,1,0,0:0:0:0:
280,252,18220,5,0,0:1:0:0:
280,252,18427,2,0,P|319:243|359:253,1,82.5000031471254,0|0,0:1|0:0,0:0:0:0:
440,240,19047,2,0,P|431:296|395:326,2,82.5000031471254,0|0|0,0:1|0:1|0:1,0:0:0:0:
380,148,20289,6,0,L|372:49,1,82.5000031471254,8|0,1:1|0:1,0:0:0:0:
300,32,20909,1,0,0:1:0:0:
300,32,21116,2,0,P|261:41|221:31,1,82.5000031471254,0|0,0:0|0:1,0:0:0:0:
72,48,21944,6,0,L|80:84,3,20.6250007867813,2|2|2|2,0:2|0:0|0:0|0:0,0:0:0:0:
56,91,22358,2,0,L|52:132,1,41.2500015735627,0|0,0:0|0:0,0:0:0:0:
120,176,22772,2,0,L|124:218,1,41.2500015735627,0|0,0:0|0:0,0:0:0:0:
136,296,23185,2,0,P|152:300|178:300,1,41.2500015735627,0|0,0:0|0:0,0:0:0:0:
244,256,23599,6,0,P|284:247|324:256,1,82.5000031471254,4|8,0:2|0:1,0:0:0:0:
404,184,24427,2,0,L|400:143,2,41.2500015735627,8|0|8,0:1|0:0|0:1,0:0:0:0:
452,280,25254,6,0,P|462:319|452:359,1,82.5000031471254,8|8,0:1|0:1,0:0:0:0:
352,316,26082,1,8,0:1:0:0:
252,348,26495,1,8,0:1:0:0:
276,244,26909,6,0,P|237:235|197:245,1,82.5000031471254,8|8,0:1|0:1,0:0:0:0:
112,312,27737,2,0,P|73:322|33:313,1,82.5000031471254,8|8,0:1|0:1,0:0:0:0:
72,244,28358,1,0,0:1:0:0:
72,244,28564,6,0,L|80:161,1,82.5000031471254,8|8,0:1|0:1,0:0:0:0:
157,131,29185,1,0,0:1:0:0:
157,131,29392,2,0,L|150:48,1,82.5000031471254,8|8,0:1|0:1,0:0:0:0:
248,4,30220,6,0,P|288:-6|328:4,1,82.5000031471254,8|8,0:1|0:1,0:0:0:0:
288,104,31047,1,8,0:1:0:0:
328,204,31461,1,8,0:1:0:0:
328,204,31668,1,0,0:1:0:0:
328,204,31875,6,0,P|288:214|248:204,1,82.5000031471254,8|8,0:1|0:1,0:0:0:0:
160,148,32702,2,0,L|167:231,1,82.5000031471254,8|8,0:1|0:1,0:0:0:0:
80,168,33530,6,0,P|41:158|1:168,1,82.5000031471254,8|8,0:1|0:1,0:0:0:0:
44,240,34151,1,0,0:1:0:0:
44,240,34358,2,0,L|51:323,1,82.5000031471254,8|8,0:1|0:1,0:0:0:0:
156,315,35185,2,0,L|152:356,2,41.2500015735627,0|8|8,0:1|0:1|0:1,0:0:0:0:
232,236,36013,6,0,L|273:240,1,41.2500015735627,8|8,0:0|0:0,0:0:0:0:
332,292,36427,2,0,L|399:287,1,41.2500015735627,0|0,0:0|0:0,0:0:0:0:
428,232,36840,6,0,P|470:242|512:232,1,82.5000031471254,6|0,0:2|0:0,0:0:0:0:
468,136,37668,1,8,0:0:0:0:
360,144,38082,6,0,L|352:53,2,82.5000031471254,10|0|0,0:0|0:0|0:0,0:0:0:0:
312,240,39323,2,0,L|307:291,1,41.2500015735627,0|0,0:3|0:3,0:0:0:0:
228,296,39737,2,0,L|231:254,1,41.2500015735627,2|2,0:2|0:2,0:0:0:0:
227,178,40151,6,0,P|186:168|144:178,1,82.5000031471254,8|0,0:1|0:0,0:0:0:0:
44,204,40979,1,0,0:0:0:0:
76,104,41393,6,0,P|74:59|85:13,2,82.5000031471254,10|0|0,0:0|0:0|0:0,0:0:0:0:
148,177,42633,2,0,L|152:228,1,41.2500015735627,8|8,0:0|0:1,0:0:0:0:
216,264,43047,2,0,L|212:305,1,41.2500015735627,8|8,0:1|0:1,0:0:0:0:
144,348,43461,6,0,L|58:340,1,82.5000031471254,4|8,0:0|0:1,0:0:0:0:
8,248,44289,2,0,L|14:161,1,82.5000031471254,8|8,0:1|0:1,0:0:0:0:
108,116,45116,5,8,0:1:0:0:
160,208,45530,1,8,0:1:0:0:
216,116,45944,1,8,0:1:0:0:
276,204,46358,1,8,0:1:0:0:
336,116,46771,6,0,L|333:68,1,41.2500015735627,0|0,3:0|3:0,0:0:0:0:
412,148,47185,2,0,L|417:101,1,41.2500015735627,0|0,3:0|3:0,0:0:0:0:
348,196,47599,2,0,L|350:237,1,41.2500015735627,8|8,0:1|0:1,0:0:0:0:
328,328,48013,6,2,L|292:344,3,20.6250007867813
272,324,48427,6,0,P|232:314|192:324,1,82.5000031471254,2|8,0:0|0:0,0:0:0:0:
141,228,49254,2,0,L|93:223,1,41.2500015735627,8|8,0:0|0:1,0:0:0:0:
54,222,49668,1,8,0:1:0:0:
128,144,50082,6,0,L|215:151,1,82.5000031471254,8|8,0:1|0:1,0:0:0:0:
213,256,50909,2,0,P|255:246|296:256,1,82.5000031471254,8|8,0:1|0:1,0:0:0:0:
260,328,51530,1,0,0:1:0:0:
260,328,51737,6,0,P|301:338|343:328,1,82.5000031471254,8|8,0:1|0:1,0:0:0:0:
412,292,52358,1,0,0:1:0:0:
412,292,52564,2,0,L|415:248,1,41.2500015735627,8|0,0:1|0:1,0:0:0:0:
352,200,52978,2,0,L|354:158,1,41.2500015735627,8|0,0:1|0:1,0:0:0:0:
296,104,53392,6,0,P|256:94|216:104,1,82.5000031471254,8|8,0:1|0:1,0:0:0:0:
116,44,54220,2,0,L|112:3,2,41.2500015735627,8|0|8,0:1|0:1|0:1,0:0:0:0:
124,160,55047,6,0,P|114:199|124:239,1,82.5000031471254,8|8,0:1|0:1,0:0:0:0:
200,204,55668,1,0,0:1:0:0:
200,204,55875,2,0,P|209:244|200:284,1,82.5000031471254,8|8,0:1|0:1,0:0:0:0:
304,332,56702,6,0,L|400:324,1,82.5000031471254,8|8,0:1|0:1,0:0:0:0:
444,264,57323,1,0,0:1:0:0:
444,264,57530,2,0,L|448:223,2,41.2500015735627,8|0|8,0:1|0:1|0:1,0:0:0:0:
380,124,58358,6,0,P|340:114|300:124,1,82.5000031471254,8|8,0:1|0:1,0:0:0:0:
220,212,59185,2,0,L|227:295,1,82.5000031471254,8|8,0:1|0:1,0:0:0:0:
164,348,59806,1,0,0:1:0:0:
164,348,60013,6,0,P|124:358|84:348,1,82.5000031471254,8|8,0:1|0:1,0:0:0:0:
124,280,60633,1,0,0:1:0:0:
124,280,60840,2,0,L|117:197,1,82.5000031471254,8|8,0:1|0:1,0:0:0:0:
212,128,61668,2,0,L|209:169,1,41.2500015735627,2|0,0:0|0:0,0:0:0:0:
260,232,62082,2,0,L|258:273,1,41.2500015735627,8|0,0:0|0:0,0:0:0:0:
308,168,62495,2,0,L|314:106,1,41.2500015735627,8|0,0:1|0:0,0:0:0:0:
320,48,62909,1,8,0:0:0:0:
212,92,63323,6,0,P|172:102|132:92,1,82.5000031471254,8|8,0:1|0:1,0:0:0:0:
32,36,64151,2,0,L|39:119,1,82.5000031471254,8|8,0:1|0:1,0:0:0:0:
104,172,64771,1,0,0:1:0:0:
104,172,64978,6,0,P|113:211|104:251,1,82.5000031471254,8|8,0:1|0:1,0:0:0:0:
220,264,65806,2,0,L|223:305,1,41.2500015735627,8|0,0:1|0:1,0:0:0:0:
300,268,66220,2,0,L|296:226,1,41.2500015735627,8|0,0:1|0:1,0:0:0:0:
288,140,66633,6,0,P|327:150|367:140,1,82.5000031471254,8|8,0:1|0:1,0:0:0:0:
448,56,67461,2,0,L|452:15,2,41.2500015735627,8|0|8,0:1|0:1|0:1,0:0:0:0:
476,168,68289,6,0,P|486:207|476:247,1,82.5000031471254,8|8,0:1|0:1,0:0:0:0:
408,208,68909,1,0,0:1:0:0:
408,208,69116,2,0,L|325:215,1,82.5000031471254,8|8,0:1|0:1,0:0:0:0:
240,136,69944,6,0,P|200:124|160:131,1,82.5000031471254,8|8,0:1|0:1,0:0:0:0:
88,96,70564,1,0,0:1:0:0:
88,96,70771,2,0,L|84:55,2,41.2500015735627,8|0|8,0:1|0:1|0:1,0:0:0:0:
100,212,71599,6,0,L|107:295,1,82.5000031471254,8|8,0:1|0:1,0:0:0:0:
180,344,72220,1,0,0:1:0:0:
180,344,72427,2,0,P|220:350|259:339,1,82.5000031471254,8|8,0:1|0:1,0:0:0:0:
332,296,73254,6,0,L|336:249,1,41.2500015735627,8|8,0:1|0:1,0:0:0:0:
412,236,73668,2,0,L|407:188,1,41.2500015735627,8|8,0:1|0:1,0:0:0:0:
332,176,74082,2,0,L|335:129,1,41.2500015735627,8|8,0:1|0:1,0:0:0:0:
412,116,74496,2,0,L|408:68,1,41.2500015735627,8|8,0:1|0:1,0:0:0:0:
332,56,74909,6,0,P|292:46|252:56,1,82.5000031471254,8|0,0:0|0:0,0:0:0:0:
184,148,75737,2,0,L|136:153,1,41.2500015735627,0|0,3:0|3:0,0:0:0:0:
98,158,76150,1,10,0:0:0:0:
4,228,76564,6,0,P|-5:268|4:308,1,82.5000031471254,8|8,0:1|0:1,0:0:0:0:
112,268,77392,2,0,L|195:261,1,82.5000031471254,8|8,0:1|0:1,0:0:0:0:
280,180,78220,6,0,P|290:140|280:100,1,82.5000031471254,8|8,0:1|0:1,0:0:0:0:
176,52,79047,2,0,P|167:91|177:131,1,82.5000031471254,8|8,0:1|0:1,0:0:0:0:
108,224,79875,6,0,L|60:219,2,41.2500015735627,8|0|0,0:1|0:1|0:0,0:0:0:0:
184,312,80702,2,0,P|224:302|264:312,1,82.5000031471254,8|8,0:1|0:1,0:0:0:0:
364,256,81530,6,0,L|369:208,2,41.2500015735627,8|0|8,0:1|0:1|0:1,0:0:0:0:
364,372,82358,2,0,P|404:382|444:372,1,82.5000031471254,8|8,0:1|0:1,0:0:0:0:
484,264,83185,6,0,P|474:225|484:185,1,82.5000031471254,8|8,0:1|0:1,0:0:0:0:
400,108,84013,2,0,L|395:67,2,41.2500015735627,8|0|8,0:1|0:1|0:1,0:0:0:0:
344,204,84840,6,0,P|304:213|264:203,1,82.5000031471254,8|8,0:1|0:1,0:0:0:0:
180,124,85668,2,0,L|176:82,2,41.2500015735627,8|8|8,0:1|0:1|0:0,0:0:0:0:
180,240,86495,5,2,0:2:0:0:
256,192,86702,12,0,88978,0:0:0:0:
