osu file format v14

[General]
AudioFilename: audio.mp3
AudioLeadIn: 0
PreviewTime: 59473
Countdown: 0
SampleSet: Soft
StackLeniency: 0.7
Mode: 0
LetterboxInBreaks: 0
WidescreenStoryboard: 1

[Editor]
DistanceSpacing: 1
BeatDivisor: 4
GridSize: 16
TimelineZoom: 1.5

[Metadata]
Title:Luminous -movie MIX-
TitleUnicode:ルミナス -movie MIX-
Artist:ClariS
ArtistUnicode:ClariS
Creator:fogo
Version:Normal
Source:劇場版 魔法少女まどか☆マギカ
Tags:Gekijouban Mahou Shoujo Madoka Magica Puella Magi the Movie [前編] 始まりの物語 Part 1: Beginnings Zenpen Hajimari no Monogatari [後編] 永遠の物語 Part 2: Eternal Kouhen Eien no Monogatari opening op Anime Japanese
BeatmapID:2324428
BeatmapSetID:1111693

[Difficulty]
HPDrainRate:4
CircleSize:3.4
OverallDifficulty:4
ApproachRate:5
SliderMultiplier:0.999999999999999
SliderTickRate:1

[Events]
//Background and Video events
0,0,"bg.jpg",0,0
//Break Periods
//Storyboard Layer 0 (Background)
//Storyboard Layer 1 (Fail)
//Storyboard Layer 2 (Pass)
//Storyboard Layer 3 (Foreground)
//Storyboard Layer 4 (Overlay)
//Storyboard Sound Samples

[TimingPoints]
610,346.820809248555,4,2,2,45,1,0
610,-125,4,2,30,60,0,0
956,-125,4,2,31,60,0,0
1303,-125,4,2,32,60,0,0
1650,-125,4,2,31,60,0,0
1997,-125,4,2,30,65,0,0
2344,-125,4,2,31,65,0,0
2517,-125,4,2,32,65,0,0
2864,-125,4,2,2,65,0,0
4685,-100,4,2,2,5,0,0
4771,-100,4,2,2,70,0,0
13008,-100,4,2,2,5,0,0
13095,-142.857142857143,4,2,2,60,0,0
14482,-142.857142857143,4,2,2,50,0,0
14916,-142.857142857143,4,2,2,5,0,0
15003,-142.857142857143,4,2,2,50,0,0
15523,-142.857142857143,4,2,2,50,0,0
15783,-142.857142857143,4,2,2,5,0,0
15870,-125,4,2,2,45,0,0
17257,-125,4,2,22,45,0,0
26968,-125,4,2,2,55,0,0
27315,-125,4,2,2,55,0,0
35292,-100,4,2,2,65,0,0
38066,-100,4,2,2,65,0,0
57488,-100,4,2,2,65,0,0
59482,-125,4,2,2,5,0,0
59569,-125,4,2,2,65,0,0
60263,-100,4,2,2,80,0,1
71014,-100,4,2,2,80,0,0
71361,-100,4,2,2,80,0,1
82459,-100,4,2,2,65,0,0
88355,-100,4,2,2,50,0,0
88702,-100,4,2,2,55,0,0
89049,-100,4,2,2,60,0,0
89396,-100,4,2,2,65,0,0
89742,-100,4,2,2,70,0,0
90089,-100,4,2,2,75,0,0
90436,-100,4,2,2,80,0,0
91477,-100,4,2,2,65,0,0
93644,346.820809248555,4,2,2,30,1,0
97459,-100,4,2,2,20,0,0

[Colours]
Combo1 : 208,36,53
Combo2 : 224,112,252
Combo3 : 188,74,242
Combo4 : 224,78,92
SliderBorder : 255,187,221
SliderTrackOverride : 26,0,26

[HitObjects]
157,132,610,6,0,P|119:143|82:130,2,79.9999999999999,2|2|2,2:2|2:2|2:2,2:2:0:0:
233,87,1650,1,2,2:2:0:0:
300,142,1997,2,0,B|313:169|313:169|303:226,1,79.9999999999999,2|2,2:2|2:2,0:0:0:0:
289,259,2517,1,2,2:2:0:0:
261,342,2864,1,4,1:0:0:0:
451,126,4771,6,0,L|342:112,1,99.9999999999999,4|0,1:2|1:2,0:0:0:0:
310,140,5292,1,0,2:2:0:0:
310,140,5465,2,0,P|292:185|319:247,1,99.9999999999999,0|0,1:2|1:2,0:0:0:0:
336,278,5985,1,8,2:2:0:0:
336,278,6159,2,0,B|289:296|289:296|231:276,2,99.9999999999999,0|0|0,1:2|1:2|1:2,0:0:0:0:
423,229,7199,1,0,1:2:0:0:
407,130,7546,6,0,P|368:99|308:107,1,99.9999999999999,4|0,1:2|1:2,0:0:0:0:
289,141,8066,1,0,2:2:0:0:
289,141,8240,2,0,L|173:128,1,99.9999999999999,0|0,1:2|1:2,0:0:0:0:
150,159,8760,1,8,2:2:0:0:
150,159,8933,2,0,P|128:208|148:265,2,99.9999999999999,0|0|0,1:2|1:2|1:2,0:0:0:0:
234,104,9974,1,0,1:2:0:0:
160,37,10320,6,0,P|112:21|56:58,1,99.9999999999999,4|0,1:2|1:2,0:0:0:0:
52,90,10841,1,0,2:2:0:0:
52,90,11014,2,0,B|33:126|33:126|58:195,1,99.9999999999999,0|0,1:2|1:2,0:0:0:0:
75,232,11534,1,8,2:2:0:0:
75,232,11708,2,0,L|58:337,2,99.9999999999999,0|0|0,1:2|1:2|1:2,0:0:0:0:
161,182,12748,1,0,1:2:0:0:
243,243,13095,6,0,P|266:261|323:118,1,279.999991455078,4|0,1:2|1:2,0:0:0:0:
329,120,15870,5,4,1:2:0:0:
133,54,17257,2,0,L|118:190,2,120,2|2|2,2:2|2:2|2:2,0:0:0:0:
222,89,18644,6,0,B|278:153|240:240|240:240|281:332|381:312,1,320,2|2,2:2|2:2,0:0:0:0:
490,243,20725,1,0,2:2:0:0:
462,152,21072,1,2,2:2:0:0:
434,61,21419,6,0,B|404:23|328:17|274:55|265:125|281:160|281:160|291:123|324:109,1,320,4|2,2:2|2:2,0:0:0:0:
352,250,23326,2,0,P|309:279|234:261,1,120,2|0,2:2|2:2,0:0:0:0:
151,294,24193,6,0,B|162:205|162:205|193:161|193:161|203:56,1,240,2|2,2:2|2:2,0:0:0:0:
286,18,25581,2,0,P|355:7|396:90,1,160,2|0,2:2|2:2,0:0:0:0:
357,162,26621,2,0,L|367:254,1,79.9999999999999,2|4,2:2|2:2,0:0:0:0:
398,332,27315,6,0,P|433:309|484:311,2,79.9999999999999,2|2|2,2:2|2:2|2:2,0:0:0:0:
305,357,28355,2,0,P|260:295|296:219,1,160,0|0,2:2|2:2,0:0:0:0:
350,149,29396,1,2,2:2:0:0:
274,90,29742,6,0,B|217:62|217:62|120:106,2,160,6|0|0,2:2|2:2|2:2,0:0:0:0:
414,159,31823,1,2,2:2:0:0:
397,253,32170,1,2,2:2:0:0:
366,344,32517,6,0,L|271:335,1,79.9999999999999,6|2,2:2|2:2,0:0:0:0:
209,281,33211,2,0,P|188:317|196:371,2,79.9999999999999,2|2|0,2:2|2:2|2:2,0:0:0:0:
267,204,34251,2,0,P|288:168|280:114,1,79.9999999999999,2|2,0:0|0:0,0:0:0:0:
237,48,34945,1,2,0:0:0:0:
137,54,35292,6,0,B|122:84|122:84|143:155,1,99.9999999999999,4|0,1:2|3:2,0:0:0:0:
153,196,35812,2,0,B|168:226|168:226|146:294,1,99.9999999999999,8|0,2:2|3:2,0:0:0:0:
128,335,36332,1,0,3:2:0:0:
223,365,36679,2,0,P|260:329|306:328,1,99.9999999999999,0|8,1:2|2:2,0:0:0:0:
354,340,37199,1,0,1:2:0:0:
417,262,37546,2,0,B|433:220|433:220|407:149,1,99.9999999999999,0|8,1:2|2:2,0:0:0:0:
393,122,38066,6,0,P|346:139|301:121,1,99.9999999999999,6|10,1:2|2:2,0:0:0:0:
265,86,38586,1,2,2:2:0:0:
174,42,38933,2,0,P|125:31|71:65,1,99.9999999999999,2|2,1:2|2:2,2:2:0:0:
48,88,39453,2,0,B|31:122|31:122|50:188,1,99.9999999999999,0|8,1:2|2:2,0:0:0:0:
122,248,40147,1,2,2:2:0:0:
194,178,40494,1,2,2:2:0:0:
275,235,40841,6,0,L|382:218,1,99.9999999999999,6|10,1:2|2:2,0:0:0:0:
423,209,41361,1,2,2:2:0:0:
490,134,41709,2,0,B|499:78|499:78|469:32,1,99.9999999999999,2|2,1:2|2:2,0:0:0:0:
426,29,42228,2,0,L|306:43,1,99.9999999999999,0|8,1:2|0:0,0:0:0:0:
229,67,42922,1,2,2:2:0:0:
188,157,43268,1,8,2:2:0:0:
153,250,43615,6,0,P|202:231|260:255,1,99.9999999999999,6|8,1:2|2:2,0:0:0:0:
288,280,44136,1,2,2:2:0:0:
288,280,44309,2,0,B|355:275|355:275|387:239,1,99.9999999999999,2|8,2:2|2:2,0:0:0:0:
427,163,45003,2,0,B|447:124|447:124|428:50,1,99.9999999999999,2|10,1:2|2:2,0:0:0:0:
393,38,45523,2,0,P|348:23|291:50,1,99.9999999999999,2|2,1:2|1:2,0:0:0:0:
264,75,46043,1,8,2:2:0:0:
177,25,46390,6,0,P|159:73|180:133,1,99.9999999999999,6|10,1:2|2:2,0:0:0:0:
200,159,46910,1,2,2:2:0:0:
149,245,47258,2,0,P|187:266|253:248,1,99.9999999999999,2|2,1:2|2:2,0:0:0:0:
281,229,47777,2,0,L|341:217,1,50,2|0,1:2|2:2,0:0:0:0:
373,244,48124,2,0,L|433:232,1,50,8|4,2:2|1:2,0:0:0:0:
470,245,48471,2,0,P|480:195|455:147,1,99.9999999999999,2|2,0:0|3:2,0:0:0:0:
392,78,49164,6,0,L|288:60,1,99.9999999999999,6|10,1:2|2:2,0:0:0:0:
243,54,49685,1,2,2:2:0:0:
176,128,50031,2,0,P|164:181|192:233,1,99.9999999999999,2|2,1:2|2:2,0:0:0:0:
229,236,50552,2,0,P|244:281|215:338,1,99.9999999999999,0|10,1:2|1:2,0:0:0:0:
129,357,51245,1,2,2:2:0:0:
79,270,51592,1,8,2:2:0:0:
129,183,51939,6,0,P|173:149|234:159,1,99.9999999999999,6|10,1:2|2:2,0:0:0:0:
257,177,52459,1,2,2:2:0:0:
349,215,52806,2,0,B|392:226|392:226|461:194,1,99.9999999999999,2|2,1:2|2:2,0:0:0:0:
474,163,53326,2,0,L|478:105,2,50,0|12|0,1:2|2:2|0:0,0:0:0:0:
470,263,54020,1,10,2:2:0:0:
374,294,54367,1,2,3:2:0:0:
295,231,54714,6,0,B|249:214|249:214|192:237,1,99.9999999999999,6|8,1:2|2:2,0:0:0:0:
154,248,55234,2,0,B|108:265|108:265|60:245,1,99.9999999999999,2|0,1:2|1:2,0:0:0:0:
19,216,55754,1,8,2:2:0:0:
70,130,56101,6,0,L|182:111,1,99.9999999999999,6|8,1:2|2:2,0:0:0:0:
200,74,56621,2,0,L|312:55,1,99.9999999999999,2|8,1:2|2:2,0:0:0:0:
348,49,57141,1,2,3:2:0:0:
426,110,57488,6,0,B|451:227|381:171|417:324,2,200,6|8|0,1:2|2:2|1:0,0:0:0:0:
215,78,59569,6,0,P|156:65|111:101,1,120,10|0,2:2|0:0,0:0:0:0:
74,132,60263,2,0,B|62:195|62:195|83:250,1,99.9999999999999,6|10,1:2|2:2,0:0:0:0:
129,312,60956,2,0,L|196:318,1,50,2|0,2:2|1:2,0:0:0:0:
220,353,61303,1,10,2:2:0:0:
220,353,61476,2,0,L|338:335,1,99.9999999999999,2|2,2:2|1:2,0:0:0:0:
368,330,61997,1,8,2:2:0:0:
453,277,62344,6,0,B|469:230|469:230|449:164,1,99.9999999999999,2|10,2:2|2:2,0:0:0:0:
390,104,63037,2,0,P|343:88|291:115,1,99.9999999999999,6|10,1:2|2:2,0:0:0:0:
252,126,63557,2,0,L|182:112,2,50,2|2|2,2:2|2:2|1:2,0:0:0:0:
259,180,64078,1,10,2:2:0:0:
259,180,64251,2,0,B|277:213|277:213|262:281,1,99.9999999999999,2|2,2:2|2:2,2:2:0:0:
255,323,64771,1,8,2:2:0:0:
163,364,65118,6,0,P|148:318|177:262,1,99.9999999999999,2|10,2:2|2:2,0:0:0:0:
209,186,65812,2,0,L|280:177,1,50,6|0,1:2|2:2,0:0:0:0:
303,157,66159,2,0,B|318:122|318:122|298:52,1,99.9999999999999,10|2,2:2|2:2,0:0:0:0:
214,11,66852,1,10,2:2:0:0:
135,73,67199,2,0,P|90:91|27:61,1,99.9999999999999,2|10,1:2|2:2,0:0:0:0:
23,124,67719,1,0,1:2:0:0:
23,124,67893,2,0,P|7:174|29:233,1,99.9999999999999,2|10,2:2|2:2,0:0:0:0:
82,295,68586,6,0,B|148:301|110:266|190:266,1,99.9999999999999,6|10,1:2|2:2,0:0:0:0:
222,252,69107,2,0,L|232:202,1,50,2|8,2:2|2:2,0:0:0:0:
243,154,69453,1,2,1:2:0:0:
177,78,69800,2,0,P|210:49|274:54,1,99.9999999999999,6|0,1:2|1:2,0:0:0:0:
312,60,70320,2,0,L|320:120,1,50,8|0,2:2|1:2,0:0:0:0:
352,147,70667,1,10,2:2:0:0:
308,236,71014,1,8,2:2:0:0:
211,207,71361,6,0,P|163:193|110:218,1,99.9999999999999,6|10,1:2|2:2,0:0:0:0:
34,265,72055,2,0,P|15:215|31:164,1,99.9999999999999,2|10,2:2|2:2,0:0:0:0:
57,131,72575,2,0,L|130:119,1,50,2|0,2:2|1:2,0:0:0:0:
146,92,72922,1,2,2:2:0:0:
146,92,73095,2,0,L|219:104,1,50,8|0,2:2|1:2,0:0:0:0:
243,113,73442,6,0,P|282:83|342:94,1,99.9999999999999,2|10,2:2|2:2,0:0:0:0:
424,51,74136,2,0,L|431:160,1,99.9999999999999,6|10,1:2|2:2,0:0:0:0:
410,196,74656,2,0,P|367:226|314:217,1,99.9999999999999,2|2,2:2|1:2,0:0:0:0:
281,200,75176,1,10,2:2:0:0:
281,200,75349,2,0,P|233:189|180:228,1,99.9999999999999,2|2,2:2|2:2,2:2:0:0:
158,251,75870,1,8,2:2:0:0:
60,227,76216,6,0,P|45:178|64:128,1,99.9999999999999,2|10,2:2|2:2,0:0:0:0:
138,70,76910,2,0,L|245:56,1,99.9999999999999,6|10,1:2|2:2,0:0:0:0:
282,79,77430,2,0,P|330:91|383:67,1,99.9999999999999,2|2,1:2|1:2,0:0:0:0:
409,35,77951,1,8,2:2:0:0:
428,132,78297,6,0,P|403:177|414:237,1,99.9999999999999,6|10,1:2|2:2,0:0:0:0:
421,272,78818,2,0,B|436:311|436:311|408:371,1,99.9999999999999,2|2,1:2|1:2,0:0:0:0:
363,350,79338,2,0,L|306:345,1,50,8|0,2:2|2:2,0:0:0:0:
263,341,79685,1,6,1:2:0:0:
193,269,80031,1,8,2:2:0:0:
234,178,80378,1,8,2:2:0:0:
178,94,80725,1,10,2:2:0:0:
87,136,81072,6,0,B|70:164|70:164|85:254,1,99.9999999999999,6|10,1:2|2:2,0:0:0:0:
93,278,81592,2,0,L|204:284,1,99.9999999999999,6|2,1:2|1:2,0:0:0:0:
226,245,82112,2,0,L|211:181,1,50,8|0,2:2|1:2,0:0:0:0:
215,146,82459,6,0,P|254:79|323:93,1,150,6|0,1:2|1:2,0:0:0:0:
354,121,83153,1,8,2:2:0:0:
313,212,83500,6,0,B|441:208|373:295|511:266,1,200,4|2,1:2|1:2,0:0:0:0:
466,173,84540,2,0,L|476:124,2,50,10|8|2,2:2|2:2|1:2,0:0:0:0:
392,104,85234,6,0,P|342:52|264:73,1,150,6|8,1:2|2:2,0:0:0:0:
236,101,85927,1,8,2:2:0:0:
160,34,86274,6,0,L|148:187,1,150,6|0,1:2|1:2,0:0:0:0:
153,233,86968,2,0,L|88:248,1,50,8|0,2:2|1:2,0:0:0:0:
81,289,87315,1,10,2:2:0:0:
14,213,87662,1,8,2:2:0:0:
53,121,88008,2,0,L|116:112,1,50,4|0,1:2|2:2,0:0:0:0:
141,82,88355,5,8,2:2:0:0:
233,44,88702,1,8,2:2:0:0:
309,108,89049,1,8,2:2:0:0:
301,207,89396,1,8,2:2:0:0:
211,252,89742,1,8,2:2:0:0:
129,193,90089,1,8,2:2:0:0:
51,256,90436,6,0,P|31:208|212:132,1,300,4|8,1:2|2:2,0:0:0:0:
277,180,91823,1,2,1:2:0:0:
365,134,92170,2,0,B|404:96|368:35|368:35|300:23|282:84,1,200,6|0,1:2|2:2,0:0:0:0:
256,192,93644,12,2,97460,2:2:0:0:
