osu file format v14

[General]
AudioFilename: audio.mp3
AudioLeadIn: 0
PreviewTime: 59473
Countdown: 0
SampleSet: Soft
StackLeniency: 0.7
Mode: 0
LetterboxInBreaks: 0
WidescreenStoryboard: 1

[Editor]
DistanceSpacing: 1.9
BeatDivisor: 4
GridSize: 16
TimelineZoom: 1.5

[Metadata]
Title:Luminous -movie MIX-
TitleUnicode:ルミナス -movie MIX-
Artist:ClariS
ArtistUnicode:ClariS
Creator:fogo
Version:Hard
Source:劇場版 魔法少女まどか☆マギカ
Tags:Gekijouban Mahou Shoujo Madoka Magica Puella Magi the Movie [前編] 始まりの物語 Part 1: Beginnings Zenpen Hajimari no Monogatari [後編] 永遠の物語 Part 2: Eternal Kouhen Eien no Monogatari opening op Anime Japanese
BeatmapID:2334519
BeatmapSetID:1111693

[Difficulty]
HPDrainRate:5
CircleSize:3.5
OverallDifficulty:6
ApproachRate:8
SliderMultiplier:1.43
SliderTickRate:1

[Events]
//Background and Video events
0,0,"bg2.jpg",0,0
//Break Periods
//Storyboard Layer 0 (Background)
//Storyboard Layer 1 (Fail)
//Storyboard Layer 2 (Pass)
//Storyboard Layer 3 (Foreground)
//Storyboard Layer 4 (Overlay)
//Storyboard Sound Samples

[TimingPoints]
610,346.820809248555,4,2,2,45,1,0
610,-142.857142857143,4,2,30,60,0,0
956,-142.857142857143,4,2,31,60,0,0
1303,-142.857142857143,4,2,32,60,0,0
1650,-142.857142857143,4,2,31,60,0,0
1997,-142.857142857143,4,2,30,65,0,0
2344,-142.857142857143,4,2,31,65,0,0
2517,-142.857142857143,4,2,32,65,0,0
2864,-100,4,2,2,65,0,0
4685,-100,4,2,2,5,0,0
4771,-100,4,2,2,70,0,0
13008,-100,4,2,2,5,0,0
13095,-142.857142857143,4,2,2,60,0,0
14482,-200,4,2,2,50,0,0
14916,-200,4,2,2,5,0,0
15003,-200,4,2,2,50,0,0
15523,-200,4,2,2,50,0,0
15783,-200,4,2,2,5,0,0
15870,-142.857142857143,4,2,2,45,0,0
16216,-142.857142857143,4,2,22,45,0,0
26968,-142.857142857143,4,2,2,55,0,0
27315,-142.857142857143,4,2,2,55,0,0
35292,-142.857142857143,4,2,2,65,0,0
37893,-111.111111111111,4,2,2,65,0,0
59482,-111.111111111111,4,2,2,5,0,0
59569,-142.857142857143,4,2,2,65,0,0
60263,-100,4,2,2,80,0,1
71014,-100,4,2,2,80,0,0
71361,-100,4,2,2,80,0,1
82459,-125,4,2,2,65,0,0
86968,-100,4,2,2,65,0,0
88355,-100,4,2,2,50,0,0
88702,-100,4,2,2,55,0,0
89049,-100,4,2,2,60,0,0
89396,-100,4,2,2,65,0,0
89742,-100,4,2,2,70,0,0
90089,-100,4,2,2,75,0,0
90436,-142.857142857143,4,2,2,80,0,0
91477,-142.857142857143,4,2,2,65,0,0
93644,346.820809248555,4,2,2,30,1,0
97459,-142.857142857143,4,2,2,20,0,0

[Colours]
Combo1 : 248,190,114
Combo2 : 254,182,218
Combo3 : 252,143,189
Combo4 : 248,135,97
SliderBorder : 255,187,221
SliderTrackOverride : 26,0,26

[HitObjects]
142,50,610,6,0,P|107:86|115:152,1,100.099996945191,2|2,0:0|0:0,0:0:0:0:
298,121,1303,2,0,P|292:76|248:38,1,100.099996945191,2|2,0:0|0:0,0:0:0:0:
157,220,1997,2,0,P|208:233|255:202,1,100.099996945191,2|2,0:0|0:0,0:0:0:0:
200,125,2517,1,2,0:0:0:0:
256,192,2864,12,0,4425,0:0:0:0:
423,148,4771,6,0,P|385:94|297:108,1,143,4|0,1:2|1:2,0:0:0:0:
224,143,5292,1,0,2:2:0:0:
162,63,5465,2,0,L|73:55,1,71.5,0|0,1:2|2:2,0:0:0:0:
13,121,5812,2,0,P|1:155|18:212,1,71.5,0|8,1:2|2:2,0:0:0:0:
94,235,6159,6,0,B|128:280|128:280|93:364,1,143,0|0,1:2|1:2,0:0:0:0:
18,294,6679,1,0,2:2:0:0:
94,235,6852,2,0,P|131:216|180:221,1,71.5,0|0,1:2|3:2,0:0:0:0:
227,289,7199,2,0,L|326:273,1,71.5,0|0,1:2|3:2,0:0:0:0:
297,277,7459,1,0,3:2:0:0:
297,277,7546,6,0,P|330:211|286:133,1,143,4|0,1:2|1:2,0:0:0:0:
238,76,8066,1,0,2:2:0:0:
324,25,8240,2,0,P|360:13|415:30,1,71.5,0|0,1:2|2:2,0:0:0:0:
465,85,8586,2,0,B|480:108|480:108|461:171,1,71.5,0|8,1:2|2:2,0:0:0:0:
368,170,8933,6,0,P|336:220|385:310,1,143,0|0,1:2|1:2,0:0:0:0:
483,236,9453,1,0,3:2:0:0:
483,236,9627,2,0,P|443:243|395:218,1,71.5
323,190,9974,1,0,1:2:0:0:
407,134,10147,1,8,2:2:0:0:
407,134,10234,1,8,2:2:0:0:
407,134,10320,6,0,P|402:69|327:46,1,143,4|0,1:2|1:2,0:0:0:0:
259,100,10841,1,0,2:2:0:0:
179,39,11014,2,0,L|104:30,1,71.5,0|0,1:2|2:2,0:0:0:0:
45,109,11361,2,0,L|115:117,1,71.5,0|8,1:2|2:2,0:0:0:0:
183,191,11708,5,0,1:2:0:0:
183,191,11881,1,8,2:2:0:0:
155,287,12055,2,0,P|128:316|77:324,1,71.5,0|0,1:2|0:2,0:0:0:0:
19,264,12401,1,0,1:2:0:0:
19,264,12575,1,0,3:2:0:0:
65,175,12748,2,0,P|81:141|75:90,1,71.5,0|0,1:2|0:0,0:0:0:0:
135,35,13095,6,0,L|246:24,1,100.099996945191,4|0,1:2|2:2,0:0:0:0:
314,67,13615,2,0,P|336:115|312:175,1,100.099996945191,8|0,2:2|3:2,0:0:0:0:
276,236,14136,1,0,3:2:0:0:
372,320,14482,6,0,L|288:338,1,71.5,0|0,1:2|0:0,0:0:0:0:
229,295,15003,2,0,L|145:313,1,71.5,0|0,3:2|1:2,0:0:0:0:
79,331,15523,1,8,2:2:0:0:
65,160,15870,5,4,1:2:0:0:
65,160,16216,2,0,P|91:115|86:63,2,100.099996945191,0|0|0,2:2|2:2|2:2,2:2:0:0:
147,239,17257,2,0,B|189:202|189:202|284:231,1,150.149995417786,2|2,2:2|2:2,2:2:0:0:
424,306,18297,6,0,P|411:278|406:242,1,50.0499984725953,2|0,0:0|0:0,0:0:0:0:
401,159,18644,2,0,P|416:112|398:66,1,100.099996945191,2|0,2:2|2:2,2:2:0:0:
305,26,19164,2,0,B|221:17|250:85|144:62,1,150.149995417786,0|0,2:2|2:2,2:2:0:0:
79,113,19858,1,0,2:2:0:0:
79,113,20031,2,0,P|62:65|85:9,1,100.099996945191,2|0,2:2|2:2,2:2:0:0:
242,131,20725,2,0,L|223:250,1,100.099996945191,0|2,2:2|2:2,2:2:0:0:
214,332,21245,1,0,2:2:0:0:
214,332,21419,1,4,2:2:0:0:
366,202,21766,6,0,P|406:176|465:190,2,100.099996945191,0|0|0,2:2|2:2|2:2,2:2:0:0:
329,295,22633,2,0,B|277:285|277:285|248:254|248:254|182:239,1,150.149995417786,0|0,2:2|2:2,2:2:0:0:
112,298,23326,2,0,P|87:253|105:195,1,100.099996945191,2|2,0:0|0:0,0:0:0:0:
73,109,23846,6,0,L|134:101,1,50.0499984725953,0|0,2:2|2:2,2:2:0:0:
206,47,24193,2,0,P|227:98|214:156,1,100.099996945191,2|0,2:2|2:2,2:2:0:0:
137,198,24714,1,0,0:0:0:0:
299,323,25060,1,2,0:0:0:0:
300,324,25234,2,0,L|305:274,1,50.0499984725953,2|0,2:2|2:2,2:2:0:0:
403,252,25581,2,0,L|393:359,1,100.099996945191,2|0,2:2|2:2,2:2:0:0:
492,177,26274,2,0,P|461:140|398:143,1,100.099996945191,0|2,2:2|2:2,2:2:0:0:
317,170,26794,1,2,2:2:0:0:
254,91,26968,2,0,L|189:88,1,50.0499984725953,4|0,2:2|2:2,2:2:0:0:
106,65,27315,6,0,L|116:119,1,50.0499984725953,2|0,2:2|2:2,2:2:0:0:
173,195,27662,2,0,L|157:316,1,100.099996945191,2|2,2:2|2:2,2:2:0:0:
74,326,28182,1,2,2:2:0:0:
74,326,28355,2,0,P|111:293|173:302,1,100.099996945191,0|2,2:2|2:2,2:2:0:0:
246,354,28875,1,0,2:2:0:0:
246,354,29049,2,0,L|306:344,1,50.0499984725953,0|0,2:2|2:2,2:2:0:0:
326,250,29396,2,0,L|276:258,1,50.0499984725953,2|2,2:2|2:2,2:2:0:0:
209,184,29742,6,0,P|191:132|222:77,1,100.099996945191,6|2,2:2|2:2,2:2:0:0:
296,45,30263,2,0,L|345:38,1,50.0499984725953,2|0,2:2|2:2,2:2:0:0:
417,108,30610,2,0,L|425:157,1,50.0499984725953,2|0,2:2|2:2,2:2:0:0:
340,206,30956,1,2,2:2:0:0:
340,206,31130,2,0,P|313:256|328:310,1,100.099996945191,0|0,2:2|2:2,2:2:0:0:
503,288,31823,2,0,L|400:267,1,100.099996945191,2|2,2:2|2:2,2:2:0:0:
248,141,32517,6,0,L|180:152,1,50.0499984725953,6|0,2:2|2:2,2:2:0:0:
167,244,32864,2,0,L|99:255,1,50.0499984725953,2|0,2:2|2:2,2:2:0:0:
33,197,33211,2,0,P|15:150|39:96,1,100.099996945191,2|2,2:2|2:2,2:2:0:0:
115,49,33731,1,2,2:2:0:0:
115,49,33904,2,0,L|127:120,1,50.0499984725953,0|0,2:2|2:2,2:2:0:0:
214,141,34251,2,0,B|258:119|258:119|320:151,2,100.099996945191,2|2|2,2:2|2:2|2:2,2:2:0:0:
104,309,35292,6,0,L|218:287,1,100.099996945191,4|0,1:2|2:2,0:0:0:0:
290,241,35812,2,0,L|404:263,1,100.099996945191,8|0,2:2|3:2,0:0:0:0:
470,202,36332,1,0,3:2:0:0:
389,142,36505,2,0,L|355:136,2,25.0249992362976,0|0|0,1:2|1:2|1:2,0:0:0:0:
473,85,36851,1,0,1:2:0:0:
473,85,36939,1,8,2:2:0:0:
473,85,37025,1,8,2:2:0:0:
388,30,37199,1,0,1:2:0:0:
244,169,37546,1,0,1:2:0:0:
75,70,37893,5,8,2:2:0:0:
75,70,37979,1,8,2:2:0:0:
75,70,38066,2,0,L|87:206,1,128.699996072388,6|10,1:2|2:2,0:0:0:0:
90,301,38586,2,0,B|172:299|133:245|223:259,1,128.699996072388,2|2,2:2|1:2,0:0:0:0:
277,332,39107,2,0,L|348:319,1,64.3499980361939,8|2,2:2|2:2,0:0:0:0:
429,270,39453,2,0,P|385:219|327:234,1,128.699996072388,0|8,1:2|2:2,0:0:0:0:
250,165,39974,1,0,1:2:0:0:
312,83,40147,2,0,P|349:133|327:219,1,128.699996072388,2|10,2:2|2:2,0:0:0:0:
184,329,40841,6,0,L|44:312,1,128.699996072388,6|10,1:2|2:2,0:0:0:0:
38,211,41361,2,0,L|117:218,1,64.3499980361939,2|0,2:2|2:2,0:0:0:0:
165,135,41708,2,0,L|244:142,1,64.3499980361939,2|8,1:2|2:2,0:0:0:0:
315,82,42055,1,2,2:2:0:0:
315,82,42228,2,0,P|338:148|300:210,1,128.699996072388,0|8,1:2|2:2,0:0:0:0:
245,275,42748,1,0,1:2:0:0:
320,345,42922,2,0,L|389:336,1,64.3499980361939,2|2,2:2|1:2,0:0:0:0:
440,237,43268,2,0,L|376:245,1,64.3499980361939,10|2,2:2|2:2,0:0:0:0:
294,193,43615,6,0,P|271:128|309:71,1,128.699996072388,6|8,1:2|2:2,0:0:0:0:
403,63,44136,1,2,2:2:0:0:
403,63,44309,2,0,L|393:143,1,64.3499980361939,2|0,2:2|1:2,0:0:0:0:
323,201,44656,2,0,L|313:279,1,64.3499980361939,8|2,2:2|2:2,0:0:0:0:
409,304,45003,2,0,P|383:258|307:273,1,128.699996072388,2|10,1:2|2:2,0:0:0:0:
260,352,45523,2,0,L|169:337,1,64.3499980361939,2|0,1:2|2:2,0:0:0:0:
146,250,45870,2,0,L|209:260,1,64.3499980361939,2|8,1:2|2:2,0:0:0:0:
283,188,46216,5,2,2:2:0:0:
283,188,46390,2,0,B|308:141|308:141|276:51,1,128.699996072388,6|10,1:2|2:2,0:0:0:0:
186,33,46910,2,0,L|112:25,1,64.3499980361939,2|0,2:2|2:2,0:0:0:0:
62,110,47257,2,0,L|125:116,1,64.3499980361939,2|8,1:2|2:2,0:0:0:0:
187,205,47604,1,2,2:2:0:0:
187,205,47777,2,0,P|210:264|165:328,1,128.699996072388,2|8,1:2|2:2,0:0:0:0:
86,358,48297,1,4,1:2:0:0:
15,282,48471,2,0,L|28:201,1,64.3499980361939,2|8,0:0|0:0,0:0:0:0:
37,119,48818,1,2,3:2:0:0:
37,119,48991,1,0,3:2:0:0:
115,53,49164,6,0,P|146:108|110:182,1,128.699996072388,6|10,1:2|2:2,0:0:0:0:
159,265,49685,2,0,L|237:252,1,64.3499980361939,2|0,2:2|2:2,0:0:0:0:
293,191,50031,2,0,L|371:178,1,64.3499980361939,2|8,1:2|2:2,0:0:0:0:
438,117,50378,1,2,2:2:0:0:
438,117,50552,2,0,B|454:204|454:204|429:255,1,128.699996072388,0|8,1:2|2:2,0:0:0:0:
386,330,51072,1,0,0:0:0:0:
311,258,51245,2,0,P|267:209|190:223,1,128.699996072388,2|10,2:2|2:2,0:0:0:0:
44,337,51939,6,0,L|58:192,1,128.699996072388,6|10,1:2|2:2,0:0:0:0:
115,124,52459,2,0,L|186:127,1,64.3499980361939,2|0,2:2|2:2,0:0:0:0:
247,204,52806,2,0,L|315:207,1,64.3499980361939,2|8,1:2|2:2,0:0:0:0:
390,281,53153,1,2,2:2:0:0:
390,281,53326,1,0,1:2:0:0:
455,201,53500,2,0,P|473:144|427:76,1,128.699996072388,12|0,2:2|2:2,0:0:0:0:
442,85,53933,1,8,2:2:0:0:
442,85,54020,2,0,L|373:75,1,64.3499980361939,10|2,2:2|3:2,0:0:0:0:
286,123,54367,2,0,L|216:112,1,64.3499980361939,2|2,3:2|3:2,0:0:0:0:
139,51,54714,6,0,P|107:96|125:177,1,128.699996072388,6|8,1:2|2:2,0:0:0:0:
197,230,55234,2,0,P|230:282|219:344,1,128.699996072388,2|0,1:2|1:2,0:0:0:0:
119,314,55754,1,8,2:2:0:0:
119,314,56101,6,0,B|162:285|162:285|257:325,1,128.699996072388,6|8,1:2|2:2,0:0:0:0:
335,301,56621,2,0,B|378:330|378:330|473:290,1,128.699996072388,2|8,1:2|2:2,0:0:0:0:
510,217,57141,1,2,3:2:0:0:
449,133,57315,1,0,3:2:0:0:
356,178,57488,6,0,P|301:206|233:171,1,128.699996072388,6|0,1:2|2:2,0:0:0:0:
166,111,58008,1,0,1:2:0:0:
80,168,58182,2,0,L|66:238,1,64.3499980361939,8|0,2:2|1:2,0:0:0:0:
51,336,58529,1,0,2:2:0:0:
51,336,58875,1,0,1:0:0:0:
247,289,59569,6,0,P|287:231|375:254,1,150.149995417786,10|0,2:2|0:0,0:0:0:0:
420,318,60263,6,0,L|395:170,1,143,6|10,1:2|2:2,0:0:0:0:
320,94,60783,1,0,0:0:0:0:
230,153,60956,2,0,P|195:169|141:158,1,71.5,2|0,2:2|1:2,0:0:0:0:
74,106,61303,1,10,2:2:0:0:
18,198,61477,2,0,L|30:281,1,71.5,2|0,2:2|1:2,0:0:0:0:
127,308,61823,1,2,2:2:0:0:
127,308,61997,2,0,L|116:237,1,71.5,8|0,2:2|1:2,0:0:0:0:
182,152,62344,2,0,P|241:113|310:147,1,143,2|10,2:2|2:2,0:0:0:0:
415,48,63037,6,0,B|451:85|451:85|449:192,1,143,6|10,1:2|2:2,0:0:0:0:
395,269,63557,2,0,P|428:289|469:289,2,71.5,2|2|2,2:2|2:2|1:2,0:0:0:0:
331,181,64078,1,10,2:2:0:0:
331,181,64251,2,0,L|244:190,1,71.5,2|0,2:2|1:2,0:0:0:0:
200,279,64598,1,2,2:2:0:0:
200,279,64771,2,0,L|113:288,1,71.5,8|0,2:2|1:2,0:0:0:0:
57,205,65118,1,2,2:2:0:0:
109,111,65292,1,2,1:2:0:0:
212,136,65465,2,0,P|247:150|302:143,1,71.5,10|2,2:2|2:2,0:0:0:0:
372,93,65812,6,0,L|381:171,1,71.5,6|0,1:2|2:2,0:0:0:0:
336,262,66159,2,0,P|292:211|204:229,1,143,10|2,2:2|2:2,0:0:0:0:
133,277,66679,1,0,1:2:0:0:
68,191,66852,2,0,L|66:96,1,71.5,10|2,2:2|2:2,0:0:0:0:
167,81,67199,2,0,L|168:235,1,143,2|10,1:2|2:2,0:0:0:0:
173,331,67719,1,0,1:2:0:0:
270,286,67893,2,0,B|318:257|318:257|412:298,1,143,2|10,2:2|2:2,0:0:0:0:
498,145,68586,6,0,P|448:123|383:182,1,143,6|10,1:2|2:2,0:0:0:0:
358,277,69107,1,2,1:2:0:0:
358,277,69193,1,8,1:2:0:0:
358,277,69280,1,8,1:2:0:0:
260,233,69453,2,0,P|243:188|258:140,1,71.5,2|0,1:2|2:2,0:0:0:0:
310,79,69800,2,0,P|242:51|165:102,1,143,6|0,1:2|1:2,0:0:0:0:
120,166,70320,2,0,L|30:167,1,71.5,8|0,2:2|1:2,0:0:0:0:
1,263,70667,6,0,P|-9:297|4:340,1,71.5,10|0,2:2|1:2,0:0:0:0:
108,372,71014,1,8,2:2:0:0:
108,372,71101,1,8,2:2:0:0:
108,372,71188,1,0,1:2:0:0:
182,294,71361,6,0,B|264:294|225:237|325:255,1,143,6|10,1:2|2:2,0:0:0:0:
406,306,71881,1,0,0:0:0:0:
478,226,72055,2,0,P|488:194|472:132,1,71.5,2|0,2:2|1:2,0:0:0:0:
426,66,72401,1,10,2:2:0:0:
340,131,72575,2,0,P|303:139|250:115,1,71.5,2|0,2:2|1:2,0:0:0:0:
174,83,72922,1,2,2:2:0:0:
174,83,73095,2,0,L|166:171,1,71.5,8|0,2:2|1:2,0:0:0:0:
87,225,73442,2,0,B|97:319|97:319|157:351,1,143,2|10,2:2|2:2,0:0:0:0:
276,279,74136,6,0,P|317:228|413:244,1,143,6|10,1:2|2:2,0:0:0:0:
485,277,74656,2,0,B|477:223|477:223|486:194|486:194|466:107,1,143,2|2,2:2|1:2,0:0:0:0:
397,61,75176,1,10,2:2:0:0:
337,149,75349,2,0,L|257:136,1,71.5,2|0,2:2|1:2,0:0:0:0:
201,223,75696,1,2,2:2:0:0:
201,223,75870,2,0,L|121:210,1,71.5,8|0,2:2|1:2,0:0:0:0:
60,130,76216,1,2,2:2:0:0:
127,47,76390,1,2,1:2:0:0:
207,117,76563,2,0,L|277:128,1,71.5,10|2,2:2|2:2,0:0:0:0:
374,81,76910,6,0,L|385:236,1,143,6|10,1:2|2:2,0:0:0:0:
287,271,77430,2,0,L|276:128,1,143,2|2,1:2|1:2,0:0:0:0:
269,20,77951,1,8,2:2:0:0:
269,20,78297,6,0,L|96:44,1,143,6|10,1:2|2:2,0:0:0:0:
79,136,78818,2,0,L|252:160,1,143,2|2,1:2|1:2,0:0:0:0:
325,178,79338,1,8,2:2:0:0:
325,178,79685,6,0,P|334:216|321:260,1,71.5,6|0,1:2|2:2,0:0:0:0:
250,320,80031,1,8,2:2:0:0:
250,320,80205,1,0,1:2:0:0:
169,257,80378,1,8,2:2:0:0:
169,257,80552,1,0,1:2:0:0:
198,154,80725,1,10,2:2:0:0:
305,157,80899,1,2,1:2:0:0:
339,258,81072,6,0,P|411:269|461:203,1,143,6|10,1:2|2:2,0:0:0:0:
506,127,81592,2,0,L|346:101,1,143,6|2,1:2|1:2,0:0:0:0:
288,177,82112,2,0,L|189:159,1,71.5,8|2,2:2|1:2,0:0:0:0:
158,93,82459,6,0,P|118:157|167:240,1,171.6,6|0,1:2|1:2,0:0:0:0:
236,284,83153,1,8,2:2:0:0:
236,284,83500,2,0,B|273:225|354:240|354:240|306:205|310:140,1,228.8,4|2,1:2|1:2,0:0:0:0:
375,59,84540,2,0,L|440:44,2,57.2,10|8|2,2:2|2:2|1:2,0:0:0:0:
233,90,85234,6,0,B|118:68|118:68|74:131,1,171.6,6|8,1:2|2:2,0:0:0:0:
49,196,85927,1,8,2:2:0:0:
49,196,86274,2,0,P|127:236|102:323,1,171.6,6|0,1:2|1:2,0:0:0:0:
20,354,86968,2,0,L|108:335,1,71.5,8|0,2:2|1:2,0:0:0:0:
181,282,87315,5,10,2:2:0:0:
181,282,87488,1,2,1:2:0:0:
127,188,87662,2,0,P|116:150|130:101,1,71.5,8|2,2:2|2:2,0:0:0:0:
208,58,88008,6,0,L|293:57,1,71.5,4|0,1:2|2:2,0:0:0:0:
383,31,88355,2,0,P|391:66|380:114,1,71.5,8|8,2:2|2:2,0:0:0:0:
288,148,88702,2,0,P|280:183|291:231,1,71.5,8|8,2:2|2:2,0:0:0:0:
379,269,89049,2,0,P|387:304|376:352,1,71.5,8|8,2:2|2:2,0:0:0:0:
279,372,89396,5,8,2:2:0:0:
300,267,89569,1,8,2:2:0:0:
219,196,89742,1,8,2:2:0:0:
133,261,89916,1,8,2:2:0:0:
63,179,90089,2,0,P|98:172|132:162,1,71.5,8|8,2:2|2:2,2:2:0:0:
207,95,90436,6,0,P|272:23|365:74,1,200.199993890381,4|0,1:2|0:0,0:0:0:0:
459,217,91477,1,8,2:2:0:0:
392,292,91650,1,0,1:2:0:0:
392,292,91823,2,0,L|399:350,1,50.0499984725953,2|2,1:2|1:2,0:0:0:0:
308,308,92170,6,0,B|309:358|237:367|237:367|187:313|233:271,1,200.199993890381,6|0,1:2|2:2,0:0:0:0:
175,113,93211,1,2,2:2:0:0:
256,192,93644,12,2,97460,2:2:0:0:
