osu file format v14

[General]
AudioFilename: audio.mp3
AudioLeadIn: 0
PreviewTime: 58876
Countdown: 0
SampleSet: Soft
StackLeniency: 0.7
Mode: 0
LetterboxInBreaks: 0
WidescreenStoryboard: 1

[Editor]
DistanceSpacing: 1.6
BeatDivisor: 4
GridSize: 8
TimelineZoom: 1.7

[Metadata]
Title:Luminous -movie MIX-
TitleUnicode:ルミナス -movie MIX-
Artist:ClariS
ArtistUnicode:ClariS
Creator:Sarawatlism
Version:ohm's Hard
Source:劇場版 魔法少女まどか☆マギカ
Tags:Gekijouban Mahou Shoujo Madoka Magica Puella Magi the Movie [前編] 始まりの物語 Part 1: Beginnings Zenpen Hajimari no Monogatari [後編] 永遠の物語 Part 2: Eternal Kouhen Eien no Monogatari opening op Anime Japanese jpop pop j-pop [_lost_] conner c_o_n_n_e_r mujina airiesu sanairrt ohm002
BeatmapID:3103887
BeatmapSetID:1510572

[Difficulty]
HPDrainRate:5
CircleSize:4
OverallDifficulty:6.5
ApproachRate:8
SliderMultiplier:1.7
SliderTickRate:1

[Events]
//Background and Video events
0,0,"BG.jpg",0,0
Video,395,"VD.mp4"
//Break Periods
//Storyboard Layer 0 (Background)
//Storyboard Layer 1 (Fail)
//Storyboard Layer 2 (Pass)
//Storyboard Layer 3 (Foreground)
//Storyboard Layer 4 (Overlay)
//Storyboard Sound Samples

[TimingPoints]
5,346.820809248555,4,2,1,30,1,0
5,-200,4,2,1,30,0,0
2259,-200,4,2,1,60,0,0
3819,-200,4,2,1,40,0,0
4166,346.820809248555,4,2,1,60,1,0
4166,-133.333333333333,4,2,1,60,0,0
13876,-133.333333333333,4,2,1,50,0,0
15264,-133.333333333333,4,2,1,40,0,0
16998,-181.818181818181,4,2,1,40,0,0
26362,-181.818181818181,4,2,1,45,0,0
34686,-181.818181818181,4,2,1,55,0,0
36073,-133.333333333333,4,2,1,65,0,0
37460,-133.333333333333,4,2,1,60,0,0
48559,-133.333333333333,4,2,1,65,0,0
54108,-105.263157894737,4,2,1,70,0,0
54368,-105.263157894737,4,2,1,5,0,0
54455,-105.263157894737,4,2,1,70,0,0
55495,-105.263157894737,4,2,1,75,0,0
55755,-105.263157894737,4,2,1,5,0,0
55842,-105.263157894737,4,2,1,75,0,0
56882,-105.263157894737,4,2,1,60,0,0
58963,-100,4,2,1,70,0,0
59657,-90.9090909090909,4,2,1,80,0,1
59917,-90.9090909090909,4,2,1,5,0,1
60004,-90.9090909090909,4,2,1,80,0,1
61998,-90.9090909090909,4,2,1,5,0,1
62085,-90.9090909090909,4,2,1,80,0,1
65466,-90.9090909090909,4,2,1,5,0,1
65553,-90.9090909090909,4,2,1,80,0,1
66853,-90.9090909090909,4,2,1,5,0,1
66940,-90.9090909090909,4,2,1,80,0,1
67547,-90.9090909090909,4,2,1,5,0,1
67634,-90.9090909090909,4,2,1,80,0,1
69454,-90.9090909090909,4,2,1,5,0,1
69541,-90.9090909090909,4,2,1,80,0,1
69975,-90.9090909090909,4,2,1,5,0,1
70061,-90.9090909090909,4,2,1,80,0,1
71015,-90.9090909090909,4,2,1,5,0,0
71102,-90.9090909090909,4,2,1,80,0,1
71709,-90.9090909090909,4,2,1,5,0,1
71796,-90.9090909090909,4,2,1,80,0,1
73096,-90.9090909090909,4,2,1,5,0,1
73183,-90.9090909090909,4,2,1,80,0,1
73790,-90.9090909090909,4,2,1,5,0,1
73876,-90.9090909090909,4,2,1,80,0,1
75004,-90.9090909090909,4,2,1,5,0,1
75090,-90.9090909090909,4,2,1,80,0,1
76564,-90.9090909090909,4,2,1,5,0,1
76651,-90.9090909090909,4,2,1,80,0,1
77084,-90.9090909090909,4,2,1,5,0,1
77171,-90.9090909090909,4,2,1,80,0,1
79339,-90.9090909090909,4,2,1,5,0,1
79426,-90.9090909090909,4,2,1,80,0,1
81246,-90.9090909090909,4,2,1,5,0,1
81333,-90.9090909090909,4,2,1,80,0,1
81767,-90.9090909090909,4,2,1,80,0,0
81853,-133.333333333333,4,2,1,70,0,1
87316,-133.333333333333,4,2,1,70,0,0
87402,-133.333333333333,4,2,1,80,0,1
87748,-133.333333333333,4,2,1,40,0,1
88096,-133.333333333333,4,2,1,50,0,1
88443,-133.333333333333,4,2,1,60,0,1
88790,-133.333333333333,4,2,1,70,0,1
89137,-133.333333333333,4,2,1,80,0,1
89483,-133.333333333333,4,2,1,90,0,1
90871,-133.333333333333,4,2,1,70,0,1
91218,-133.333333333333,4,2,1,60,0,1
91564,-333.333333333333,4,2,1,50,0,0
93039,346.820809248555,4,2,1,40,1,0
93039,-434.782608695652,4,2,1,40,0,0

[Colours]
Combo1 : 248,143,203
Combo2 : 255,128,128
Combo3 : 128,128,192
Combo4 : 45,61,170

[HitObjects]
52,34,5,6,0,L|62:118,1,85,2|2,2:0|2:0,2:0:0:0:
11,191,698,2,0,P|49:205|68:242,1,85,2|2,2:0|2:0,2:0:0:0:
42,326,1392,2,0,L|126:315,1,85,2|2,2:0|2:0,2:0:0:0:
179,254,1912,1,2,2:0:0:0:
214,332,2259,6,0,B|250:322|284:353|282:359|312:431|443:405|463:313|430:223|357:208|292:250|302:282,1,382.5,6|4,1:2|3:0,2:0:0:0:
244,217,3993,1,4,3:0:0:0:
244,217,4166,6,0,L|259:69,1,127.500004863739,6|2,1:2|1:2,2:0:0:0:
239,14,4686,2,0,L|387:29,1,127.500004863739,2|0,2:0|2:0,2:0:0:0:
415,94,5206,1,2,1:2:0:0:
415,94,5379,1,8,2:0:0:0:
450,164,5553,6,0,P|399:127|337:132,1,127.500004863739,0|0,1:2|1:2,2:0:0:0:
260,94,6073,1,8,2:0:0:0:
260,94,6246,2,0,L|266:157,1,63.7500024318696,0|8,1:2|3:0,2:0:0:0:
336,222,6593,2,0,L|329:285,1,63.7500024318696,4|2,3:0|1:2,2:0:0:0:
329,286,6853,1,2,1:2:0:0:
329,286,6940,6,0,P|275:253|214:264,1,127.500004863739,2|2,1:2|1:2,2:0:0:0:
139,300,7460,1,2,2:0:0:0:
139,300,7634,2,0,L|133:224,1,63.7500024318696,2|0,1:2|2:0,2:0:0:0:
199,186,7981,2,0,L|193:110,1,63.7500024318696,2|8,1:2|2:0,2:0:0:0:
240,52,8327,6,0,P|178:41|125:73,1,127.500004863739,0|0,1:2|1:2,2:0:0:0:
114,157,8848,1,8,2:0:0:0:
114,157,9021,2,0,L|37:168,1,63.7500024318696,0|8,1:2|3:0,2:0:0:0:
199,186,9368,2,0,L|262:176,1,63.7500024318696,4|10,3:0|2:0,2:0:0:0:
262,176,9628,1,8,2:0:0:0:
262,176,9715,6,0,P|306:212|403:196,1,127.500004863739,6|0,1:2|1:2,2:0:0:0:
434,167,10235,1,0,2:0:0:0:
474,231,10408,2,0,L|463:293,1,63.7500024318696,0|0,1:2|2:0,2:0:0:0:
368,364,10755,2,0,L|357:301,1,63.7500024318696,0|10,1:2|2:0,2:0:0:0:
280,314,11102,6,0,L|195:301,1,63.7500024318696,2|8,1:2|2:0,2:0:0:0:
161,358,11449,1,0,1:2:0:0:
161,358,11796,2,0,L|76:371,1,63.7500024318696,10|8,2:0|3:0,2:0:0:0:
113,286,12142,2,0,P|97:258|100:226,1,63.7500024318696,4|0,3:0|2:0,2:0:0:0:
179,240,12489,5,6,1:2:0:0:
256,192,12663,12,2,13876,1:2:0:0:
256,192,14397,5,0,1:2:0:0:
330,165,14744,5,0,1:2:0:0:
330,165,14917,2,0,L|338:94,1,63.7500024318696,8|0,2:0|1:2,2:0:0:0:
342,5,15264,6,0,B|321:40|262:51|234:38|251:27|212:-18|121:20|128:135|203:171|265:126|260:92,1,318.750012159348,6|0,1:2|2:0,2:0:0:0:
330,165,16304,1,2,2:0:0:0:
330,165,16478,2,0,B|378:213|338:275|288:275|266:246|273:220,1,127.500004863739,2|0,2:0|2:0,2:0:0:0:
225,222,16998,2,0,L|119:246,2,93.5000028533936,2|0|2,2:0|2:0|2:0,2:0:0:0:
299,257,17865,1,2,2:0:0:0:
298,256,18038,6,0,P|357:260|386:218,1,93.5000028533936,2|2,2:0|2:0,2:0:0:0:
460,230,18559,2,0,P|491:181|469:135,1,93.5000028533936,2|2,2:0|2:0,2:0:0:0:
408,117,19079,1,2,2:0:0:0:
408,117,19252,1,2,2:0:0:0:
358,27,19426,6,0,L|496:49,2,140.25000428009,2|2|4,2:0|2:0|3:0,2:0:0:0:
312,90,20639,1,4,3:0:0:0:
312,90,20813,6,0,B|317:141|285:180|240:204|141:192|129:104|196:51|241:78|245:114,1,280.500008560181,6|2,1:2|2:0,2:0:0:0:
395,153,22200,6,0,P|462:162|504:217,2,140.25000428009,2|2|2,2:0|2:0|2:0,2:0:0:0:
261,209,23587,6,0,P|228:243|180:227,1,93.5000028533936,2|2,2:0|2:0,2:0:0:0:
135,317,24108,2,0,P|180:328|191:378,1,93.5000028533936,2|2,2:0|2:0,2:0:0:0:
273,352,24628,1,0,2:0:0:0:
293,355,24801,1,2,2:0:0:0:
375,384,24975,6,0,B|396:334|477:375|494:243|421:217|356:260|376:290,1,233.750007133484,2|2,2:0|2:0,2:0:0:0:
321,339,26015,1,2,2:0:0:0:
305,342,26189,1,2,2:0:0:0:
288,345,26362,6,0,B|238:324|279:243|147:226|121:299|164:364|194:344,1,233.750007133484,6|0,1:2|2:0,2:0:0:0:
253,274,27402,1,2,2:0:0:0:
252,273,27576,1,2,2:0:0:0:
206,196,27749,2,0,L|230:52,2,140.25000428009,2|2|2,2:0|2:0|2:0,2:0:0:0:
302,169,28963,1,0,1:2:0:0:
302,169,29137,6,0,B|352:148|311:67|443:50|469:123|426:188|396:168,1,233.750007133484,2|0,1:2|2:0,2:0:0:0:
363,233,30177,1,2,2:0:0:0:
357,259,30350,1,2,2:0:0:0:
440,331,30524,2,0,P|368:343|302:367,2,140.25000428009,2|2|2,2:0|2:0|2:0,2:0:0:0:
298,278,31911,6,0,B|248:257|289:176|157:159|131:232|174:297|204:277,1,233.750007133484,2|0,1:2|2:0,2:0:0:0:
227,362,32952,1,2,2:0:0:0:
227,362,33125,2,0,P|160:368|109:381,1,93.5000028533936,2|0,2:0|2:0,2:0:0:0:
100,291,33645,1,2,2:0:0:0:
100,291,33819,2,0,P|167:285|218:272,1,93.5000028533936,0|0,2:0|2:0,2:0:0:0:
207,190,34339,1,4,3:0:0:0:
207,190,34686,6,0,L|189:80,1,93.5000028533936,6|0,1:2|1:2,2:0:0:0:
305,60,35206,2,0,L|287:170,1,93.5000028533936,10|2,2:0|1:2,2:0:0:0:
296,242,35726,1,10,2:0:0:0:
386,201,35900,2,0,L|417:206,1,23.3750007133484,2|2,1:2|1:2,2:0:0:0:
430,212,36073,6,0,P|438:181|432:147,1,63.7500024318696,14|10,2:0|2:0,2:0:0:0:
426,143,36333,1,10,2:0:0:0:
419,135,36420,1,10,2:0:0:0:
498,37,36593,1,2,1:2:0:0:
498,37,36940,6,0,L|350:64,1,127.500004863739,2|8,1:2|2:0,2:0:0:0:
366,64,37374,1,8,2:0:0:0:
359,69,37460,6,0,P|337:101|343:154,1,63.7500024318696,6|0,1:2|2:0,2:0:0:0:
353,203,37807,1,10,2:0:0:0:
272,193,37981,2,0,L|133:214,1,127.500004863739,2|2,2:0|1:2,2:0:0:0:
88,261,38501,2,0,P|71:234|69:202,1,63.7500024318696,8|2,2:0|2:0,2:0:0:0:
28,134,38848,6,0,P|64:83|125:71,1,127.500004863739,2|10,1:2|2:0,2:0:0:0:
185,123,39368,1,2,1:2:0:0:
248,68,39541,2,0,L|255:-8,1,63.7500024318696,2|0,2:0|1:2,2:0:0:0:
330,56,39888,2,0,L|337:132,1,63.7500024318696,10|0,2:0|2:0,2:0:0:0:
408,162,40235,6,0,P|386:209|315:229,1,127.500004863739,2|10,1:2|2:0,2:0:0:0:
250,186,40755,2,0,P|235:213|237:245,1,63.7500024318696,2|0,2:0|2:0,2:0:0:0:
203,329,41102,2,0,P|186:302|157:288,1,63.7500024318696,2|8,1:2|2:0,2:0:0:0:
160,208,41449,6,0,L|25:237,1,127.500004863739,2|2,2:0|2:0,2:0:0:0:
9,311,41969,1,10,2:0:0:0:
9,311,42142,2,0,L|25:382,1,63.7500024318696,2|2,1:2|2:0,2:0:0:0:
99,341,42489,1,2,1:2:0:0:
99,341,42663,2,0,L|170:325,1,63.7500024318696,10|2,2:0|1:2,2:0:0:0:
239,360,43009,6,0,L|254:206,1,127.500004863739,6|8,1:2|2:0,2:0:0:0:
318,185,43530,1,2,2:0:0:0:
240,152,43703,2,0,B|208:142|182:166|182:166|155:190|122:181,1,127.500004863739,2|8,2:0|2:0,2:0:0:0:
77,117,44223,1,2,2:0:0:0:
19,177,44397,6,0,P|-3:147|1:119,1,63.7500024318696,2|0,1:2|2:0,2:0:0:0:
38,55,44744,1,10,2:0:0:0:
115,74,44917,2,0,P|105:104|77:118,1,63.7500024318696,2|0,1:2|2:0,2:0:0:0:
38,55,45264,2,0,P|37:23|57:0,1,63.7500024318696,2|8,1:2|2:0,2:0:0:0:
116,75,45611,1,2,2:0:0:0:
116,75,45784,6,0,L|257:58,1,127.500004863739,2|10,1:2|2:0,2:0:0:0:
303,14,46304,2,0,P|321:42|316:75,1,63.7500024318696,2|0,2:0|2:0,2:0:0:0:
223,177,46651,2,0,P|238:147|269:135,1,63.7500024318696,2|8,1:2|2:0,2:0:0:0:
344,147,46998,1,2,2:0:0:0:
344,147,47171,6,0,L|428:135,1,63.7500024318696,2|2,1:2|1:2,2:0:0:0:
470,186,47518,1,10,2:0:0:0:
397,230,47692,2,0,B|365:220|339:244|339:244|312:268|279:259,1,127.500004863739,6|0,1:2|1:2,2:0:0:0:
217,211,48212,1,10,2:0:0:0:
148,251,48385,1,8,2:0:0:0:
210,294,48559,6,0,L|82:285,1,127.500004863739,6|10,1:2|2:0,2:0:0:0:
10,311,49079,2,0,P|1:279|20:250,1,63.7500024318696,2|0,2:0|2:0,2:0:0:0:
103,143,49426,2,0,P|112:175|93:204,1,63.7500024318696,2|8,1:2|2:0,2:0:0:0:
13,167,49772,6,0,B|3:133|27:106|27:106|52:81|42:49,1,127.500004863739,2|2,2:0|2:0,2:0:0:0:
115,18,50293,1,10,2:0:0:0:
173,75,50466,2,0,L|322:85,1,127.500004863739,2|0,1:2|1:2,2:0:0:0:
365,40,50986,2,0,L|428:44,1,63.7500024318696,10|0,2:0|2:0,2:0:0:0:
470,108,51333,6,0,P|509:143|499:218,1,127.500004863739,2|10,1:2|2:0,2:0:0:0:
512,290,51853,2,0,P|480:291|453:275,1,63.7500024318696,2|0,2:0|2:0,2:0:0:0:
378,285,52200,2,0,P|360:258|361:227,1,63.7500024318696,2|8,1:2|2:0,2:0:0:0:
422,184,52547,1,2,2:0:0:0:
355,133,52720,5,0,1:2:0:0:
289,180,52894,2,0,L|153:203,1,127.500004863739,8|0,2:0|1:2,2:0:0:0:
154,192,53327,1,0,1:2:0:0:
144,183,53414,2,0,L|133:120,1,63.7500024318696,10|8,2:0|3:0,2:0:0:0:
52,149,53761,2,0,L|41:211,1,63.7500024318696,4|2,3:0|1:2,2:0:0:0:
53,294,54108,6,0,P|104:323|163:316,1,121.124996765614,6|0,1:2|2:0,2:0:0:0:
169,305,54455,1,8,2:0:0:0:
252,364,54628,2,0,L|270:191,1,161.499995687485,6|0,1:2|1:2,2:0:0:0:
295,131,55148,2,0,P|255:125|219:142,1,80.7499978437424,8|2,2:0|1:2,2:0:0:0:
122,242,55495,6,0,L|137:121,1,121.124996765614,6|0,1:2|2:0,2:0:0:0:
138,112,55842,1,8,2:0:0:0:
68,9,56015,2,0,B|108:-12|141:21|141:21|176:55|216:34,1,161.499995687485,6|0,1:2|1:2,2:0:0:0:
280,74,56535,2,0,L|363:82,1,80.7499978437424,10|0,2:0|1:2,2:0:0:0:
463,56,56882,6,0,P|394:95|404:172,1,161.499995687485,6|0,1:2|2:0,2:0:0:0:
357,236,57402,1,2,2:0:0:0:
292,190,57576,1,10,2:0:0:0:
292,190,57749,2,0,L|325:369,1,161.499995687485,2|2,2:0|2:0,2:0:0:0:
221,261,58270,6,0,B|198:234|143:236|112:332|9:270|26:182|81:189,1,242.249993531227,2|0,1:2|1:2,2:0:0:0:
28,120,58963,6,0,L|18:50,5,56.6666666666667,10|2|2|2|2|2,2:0|2:0|2:0|2:0|2:0|2:0,2:0:0:0:
7,50,59657,6,0,P|52:33|145:86,1,140.25000428009,6|0,1:2|2:0,2:0:0:0:
140,78,60004,2,0,P|148:123|129:165,1,93.5000028533936,10|0,2:0|2:0,2:0:0:0:
75,270,60350,2,0,B|121:295|159:256|159:256|198:217|244:241,1,187.000005706787,2|10,2:0|2:0,2:0:0:0:
306,298,60871,6,0,L|411:313,1,93.5000028533936,2|0,2:0|1:2,2:0:0:0:
432,234,61218,1,2,2:0:0:0:
495,293,61391,2,0,P|516:253|513:207,1,93.5000028533936,8|2,2:0|1:2,2:0:0:0:
432,234,61738,2,0,L|423:76,1,140.25000428009,2|0,2:0|2:0,2:0:0:0:
423,80,62085,2,0,P|378:68|334:84,1,93.5000028533936,10|0,2:0|2:0,2:0:0:0:
257,55,62431,6,0,P|224:137|286:199,1,187.000005706787,2|10,1:2|2:0,2:0:0:0:
346,295,62952,2,0,L|244:307,1,93.5000028533936,2|0,2:0|2:0,2:0:0:0:
206,249,63298,1,2,1:2:0:0:
134,293,63472,2,0,P|121:247|139:205,1,93.5000028533936,10|2,2:0|2:0,2:0:0:0:
151,124,63819,6,0,L|348:112,1,187.000005706787,0|8,1:2|2:0,2:0:0:0:
412,147,64339,1,0,1:2:0:0:
494,96,64512,2,0,L|481:224,1,93.5000028533936,2|2,2:0|1:2,2:0:0:0:
417,226,64859,2,0,P|384:259|376:304,1,93.5000028533936,10|2,2:0|1:2,2:0:0:0:
434,368,65206,6,0,P|389:385|296:332,1,140.25000428009,6|0,1:2|2:0,2:0:0:0:
294,355,65553,2,0,P|271:309|285:255,1,93.5000028533936,10|0,2:0|2:0,2:0:0:0:
188,330,65900,2,0,P|142:353|88:339,1,93.5000028533936,2|0,2:0|1:2,2:0:0:0:
25,375,66246,2,0,P|19:329|41:288,1,93.5000028533936,10|0,2:0|1:2,2:0:0:0:
127,258,66593,6,0,L|137:118,1,140.25000428009,2|0,1:2|2:0,2:0:0:0:
139,104,66940,2,0,P|183:93|225:111,1,93.5000028533936,10|0,2:0|1:2,2:0:0:0:
311,78,67287,2,0,P|364:120|368:188,1,140.25000428009,2|0,2:0|2:0,2:0:0:0:
374,199,67634,2,0,P|348:237|306:257,1,93.5000028533936,10|0,2:0|1:2,2:0:0:0:
241,213,67981,6,0,B|194:189|156:228|156:228|117:266|71:241,1,187.000005706787,12|10,2:0|2:0,2:0:0:0:
1,140,68501,2,0,L|12:186,2,46.7500014266968,2|0|8,1:2|1:2|2:0,2:0:0:0:
43,79,68848,1,10,2:0:0:0:
43,79,69194,6,0,L|189:98,1,140.25000428009,6|0,1:2|2:0,2:0:0:0:
190,99,69541,1,0,1:2:0:0:
261,200,69715,2,0,P|195:180|136:214,1,140.25000428009,8|0,2:0|2:0,2:0:0:0:
136,227,70061,2,0,P|115:268|124:313,1,93.5000028533936,10|0,2:0|1:2,2:0:0:0:
189,362,70408,2,0,L|242:371,2,46.7500014266968,8|8|0,2:0|2:0|1:2,2:0:0:0:
296,306,70755,6,0,P|349:263|418:270,1,140.25000428009,6|0,1:2|2:0,2:0:0:0:
428,276,71102,2,0,P|454:313|453:359,1,93.5000028533936,10|0,2:0|2:0,2:0:0:0:
496,225,71449,2,0,L|511:85,1,140.25000428009,2|0,2:0|2:0,2:0:0:0:
504,73,71796,1,10,2:0:0:0:
423,137,71969,6,0,B|376:111|338:150|338:150|299:189|253:165,1,187.000005706787,2|2,2:0|2:0,2:0:0:0:
185,121,72489,2,0,P|171:165|183:209,1,93.5000028533936,8|2,2:0|1:2,2:0:0:0:
133,281,72836,2,0,P|182:328|250:329,1,140.25000428009,2|0,2:0|2:0,2:0:0:0:
261,324,73183,2,0,P|297:296|311:252,1,93.5000028533936,10|0,2:0|2:0,2:0:0:0:
387,223,73530,6,0,L|367:84,1,140.25000428009,2|0,1:2|2:0,2:0:0:0:
365,74,73876,1,10,2:0:0:0:
297,13,74050,2,0,P|276:54|279:100,1,93.5000028533936,2|0,2:0|2:0,2:0:0:0:
201,38,74397,2,0,P|159:17|113:20,1,93.5000028533936,2|10,1:2|2:0,2:0:0:0:
142,104,74744,6,0,L|125:242,1,140.25000428009,2|0,2:0|2:0,2:0:0:0:
124,257,75090,2,0,P|165:277|211:274,1,93.5000028533936,2|8,2:0|2:0,2:0:0:0:
261,206,75437,1,2,1:2:0:0:
320,265,75611,2,0,P|340:223|337:177,1,93.5000028533936,2|2,2:0|1:2,2:0:0:0:
382,112,75957,2,0,P|356:73|315:52,1,93.5000028533936,10|2,2:0|1:2,2:0:0:0:
254,7,76304,6,0,L|85:25,1,140.25000428009,6|0,1:2|2:0,2:0:0:0:
100,24,76651,1,10,2:0:0:0:
57,149,76824,2,0,P|110:106|179:113,1,140.25000428009,2|0,2:0|2:0,2:0:0:0:
189,119,77171,2,0,P|219:153|223:199,1,93.5000028533936,2|8,1:2|2:0,2:0:0:0:
172,261,77518,1,0,2:0:0:0:
242,291,77692,6,0,L|257:383,1,93.5000028533936,6|0,1:2|2:0,2:0:0:0:
334,309,78038,1,10,2:0:0:0:
396,369,78212,2,0,P|484:359|512:272,1,187.000005706787,2|2,1:2|1:2,2:0:0:0:
460,218,78732,2,0,P|434:177|377:159,1,93.5000028533936,8|0,2:0|1:2,2:0:0:0:
339,270,79079,6,0,L|176:254,1,140.25000428009,6|0,1:2|2:0,2:0:0:0:
186,251,79426,2,0,P|175:203|194:160,1,93.5000028533936,8|0,2:0|1:2,2:0:0:0:
160,91,79772,2,0,P|195:58|242:52,1,93.5000028533936,8|0,2:0|1:2,2:0:0:0:
300,0,80119,2,0,P|345:14|374:52,1,93.5000028533936,4|2,3:0|1:2,2:0:0:0:
406,134,80466,6,0,L|308:116,1,93.5000028533936,6|0,1:2|2:0,2:0:0:0:
234,131,80813,1,10,2:0:0:0:
273,203,80986,2,0,L|410:228,1,140.25000428009,6|0,1:2|2:0,2:0:0:0:
422,231,81333,1,2,1:2:0:0:
483,176,81507,2,0,P|503:215|497:261,1,93.5000028533936,8|2,2:0|1:2,2:0:0:0:
422,324,81853,6,0,L|295:342,1,127.500004863739,6|0,1:2|1:2,2:0:0:0:
165,314,82374,2,0,L|229:305,1,63.7500024318696,8|0,2:0|1:2,2:0:0:0:
228,305,82894,6,0,B|253:255|208:220|208:220|164:186|186:135,1,191.250007295609,6|0,1:2|2:0,2:0:0:0:
277,89,83587,1,2,1:2:0:0:
277,89,83934,2,0,L|268:152,1,63.7500024318696,10|8,2:0|2:0,2:0:0:0:
333,228,84281,2,0,L|343:165,1,63.7500024318696,8|4,3:0|3:0,2:0:0:0:
368,60,84628,6,0,P|429:125|511:88,1,191.250007295609,6|8,1:2|2:0,2:0:0:0:
458,26,85322,1,0,1:2:0:0:
458,26,85668,6,0,L|477:216,1,191.250007295609,6|0,1:2|1:2,2:0:0:0:
442,346,86362,2,0,L|435:283,1,63.7500024318696,8|0,2:0|1:2,2:0:0:0:
360,320,86709,2,0,L|296:327,1,63.7500024318696,10|2,2:0|1:2,2:0:0:0:
178,265,87056,2,0,L|242:273,1,63.7500024318696,8|2,2:0|1:2,2:0:0:0:
126,330,87402,6,0,L|0:344,1,127.500004863739,14|8,2:0|2:0,2:0:0:0:
15,201,87923,1,8,2:0:0:0:
15,201,88096,2,0,L|21:265,1,63.7500024318696,8|8,2:0|2:0,2:0:0:0:
98,235,88443,2,0,L|93:171,1,63.7500024318696,8|8,2:0|2:0,2:0:0:0:
27,121,88790,5,8,2:0:0:0:
27,121,88963,1,8,2:0:0:0:
96,64,89137,5,8,2:0:0:0:
96,64,89310,1,8,2:0:0:0:
166,128,89483,5,8,2:0:0:0:
166,128,89657,1,0,1:2:0:0:
255,80,89830,6,0,B|274:37|332:-3|426:9|434:87|395:132|355:131|332:103,1,255.000009727478,14|0,2:0|2:0,2:0:0:0:
192,239,90871,2,0,P|171:263|171:295,1,63.7500024318696,8|8,2:0|2:0,2:0:0:0:
287,376,91218,2,0,P|275:345|248:329,1,63.7500024318696,6|2,3:0|2:0,2:0:0:0:
314,265,91564,6,0,L|464:239,1,152.999995330811,6|4,1:2|3:0,2:0:0:0:
475,365,93039,6,0,B|478:329|401:319|408:357|302:291|301:176|388:121|468:134|512:183|520:213|518:263|449:285|448:238,1,430.099985561829,6|2,1:2|2:0,2:0:0:0:
