osu file format v14

[General]
AudioFilename: Luminous.mp3
AudioLeadIn: 0
PreviewTime: 59387
Countdown: 0
SampleSet: Soft
StackLeniency: 0.4
Mode: 0
LetterboxInBreaks: 0
WidescreenStoryboard: 0

[Editor]
DistanceSpacing: 3
BeatDivisor: 4
GridSize: 4
TimelineZoom: 3.400004

[Metadata]
Title:Luminous -movie MIX-
TitleUnicode:ルミナス -movie MIX-
Artist:ClariS
ArtistUnicode:ClariS
Creator:Hinsvar
Version:Hope
Source:劇場版 魔法少女まどか☆マギカ
Tags:Gekijouban Mahou Shoujo Madoka☆Magica Puella Magi the Movie opening [前編] 始まりの物語 Part 1: Beginnings Zenpen Hajimari no Monogatari [後編] 叛逆の物語 Part 2: Eternal Kouhen Eien no Monogatari Clara Alice Bearizm captin1 cRyo[iceeicee] Anime Japanese
BeatmapID:607787
BeatmapSetID:265805

[Difficulty]
HPDrainRate:7
CircleSize:4
OverallDifficulty:8
ApproachRate:9
SliderMultiplier:2
SliderTickRate:2

[Events]
//Background and Video events
0,0,"madoka.jpg",0,0
Video,-500,"luminous vid.mp4"
//Break Periods
//Storyboard Layer 0 (Background)
//Storyboard Layer 1 (Fail)
//Storyboard Layer 2 (Pass)
//Storyboard Layer 3 (Foreground)
//Storyboard Sound Samples

[TimingPoints]
601,346.820809248555,4,2,2,40,1,0
601,-200,4,2,2,40,0,0
2855,-200,4,2,1,50,0,0
4762,-133.333333333333,4,2,1,60,0,0
12999,-133.333333333333,4,2,1,5,0,0
13086,-200,4,2,1,50,0,0
15514,-200,4,2,1,30,0,0
15861,-200,4,2,1,40,0,0
26959,-133.333333333333,4,2,1,50,0,0
35283,-133.333333333333,4,2,1,55,0,0
37537,-200,4,2,1,55,0,0
38057,-100,4,2,1,60,0,0
57479,-133.333333333333,4,2,1,60,0,0
58866,-200,4,2,1,50,0,0
59560,-100,4,2,1,60,0,0
60254,-100,4,2,1,80,0,1
82450,-133.333333333333,4,2,1,80,0,0
87999,-133.333333333333,4,2,1,60,0,0
88693,-133.333333333333,4,2,1,65,0,0
89387,-133.333333333333,4,2,1,70,0,0
90080,-133.333333333333,4,2,1,75,0,0
90427,346.820809248555,5,2,1,50,1,0
90427,-200,5,2,1,50,0,0
91467,-200,5,2,1,60,0,0
92161,-200,5,2,1,50,0,0
92854,-200,5,2,1,40,0,0
93634,346.820809248555,4,2,1,40,1,0
93807,-100,4,2,1,20,0,0

[Colours]
Combo1 : 245,129,160
Combo2 : 117,194,240
Combo3 : 219,136,236
Combo4 : 247,224,149

[HitObjects]
41,142,601,6,0,L|54:244,1,100,2|0,0:0|0:0,0:0:0:0:
194,85,1294,2,0,L|189:187,1,100,2|0,0:0|0:0,0:0:0:0:
360,61,1988,2,0,L|337:161,1,100,2|0,0:0|0:0,0:0:0:0:
433,201,2508,2,0,L|446:256,1,50,2|0,0:0|0:0,0:0:0:0:
395,343,2855,5,6,0:0:0:0:
256,192,3028,12,0,4416,3:0:0:0:
81,351,4589,5,0,0:0:0:0:
90,349,4676,1,0,0:0:0:0:
100,345,4762,2,0,P|128:292|123:203,1,150.000005722046,6|0,3:2|3:0,0:0:0:0:
38,58,5283,1,0,0:0:0:0:
133,100,5456,2,0,B|184:103|184:103|230:78|230:78|292:83,1,150.000005722046,2|2,0:0|0:0,0:0:0:0:
449,203,5976,1,8,0:0:0:0:
427,102,6150,6,0,P|361:142|343:220,1,150.000005722046,2|0,3:2|3:0,0:0:0:0:
399,296,6670,1,0,0:0:0:0:
245,207,6843,1,2,0:0:0:0:
164,325,7017,1,0,3:0:0:0:
125,119,7190,1,0,3:0:0:0:
335,202,7364,1,0,0:0:0:0:
352,197,7450,1,0,0:0:0:0:
368,188,7537,6,0,P|410:136|384:56,1,150.000005722046,2|0,3:2|3:0,0:0:0:0:
291,22,8057,1,0,0:0:0:0:
200,75,8231,2,0,P|183:43|188:-1,1,75.0000028610231,2|0,3:2|0:0,0:0:0:0:
295,122,8577,1,2,0:0:0:0:
115,212,8751,1,8,0:0:0:0:
214,178,8924,6,0,B|276:222|276:222|212:266,1,150.000005722046,0|0,3:0|0:0,0:0:0:0:
122,313,9444,1,0,3:0:0:0:
266,356,9618,1,2,3:2:0:0:
430,155,9791,5,2,3:2:0:0:
359,319,9965,1,0,3:0:0:0:
279,116,10138,1,10,0:0:0:0:
300,72,10225,1,8,0:0:0:0:
341,46,10311,6,0,P|420:33|490:73,1,150.000005722046,6|8,3:2|0:0,0:0:0:0:
504,158,10832,1,0,0:0:0:0:
326,128,11005,5,2,3:2:0:0:
376,212,11179,1,0,0:0:0:0:
212,279,11352,1,2,3:2:0:0:
375,334,11525,1,8,0:0:0:0:
423,125,11699,5,2,3:2:0:0:
265,196,11872,1,8,0:0:0:0:
468,213,12046,2,8,B|480:248|480:248|467:288,1,75.0000028610231,0|0,3:0|0:0,0:0:0:0:
295,312,12392,5,2,3:2:0:0:
389,116,12566,1,0,3:0:0:0:
270,231,12739,2,0,P|216:236|160:205,1,112.500004291535,2|0,0:0|0:0,0:0:0:0:
153,135,13086,6,0,L|125:290,1,150,4|8,3:2|0:0,0:0:0:0:
126,282,13953,1,0,3:0:0:0:
67,131,14127,1,0,3:0:0:0:
286,218,14473,6,0,L|448:206,1,150,2|0,3:2|3:0,0:0:0:0:
435,206,15340,1,0,3:0:0:0:
300,118,15514,5,8,0:0:0:0:
314,121,15687,1,0,0:0:0:0:
176,235,15861,6,0,P|126:186|161:113,1,150,6|2,0:0|0:0,0:0:0:0:
171,103,17248,2,0,B|208:88|242:102|242:102|283:122|321:103,2,150,2|0|2,0:0|0:0|0:0,0:0:0:0:
352,175,18635,6,0,P|392:121|366:45,1,150,2|2,0:0|0:0,0:0:0:0:
342,44,20022,2,0,P|317:112|358:171,2,150,2|2|0,0:0|0:0|0:0,0:0:0:0:
400,254,21410,6,0,B|351:263|351:263|301:245|301:245|250:252,1,150,6|2,3:2|0:0,0:0:0:0:
252,275,22797,2,0,P|273:217|219:150,1,150,2|2,0:0|0:0,0:0:0:0:
197,137,23664,1,2,0:0:0:0:
197,137,23837,2,0,L|265:132,1,50,2|0,0:0|0:0,0:0:0:0:
414,243,24184,6,0,B|438:170|438:170|414:85,1,150,2|0,0:0|0:0,0:0:0:0:
418,99,25051,1,2,0:0:0:0:
325,138,25225,1,0,0:0:0:0:
232,101,25398,1,2,0:0:0:0:
416,18,25572,5,2,0:0:0:0:
416,18,25745,2,0,P|364:18|315:24,1,100,2|0,0:0|0:0,0:0:0:0:
217,41,26265,1,2,0:0:0:0:
297,170,26439,2,0,P|267:166|242:160,1,50,0|2,0:0|0:0,0:0:0:0:
150,136,26785,1,0,0:0:0:0:
55,342,26959,5,6,3:2:0:0:
53,327,27306,1,0,3:0:0:0:
51,312,27653,1,0,3:0:0:0:
50,297,27999,5,0,3:0:0:0:
60,260,28173,1,2,0:0:0:0:
72,224,28346,6,0,B|80:145|80:145|35:85,1,150.000005722046,2|0,0:0|3:0,0:0:0:0:
96,29,28866,2,0,B|160:75|160:75|234:66,1,150.000005722046,2|0,0:0|0:0,0:0:0:0:
293,11,29387,2,0,B|329:6|329:6|368:16,1,75.0000028610231,2|0,0:0|0:0,0:0:0:0:
433,64,29733,5,2,3:2:0:0:
447,61,30080,1,0,3:0:0:0:
461,58,30427,1,0,3:0:0:0:
475,55,30774,5,0,3:0:0:0:
495,86,30947,1,2,0:0:0:0:
493,123,31121,6,0,B|435:163|435:163|354:148,1,150.000005722046,2|0,0:0|3:0,0:0:0:0:
305,65,31641,2,0,B|321:136|321:136|276:206,1,150.000005722046,2|0,0:0|0:0,0:0:0:0:
207,159,32161,2,0,B|208:121|208:121|224:88,1,75.0000028610231,2|0,3:2|3:0,3:0:0:0:
357,258,32508,5,6,3:2:0:0:
368,267,32855,1,0,3:0:0:0:
379,276,33202,1,0,3:0:0:0:
390,285,33548,5,0,3:0:0:0:
404,250,33722,1,2,0:0:0:0:
418,215,33895,6,0,L|397:63,1,150.000005722046,2|0,3:2|3:0,0:0:0:0:
205,102,34589,2,0,L|226:254,1,150.000005722046,2|2,3:2|3:2,0:0:0:0:
449,372,35283,6,0,B|486:309|486:309|447:232,1,150.000005722046,6|0,0:0|3:0,0:0:0:0:
316,174,35803,2,0,B|282:243|282:243|319:306,1,150.000005722046,8|0,0:0|3:0,0:0:0:0:
475,123,36323,1,2,3:2:0:0:
236,144,36496,1,0,0:0:0:0:
201,128,36583,1,0,0:0:0:0:
171,113,36670,1,2,3:2:0:0:
359,234,36843,5,0,0:0:0:0:
414,220,36930,1,0,0:0:0:0:
468,207,37017,1,8,0:0:0:0:
172,322,37190,2,0,P|148:275|168:220,1,112.500004291535,4|0,3:2|0:0,0:0:0:0:
283,275,37537,6,0,B|335:287|335:287|383:264,1,100,2|8,3:2|0:0,0:0:0:0:
414,233,37970,1,8,0:0:0:0:
433,186,38057,6,0,P|414:89|326:42,1,200,6|8,3:2|0:0,0:0:0:0:
238,133,38577,2,0,B|191:146|146:108|146:108|100:71|41:86,1,200,2|0,0:0|3:0,0:0:0:0:
71,284,39098,2,0,P|87:237|67:186,1,100,8|2,0:0|0:0,0:0:0:0:
282,281,39444,6,0,P|264:326|221:356,1,100
219,185,39791,1,10,0:0:0:0:
381,238,39965,1,0,0:0:0:0:
223,355,40138,5,0,3:0:0:0:
301,204,40311,1,0,3:0:0:0:
146,75,40485,1,8,0:0:0:0:
146,75,40832,6,0,B|174:83|203:93|203:93|242:51|282:37|331:57,1,200,2|8,3:2|0:0,0:0:0:0:
497,153,41352,2,0,P|447:166|401:150,1,100,0|2,0:0|3:2,0:0:0:0:
328,55,41699,1,0,3:0:0:0:
182,195,41872,1,8,0:0:0:0:
375,246,42046,1,2,0:0:0:0:
250,130,42219,6,0,P|302:138|347:154,1,100,2|0,3:2|0:0,0:0:0:0:
497,153,42566,1,8,0:0:0:0:
356,16,42739,2,0,P|292:77|349:154,1,200,2|0,3:2|3:0,0:0:0:0:
477,161,43259,1,8,0:0:0:0:
486,30,43433,1,0,0:0:0:0:
291,2,43606,6,0,B|236:0|198:36|198:36|157:1|96:9,1,200,2|8,3:2|0:0,0:0:0:0:
17,104,44127,1,2,0:0:0:0:
36,233,44300,2,0,P|66:270|113:297,1,100
309,251,44647,2,0,P|261:238|208:244,1,100,10|0,0:0|0:0,0:0:0:0:
387,338,44994,6,0,P|427:254|378:157,1,200,2|8,3:2|0:0,0:0:0:0:
310,251,45514,2,0,L|509:252,1,200,2|0,3:2|3:0,0:0:0:0:
427,340,46034,1,8,0:0:0:0:
343,159,46207,1,0,0:0:0:0:
194,294,46381,6,0,B|98:320|98:320|7:277,1,200,2|8,3:2|0:0,0:0:0:0:
120,212,46901,2,0,B|139:166|139:166|123:119,1,100,2|0,0:0|0:0,0:0:0:0:
20,37,47248,1,0,3:0:0:0:
217,7,47421,2,0,B|236:53|236:53|220:100,1,100,8|0,0:0|0:0,0:0:0:0:
81,200,47768,5,2,3:2:0:0:
181,339,47942,1,2,0:0:0:0:
344,294,48115,1,8,0:0:0:0:
351,123,48288,2,0,P|442:91|501:171,1,200,4|0,3:2|3:0,0:0:0:0:
359,215,48809,1,0,3:0:0:0:
480,2,48982,1,0,3:0:0:0:
277,90,49155,6,0,B|192:103|167:38|167:38|137:58|125:95,1,200,4|8,3:2|0:0,0:0:0:0:
309,175,49676,2,0,P|361:118|326:10,1,200,2|0,0:0|3:0,0:0:0:0:
221,181,50196,2,0,P|210:228|226:277,1,100,8|0,0:0|0:0,0:0:0:0:
444,308,50543,6,0,P|402:294|342:305,1,100,2|0,3:2|0:0,0:0:0:0:
232,363,50890,1,8,0:0:0:0:
112,179,51063,1,2,0:0:0:0:
87,294,51236,2,0,P|136:295|192:263,1,100,0|0,0:0|3:0,0:0:0:0:
273,78,51583,2,0,P|247:119|247:184,1,100,8|0,0:0|0:0,0:0:0:0:
294,278,51930,6,0,B|336:297|386:269|386:269|440:246|495:268,1,200,2|8,3:2|0:0,0:0:0:0:
408,356,52450,2,0,B|388:320|388:320|396:204|396:204|374:158,1,200,2|0,0:0|3:0,0:0:0:0:
258,184,52970,2,0,B|208:192|208:192|156:165,1,100,8|0,0:0|0:0,0:0:0:0:
15,34,53317,5,2,3:2:0:0:
103,213,53491,1,0,0:0:0:0:
179,28,53664,2,0,B|225:15|225:15|279:28,1,100,4|0,3:2|0:0,0:0:0:0:
321,48,53924,1,0,0:0:0:0:
321,48,54011,1,8,0:0:0:0:
413,224,54184,1,0,3:0:0:0:
493,85,54358,1,2,0:0:0:0:
349,155,54531,1,0,0:0:0:0:
508,321,54705,6,0,B|423:376|423:376|318:352,1,200,6|8,3:2|0:0,0:0:0:0:
146,266,55225,2,0,P|218:312|160:383,1,200,2|0,3:2|0:0,0:0:0:0:
32,229,55745,1,8,0:0:0:0:
223,174,55918,1,0,0:0:0:0:
223,174,56005,1,0,0:0:0:0:
223,174,56092,6,0,P|245:126|253:74,1,100,6|0,3:2|0:0,0:0:0:0:
118,13,56439,1,8,0:0:0:0:
115,242,56612,2,0,P|195:293|299:271,1,200,6|8,0:0|0:0,0:0:0:0:
346,80,57132,1,0,3:0:0:0:
152,134,57306,1,0,3:0:0:0:
369,188,57479,6,0,P|409:248|398:326,1,150.000005722046,4|0,3:2|3:0,0:0:0:0:
281,371,57999,1,0,0:0:0:0:
199,193,58173,1,8,0:0:0:0:
144,307,58346,1,0,3:0:0:0:
311,265,58520,2,0,P|347:256|394:254,1,75.0000028610231,0|0,3:0|0:0,0:0:0:0:
199,193,58866,6,0,B|193:150|215:122|215:122|240:92|238:49,1,150,0|0,3:0|3:0,0:0:0:0:
264,251,59560,6,0,P|239:272|200:282,2,66.6666666666667,2|0|0,3:2|0:0|0:0,0:0:0:0:
339,140,59907,2,0,P|364:119|403:109,2,66.6666666666667,2|0|0,3:2|0:0|0:0,0:0:0:0:
132,249,60254,6,0,P|100:166|144:68,2,200,14|8|2,3:2|0:0|3:2,0:0:0:0:
231,164,61121,1,0,0:0:0:0:
194,360,61294,2,0,P|145:378|92:380,1,100,8|0,0:0|0:0,0:0:0:0:
267,273,61641,5,2,3:2:0:0:
362,360,61814,2,0,P|389:319|397:267,1,100,0|8,0:0|0:0,0:0:0:0:
408,69,62161,1,2,0:0:0:0:
408,69,62335,2,0,P|356:84|307:89,1,100
119,142,62681,2,0,P|171:157|220:162,1,100,8|0,0:0|0:0,0:0:0:0:
338,321,63028,6,0,B|249:370|249:370|269:271,1,200,2|8,3:2|0:0,0:0:0:0:
389,135,63548,2,0,L|406:241,1,100,2|0,0:0|0:0,0:0:0:0:
432,361,63895,1,0,3:0:0:0:
404,233,64069,2,0,B|449:215|449:215|512:225,1,100,8|0,0:0|0:0,0:0:0:0:
309,313,64416,5,2,3:2:0:0:
206,233,64589,2,0,P|192:179|208:122,1,100,0|8,0:0|0:0,0:0:0:0:
305,59,64936,2,0,B|242:60|208:89|208:89|179:54|115:36,1,200,2|0,3:2|3:0,0:0:0:0:
279,152,65456,1,8,0:0:0:0:
416,36,65629,1,0,0:0:0:0:
477,270,65803,6,0,B|427:298|382:295|382:295|357:254|302:229,1,200,4|8,3:2|0:0,0:0:0:0:
164,338,66323,1,2,0:0:0:0:
164,338,66496,2,0,P|213:350|266:324,1,100
97,158,66843,2,0,P|84:207|74:261,1,100,8|0,0:0|0:0,0:0:0:0:
66,304,67103,1,0,0:0:0:0:
66,304,67190,6,0,P|48:204|24:107,1,200,2|8,3:2|0:0,0:0:0:0:
134,39,67710,1,0,3:0:0:0:
192,240,67884,2,0,P|205:189|214:132,1,100
346,289,68231,2,0,P|336:212|332:138,1,150,10|0,3:2|0:0,0:0:0:0:
332,139,68577,6,0,P|401:193|489:123,1,200,4|8,3:2|0:0,0:0:0:0:
247,32,69098,1,0,0:0:0:0:
240,81,69184,1,0,0:0:0:0:
233,130,69271,1,8,0:0:0:0:
94,349,69444,2,0,L|76:237,1,100,2|0,0:0|0:0,0:0:0:0:
324,340,69791,6,0,P|358:256|278:211,1,200,6|0,3:2|0:0,0:0:0:0:
162,323,70311,2,0,L|101:306,3,50,10|0|0|0,0:0|0:0|3:0|0:0,0:0:0:0:
94,293,70658,5,0,0:0:0:0:
81,271,70745,1,0,0:0:0:0:
80,245,70832,1,0,3:0:0:0:
92,223,70918,1,0,0:0:0:0:
123,183,71005,5,8,0:0:0:0:
151,141,71092,1,8,0:0:0:0:
152,90,71179,1,0,3:0:0:0:
121,51,71265,1,0,0:0:0:0:
80,21,71352,6,0,B|140:27|176:52|176:52|206:25|276:10,1,200,4|8,3:2|0:0,0:0:0:0:
356,167,71872,1,0,0:0:0:0:
464,22,72046,2,0,P|477:70|458:126,1,100,2|0,0:0|0:0,0:0:0:0:
263,215,72392,2,0,P|249:167|262:119,1,100,8|0,0:0|0:0,0:0:0:0:
367,266,72739,5,2,3:2:0:0:
193,315,72913,2,0,P|160:276|145:229,1,100,0|8,0:0|0:0,0:0:0:0:
106,54,73259,1,2,3:2:0:0:
236,182,73433,2,0,P|287:176|336:158,1,100,0|0,0:0|3:0,0:0:0:0:
416,0,73780,2,0,P|467:6|516:24,1,100,8|0,0:0|0:0,0:0:0:0:
479,264,74127,6,0,P|389:292|307:222,1,200,2|8,0:0|0:0,0:0:0:0:
209,84,74647,2,0,P|117:62|41:140,1,200,2|0,0:0|3:0,0:0:0:0:
42,257,75167,2,0,P|71:296|123:316,1,100,8|0,0:0|0:0,0:0:0:0:
254,163,75514,6,0,P|296:146|352:131,1,100,2|0,0:0|0:0,0:0:0:0:
442,222,75861,1,8,0:0:0:0:
251,281,76034,2,0,P|164:236|134:142,1,200,2|0,3:2|3:0,0:0:0:0:
342,44,76554,1,8,0:0:0:0:
364,54,76641,1,0,0:0:0:0:
381,72,76728,1,0,0:0:0:0:
396,91,76814,1,0,0:0:0:0:
405,114,76901,6,0,P|397:212|353:304,1,200,6|8,3:2|0:0,0:0:0:0:
181,99,77421,2,0,P|183:172|207:247,1,150,2|0,0:0|0:0,0:0:0:0:
207,245,77768,2,0,P|156:234|96:229,1,100,0|8,0:0|0:0,0:0:0:0:
239,354,78115,1,0,0:0:0:0:
43,161,78288,6,0,B|97:75|97:75|200:39,1,200,6|8,3:2|0:0,0:0:0:0:
428,97,78809,2,0,B|396:143|349:157|349:157|251:132,1,200,2|0,0:0|0:0,0:0:0:0:
102,236,79329,2,0,B|152:241|152:241|201:225,1,100,8|0,0:0|0:0,0:0:0:0:
430,201,79676,6,0,P|462:282|420:381,1,200,2|10,3:2|0:0,0:0:0:0:
332,285,80196,1,0,3:0:0:0:
375,110,80369,2,0,P|422:96|471:109,1,100,10|0,0:0|0:0,0:0:0:0:
284,184,80716,1,10,0:0:0:0:
217,26,80890,1,0,0:0:0:0:
142,274,81063,6,0,P|107:181|44:100,1,200,4|8,3:2|0:0,0:0:0:0:
255,198,81583,2,0,P|290:105|353:24,1,200,4|2,3:2|3:2,0:0:0:0:
499,160,82103,1,8,0:0:0:0:
393,330,82277,1,0,3:0:0:0:
129,245,82450,6,0,P|107:135|196:128,1,225.000008583069,4|2,3:2|3:2,0:0:0:0:
285,246,83144,2,0,P|293:285|283:321,1,75.0000028610231,8|0,0:0|0:0,0:0:0:0:
357,105,83491,6,0,B|408:91|467:110|467:110|473:173|441:218,1,225.000008583069,6|0,3:2|0:0,0:0:0:0:
284,318,84184,1,0,3:0:0:0:
284,318,84531,5,8,0:0:0:0:
178,160,84705,1,8,0:0:0:0:
367,140,84878,1,0,3:0:0:0:
278,221,85051,1,0,3:0:0:0:
92,122,85225,6,0,B|148:47|231:86|231:86|225:54|248:20,1,225.000008583069,4|2,3:2|3:2,0:0:0:0:
178,167,85918,2,0,P|169:204|173:246,1,75.0000028610231,8|0,0:0|0:0,0:0:0:0:
351,349,86265,6,0,B|355:354|398:362|427:363|427:363|450:350|491:318,1,150.000005722046,6|0,0:0|3:0,0:0:0:0:
340,174,86785,1,0,0:0:0:0:
502,40,86959,1,8,0:0:0:0:
430,175,87132,1,0,3:0:0:0:
265,23,87306,2,0,P|255:59|250:96,1,75.0000028610231,10|0,0:0|3:0,0:0:0:0:
147,145,87653,2,0,P|148:183|155:222,1,75.0000028610231,8|0,0:0|0:0,0:0:0:0:
167,257,87913,1,0,0:0:0:0:
167,257,87999,6,0,P|244:229|313:263,1,150.000005722046,4|0,0:0|3:0,0:0:0:0:
363,331,88520,1,2,0:0:0:0:
455,243,88693,5,0,3:0:0:0:
425,120,88866,1,0,3:0:0:0:
305,73,89040,1,2,3:2:0:0:
201,146,89213,1,0,3:0:0:0:
314,244,89387,5,0,3:0:0:0:
370,97,89560,1,2,3:2:0:0:
236,14,89733,1,0,3:0:0:0:
120,123,89907,1,0,3:0:0:0:
296,331,90080,5,2,3:2:0:0:
399,173,90254,1,0,3:0:0:0:
167,80,90427,6,0,P|69:106|42:196,1,200,4|2,3:2|3:2,0:0:0:0:
180,340,91467,1,2,3:2:0:0:
298,286,91640,1,0,3:0:0:0:
410,342,91814,2,0,P|420:318|427:291,1,50,0|0,3:0|0:0,0:0:0:0:
411,141,92161,6,0,B|362:112|314:132|314:132|270:154|213:134,1,200,6|6,3:2|0:0,0:0:0:0:
217,135,93634,1,2,3:2:0:0:
256,192,93807,12,2,97506,0:0:0:0:
