osu file format v14

[General]
AudioFilename: Luminous.mp3
AudioLeadIn: 0
PreviewTime: 59387
Countdown: 0
SampleSet: Soft
StackLeniency: 0.7
Mode: 0
LetterboxInBreaks: 0
WidescreenStoryboard: 0

[Editor]
DistanceSpacing: 3
BeatDivisor: 4
GridSize: 4
TimelineZoom: 0.4000049

[Metadata]
Title:Luminous -movie MIX-
TitleUnicode:ルミナス -movie MIX-
Artist:ClariS
ArtistUnicode:ClariS
Creator:Hinsvar
Version:Easy
Source:劇場版 魔法少女まどか☆マギカ
Tags:Gekijouban Mahou Shoujo Madoka☆Magica Puella Magi the Movie opening [前編] 始まりの物語 Part 1: Beginnings Zenpen Hajimari no Monogatari [後編] 叛逆の物語 Part 2: Eternal Kouhen Eien no Monogatari Clara Alice Bearizm captin1 cRyo[iceeicee] Anime Japanese
BeatmapID:608767
BeatmapSetID:265805

[Difficulty]
HPDrainRate:2
CircleSize:3
OverallDifficulty:2
ApproachRate:3
SliderMultiplier:0.8
SliderTickRate:1

[Events]
//Background and Video events
0,0,"madoka.jpg",0,0
Video,-500,"luminous vid.mp4"
//Break Periods
//Storyboard Layer 0 (Background)
//Storyboard Layer 1 (Fail)
//Storyboard Layer 2 (Pass)
//Storyboard Layer 3 (Foreground)
//Storyboard Sound Samples

[TimingPoints]
601,346.820809248555,4,2,2,40,1,0
2855,-100,4,2,1,50,0,0
4762,-100,4,2,1,60,0,0
13086,-100,4,2,1,50,0,0
15514,-100,4,2,1,30,0,0
15861,-100,4,2,1,40,0,0
26959,-100,4,2,1,50,0,0
35283,-100,4,2,1,55,0,0
38057,-100,4,2,1,60,0,0
58866,-100,4,2,1,50,0,0
59560,-100,4,2,1,60,0,0
60254,-100,4,2,1,80,0,1
82450,-100,4,2,1,80,0,0
87999,-100,4,2,1,60,0,0
88693,-100,4,2,1,65,0,0
89387,-100,4,2,1,70,0,0
90080,-100,4,2,1,75,0,0
90427,346.820809248555,5,2,1,50,1,0
90427,-100,5,2,1,50,0,0
91467,-100,5,2,1,60,0,0
92161,-100,5,2,1,50,0,0
92854,-100,5,2,1,40,0,0
93634,346.820809248555,4,2,1,40,1,0
93807,-100,4,2,1,20,0,0

[Colours]
Combo1 : 245,129,160
Combo2 : 117,194,240
Combo3 : 219,136,236
Combo4 : 247,224,149

[HitObjects]
282,298,601,6,0,P|352:335|422:289,1,160,2|2,0:0|0:0,0:0:0:0:
436,123,1988,2,0,P|382:82|328:87,1,120,2|2,0:0|0:0,0:0:0:0:
268,145,2855,1,4,3:2:0:0:
256,192,3028,12,6,4762,3:2:0:0:
391,331,6150,6,0,P|432:263|401:179,1,160,2|2,3:2|3:2,0:0:0:0:
334,146,7190,1,0,3:0:0:0:
262,196,7537,2,0,P|181:213|108:183,1,160,2|2,3:2|3:2,0:0:0:0:
66,109,8577,1,2,3:2:0:0:
111,32,8924,2,0,L|196:22,1,80,0|0,3:0|3:0,0:0:0:0:
261,75,9618,2,0,L|271:160,1,80,0|0,3:0|3:0,0:0:0:0:
329,219,10311,6,0,B|377:232|377:232|436:212|436:212|499:228,1,160,6|2,3:2|3:2,0:0:0:0:
446,51,11699,2,0,B|399:40|399:40|340:60|340:60|292:47,1,160,2|2,3:2|3:2,0:0:0:0:
206,26,12739,1,0,3:0:0:0:
147,92,13086,2,0,B|78:127|18:103|18:103|-9:147|20:216,1,240,6|0,3:2|3:0,0:0:0:0:
45,288,14473,2,0,B|104:331|170:322|194:262|194:262|205:294|237:309,1,240,2|8,3:2|0:0,0:0:0:0:
306,357,15861,6,0,B|383:389|463:370|463:370|486:291|455:214,1,320,4|2,0:0|0:0,0:0:0:0:
226,81,18288,1,2,3:2:0:0:
175,152,18635,2,0,B|148:203|176:265|235:279|235:279|186:360|78:305,1,320,2|2,0:0|0:0,0:0:0:0:
29,58,21063,1,0,3:0:0:0:
116,44,21410,6,0,B|132:101|70:147|70:147|137:169|159:216|159:216|153:250|129:293,1,320,6|2,3:2|0:0,0:0:0:0:
387,347,23837,1,0,3:0:0:0:
462,301,24184,2,0,B|482:248|467:195|467:195|410:201|372:164|372:164|333:205|268:210,1,320,2|2,0:0|0:0,0:0:0:0:
123,120,26265,2,0,P|118:79|132:38,1,80,0|2,0:0|0:0,0:0:0:0:
205,87,26959,6,0,P|188:183|125:211,1,160,6|0,3:2|3:0,0:0:0:0:
231,359,28346,2,0,B|281:354|305:331|305:331|331:356|382:363,1,160,2|0,3:2|3:0,0:0:0:0:
438,298,29387,1,2,3:2:0:0:
482,222,29733,2,0,P|498:140|471:63,1,160,2|0,3:2|3:0,0:0:0:0:
324,160,31121,2,0,P|248:176|168:140,1,160,2|0,3:2|3:0,0:0:0:0:
121,74,32161,1,0,3:0:0:0:
86,155,32508,6,0,P|46:276|111:360,1,240,6|0,3:2|3:0,0:0:0:0:
194,372,33895,2,0,L|358:352,1,160,2|0,3:2|3:0,0:0:0:0:
428,306,34936,1,0,3:0:0:0:
441,219,35283,2,0,B|451:158|451:158|430:93,2,120,6|8|0,3:2|0:0|3:0,0:0:0:0:
359,252,36670,2,0,P|300:253|244:224,1,120,2|2,3:2|3:2,0:0:0:0:
223,141,37537,2,0,P|175:171|161:242,1,120,2|6,3:2|3:2,0:0:0:0:
178,315,38404,6,0,B|220:332|255:315|255:315|290:300|338:310,1,160,10|8,0:0|0:0,0:0:0:0:
413,272,39444,2,0,P|448:290|485:323,2,80,2|8|2,3:2|0:0|3:2,0:0:0:0:
378,190,40485,1,8,0:0:0:0:
344,108,40832,2,0,P|266:87|188:118,1,160,2|2,3:2|3:2,0:0:0:0:
135,179,41872,1,8,0:0:0:0:
196,242,42219,2,0,B|249:243|249:243|300:212|300:212|354:215,1,160,2|2,3:2|3:2,0:0:0:0:
475,335,43606,6,0,B|399:353|399:353|324:319,1,160,2|2,3:2|3:2,0:0:0:0:
249,272,44647,1,8,0:0:0:0:
183,213,44994,2,0,P|171:159|207:97,2,120,2|2|0,3:2|3:2|0:0,0:0:0:0:
176,300,46381,2,0,P|138:308|100:325,2,80,2|8|2,3:2|3:2|3:2,3:2:0:0:
345,347,47768,2,0,P|404:339|473:311,2,120,2|6|0,3:2|3:2|3:0,0:0:0:0:
321,262,49155,6,0,P|241:234|161:264,1,160,6|2,3:2|3:2,0:0:0:0:
101,309,50196,1,8,0:0:0:0:
26,261,50543,2,0,P|-4:188|28:116,1,160,2|2,3:2|3:2,0:0:0:0:
81,49,51583,1,8,0:0:0:0:
144,109,51930,2,0,B|185:134|220:117|220:117|253:100|300:111,1,160,2|2,3:2|3:2,3:2:0:0:
365,167,52970,1,8,0:0:0:0:
427,228,53317,2,0,P|466:235|505:222,2,80,2|4|10,3:2|0:0|0:0,0:0:0:0:
257,179,54705,6,0,B|194:189|194:189|133:161,2,120,6|2|8,3:2|3:2|0:0,0:0:0:0:
341,152,56092,2,0,B|404:142|404:142|465:170,2,120,6|6|8,3:2|3:2|0:0,0:0:0:0:
313,235,57479,2,0,P|249:285|160:299,1,160,6|8,3:2|0:0,0:0:0:0:
87,280,58520,1,0,3:0:0:0:
42,204,58866,2,0,P|58:124|118:56,1,160,0|2,3:0|3:2,0:0:0:0:
253,163,60254,6,0,B|304:169|304:169|360:145|360:145|411:150,2,160,14|2|2,3:2|3:2|3:2,0:0:0:0:
177,208,61988,1,8,0:0:0:0:
105,156,62335,2,0,P|95:117|107:70,1,80,2|8,3:2|0:0,0:0:0:0:
176,30,63028,2,0,B|255:17|255:17|339:38,1,160,2|2,3:2|3:2,0:0:0:0:
373,114,64069,1,8,0:0:0:0:
332,192,64416,2,0,P|354:233|385:256,2,80,2|8|2,3:2|0:0|3:2,0:0:0:0:
192,85,65803,6,0,L|113:94,2,80,6|8|2,3:2|0:0|3:2,0:0:0:0:
254,147,66843,1,8,0:0:0:0:
219,228,67190,2,0,L|158:280,1,80,2|8,3:2|0:0,0:0:0:0:
110,207,67884,2,0,L|20:226,1,80,2|8,3:2|0:0,0:0:0:0:
20,137,68577,2,0,P|26:76|67:21,1,120,6|2,3:2|0:0,0:0:0:0:
145,20,69444,1,2,0:0:0:0:
223,58,69791,2,0,P|279:70|351:42,1,120,6|8,3:2|0:0,0:0:0:0:
422,26,70658,2,0,P|453:99|431:180,1,160,2|6,3:2|3:2,0:0:0:0:
266,229,72046,6,0,L|260:321,2,80,2|8|2,3:2|0:0|3:2,0:0:0:0:
181,203,73086,1,8,0:0:0:0:
109,152,73433,2,0,P|104:114|122:67,1,80,2|8,0:0|0:0,0:0:0:0:
195,34,74127,2,0,L|278:52,2,80,2|8|2,3:2|0:0|3:2,0:0:0:0:
116,74,75167,1,8,0:0:0:0:
86,157,75514,2,0,B|104:195|104:195|132:224,1,80,2|8,3:2|0:0,0:0:0:0:
209,259,76207,1,2,3:2:0:0:
294,104,76901,6,0,B|337:101|337:101|371:116|371:116|420:117,2,120,6|2|8,3:2|3:2|0:0,0:0:0:0:
226,160,78288,2,0,B|183:157|183:157|149:172|149:172|100:173,2,120,6|2|8,3:2|3:2|0:0,0:0:0:0:
307,193,79676,2,0,L|316:284,1,80,2|10,3:2|3:2,0:0:0:0:
228,255,80369,2,0,L|219:346,1,80,10|0,0:0|0:0,0:0:0:0:
136,361,81063,2,0,P|73:352|24:304,2,120,6|4|0,3:2|3:2|0:0,0:0:0:0:
191,292,82450,6,0,P|257:266|337:299,1,160,6|8,3:2|0:0,0:0:0:0:
421,321,83491,2,0,P|452:265|429:173,1,160,4|0,0:0|3:0,0:0:0:0:
370,111,84531,2,0,P|333:120|280:101,1,80,8|0,0:0|3:0,0:0:0:0:
229,49,85225,2,0,B|172:42|172:42|126:62|126:62|66:54,1,160,6|8,3:2|0:0,0:0:0:0:
86,143,86265,2,0,P|105:224|68:292,1,160,4|8,0:0|0:0,0:0:0:0:
6,348,87306,1,2,0:0:0:0:
179,373,87999,6,0,B|259:380|259:380|337:348,1,160,6|0,3:2|3:0,0:0:0:0:
376,273,89040,1,2,3:2:0:0:
341,192,89387,2,0,B|261:185|261:185|183:217,1,160,0|2,3:0|3:2,0:0:0:0:
172,302,90427,2,0,B|117:309|117:309|66:283|66:283|11:286,1,160,4|2,3:2|0:0,0:0:0:0:
0,200,91467,1,10,0:0:0:0:
123,79,92161,6,0,P|200:108|251:178,1,160,6|6,3:2|0:0,0:0:0:0:
285,361,93634,1,2,3:2:0:0:
256,192,93807,12,2,97506,0:0:0:0:
