osu file format v14

[General]
AudioFilename: Luminous.mp3
AudioLeadIn: 0
PreviewTime: 205115
Countdown: 0
SampleSet: Soft
StackLeniency: 0.7
Mode: 0
LetterboxInBreaks: 0
WidescreenStoryboard: 1

[Editor]
DistanceSpacing: 1
BeatDivisor: 4
GridSize: 32
TimelineZoom: 1

[Metadata]
Title:Luminous
TitleUnicode:ルミナス
Artist:ClariS
ArtistUnicode:ClariS
Creator:Sarawatlism
Version:xHappy-'s Insane
Source:劇場版 魔法少女まどか☆マギカ
Tags:clara alice op opening anime jpop j-pop pop japanese Puella Magi Madoka Magica movie mahou shoujo Hajimari no Monogatari Eien no Monogatari [_lost_] conner c_o_n_n_e_r asukow -_ex_- ex xhappy- p_kung grazuko
BeatmapID:3402285
BeatmapSetID:1070262

[Difficulty]
HPDrainRate:6
CircleSize:4
OverallDifficulty:7.5
ApproachRate:8.8
SliderMultiplier:1.7
SliderTickRate:1

[Events]
//Background and Video events
0,0,"BG.jpg",0,0
//Break Periods
2,172801,177521
2,206096,210469
//Storyboard Layer 0 (Background)
//Storyboard Layer 1 (Fail)
//Storyboard Layer 2 (Pass)
//Storyboard Layer 3 (Foreground)
//Storyboard Layer 4 (Overlay)
//Storyboard Sound Samples

[TimingPoints]
579,346.820809248555,4,2,1,35,1,0
579,-200,4,2,1,35,0,0
2833,-200,4,2,1,65,0,0
4740,346.820809248555,4,2,1,60,1,0
4740,-100,4,2,1,60,0,0
13063,-142.857142857143,4,2,1,55,0,0
14450,-142.857142857143,4,2,1,50,0,0
15838,-125,4,2,1,40,0,0
26936,-111.111111111111,4,2,1,40,0,0
35260,-111.111111111111,4,2,1,50,0,0
36647,-111.111111111111,4,2,1,60,0,0
38034,-100,4,2,1,50,0,0
40722,-100,4,2,1,5,0,0
40809,-100,4,2,1,50,0,0
47745,-100,4,2,1,60,0,0
49133,-100,4,2,1,50,0,0
51820,-100,4,2,1,5,0,0
51907,-100,4,2,1,50,0,0
53294,-100,4,2,1,60,0,0
54682,-100,4,2,1,70,0,0
56069,-100,4,2,1,75,0,0
57456,-100,4,2,1,55,0,0
58844,-100,4,2,1,45,0,0
59537,-125,4,2,1,75,0,0
60231,-90.9090909090909,4,2,1,85,0,1
66040,-90.9090909090909,4,2,1,5,0,1
66127,-90.9090909090909,4,2,1,85,0,1
67427,-90.9090909090909,4,2,1,5,0,1
67514,-90.9090909090909,4,2,1,85,0,1
68468,-90.9090909090909,4,2,1,85,0,0
68555,-90.9090909090909,4,2,1,90,0,1
69682,-90.9090909090909,4,2,1,90,0,0
69768,-90.9090909090909,4,2,1,95,0,1
71242,-90.9090909090909,4,2,1,95,0,0
71329,-90.9090909090909,4,2,1,85,0,1
82341,-90.9090909090909,4,2,1,85,0,0
82427,-125,4,2,1,75,0,1
85115,-125,4,2,1,75,0,0
85202,-125,4,2,1,85,0,1
86242,-166.666666666667,4,2,1,50,0,0
87630,-166.666666666667,4,2,1,5,0,0
87976,-100,4,2,1,65,0,1
88063,-100,4,2,1,65,0,0
96300,-142.857142857143,4,2,1,60,0,0
97687,-142.857142857143,4,2,1,55,0,0
99075,-111.111111111111,4,2,1,50,0,0
104537,-111.111111111111,4,2,1,5,0,0
104624,-111.111111111111,4,2,1,50,0,0
108959,-111.111111111111,4,2,1,40,0,0
109133,-166.666666666666,4,2,1,40,0,0
109826,-111.111111111111,4,2,1,60,0,0
110086,-111.111111111111,4,2,1,5,0,0
110173,-111.111111111111,4,2,1,50,0,0
118497,-111.111111111111,4,2,1,60,0,0
119884,-111.111111111111,4,2,1,65,0,0
121271,-100,4,2,1,60,0,0
123959,-100,4,2,1,5,0,0
124046,-100,4,2,1,60,0,0
130809,-100,4,2,1,65,0,0
132370,-100,4,2,1,60,0,0
135057,-100,4,2,1,5,0,0
135144,-100,4,2,1,60,0,0
137919,-100,4,2,1,70,0,0
139306,-100,4,2,1,75,0,0
140693,-100,4,2,1,55,0,0
142081,-100,4,2,1,45,0,0
142774,-125,4,2,1,75,0,0
143468,-90.9090909090909,4,2,1,85,0,1
149277,-90.9090909090909,4,2,1,5,0,1
149364,-90.9090909090909,4,2,1,85,0,1
150664,-90.9090909090909,4,2,1,5,0,1
150751,-90.9090909090909,4,2,1,85,0,1
151705,-90.9090909090909,4,2,1,85,0,0
151792,-90.9090909090909,4,2,1,90,0,1
152919,-90.9090909090909,4,2,1,90,0,0
153005,-90.9090909090909,4,2,1,95,0,1
154479,-90.9090909090909,4,2,1,95,0,0
154566,-90.9090909090909,4,2,1,85,0,1
165578,-90.9090909090909,4,2,1,85,0,0
165664,-125,4,2,1,75,0,1
168352,-125,4,2,1,75,0,0
168439,-125,4,2,1,85,0,1
169479,-125,4,2,1,50,0,0
172601,-125,4,2,1,40,0,0
178150,-100,4,2,1,30,0,0
178323,-100,4,2,1,40,0,0
178497,-100,4,2,1,50,0,0
178670,-100,4,2,1,60,0,0
178844,-100,4,2,1,70,0,0
179017,-100,4,2,1,80,0,0
180057,-100,4,2,1,85,0,0
180924,-100,4,2,1,80,0,0
189248,-100,4,2,1,85,0,0
190289,-100,4,2,1,90,0,0
192023,-100,4,2,1,80,0,0
197572,-100,4,2,1,85,0,0
198959,-100,4,2,1,90,0,0
200346,-100,4,2,1,80,0,0
202948,-133.333333333333,4,2,1,70,0,0
204508,-133.333333333333,4,2,1,60,0,0
205896,-133.333333333333,4,2,1,50,0,0
211098,-200,4,2,1,50,0,0
211445,-133.333333333333,4,2,1,60,0,0
214219,-100,4,2,1,90,0,0
215433,-100,4,2,1,95,0,0
216994,-90.9090909090909,4,2,1,85,0,1
228005,-90.9090909090909,4,2,1,85,0,0
228092,-125,4,2,1,75,0,1
230780,-125,4,2,1,75,0,0
230867,-125,4,2,1,85,0,1
233555,-125,4,2,1,85,0,0
233641,-90.9090909090909,4,2,1,45,0,1
234335,-90.9090909090909,4,2,1,55,0,1
235029,-90.9090909090909,4,2,1,65,0,1
235722,-90.9090909090909,4,2,1,75,0,1
236069,-166.666666666667,4,2,1,60,0,1
237803,-250,4,2,1,50,0,1
238844,495.049504950495,4,2,1,50,1,0
238844,-250,4,2,1,50,0,1
239215,-250,4,2,1,5,0,1
239277,346.820809248555,4,2,1,50,1,0
244826,-100,4,2,1,5,0,0

[Colours]
Combo1 : 203,143,199
Combo2 : 255,155,155
Combo3 : 226,95,134
Combo4 : 192,177,205
Combo5 : 197,139,139
Combo6 : 120,132,171

[HitObjects]
449,48,579,6,0,P|444:90|442:132,1,85,2|2,2:0|2:0,2:0:0:0:
326,256,1272,2,0,P|324:213|318:171,1,85,2|2,2:0|2:0,2:0:0:0:
174,79,1966,2,0,P|212:96|253:90,1,85,2|2,2:0|2:0,2:0:0:0:
304,21,2486,1,2,0:0:0:0:
96,32,2833,5,6,1:2:0:0:
256,192,2920,12,4,4394,3:0:0:0:
381,190,4740,6,0,B|343:175|285:189|326:214|261:231|220:214,1,170,6|0,1:2|1:2,2:0:0:0:
76,130,5260,1,2,2:0:0:0:
159,88,5433,2,0,P|170:144|157:171,1,85,0|0,1:2|2:0,2:0:0:0:
56,244,5780,1,2,1:2:0:0:
119,354,5953,1,8,2:0:0:0:
201,333,6127,6,0,P|285:328|370:320,1,170,0|0,1:2|1:2,2:0:0:0:
457,176,6647,1,0,2:0:0:0:
499,249,6820,2,0,P|458:259|416:251,1,85,0|8,1:2|3:0,2:0:0:0:
343,152,7167,1,8,3:0:0:0:
219,253,7341,5,4,3:0:0:0:
219,253,7427,1,4,3:0:0:0:
219,253,7514,2,0,P|154:203|72:217,1,170,2|0,1:2|1:2,2:0:0:0:
142,336,8034,1,0,2:0:0:0:
280,307,8208,2,0,P|299:269|296:227,1,85,0|0,1:2|2:0,2:0:0:0:
244,109,8555,1,0,1:2:0:0:
145,237,8728,1,8,2:0:0:0:
23,46,8901,6,0,B|33:78|64:84|64:84|171:56,1,170,0|0,1:2|1:2,2:0:0:0:
271,140,9422,1,8,2:0:0:0:
378,30,9595,2,0,L|294:8,1,85,0|8,1:2|3:0,2:0:0:0:
184,137,9942,1,4,3:0:0:0:
332,274,10115,5,10,2:0:0:0:
332,274,10202,1,10,2:0:0:0:
332,274,10289,2,0,B|317:236|331:178|356:219|373:154|356:113,1,170,6|0,1:2|1:2,2:0:0:0:
462,248,10809,1,0,2:0:0:0:
403,320,10982,2,0,P|368:350|327:356,1,85,0|0,1:2|2:0,2:0:0:0:
239,258,11329,1,0,1:2:0:0:
75,341,11503,5,10,2:0:0:0:
75,341,11589,1,10,2:0:0:0:
75,341,11676,1,2,1:2:0:0:
208,232,11849,1,8,2:0:0:0:
330,356,12023,2,0,L|245:350,1,85,8|2,2:0|1:2,2:0:0:0:
33,246,12370,2,0,L|117:240,1,85,10|8,2:0|3:0,2:0:0:0:
267,121,12716,1,4,3:0:0:0:
201,66,12890,1,0,2:0:0:0:
127,120,13063,6,0,P|122:60|116:1,1,118.999996368408,6|0,1:2|2:0,2:0:0:0:
29,182,13583,2,0,P|60:230|117:240,1,118.999996368408,8|8,2:0|3:0,2:0:0:0:
205,147,14104,2,0,P|199:176|195:205,1,59.4999981842042,4|0,3:0|2:0,2:0:0:0:
281,295,14450,6,0,B|198:288|198:288|181:296|171:311,1,118.999996368408,4|0,3:0|2:0,2:0:0:0:
297,213,14971,2,0,P|348:241|361:298,1,118.999996368408,4|0,0:3|1:2,2:0:0:0:
229,382,15491,1,8,2:0:0:0:
171,311,15664,1,0,1:2:0:0:
93,368,15838,6,0,P|85:266|74:164,2,204,6|2|2,1:2|2:0|2:0,2:0:0:0:
248,262,17225,2,0,P|255:160|266:58,2,204,2|2|2,2:0|2:0|2:0,2:0:0:0:
496,365,18612,6,0,P|492:272|400:269,2,204,2|2|2,2:0|2:0|2:0,2:0:0:0:
248,262,20000,2,0,P|251:354|343:357,2,204,2|2|2,2:0|2:0|2:0,2:0:0:0:
308,216,21213,1,2,1:2:0:0:
224,160,21387,6,0,B|169:190|169:190|86:179|86:179|45:138,2,204,6|2|2,1:2|2:0|2:0,2:0:0:0:
318,34,22774,2,0,B|373:64|373:64|456:53|456:53|497:12,2,204,2|2|0,2:0|2:0|2:0,2:0:0:0:
112,11,24161,6,0,P|123:78|131:145,1,136,2|2,2:0|2:0,2:0:0:0:
103,230,24682,2,0,P|147:181|213:184,1,136,2|2,2:0|2:0,2:0:0:0:
282,240,25202,1,0,2:0:0:0:
353,188,25375,1,2,2:0:0:0:
451,284,25549,6,0,B|420:274|373:288|405:306|353:322|323:311,1,136,2|2,2:0|2:0,2:0:0:0:
257,252,26069,1,0,2:0:0:0:
180,295,26242,2,0,P|182:328|183:362,1,68,2|0,2:0|2:0,2:0:0:0:
98,268,26589,2,0,P|99:234|101:200,1,68,2|2,2:0|2:0,2:0:0:0:
173,142,26936,6,0,P|97:156|21:165,1,152.999995330811,6|2,1:2|2:0,2:0:0:0:
51,70,27456,1,0,2:0:0:0:
148,57,27630,2,0,P|186:50|221:64,1,76.4999976654053,2|0,2:0|2:0,2:0:0:0:
290,134,27976,1,2,2:0:0:0:
376,33,28150,1,2,2:0:0:0:
512,94,28323,6,0,B|498:125|477:134|477:134|379:121,1,152.999995330811,2|2,2:0|2:0,2:0:0:0:
163,184,28844,2,0,P|215:131|289:133,1,152.999995330811,2|0,2:0|2:0,2:0:0:0:
352,274,29364,2,0,L|343:199,1,76.4999976654053,2|2,2:0|2:0,2:0:0:0:
478,313,29711,6,0,B|440:305|392:321|424:342|379:359|336:352,1,152.999995330811,2|2,2:0|2:0,2:0:0:0:
255,293,30231,2,0,P|249:330|246:368,1,76.4999976654053,2|0,2:0|2:0,2:0:0:0:
171,259,30578,2,0,P|167:220|162:183,1,76.4999976654053,2|0,2:0|2:0,2:0:0:0:
67,105,30924,1,2,2:0:0:0:
171,39,31098,6,0,P|214:81|297:62,1,152.999995330811,2|2,2:0|2:0,2:0:0:0:
357,141,31618,1,2,2:0:0:0:
467,53,31792,2,0,P|433:36|397:47,1,76.4999976654053,2|0,2:0|2:0,2:0:0:0:
475,203,32138,2,0,P|472:165|445:140,1,76.4999976654053,2|0,2:0|1:2,2:0:0:0:
258,161,32485,6,0,B|297:154|345:170|313:191|358:208|401:200,2,152.999995330811,6|2|2,1:2|2:0|2:0,2:0:0:0:
193,237,33352,1,0,2:0:0:0:
118,170,33526,2,0,P|97:200|96:238,1,76.4999976654053,2|2,2:0|2:0,2:0:0:0:
152,327,33872,6,0,L|0:312,1,152.999995330811,2|2,2:0|2:0,2:0:0:0:
96,238,34393,1,0,2:0:0:0:
32,161,34566,2,0,L|16:83,1,76.4999976654053,2|0,2:0|2:0,2:0:0:0:
115,74,34913,2,0,L|131:-4,1,76.4999976654053,4|0,3:0|2:0,2:0:0:0:
328,103,35260,6,0,P|279:158|205:152,1,152.999995330811,6|0,1:2|1:2,2:0:0:0:
329,18,35780,2,0,P|395:49|410:122,1,152.999995330811,8|2,2:0|1:2,2:0:0:0:
362,205,36300,1,10,2:0:0:0:
252,85,36474,5,2,1:2:0:0:
252,85,36560,1,2,1:2:0:0:
252,85,36647,2,0,P|197:73|146:96,1,114.749996498108,6|8,1:2|2:0,2:0:0:0:
121,125,36994,1,8,2:0:0:0:
14,79,37167,5,2,1:2:0:0:
14,79,37514,1,2,1:2:0:0:
217,275,37861,5,8,0:0:0:0:
217,275,37948,1,8,0:0:0:0:
217,275,38034,2,0,P|171:208|92:223,1,170,6|10,1:2|2:0,2:0:0:0:
53,316,38555,2,0,L|141:301,1,85,2|0,2:0|2:0,2:0:0:0:
267,365,38901,2,0,P|226:377|184:373,1,85,2|8,1:2|2:0,2:0:0:0:
298,219,39248,1,2,2:0:0:0:
407,329,39422,6,0,L|425:131,1,170,0|8,1:2|2:0,2:0:0:0:
348,56,39942,1,0,1:2:0:0:
256,144,40115,2,0,P|217:159|175:156,1,85,2|0,2:0|1:2,2:0:0:0:
92,5,40462,2,0,P|155:1|201:46,1,127.5,10|0,2:0|2:0,2:0:0:0:
207,84,40809,6,0,L|23:68,1,170,2|10,1:2|2:0,2:0:0:0:
1,218,41329,2,0,P|42:220|79:199,1,85,2|0,2:0|2:0,2:0:0:0:
194,300,41676,2,0,P|157:279|115:281,1,85,2|8,1:2|2:0,2:0:0:0:
16,362,42023,1,2,2:0:0:0:
143,359,42196,6,0,L|329:335,1,170,2|10,1:2|2:0,2:0:0:0:
390,236,42716,1,2,1:2:0:0:
235,157,42890,1,2,2:0:0:0:
284,262,43063,1,2,1:2:0:0:
343,118,43237,1,10,2:0:0:0:
215,32,43410,1,2,1:2:0:0:
140,184,43583,6,0,P|59:190|13:123,1,170,6|8,1:2|2:0,2:0:0:0:
116,46,44104,1,2,2:0:0:0:
234,156,44277,2,0,P|238:199|226:239,1,85,2|0,2:0|1:2,2:0:0:0:
107,286,44624,1,8,2:0:0:0:
97,122,44797,1,2,2:0:0:0:
289,74,44971,6,0,B|298:108|329:118|329:118|435:99,1,170,2|10,1:2|2:0,2:0:0:0:
512,239,45491,2,0,B|503:273|472:283|472:283|365:264,1,170,2|2,1:2|1:2,2:0:0:0:
236,358,46011,2,0,L|320:346,1,85,8|2,2:0|2:0,2:0:0:0:
221,221,46358,6,0,B|179:208|126:222|160:246|105:262|60:249,1,170,2|10,1:2|2:0,2:0:0:0:
73,89,46878,2,0,P|82:130|90:172,1,85,2|0,1:2|2:0,2:0:0:0:
227,45,47225,2,0,P|217:86|209:128,1,85,2|8,1:2|2:0,2:0:0:0:
192,294,47572,1,2,1:2:0:0:
355,118,47745,5,8,2:0:0:0:
425,203,47919,1,8,2:0:0:0:
367,296,48092,1,0,1:2:0:0:
228,209,48266,5,14,2:0:0:0:
228,209,48612,1,8,3:0:0:0:
151,154,48786,2,0,P|154:111|162:70,1,85,4|0,3:0|1:2,2:0:0:0:
342,31,49133,6,0,P|421:42|445:119,1,170,6|10,1:2|2:0,2:0:0:0:
362,202,49653,2,0,P|358:159|354:117,1,85,2|0,2:0|2:0,2:0:0:0:
512,202,50000,2,0,P|507:244|504:286,1,85,2|8,1:2|2:0,2:0:0:0:
396,355,50346,1,2,2:0:0:0:
323,298,50520,6,0,B|304:322|275:328|275:328|163:313,1,170,0|8,1:2|2:0,2:0:0:0:
88,203,51040,1,0,1:2:0:0:
0,308,51213,2,0,P|49:318|90:303,1,85,2|0,2:0|1:2,2:0:0:0:
163,161,51560,2,0,P|114:121|52:127,1,127.5,10|0,2:0|2:0,2:0:0:0:
26,161,51907,6,0,P|110:150|194:140,1,170,2|10,1:2|2:0,2:0:0:0:
326,228,52427,2,0,P|291:253|249:255,1,85,2|0,2:0|2:0,2:0:0:0:
450,144,52774,2,0,P|415:119|373:117,1,85,2|8,1:2|2:0,2:0:0:0:
167,235,53121,5,2,1:2:0:0:
167,235,53208,1,0,1:2:0:0:
167,235,53294,1,12,2:0:0:0:
312,365,53468,2,0,P|368:306|448:321,1,170,8|8,2:0|2:0,2:0:0:0:
481,355,53901,1,8,2:0:0:0:
481,355,53988,1,8,3:0:0:0:
391,191,54161,1,8,3:0:0:0:
473,145,54335,2,0,P|488:186|475:237,1,85,4|4,3:0|3:0,2:0:0:0:
379,69,54682,6,0,P|294:60|209:53,1,170,6|8,1:2|2:0,2:0:0:0:
30,181,55202,2,0,P|114:172|199:165,1,170,6|0,1:2|1:2,2:0:0:0:
308,287,55722,2,0,P|264:283|222:279,1,85,8|2,2:0|1:2,2:0:0:0:
379,198,56069,6,0,B|401:207|412:231|412:231|394:351,1,170,6|8,1:2|2:0,2:0:0:0:
239,125,56589,2,0,B|217:133|206:157|206:157|223:278,1,170,6|0,1:2|1:2,2:0:0:0:
48,367,57109,2,0,L|53:282,1,85,10|0,2:0|1:2,2:0:0:0:
159,179,57456,6,0,B|118:164|66:177|95:203|39:218|-1:203,1,170,6|0,1:2|2:0,2:0:0:0:
29,114,57976,1,0,1:2:0:0:
130,259,58150,1,8,2:0:0:0:
130,259,58323,2,0,P|171:264|209:246,1,85,0|0,1:2|2:0,2:0:0:0:
334,207,58670,1,8,2:0:0:0:
386,267,58844,2,0,P|272:257|286:143,1,255,0|0,1:2|1:2,2:0:0:0:
438,142,59537,6,0,L|451:199,2,45.3333333333333,10|2|2,2:0|2:0|2:0,2:0:0:0:
487,80,59884,2,0,L|500:20,2,45.3333333333333,2|2|2,2:0|2:0|2:0,2:0:0:0:
380,42,60231,6,0,P|321:110|233:92,2,187.000005706787,6|10|2,1:2|2:0|2:0,2:0:0:0:
284,3,61098,1,0,1:2:0:0:
184,166,61271,1,10,2:0:0:0:
43,11,61445,6,0,P|48:58|53:104,1,93.5000028533936,2|0,2:0|1:2,2:0:0:0:
174,258,61792,2,0,P|178:220|184:165,1,93.5000028533936,2|8,2:0|2:0,2:0:0:0:
314,260,62138,1,0,1:2:0:0:
189,357,62312,2,0,P|142:356|102:333,1,93.5000028533936,2|0,2:0|1:2,2:0:0:0:
291,181,62659,2,0,P|337:181|377:204,1,93.5000028533936,10|0,2:0|2:0,2:0:0:0:
512,334,63005,6,0,B|462:322|408:339|445:365|387:382|336:367,1,187.000005706787,2|10,1:2|2:0,2:0:0:0:
174,258,63526,2,0,P|181:304|187:350,1,93.5000028533936,2|0,2:0|2:0,2:0:0:0:
314,260,63872,1,2,1:2:0:0:
191,154,64046,1,10,2:0:0:0:
69,286,64219,6,0,P|75:239|82:193,1,93.5000028533936,2|0,2:0|1:2,2:0:0:0:
284,169,64566,2,0,P|277:122|270:76,1,93.5000028533936,2|8,2:0|2:0,2:0:0:0:
86,12,64913,1,0,1:2:0:0:
191,154,65086,1,2,2:0:0:0:
18,105,65260,1,2,1:2:0:0:
183,39,65433,1,10,2:0:0:0:
0,115,65607,1,2,1:2:0:0:
181,239,65780,6,0,P|246:220|275:159,1,140.25000428009,6|0,1:2|2:0,2:0:0:0:
250,129,66127,2,0,P|204:122|158:121,1,93.5000028533936,10|0,2:0|2:0,2:0:0:0:
328,50,66474,2,0,P|351:90|367:134,1,93.5000028533936,2|0,2:0|1:2,2:0:0:0:
418,290,66820,2,0,P|447:254|471:213,1,93.5000028533936,10|2,2:0|2:0,2:0:0:0:
275,159,67167,6,0,P|281:228|291:298,1,140.25000428009,2|0,1:2|2:0,2:0:0:0:
306,332,67514,2,0,P|260:320|214:316,1,93.5000028533936,10|0,2:0|1:2,2:0:0:0:
112,232,67861,2,0,P|139:193|171:160,1,93.5000028533936,2|0,2:0|1:2,2:0:0:0:
8,228,68208,2,0,P|20:272|40:315,1,93.5000028533936,10|0,2:0|1:2,2:0:0:0:
201,83,68555,6,0,B|151:71|97:88|134:114|76:131|25:116,1,187.000005706787,14|10,2:0|2:0,2:0:0:0:
125,0,69075,1,2,1:2:0:0:
125,0,69161,1,0,1:2:0:0:
125,0,69248,1,8,2:0:0:0:
262,149,69422,1,10,2:0:0:0:
496,17,69768,6,0,B|486:46|459:59|459:59|330:46,1,187.000005706787,6|8,1:2|2:0,2:0:0:0:
170,160,70289,2,0,L|276:148,1,93.5000028533936,8|0,2:0|1:2,2:0:0:0:
448,258,70635,1,10,2:0:0:0:
350,132,70809,1,0,1:2:0:0:
287,319,70982,1,8,2:0:0:0:
287,319,71069,1,8,2:0:0:0:
287,319,71156,1,8,2:0:0:0:
47,315,71329,6,0,P|95:242|179:266,2,187.000005706787,6|10|2,1:2|2:0|2:0,2:0:0:0:
140,359,72196,1,0,1:2:0:0:
265,230,72370,1,10,2:0:0:0:
396,354,72543,6,0,P|349:347|303:344,1,93.5000028533936,2|0,2:0|1:2,2:0:0:0:
172,240,72890,2,0,P|218:233|264:230,1,93.5000028533936,2|8,2:0|2:0,2:0:0:0:
424,271,73237,1,0,1:2:0:0:
328,164,73410,2,0,P|286:143|239:144,1,93.5000028533936,2|0,2:0|1:2,2:0:0:0:
396,354,73757,2,0,P|442:354|484:334,1,93.5000028533936,10|0,2:0|2:0,2:0:0:0:
441,85,74104,6,0,P|423:176|423:270,1,187.000005706787,2|10,1:2|2:0,2:0:0:0:
258,365,74624,2,0,P|251:318|239:273,1,93.5000028533936,2|0,2:0|2:0,2:0:0:0:
124,162,74971,1,2,1:2:0:0:
58,306,75144,1,10,2:0:0:0:
227,171,75318,6,0,P|274:165|321:165,1,93.5000028533936,2|0,2:0|1:2,2:0:0:0:
160,64,75664,2,0,P|113:58|66:58,1,93.5000028533936,2|8,2:0|2:0,2:0:0:0:
0,237,76011,1,0,1:2:0:0:
124,162,76185,1,2,2:0:0:0:
142,319,76358,1,2,1:2:0:0:
119,139,76531,1,10,2:0:0:0:
58,306,76705,1,2,1:2:0:0:
256,224,76878,6,0,B|306:212|360:229|323:255|381:272|432:257,1,187.000005706787,6|10,1:2|2:0,2:0:0:0:
414,85,77398,2,0,P|407:132|400:177,1,93.5000028533936,2|0,2:0|2:0,2:0:0:0:
286,303,77745,1,2,1:2:0:0:
369,363,77919,2,0,P|415:355|461:349,1,93.5000028533936,8|0,2:0|1:2,2:0:0:0:
202,288,78266,6,0,B|134:279|134:279|88:294|88:294|19:286,1,187.000005706787,6|10,1:2|2:0,2:0:0:0:
165,167,78786,2,0,L|260:156,1,93.5000028533936,2|0,2:0|2:0,2:0:0:0:
133,19,79133,1,2,1:2:0:0:
58,90,79306,2,0,P|32:128|34:174,1,93.5000028533936,8|0,2:0|1:2,2:0:0:0:
196,301,79653,6,0,P|267:246|258:157,1,187.000005706787,6|8,1:2|2:0,2:0:0:0:
156,38,80173,1,0,1:2:0:0:
92,228,80346,2,0,P|137:215|183:207,1,93.5000028533936,8|0,0:0|1:0,0:0:0:0:
361,283,80693,1,10,2:0:0:0:
258,157,80867,1,2,1:2:0:0:
10,322,81040,6,0,P|102:310|195:300,1,187.000005706787,6|10,1:2|2:0,2:0:0:0:
389,362,81560,2,0,P|302:343|279:257,1,187.000005706787,6|2,1:2|1:2,2:0:0:0:
432,149,82081,1,8,2:0:0:0:
361,283,82254,1,2,1:2:0:0:
287,148,82427,6,0,P|222:164|176:212,1,136,6|0,1:2|1:2,2:0:0:0:
124,267,82948,1,10,2:0:0:0:
54,237,83121,2,0,P|35:208|32:175,1,68,0|0,1:2|2:0,2:0:0:0:
115,46,83468,6,0,L|106:181,1,136,14|0,2:0|2:0,2:0:0:0:
294,293,84161,2,0,P|265:274|232:270,1,68,10|8,2:0|2:0,2:0:0:0:
200,282,84422,1,8,2:0:0:0:
200,282,84508,1,10,2:0:0:0:
152,340,84682,1,8,3:0:0:0:
99,287,84855,2,0,P|80:314|77:348,1,68,4|0,3:0|1:2,2:0:0:0:
239,352,85202,6,0,B|374:342|374:342|408:329|418:293,1,204,14|8,2:0|2:0,2:0:0:0:
352,160,85896,1,0,1:2:0:0:
25,86,86242,6,0,B|71:75|137:94|93:127|155:145|208:134|208:134|257:123|281:89|280:54|257:26|200:19|170:42,1,407.999987548829,2|0,2:0|2:0,2:0:0:0:
43,332,87976,6,0,P|48:247|52:162,1,170,6|0,1:2|1:2,2:0:0:0:
173,275,88497,1,2,2:0:0:0:
216,192,88670,2,0,P|174:182|133:191,1,85,0|0,1:2|2:0,2:0:0:0:
288,259,89017,2,0,P|329:267|370:258,1,85,2|8,1:2|2:0,2:0:0:0:
463,128,89364,6,0,P|383:119|332:183,1,170,0|0,1:2|1:2,2:0:0:0:
364,340,89884,1,0,2:0:0:0:
445,295,90057,2,0,P|453:253|440:214,1,85,0|8,1:2|3:0,2:0:0:0:
375,107,90404,1,8,3:0:0:0:
216,192,90578,5,4,3:0:0:0:
216,192,90664,1,4,3:0:0:0:
216,192,90751,2,0,P|223:276|230:361,1,170,2|0,1:2|1:2,2:0:0:0:
137,272,91271,1,0,2:0:0:0:
42,358,91445,2,0,P|46:315|51:273,1,85,0|0,1:2|2:0,2:0:0:0:
129,173,91792,1,0,1:2:0:0:
0,74,91965,1,8,2:0:0:0:
184,44,92138,5,2,1:2:0:0:
30,166,92312,1,2,2:0:0:0:
184,43,92485,2,0,P|225:39|262:59,1,85,2|10,1:2|2:0,2:0:0:0:
311,209,92832,1,2,1:2:0:0:
207,130,93005,1,8,3:0:0:0:
334,6,93179,1,4,3:0:0:0:
484,98,93352,5,10,2:0:0:0:
484,98,93439,1,10,2:0:0:0:
484,98,93526,2,0,B|446:83|388:97|429:122|364:139|323:122,1,170,6|0,1:2|1:2,2:0:0:0:
184,43,94046,1,0,2:0:0:0:
116,107,94219,2,0,P|152:128|194:130,1,85,0|0,1:2|2:0,2:0:0:0:
298,38,94566,1,0,1:2:0:0:
406,179,94740,5,10,2:0:0:0:
406,179,94826,1,10,2:0:0:0:
406,179,94913,1,2,1:2:0:0:
194,130,95086,1,8,2:0:0:0:
272,300,95260,2,0,P|276:257|284:216,1,85,8|2,2:0|1:2,2:0:0:0:
478,119,95607,2,0,P|485:160|490:202,1,85,10|8,2:0|3:0,2:0:0:0:
413,382,95953,1,4,3:0:0:0:
355,319,96127,1,0,2:0:0:0:
272,300,96300,6,0,P|213:291|153:287,1,118.999996368408,6|0,1:2|2:0,2:0:0:0:
0,370,96820,2,0,P|56:372|84:323,1,118.999996368408,8|8,2:0|3:0,2:0:0:0:
49,203,97341,2,0,P|38:230|37:260,1,59.4999981842042,4|0,3:0|2:0,2:0:0:0:
118,163,97687,6,0,P|59:150|0:142,1,118.999996368408,4|0,3:0|2:0,2:0:0:0:
86,46,98208,1,8,2:0:0:0:
86,46,98294,1,8,2:0:0:0:
86,46,98381,1,8,2:0:0:0:
192,111,98555,1,4,3:0:0:0:
260,44,98728,1,4,3:0:0:0:
339,188,98901,5,8,2:0:0:0:
339,188,98988,1,8,2:0:0:0:
339,188,99075,2,0,P|320:154|317:116,1,76.4999976654053,6|0,1:2|2:0,2:0:0:0:
432,202,99422,2,0,P|418:237|392:264,1,76.4999976654053,2|0,1:2|2:0,2:0:0:0:
397,128,99768,2,0,P|453:123|513:191,1,152.999995330811,2|2,1:2|1:2,2:0:0:0:
462,310,100289,1,2,2:0:0:0:
392,264,100462,6,0,P|315:256|239:249,1,152.999995330811,2|2,1:2|1:2,2:0:0:0:
159,293,100982,1,2,2:0:0:0:
88,232,101156,2,0,P|67:262|66:300,1,76.4999976654053,0|0,1:2|2:0,2:0:0:0:
168,177,101503,2,0,L|159:101,1,76.4999976654053,2|2,1:2|2:0,2:0:0:0:
199,18,101849,6,0,P|126:11|72:62,1,152.999995330811,2|2,1:2|1:2,2:0:0:0:
159,101,102370,1,2,2:0:0:0:
159,101,102543,2,0,L|248:109,1,76.4999976654053,0|0,1:2|2:0,2:0:0:0:
307,165,102890,1,2,1:2:0:0:
400,76,103063,1,2,2:0:0:0:
474,129,103237,6,0,B|441:139|430:172|430:172|442:259,1,152.999995330811,0|0,1:2|1:2,2:0:0:0:
282,329,103757,1,8,2:0:0:0:
368,357,103930,2,0,P|373:319|361:283,1,76.4999976654053,2|8,1:2|3:0,2:0:0:0:
285,230,104277,2,0,B|242:234|242:234|225:246|225:246|174:250,1,114.749996498108,4|0,3:0|0:0,2:0:0:0:
141,230,104624,6,0,P|109:209|71:205,1,76.4999976654053,6|0,1:2|2:0,2:0:0:0:
30,335,104971,2,0,P|63:318|85:286,1,76.4999976654053,2|0,1:2|2:0,2:0:0:0:
65,128,105318,2,0,P|1:163|-2:236,1,152.999995330811,2|2,1:2|1:2,2:0:0:0:
30,335,105838,1,2,2:0:0:0:
113,373,106011,6,0,P|188:361|264:353,1,152.999995330811,2|2,1:2|1:2,2:0:0:0:
326,284,106531,1,2,2:0:0:0:
403,333,106705,2,0,P|413:296|409:258,1,76.4999976654053,0|0,1:2|2:0,2:0:0:0:
266,159,107052,2,0,P|255:195|259:233,1,76.4999976654053,2|2,1:2|2:0,2:0:0:0:
292,265,107312,1,2,2:0:0:0:
292,265,107398,6,0,P|219:244|143:241,1,152.999995330811,2|2,1:2|1:2,2:0:0:0:
23,333,107919,2,0,B|58:349|58:349|94:337,1,76.4999976654053,2|0,2:0|1:2,2:0:0:0:
142,241,108266,2,0,B|107:225|107:225|71:237,1,76.4999976654053,2|0,2:0|1:2,2:0:0:0:
256,352,108612,5,10,2:0:0:0:
326,182,108959,1,2,2:0:0:0:
326,182,109133,2,0,L|332:232,1,50.9999984436036,2|2,2:0|2:0,2:0:0:0:
404,272,109479,2,0,L|410:221,1,50.9999984436036,2|0,2:0|1:2,2:0:0:0:
361,60,109826,6,0,P|306:53|256:80,1,114.749996498108,8|0,2:0|2:0,2:0:0:0:
239,114,110173,6,0,B|228:16|228:16|211:-5|178:0,1,152.999995330811,6|2,1:2|1:2,2:0:0:0:
99,48,110693,1,0,2:0:0:0:
17,3,110867,2,0,P|5:40|12:77,1,76.4999976654053,2|0,1:2|2:0,2:0:0:0:
97,143,111213,1,2,1:2:0:0:
32,302,111387,1,10,2:0:0:0:
0,199,111560,6,0,B|46:195|87:221|46:230|90:257|135:254,1,152.999995330811,0|2,1:2|1:2,2:0:0:0:
246,171,112081,2,0,L|170:180,1,76.4999976654053,2|0,2:0|1:2,2:0:0:0:
288,256,112427,1,8,3:0:0:0:
246,338,112601,2,0,L|170:328,1,76.4999976654053,4|0,3:0|1:2,2:0:0:0:
141,365,112861,5,0,1:2:0:0:
141,365,112948,2,0,L|319:345,1,152.999995330811,2|2,1:2|1:2,2:0:0:0:
357,277,113468,2,0,P|325:256|287:255,1,76.4999976654053,2|0,2:0|1:2,2:0:0:0:
418,219,113815,2,0,P|438:250|439:288,1,76.4999976654053,2|0,2:0|1:2,2:0:0:0:
293,347,114161,1,10,2:0:0:0:
211,304,114335,6,0,P|194:238|244:174,1,152.999995330811,0|0,1:2|1:2,2:0:0:0:
418,219,114855,1,8,2:0:0:0:
327,260,115029,2,0,L|333:183,1,76.4999976654053,2|8,1:2|3:0,2:0:0:0:
401,73,115375,1,4,3:0:0:0:
253,15,115549,5,8,2:0:0:0:
253,15,115635,1,8,2:0:0:0:
253,15,115722,2,0,P|202:67|128:62,2,152.999995330811,6|2|2,1:2|1:2|1:2,2:0:0:0:
311,95,116589,1,0,2:0:0:0:
244,168,116763,2,0,P|208:154|171:157,1,76.4999976654053,2|10,1:2|2:0,2:0:0:0:
70,195,117109,6,0,L|94:352,1,152.999995330811,0|2,1:2|1:2,2:0:0:0:
196,249,117630,1,8,2:0:0:0:
269,317,117803,2,0,L|317:257,1,76.4999976654053,2|8,1:2|3:0,2:0:0:0:
398,315,118150,2,0,L|474:306,1,76.4999976654053,4|0,3:0|1:2,2:0:0:0:
512,154,118497,6,0,B|497:181|466:185|466:185|371:175,1,152.999995330811,6|0,1:2|1:2,2:0:0:0:
288,94,119017,1,8,2:0:0:0:
192,192,119190,1,0,1:2:0:0:
93,64,119364,1,8,2:0:0:0:
0,221,119537,1,8,2:0:0:0:
176,111,119711,5,2,1:2:0:0:
176,111,119797,1,2,1:2:0:0:
175,111,119884,2,0,P|231:118|269:160,1,114.749996498108,14|10,2:0|2:0,2:0:0:0:
273,199,120231,1,10,2:0:0:0:
166,273,120404,5,0,1:2:0:0:
166,273,120751,1,0,1:2:0:0:
357,303,120924,1,10,2:0:0:0:
257,368,121098,5,8,2:0:0:0:
257,368,121185,1,8,2:0:0:0:
257,368,121271,2,0,L|274:188,1,170,6|10,1:2|2:0,2:0:0:0:
293,107,121792,2,0,P|251:100|213:118,1,85,2|0,2:0|2:0,2:0:0:0:
131,218,122138,2,0,L|121:128,1,85,2|8,1:2|2:0,2:0:0:0:
257,0,122485,1,2,2:0:0:0:
409,44,122659,6,0,P|470:97|464:179,1,170,2|10,1:2|2:0,2:0:0:0:
378,274,123179,1,2,1:2:0:0:
272,198,123352,2,0,L|183:190,1,85,2|0,2:0|1:2,2:0:0:0:
81,324,123699,2,0,P|126:366|188:361,1,127.5,10|0,2:0|2:0,2:0:0:0:
220,333,124046,6,0,L|50:347,1,170,2|10,1:2|2:0,2:0:0:0:
0,202,124566,2,0,P|40:192|78:209,1,85,2|0,2:0|2:0,2:0:0:0:
185,99,124913,2,0,P|146:115|106:106,1,85,2|8,1:2|2:0,2:0:0:0:
12,11,125260,1,2,2:0:0:0:
140,28,125433,6,0,L|309:18,1,170,2|10,1:2|2:0,2:0:0:0:
410,148,125953,1,2,1:2:0:0:
259,222,126127,1,2,2:0:0:0:
377,259,126300,1,2,1:2:0:0:
289,118,126474,1,10,2:0:0:0:
458,224,126647,1,2,2:0:0:0:
288,326,126820,6,0,B|246:313|193:327|227:351|172:367|127:354,1,170,6|8,1:2|2:0,2:0:0:0:
36,262,127341,1,2,2:0:0:0:
196,244,127514,2,0,P|236:230|278:230,1,85,2|0,2:0|1:2,2:0:0:0:
391,289,127861,1,8,2:0:0:0:
356,131,128034,1,2,2:0:0:0:
196,158,128208,6,0,B|91:179|91:179|58:170|41:143,1,170,2|10,1:2|2:0,2:0:0:0:
166,54,128728,2,0,B|271:75|271:75|304:66|320:39,1,170,2|2,1:2|1:2,2:0:0:0:
442,132,129248,2,0,P|425:93|424:50,1,85,8|2,2:0|2:0,2:0:0:0:
457,24,129508,1,0,2:0:0:0:
457,24,129595,6,0,P|446:108|441:193,1,170,2|10,1:2|2:0,2:0:0:0:
512,341,130115,2,0,P|511:298|504:256,1,85,2|0,2:0|2:0,2:0:0:0:
357,369,130462,2,0,P|357:326|364:284,1,85,2|8,1:2|2:0,2:0:0:0:
200,142,130809,6,0,P|255:200|332:176,1,170,6|8,1:2|2:0,2:0:0:0:
282,107,131329,1,0,1:2:0:0:
235,278,131503,1,14,2:0:0:0:
103,156,131676,2,0,P|65:136|23:140,1,85,10|0,2:0|1:2,2:0:0:0:
77,310,132023,1,10,2:0:0:0:
110,306,132109,1,8,2:0:0:0:
138,288,132196,1,8,2:0:0:0:
155,258,132283,1,8,2:0:0:0:
155,225,132370,6,0,P|113:293|160:358,1,170,6|10,1:2|2:0,2:0:0:0:
290,301,132890,2,0,L|205:290,1,85,2|0,2:0|2:0,2:0:0:0:
332,175,133237,2,0,L|417:164,1,85,2|8,1:2|2:0,2:0:0:0:
512,81,133583,1,2,2:0:0:0:
444,25,133757,6,0,B|427:6|384:0|353:20|353:20|361:59|332:84,1,170,2|10,1:2|2:0,2:0:0:0:
219,24,134277,1,2,1:2:0:0:
108,89,134450,2,0,P|87:53|91:11,1,85,2|0,2:0|1:2,2:0:0:0:
200,118,134797,2,0,P|163:169|103:184,1,127.5,10|0,2:0|2:0,2:0:0:0:
62,171,135144,6,0,L|78:349,1,170,2|10,1:2|2:0,2:0:0:0:
201,251,135664,2,0,P|185:289|188:331,1,85,2|0,2:0|2:0,2:0:0:0:
313,188,136011,2,0,P|329:226|326:268,1,85,2|8,1:2|2:0,2:0:0:0:
200,118,136358,5,2,1:2:0:0:
200,118,136445,1,0,1:2:0:0:
200,118,136531,1,8,2:0:0:0:
362,23,136705,2,0,P|353:104|413:160,1,170,8|8,2:0|2:0,2:0:0:0:
459,168,137138,1,8,2:0:0:0:
459,168,137225,1,10,2:0:0:0:
443,357,137398,1,8,3:0:0:0:
512,294,137572,2,0,P|478:268|437:261,1,85,4|10,3:0|2:0,2:0:0:0:
244,373,137919,6,0,B|298:383|298:383|342:372|360:335|343:295,1,170,6|8,1:2|2:0,2:0:0:0:
131,231,138439,2,0,B|76:241|76:241|32:230|14:193|31:153,1,170,6|0,1:2|1:2,2:0:0:0:
149,42,138959,2,0,P|142:84|140:126,1,85,8|2,2:0|1:2,2:0:0:0:
356,202,139306,6,0,B|397:194|421:155|421:155|382:119|341:134,1,170,6|8,1:2|2:0,2:0:0:0:
116,298,139826,2,0,B|74:290|50:251|50:251|89:215|130:230,1,170,6|0,1:2|1:2,2:0:0:0:
288,340,140346,2,0,P|245:344|203:351,1,85,10|0,2:0|1:2,2:0:0:0:
293,246,140693,6,0,P|315:320|400:336,1,170,6|0,1:2|2:0,2:0:0:0:
464,270,141213,1,0,1:2:0:0:
387,167,141387,6,0,L|377:229,2,56.6666666666667,10|8|8,0:0|0:0|0:0,2:0:0:0:
378,86,141734,2,0,L|388:24,2,56.6666666666667,8|8|8,3:0|3:0|3:0,2:0:0:0:
295,101,142081,6,0,B|233:99|162:86|162:86|176:90|193:105,1,170,6|2,1:2|0:3,2:0:0:0:
199,219,142601,5,0,1:2:0:0:
199,219,142687,1,0,1:2:0:0:
199,219,142774,2,0,L|207:291,2,45.3333333333333,10|2|2,2:0|2:0|2:0,2:0:0:0:
274,316,143121,2,0,L|265:387,2,45.3333333333333,2|2|2,2:0|2:0|2:0,2:0:0:0:
410,263,143468,6,0,P|375:181|287:180,2,187.000005706787,6|10|2,1:2|2:0|2:0,2:0:0:0:
349,346,144335,1,0,1:2:0:0:
199,219,144508,1,10,2:0:0:0:
65,364,144682,6,0,P|58:317|52:271,1,93.5000028533936,2|0,2:0|1:2,2:0:0:0:
211,126,145029,2,0,P|204:172|198:218,1,93.5000028533936,2|8,2:0|2:0,2:0:0:0:
79,90,145375,1,0,1:2:0:0:
216,31,145549,2,0,P|260:43|292:86,1,93.5000028533936,2|0,2:0|1:2,2:0:0:0:
71,175,145896,2,0,P|26:162|-5:120,1,93.5000028533936,10|0,2:0|2:0,2:0:0:0:
211,126,146242,6,0,L|183:315,1,187.000005706787,2|10,1:2|2:0,2:0:0:0:
301,173,146763,2,0,L|316:271,1,93.5000028533936,2|0,2:0|2:0,2:0:0:0:
440,363,147109,1,2,1:2:0:0:
511,220,147283,1,10,2:0:0:0:
385,122,147456,6,0,P|431:109|477:102,1,93.5000028533936,2|0,2:0|1:2,2:0:0:0:
301,28,147803,2,0,P|255:15|209:8,1,93.5000028533936,2|8,2:0|2:0,2:0:0:0:
53,153,148150,1,0,1:2:0:0:
200,92,148323,1,2,2:0:0:0:
73,24,148497,1,2,1:2:0:0:
154,189,148670,1,10,2:0:0:0:
61,0,148844,1,2,1:2:0:0:
86,242,149017,6,0,P|147:272|211:248,1,140.25000428009,6|0,1:2|2:0,2:0:0:0:
240,223,149364,2,0,P|234:270|237:316,1,93.5000028533936,10|0,2:0|2:0,2:0:0:0:
383,212,149711,2,0,P|341:191|303:163,1,93.5000028533936,2|0,2:0|1:2,2:0:0:0:
454,279,150057,1,10,2:0:0:0:
319,358,150231,1,2,2:0:0:0:
475,183,150404,6,0,P|471:114|456:45,1,140.25000428009,2|0,1:2|2:0,2:0:0:0:
432,15,150751,2,0,P|389:34|342:34,1,93.5000028533936,10|0,2:0|1:2,2:0:0:0:
211,16,151098,2,0,P|234:56|271:84,1,93.5000028533936,2|0,2:0|1:2,2:0:0:0:
390,192,151445,2,0,P|343:186|303:163,1,93.5000028533936,10|0,2:0|1:2,2:0:0:0:
20,169,151792,6,0,B|71:184|129:167|92:141|146:124|196:136,1,187.000005706787,14|10,2:0|2:0,2:0:0:0:
304,269,152312,1,2,1:2:0:0:
304,269,152398,1,0,1:2:0:0:
304,269,152485,1,8,2:0:0:0:
111,320,152659,1,10,2:0:0:0:
196,136,153005,6,0,L|212:322,1,187.000005706787,6|8,1:2|2:0,2:0:0:0:
36,250,153526,2,0,L|44:145,1,93.5000028533936,8|0,2:0|1:2,2:0:0:0:
103,7,153872,1,10,2:0:0:0:
196,136,154046,1,0,1:2:0:0:
402,67,154219,1,8,2:0:0:0:
389,32,154306,1,8,2:0:0:0:
361,7,154393,1,8,2:0:0:0:
325,0,154479,1,8,2:0:0:0:
290,12,154566,6,0,P|314:95|401:97,2,187.000005706787,6|10|2,1:2|2:0|2:0,2:0:0:0:
392,0,155433,1,0,1:2:0:0:
448,188,155607,1,10,2:0:0:0:
288,288,155780,6,0,P|284:241|279:194,1,93.5000028533936,2|0,2:0|1:2,2:0:0:0:
146,55,156127,2,0,P|142:101|137:148,1,93.5000028533936,2|8,2:0|2:0,2:0:0:0:
120,310,156474,1,0,1:2:0:0:
281,374,156647,2,0,P|326:365|358:332,1,93.5000028533936,2|0,2:0|1:2,2:0:0:0:
122,227,156994,2,0,P|76:235|44:268,1,93.5000028533936,10|0,2:0|2:0,2:0:0:0:
233,117,157341,6,0,B|241:145|275:157|275:157|400:138,1,187.000005706787,2|10,1:2|2:0,2:0:0:0:
512,289,157861,2,0,L|419:275,1,93.5000028533936,2|0,2:0|2:0,2:0:0:0:
281,374,158208,1,2,1:2:0:0:
204,230,158381,1,10,2:0:0:0:
12,322,158555,6,0,P|7:275|-1:229,1,93.5000028533936,2|0,2:0|1:2,2:0:0:0:
123,94,158901,2,0,P|115:140|110:186,1,93.5000028533936,2|8,2:0|2:0,2:0:0:0:
153,374,159248,1,0,1:2:0:0:
204,230,159422,1,2,2:0:0:0:
281,374,159595,1,2,1:2:0:0:
204,200,159768,1,10,2:0:0:0:
31,296,159942,1,2,1:2:0:0:
252,299,160115,6,0,P|344:284|437:273,1,187.000005706787,6|10,1:2|2:0,2:0:0:0:
512,128,160635,2,0,P|480:161|434:167,1,93.5000028533936,2|0,2:0|2:0,2:0:0:0:
343,44,160982,1,2,1:2:0:0:
428,0,161156,2,0,P|437:45|448:101,1,93.5000028533936,8|0,2:0|1:2,2:0:0:0:
258,7,161503,6,0,B|207:-8|149:9|186:35|132:52|82:40,1,187.000005706787,6|10,1:2|2:0,2:0:0:0:
216,177,162023,2,0,P|220:130|225:84,1,93.5000028533936,2|0,2:0|2:0,2:0:0:0:
89,169,162370,1,2,1:2:0:0:
152,239,162543,2,0,P|192:264|238:263,1,93.5000028533936,8|0,2:0|1:2,2:0:0:0:
446,91,162890,6,0,P|369:76|310:156,1,187.000005706787,6|8,1:2|2:0,2:0:0:0:
357,336,163410,1,0,1:2:0:0:
512,184,163583,2,0,P|465:188|418:192,1,93.5000028533936,8|0,2:0|1:2,2:0:0:0:
323,14,163930,1,10,2:0:0:0:
216,177,164104,1,2,1:2:0:0:
17,190,164277,6,0,B|37:325|37:325|26:301|0:292,1,187.000005706787,6|10,1:2|2:0,2:0:0:0:
141,162,164797,2,0,B|209:153|209:153|255:168|255:168|328:159,1,187.000005706787,6|2,1:2|1:2,2:0:0:0:
260,313,165318,1,8,2:0:0:0:
104,245,165491,1,2,1:2:0:0:
126,85,165664,6,0,B|220:73|220:73|259:86,1,136,6|0,1:2|1:2,2:0:0:0:
318,131,166185,1,10,2:0:0:0:
375,83,166358,2,0,L|368:15,1,68,0|0,1:2|2:0,2:0:0:0:
480,128,166705,6,0,L|465:285,1,136,14|0,2:0|2:0,2:0:0:0:
269,357,167398,2,0,P|332:369|373:319,1,136,10|10,2:0|2:0,2:0:0:0:
357,245,167919,1,8,3:0:0:0:
289,276,168092,2,0,L|221:270,1,68,4|0,3:0|1:2,2:0:0:0:
109,158,168439,6,0,B|72:159|57:192|57:192|73:329,1,204,14|8,2:0|2:0,2:0:0:0:
221,270,169133,1,0,1:2:0:0:
256,32,169479,5,6,1:2:0:0:
256,192,169566,12,2,172601,2:0:0:0:
208,32,178150,6,0,B|192:72|192:72|207:110,1,85,8|8,2:0|2:0,2:0:0:0:
304,32,178497,2,0,B|320:72|320:72|304:110,1,85,8|8,2:0|2:0,2:0:0:0:
155,212,178844,5,8,2:0:0:0:
302,284,179017,1,8,2:0:0:0:
153,349,179190,1,8,2:0:0:0:
256,176,179364,1,8,2:0:0:0:
403,353,179537,6,0,P|365:372|323:371,1,85,6|8,1:2|2:0,2:0:0:0:
285,366,179797,1,8,2:0:0:0:
285,366,179884,1,8,2:0:0:0:
100,165,180057,2,0,B|106:188|142:195|142:195|256:175,1,170,6|0,1:2|1:2,2:0:0:0:
412,266,180578,1,8,2:0:0:0:
382,250,180664,1,8,2:0:0:0:
362,223,180751,1,8,2:0:0:0:
356,190,180838,1,8,2:0:0:0:
365,157,180924,6,0,P|427:144|420:48,2,170,6|10|2,1:2|2:0|2:0,2:0:0:0:
332,68,181792,1,0,1:2:0:0:
509,161,181965,1,10,2:0:0:0:
346,261,182138,6,0,P|261:252|176:246,1,170,2|0,2:0|2:0,2:0:0:0:
85,368,182659,2,0,P|68:329|79:289,1,85,10|0,2:0|1:2,2:0:0:0:
0,241,183005,2,0,P|24:207|65:197,1,85,2|0,2:0|1:2,2:0:0:0:
66,105,183352,2,0,P|107:109|136:139,1,85,10|0,2:0|2:0,2:0:0:0:
349,32,183699,6,0,P|268:28|219:93,1,170,2|8,1:2|2:0,2:0:0:0:
370,171,184219,2,0,L|459:162,1,85,2|0,1:2|2:0,2:0:0:0:
437,35,184566,1,0,1:2:0:0:
309,108,184740,2,0,P|283:141|280:183,1,85,8|0,2:0|2:0,2:0:0:0:
398,259,185086,6,0,B|351:241|310:258|310:258|315:303|284:330,1,170,2|8,1:2|2:0,2:0:0:0:
112,169,185607,2,0,B|158:151|199:168|199:168|194:213|225:240,1,170,2|0,1:2|1:2,2:0:0:0:
77,354,186127,2,0,P|80:311|85:269,1,85,8|0,2:0|1:2,2:0:0:0:
162,70,186474,6,0,B|120:57|67:71|101:95|46:111|1:98,1,170,6|10,1:2|2:0,2:0:0:0:
141,159,186994,2,0,L|320:168,1,170,2|2,2:0|1:2,2:0:0:0:
434,58,187514,2,0,P|392:56|356:78,1,85,8|0,2:0|2:0,2:0:0:0:
405,232,187861,6,0,P|430:197|426:156,1,85,2|0,1:2|2:0,2:0:0:0:
304,338,188208,2,0,P|279:303|283:262,1,85,10|0,2:0|1:2,2:0:0:0:
482,336,188555,2,0,P|440:329|397:325,1,85,2|0,2:0|1:2,2:0:0:0:
310,167,188901,2,0,P|267:170|225:177,1,85,10|0,2:0|2:0,2:0:0:0:
28,245,189248,6,0,B|35:276|66:284|66:284|179:269,1,170,6|8,1:2|2:0,2:0:0:0:
218,76,189768,2,0,P|142:108|119:187,1,170,2|0,1:2|1:2,2:0:0:0:
296,336,190289,6,0,L|309:166,1,170,14|0,2:0|1:2,2:0:0:0:
405,38,190809,1,8,2:0:0:0:
218,75,190982,2,0,P|175:77|137:59,1,85,8|0,2:0|1:2,2:0:0:0:
0,0,191329,2,0,L|6:42,1,42.5,8|0,2:0|2:0,2:0:0:0:
52,191,191503,2,0,L|58:148,1,42.5,8|8,2:0|2:0,2:0:0:0:
191,0,191676,1,8,2:0:0:0:
225,0,191763,1,8,2:0:0:0:
257,7,191849,1,8,2:0:0:0:
281,30,191936,1,8,2:0:0:0:
293,62,192023,6,0,P|347:121|421:90,2,170,6|10|2,1:2|2:0|2:0,2:0:0:0:
374,14,192890,1,0,1:2:0:0:
243,154,193063,1,10,2:0:0:0:
99,25,193237,6,0,B|73:40|72:76|72:76|82:184,1,170,2|0,2:0|2:0,2:0:0:0:
158,325,193757,2,0,P|195:304|215:267,1,85,10|0,2:0|1:2,2:0:0:0:
307,285,194104,2,0,P|307:243|285:207,1,85,2|0,2:0|1:2,2:0:0:0:
350,139,194450,2,0,P|313:117|271:118,1,85,10|0,2:0|2:0,2:0:0:0:
74,85,194797,6,0,P|126:24|205:41,1,170,2|10,1:2|2:0,2:0:0:0:
142,188,195318,2,0,L|156:99,1,85,0|0,1:2|2:0,2:0:0:0:
294,18,195664,1,0,1:2:0:0:
430,124,195838,2,0,P|391:140|349:138,1,85,10|0,2:0|1:2,2:0:0:0:
232,265,196185,6,0,B|332:250|332:250|370:255|386:287,1,170,2|8,1:2|2:0,2:0:0:0:
213,374,196705,2,0,B|112:362|112:362|77:347|69:312,1,170,2|0,1:2|1:2,2:0:0:0:
148,152,197225,2,0,L|137:236,1,85,8|0,2:0|1:2,2:0:0:0:
0,37,197572,6,0,B|42:24|95:38|61:62|116:78|161:65,1,170,6|10,1:2|2:0,2:0:0:0:
311,11,198092,2,0,L|302:114,1,85,2|0,1:2|2:0,2:0:0:0:
231,210,198439,1,2,1:2:0:0:
148,152,198612,2,0,L|59:157,1,85,8|2,2:0|1:2,2:0:0:0:
13,365,198959,6,0,P|64:301|145:311,1,170,6|10,1:2|2:0,2:0:0:0:
292,368,199479,2,0,L|207:375,1,85,2|0,1:2|2:0,2:0:0:0:
295,278,199826,1,2,1:2:0:0:
375,328,200000,2,0,P|391:288|383:247,1,85,8|0,2:0|1:2,2:0:0:0:
317,95,200346,6,0,P|378:149|458:131,1,170,6|8,1:2|2:0,2:0:0:0:
271,8,200867,2,0,P|209:62|129:44,1,170,2|2,1:2|1:2,2:0:0:0:
26,164,201387,1,10,2:0:0:0:
146,295,201560,6,0,L|315:278,1,170,6|0,1:2|1:2,2:0:0:0:
458,131,202081,1,10,2:0:0:0:
263,136,202254,2,0,L|93:119,1,170,6|8,1:2|3:0,2:0:0:0:
0,247,202774,1,4,3:0:0:0:
207,351,202948,6,0,P|229:293|203:236,1,127.500004863739,6|0,1:2|2:0,2:0:0:0:
166,168,203468,2,0,L|172:101,1,63.7500024318696,0|2,1:2|2:0,2:0:0:0:
226,51,203815,1,10,2:0:0:0:
226,51,203988,1,8,3:0:0:0:
278,105,204161,2,0,P|309:110|340:103,1,63.7500024318696,4|2,3:0|1:2,2:0:0:0:
388,43,204508,6,0,P|415:100|395:159,1,127.500004863739,6|0,1:2|2:0,2:0:0:0:
337,207,205029,1,2,2:0:0:0:
337,207,205115,1,2,2:0:0:0:
337,207,205202,6,0,L|344:271,2,42.5000016212464,2|2|2,2:0|2:0|2:0,2:0:0:0:
273,147,205549,2,0,L|280:83,2,42.5000016212464,2|2|2,2:0|2:0|2:0,2:0:0:0:
208,206,205896,5,6,1:2:0:0:
208,206,211098,6,0,L|211:248,1,42.5,2|2,2:0|2:0,2:0:0:0:
143,284,211445,6,0,P|82:299|30:265,1,127.500004863739,2|2,2:0|2:0,2:0:0:0:
81,192,211965,2,0,P|142:204|207:205,1,127.500004863739,0|2,2:0|2:0,2:0:0:0:
287,167,212485,2,0,L|373:175,1,63.7500024318696,2|2,2:0|2:0,2:0:0:0:
438,208,212832,6,0,P|461:152|419:109,1,127.500004863739,2|2,2:0|2:0,2:0:0:0:
369,38,213352,1,0,2:0:0:0:
369,38,213526,2,0,L|432:32,1,63.7500024318696,2|0,2:0|2:0,2:0:0:0:
351,173,213872,2,0,L|287:167,1,63.7500024318696,2|0,2:0|2:0,2:0:0:0:
352,312,214219,6,0,B|394:299|447:313|413:337|468:353|513:340,1,170,14|10,2:0|2:0,2:0:0:0:
489,256,214740,1,2,1:2:0:0:
489,256,214826,1,0,1:2:0:0:
489,256,214913,1,8,2:0:0:0:
384,384,215086,1,10,2:0:0:0:
248,180,215433,6,0,P|166:173|118:238,1,170,6|8,1:2|2:0,2:0:0:0:
210,362,215953,1,8,2:0:0:0:
352,312,216127,1,0,1:2:0:0:
248,180,216300,2,0,P|244:137|258:98,1,85,10|0,2:0|1:2,2:0:0:0:
418,40,216647,1,8,2:0:0:0:
432,70,216734,1,8,2:0:0:0:
430,103,216820,1,8,2:0:0:0:
411,131,216907,1,8,2:0:0:0:
380,144,216994,6,0,P|458:187|458:276,2,187.000005706787,6|10|2,1:2|2:0|2:0,2:0:0:0:
333,236,217861,1,0,1:2:0:0:
182,126,218034,1,10,2:0:0:0:
59,272,218208,6,0,P|105:267|152:262,1,93.5000028533936,2|0,2:0|1:2,2:0:0:0:
275,135,218555,2,0,P|228:130|181:125,1,93.5000028533936,2|8,2:0|2:0,2:0:0:0:
43,196,218901,1,0,1:2:0:0:
201,329,219075,2,0,P|231:293|233:247,1,93.5000028533936,2|0,2:0|1:2,2:0:0:0:
131,62,219422,2,0,P|101:97|99:143,1,93.5000028533936,10|0,2:0|2:0,2:0:0:0:
285,42,219768,6,0,P|358:92|353:182,1,187.000005706787,2|10,1:2|2:0,2:0:0:0:
241,340,220289,2,0,L|232:246,1,93.5000028533936,2|0,2:0|2:0,2:0:0:0:
213,84,220635,1,2,1:2:0:0:
353,182,220809,1,10,2:0:0:0:
151,162,220982,6,0,P|105:163|58:167,1,93.5000028533936,2|0,2:0|1:2,2:0:0:0:
207,0,221329,2,0,P|253:1|300:5,1,93.5000028533936,2|8,2:0|2:0,2:0:0:0:
456,146,221676,1,0,1:2:0:0:
379,11,221849,1,2,2:0:0:0:
289,135,222023,1,2,1:2:0:0:
451,63,222196,1,10,2:0:0:0:
273,146,222370,1,2,1:2:0:0:
432,234,222543,6,0,P|375:304|285:301,1,187.000005706787,6|10,1:2|2:0,2:0:0:0:
175,150,223063,2,0,P|179:196|183:243,1,93.5000028533936,2|0,2:0|2:0,2:0:0:0:
75,363,223410,1,2,1:2:0:0:
2,290,223583,2,0,P|5:243|10:196,1,93.5000028533936,8|0,2:0|1:2,2:0:0:0:
141,66,223930,6,0,B|191:54|245:71|208:97|266:114|317:99,1,187.000005706787,6|10,1:2|2:0,2:0:0:0:
489,18,224450,2,0,P|448:-4|402:0,1,93.5000028533936,2|0,2:0|2:0,2:0:0:0:
374,156,224797,1,2,1:2:0:0:
470,159,224971,2,0,P|463:113|432:79,1,93.5000028533936,8|0,2:0|1:2,2:0:0:0:
294,245,225318,6,0,B|407:239|407:239|449:248|464:279,1,187.000005706787,6|8,1:2|2:0,2:0:0:0:
254,341,225838,2,0,P|193:274|209:185,1,187.000005706787,0|0,1:2|1:2,2:0:0:0:
355,78,226358,1,10,2:0:0:0:
219,0,226531,1,2,1:2:0:0:
39,92,226705,6,0,B|107:83|107:83|153:98|153:98|226:89,1,187.000005706787,6|10,1:2|2:0,2:0:0:0:
393,188,227225,2,0,B|325:179|325:179|279:194|279:194|206:185,1,187.000005706787,6|2,1:2|1:2,2:0:0:0:
32,265,227745,1,10,2:0:0:0:
36,301,227832,1,10,2:0:0:0:
59,330,227919,1,10,0:0:0:0:
94,342,228005,1,10,2:0:0:0:
129,334,228092,6,0,L|126:260,1,68,6|0,1:2|2:0,2:0:0:0:
209,185,228439,1,0,1:2:0:0:
277,278,228612,2,0,P|248:296|215:299,1,68,8|0,2:0|1:2,2:0:0:0:
117,178,228959,1,0,2:0:0:0:
257,44,229133,6,0,P|296:80|376:73,1,136,14|0,2:0|1:2,2:0:0:0:
463,21,229653,1,8,2:0:0:0:
374,73,229826,2,0,L|383:154,1,68,10|0,2:0|1:2,2:0:0:0:
512,234,230173,2,0,L|503:315,1,68,10|8,2:0|3:0,2:0:0:0:
394,355,230520,1,4,3:0:0:0:
283,201,230693,5,8,2:0:0:0:
283,201,230780,1,8,2:0:0:0:
283,201,230867,2,0,B|241:195|205:211|237:227|196:244|152:238,1,136,6|0,1:2|1:2,2:0:0:0:
112,131,231387,2,0,P|144:120|177:126,1,68,8|0,2:0|1:2,2:0:0:0:
158,238,231734,1,0,2:0:0:0:
58,72,231907,6,0,P|120:48|188:49,1,136,14|0,2:0|1:2,2:0:0:0:
266,115,232427,1,8,2:0:0:0:
343,47,232601,2,0,P|362:74|366:107,1,68,8|0,2:0|1:2,2:0:0:0:
299,240,232948,2,0,P|302:206|322:179,1,68,10|8,2:0|3:0,2:0:0:0:
427,248,233294,1,4,3:0:0:0:
360,363,233468,5,10,2:0:0:0:
360,363,233555,1,8,2:0:0:0:
360,363,233641,2,0,P|267:350|173:346,1,187.000005706787,6|8,1:2|2:0,2:0:0:0:
46,209,234161,5,10,0:0:0:0:
77,297,234335,1,8,0:0:0:0:
147,235,234508,1,8,0:0:0:0:
187,74,234682,5,10,0:0:0:0:
115,159,234856,1,8,0:0:0:0:
220,194,235029,1,8,0:0:0:0:
400,144,235202,5,10,0:0:0:0:
272,121,235376,1,8,0:0:0:0:
299,247,235549,1,8,0:0:0:0:
464,373,235722,5,10,0:0:0:0:
419,250,235896,1,8,0:0:0:0:
316,339,236069,6,0,P|414:338|420:251,1,203.999993774414,14|2,2:0|1:2,2:0:0:0:
293,196,237109,2,0,L|299:256,1,50.9999984436036,10|8,2:0|3:0,2:0:0:0:
379,176,237456,2,0,L|384:125,1,50.9999984436036,4|2,3:0|2:0,2:0:0:0:
315,51,237803,6,0,P|250:67|182:69,1,136,6|2,1:2|2:0,2:0:0:0:
44,142,238844,2,0,P|70:145|95:149,1,51,2|0,2:0|2:0,2:0:0:0:
125,155,239277,5,6,1:2:0:0:
256,192,239363,12,0,244826,2:0:0:0:
