osu file format v14

[General]
AudioFilename: Luminous.mp3
AudioLeadIn: 0
PreviewTime: 205115
Countdown: 0
SampleSet: Soft
StackLeniency: 0.7
Mode: 0
LetterboxInBreaks: 0
WidescreenStoryboard: 0

[Editor]
DistanceSpacing: 1.2
BeatDivisor: 4
GridSize: 32
TimelineZoom: 1

[Metadata]
Title:Luminous
TitleUnicode:ルミナス
Artist:ClariS
ArtistUnicode:ClariS
Creator:Sarawatlism
Version:Hope
Source:劇場版 魔法少女まどか☆マギカ
Tags:clara alice op opening anime jpop j-pop pop japanese Puella Magi Madoka Magica movie mahou shoujo Hajimari no Monogatari Eien no Monogatari [_lost_] conner c_o_n_n_e_r asukow -_ex_- ex xhappy- p_kung grazuko
BeatmapID:2240298
BeatmapSetID:1070262

[Difficulty]
HPDrainRate:7
CircleSize:4
OverallDifficulty:8
ApproachRate:9
SliderMultiplier:1.91
SliderTickRate:1

[Events]
//Background and Video events
0,0,"BG.jpg",0,0
//Break Periods
2,172801,177550
//Storyboard Layer 0 (Background)
//Storyboard Layer 1 (Fail)
//Storyboard Layer 2 (Pass)
//Storyboard Layer 3 (Foreground)
//Storyboard Layer 4 (Overlay)
//Storyboard Sound Samples

[TimingPoints]
579,346.820809248555,4,2,1,35,1,0
579,-166.666666666667,4,2,1,35,0,0
2833,-166.666666666667,4,2,1,65,0,0
4740,346.820809248555,4,2,1,60,1,0
4740,-83.3333333333333,4,2,1,60,0,0
12716,-111.111111111111,4,2,1,60,0,0
12976,-111.111111111111,4,2,1,5,0,0
13063,-166.666666666667,4,2,1,55,0,0
14364,-166.666666666667,4,2,1,5,0,0
14450,-166.666666666667,4,2,1,50,0,0
15838,-200,4,2,1,40,0,0
26589,-111.111111111111,4,2,1,40,0,0
26936,-142.857142857143,4,2,1,40,0,0
35260,-100,4,2,1,50,0,0
35520,-100,4,2,1,5,0,0
35607,-100,4,2,1,50,0,0
36040,-100,4,2,1,5,0,0
36127,-100,4,2,1,50,0,0
36647,-83.3333333333334,4,2,1,60,0,0
37687,-76.9230769230769,4,2,1,60,0,0
38034,-90.9090909090909,4,2,1,50,0,0
39682,-90.9090909090909,4,2,1,5,0,0
39768,-90.9090909090909,4,2,1,50,0,0
40722,-90.9090909090909,4,2,1,5,0,0
40809,-90.9090909090909,4,2,1,50,0,0
43844,-90.9090909090909,4,2,1,5,0,0
43930,-90.9090909090909,4,2,1,50,0,0
45751,-90.9090909090909,4,2,1,5,0,0
45838,-90.9090909090909,4,2,1,50,0,0
47745,-90.9090909090909,4,2,1,60,0,0
48439,-83.3333333333333,4,2,1,60,0,0
49133,-90.9090909090909,4,2,1,50,0,0
51820,-90.9090909090909,4,2,1,5,0,0
51907,-90.9090909090909,4,2,1,50,0,0
53294,-90.9090909090909,4,2,1,60,0,0
53988,-100,4,2,1,60,0,0
54335,-125,4,2,1,60,0,0
54682,-83.3333333333333,4,2,1,70,0,0
54942,-83.3333333333333,4,2,1,5,0,0
55029,-83.3333333333333,4,2,1,70,0,0
55202,-90.9090909090909,4,2,1,70,0,0
55462,-90.9090909090909,4,2,1,5,0,0
55549,-90.9090909090909,4,2,1,70,0,0
55722,-100,4,2,1,70,0,0
56069,-76.9230769230769,4,2,1,75,0,0
56329,-76.9230769230769,4,2,1,5,0,0
56416,-76.9230769230769,4,2,1,75,0,0
56589,-83.3333333333333,4,2,1,75,0,0
56849,-83.3333333333333,4,2,1,5,0,0
56936,-83.3333333333333,4,2,1,75,0,0
57109,-90.9090909090909,4,2,1,75,0,0
57456,-142.857142857143,4,2,1,55,0,0
58844,-200,4,2,1,45,0,0
59537,-100,4,2,1,75,0,0
60231,-71.4285714285714,4,2,1,85,0,1
61878,-71.4285714285714,4,2,1,5,0,1
61965,-71.4285714285714,4,2,1,85,0,1
62919,-71.4285714285714,4,2,1,5,0,1
63005,-71.4285714285714,4,2,1,85,0,1
63786,-71.4285714285714,4,2,1,5,0,1
63872,-71.4285714285714,4,2,1,85,0,1
66040,-71.4285714285714,4,2,1,5,0,1
66127,-71.4285714285714,4,2,1,85,0,1
67427,-71.4285714285714,4,2,1,5,0,1
67514,-71.4285714285714,4,2,1,85,0,1
68468,-71.4285714285714,4,2,1,85,0,0
68555,-71.4285714285714,4,2,1,90,0,1
68815,-71.4285714285714,4,2,1,5,0,1
68901,-71.4285714285714,4,2,1,90,0,1
69422,-66.6666666666667,4,2,1,90,0,1
69682,-66.6666666666667,4,2,1,90,0,0
69768,-66.6666666666667,4,2,1,95,0,1
70029,-66.6666666666667,4,2,1,5,0,1
70115,-66.6666666666667,4,2,1,95,0,1
71242,-66.6666666666667,4,2,1,95,0,0
71329,-71.4285714285714,4,2,1,85,0,1
71589,-71.4285714285714,4,2,1,5,0,1
71676,-71.4285714285714,4,2,1,85,0,1
72803,-71.4285714285714,4,2,1,5,0,1
72890,-71.4285714285714,4,2,1,85,0,1
74017,-71.4285714285714,4,2,1,5,0,1
74104,-71.4285714285714,4,2,1,85,0,1
74884,-71.4285714285714,4,2,1,5,0,1
74971,-71.4285714285714,4,2,1,85,0,1
77138,-71.4285714285714,4,2,1,5,0,1
77225,-71.4285714285714,4,2,1,85,0,1
78526,-71.4285714285714,4,2,1,5,0,1
78612,-71.4285714285714,4,2,1,85,0,1
79046,-71.4285714285714,4,2,1,5,0,1
79133,-71.4285714285714,4,2,1,85,0,1
79913,-71.4285714285714,4,2,1,5,0,1
80000,-71.4285714285714,4,2,1,85,0,1
81300,-71.4285714285714,4,2,1,5,0,1
81387,-71.4285714285714,4,2,1,85,0,1
81820,-71.4285714285714,4,2,1,5,0,1
81907,-71.4285714285714,4,2,1,85,0,1
82341,-71.4285714285714,4,2,1,85,0,0
82427,-125,4,2,1,75,0,1
82687,-125,4,2,1,5,0,1
82774,-125,4,2,1,75,0,1
85115,-125,4,2,1,75,0,0
85202,-125,4,2,1,85,0,1
86242,-125,4,2,1,50,0,0
87976,-83.3333333333333,4,2,1,65,0,1
88063,-83.3333333333333,4,2,1,65,0,0
95953,-111.111111111111,4,2,1,65,0,0
96213,-111.111111111111,4,2,1,5,0,0
96300,-166.666666666667,4,2,1,60,0,0
97601,-166.666666666667,4,2,1,5,0,0
97687,-166.666666666667,4,2,1,55,0,0
99075,-125,4,2,1,50,0,0
101416,-125,4,2,1,5,0,0
101503,-125,4,2,1,50,0,0
103497,-125,4,2,1,5,0,0
103583,-125,4,2,1,50,0,0
105578,-125,4,2,1,5,0,0
105664,-125,4,2,1,50,0,0
108959,-125,4,2,1,40,0,0
109133,-250,4,2,1,40,0,0
109826,-100,4,2,1,60,0,0
110086,-100,4,2,1,5,0,0
110173,-125,4,2,1,50,0,0
115982,-125,4,2,1,5,0,0
116069,-125,4,2,1,50,0,0
118497,-100,4,2,1,60,0,0
118757,-100,4,2,1,5,0,0
118844,-100,4,2,1,60,0,0
119884,-83.3333333333333,4,2,1,65,0,0
120664,-83.3333333333333,4,2,1,5,0,0
120751,-83.3333333333333,4,2,1,65,0,0
120924,-76.9230769230769,4,2,1,65,0,0
121271,-90.9090909090909,4,2,1,60,0,0
123959,-90.9090909090909,4,2,1,5,0,0
124046,-90.9090909090909,4,2,1,60,0,0
127081,-90.9090909090909,4,2,1,5,0,0
127167,-90.9090909090909,4,2,1,60,0,0
128988,-90.9090909090909,4,2,1,5,0,0
129075,-90.9090909090909,4,2,1,60,0,0
130809,-76.9230769230769,4,2,1,65,0,0
131069,-76.9230769230769,4,2,1,5,0,0
131156,-76.9230769230769,4,2,1,65,0,0
132370,-90.9090909090909,4,2,1,60,0,0
135057,-90.9090909090909,4,2,1,5,0,0
135144,-90.9090909090909,4,2,1,60,0,0
137225,-100,4,2,1,60,0,0
137572,-125,4,2,1,60,0,0
137919,-83.3333333333333,4,2,1,70,0,0
138179,-83.3333333333333,4,2,1,5,0,0
138266,-83.3333333333333,4,2,1,70,0,0
138439,-90.9090909090909,4,2,1,70,0,0
138699,-90.9090909090909,4,2,1,5,0,0
138786,-90.9090909090909,4,2,1,70,0,0
138959,-100,4,2,1,70,0,0
139306,-76.9230769230769,4,2,1,75,0,0
139566,-76.9230769230769,4,2,1,5,0,0
139653,-76.9230769230769,4,2,1,75,0,0
139826,-83.3333333333333,4,2,1,75,0,0
140086,-83.3333333333333,4,2,1,5,0,0
140173,-83.3333333333333,4,2,1,75,0,0
140346,-90.9090909090909,4,2,1,75,0,0
140693,-142.857142857143,4,2,1,55,0,0
142081,-142.857142857143,4,2,1,45,0,0
142774,-83.3333333333333,4,2,1,75,0,0
143468,-71.4285714285714,4,2,1,85,0,1
145115,-71.4285714285714,4,2,1,5,0,1
145202,-71.4285714285714,4,2,1,85,0,1
146156,-71.4285714285714,4,2,1,5,0,1
146242,-71.4285714285714,4,2,1,85,0,1
147023,-71.4285714285714,4,2,1,5,0,1
147109,-71.4285714285714,4,2,1,85,0,1
147890,-71.4285714285714,4,2,1,5,0,1
147976,-71.4285714285714,4,2,1,85,0,1
149277,-71.4285714285714,4,2,1,5,0,1
149364,-71.4285714285714,4,2,1,85,0,1
150664,-71.4285714285714,4,2,1,5,0,1
150751,-71.4285714285714,4,2,1,85,0,1
151705,-71.4285714285714,4,2,1,85,0,0
151792,-71.4285714285714,4,2,1,90,0,1
152052,-71.4285714285714,4,2,1,5,0,1
152138,-71.4285714285714,4,2,1,90,0,1
152659,-66.6666666666667,4,2,1,90,0,1
152919,-66.6666666666667,4,2,1,90,0,0
153005,-66.6666666666667,4,2,1,95,0,1
153266,-66.6666666666667,4,2,1,5,0,1
153352,-66.6666666666667,4,2,1,95,0,1
154479,-66.6666666666667,4,2,1,95,0,0
154566,-71.4285714285714,4,2,1,85,0,1
154826,-71.4285714285714,4,2,1,5,0,1
154913,-71.4285714285714,4,2,1,85,0,1
156213,-71.4285714285714,4,2,1,5,0,1
156300,-71.4285714285714,4,2,1,85,0,1
157254,-71.4285714285714,4,2,1,5,0,1
157341,-71.4285714285714,4,2,1,85,0,1
157601,-71.4285714285714,4,2,1,5,0,1
157687,-71.4285714285714,4,2,1,85,0,1
158988,-71.4285714285714,4,2,1,5,0,1
159075,-71.4285714285714,4,2,1,85,0,1
160375,-71.4285714285714,4,2,1,5,0,1
160462,-71.4285714285714,4,2,1,85,0,1
161763,-71.4285714285714,4,2,1,5,0,1
161849,-71.4285714285714,4,2,1,85,0,1
163150,-71.4285714285714,4,2,1,5,0,1
163237,-71.4285714285714,4,2,1,85,0,1
164537,-71.4285714285714,4,2,1,5,0,1
164624,-71.4285714285714,4,2,1,85,0,1
165057,-71.4285714285714,4,2,1,5,0,1
165144,-71.4285714285714,4,2,1,85,0,1
165578,-71.4285714285714,4,2,1,85,0,0
165664,-125,4,2,1,75,0,1
165924,-125,4,2,1,5,0,1
166011,-125,4,2,1,75,0,1
168352,-125,4,2,1,75,0,0
168439,-125,4,2,1,85,0,1
169479,-125,4,2,1,50,0,0
172601,-125,4,2,1,40,0,0
178150,-125,4,2,1,30,0,0
178323,-125,4,2,1,40,0,0
178497,-125,4,2,1,50,0,0
178670,-125,4,2,1,60,0,0
178844,-125,4,2,1,70,0,0
179017,-125,4,2,1,80,0,0
179537,-83.3333333333333,4,2,1,80,0,0
180057,-76.9230769230769,4,2,1,85,0,0
180318,-76.9230769230769,4,2,1,5,0,0
180404,-76.9230769230769,4,2,1,85,0,0
180578,-71.4285714285714,4,2,1,85,0,0
180924,-76.9230769230769,4,2,1,80,0,0
182572,-76.9230769230769,4,2,1,5,0,0
182659,-76.9230769230769,4,2,1,80,0,0
183959,-76.9230769230769,4,2,1,5,0,0
184046,-76.9230769230769,4,2,1,80,0,0
184479,-76.9230769230769,4,2,1,5,0,0
184566,-76.9230769230769,4,2,1,80,0,0
185867,-76.9230769230769,4,2,1,5,0,0
185953,-76.9230769230769,4,2,1,80,0,0
186387,-76.9230769230769,4,2,1,5,0,0
186474,-76.9230769230769,4,2,1,80,0,0
187774,-76.9230769230769,4,2,1,5,0,0
187861,-76.9230769230769,4,2,1,80,0,0
189161,-76.9230769230769,4,2,1,5,0,0
189248,-76.9230769230769,4,2,1,85,0,0
189508,-76.9230769230769,4,2,1,5,0,0
189595,-76.9230769230769,4,2,1,85,0,0
190289,-76.9230769230769,4,2,1,90,0,0
190549,-76.9230769230769,4,2,1,5,0,0
190635,-76.9230769230769,4,2,1,90,0,0
191676,-71.4285714285714,4,2,1,90,0,0
192023,-76.9230769230769,4,2,1,80,0,0
193323,-76.9230769230769,4,2,1,5,0,0
193410,-76.9230769230769,4,2,1,80,0,0
194711,-76.9230769230769,4,2,1,5,0,0
194797,-76.9230769230769,4,2,1,80,0,0
195578,-76.9230769230769,4,2,1,5,0,0
195664,-76.9230769230769,4,2,1,80,0,0
196965,-76.9230769230769,4,2,1,5,0,0
197052,-76.9230769230769,4,2,1,80,0,0
197572,-76.9230769230769,4,2,1,85,0,0
198959,-76.9230769230769,4,2,1,90,0,0
199740,-76.9230769230769,4,2,1,5,0,0
199826,-76.9230769230769,4,2,1,90,0,0
200346,-76.9230769230769,4,2,1,80,0,0
201127,-76.9230769230769,4,2,1,5,0,0
201213,-76.9230769230769,4,2,1,80,0,0
201820,-76.9230769230769,4,2,1,5,0,0
201907,-76.9230769230769,4,2,1,80,0,0
202514,-76.9230769230769,4,2,1,5,0,0
202601,-76.9230769230769,4,2,1,80,0,0
202948,-125,4,2,1,70,0,0
204161,-166.666666666667,4,2,1,70,0,0
204422,-166.666666666667,4,2,1,5,0,0
204508,-333.333333333333,4,2,1,60,0,0
205896,-333.333333333333,4,2,1,50,0,0
210751,-166.666666666667,4,2,1,50,0,0
211098,-250,4,2,1,50,0,0
211445,-142.857142857143,4,2,1,60,0,0
213092,-142.857142857143,4,2,1,5,0,0
213179,-142.857142857143,4,2,1,60,0,0
213872,-125,4,2,1,60,0,0
214133,-125,4,2,1,5,0,0
214219,-71.4285714285714,4,2,1,90,0,0
214479,-71.4285714285714,4,2,1,5,0,0
214566,-71.4285714285714,4,2,1,90,0,0
215086,-66.6666666666667,4,2,1,90,0,0
215346,-66.6666666666667,4,2,1,5,0,0
215433,-62.5,4,2,1,95,0,0
215693,-62.5,4,2,1,5,0,0
215780,-62.5,4,2,1,95,0,0
216994,-68.9655172413793,4,2,1,85,0,1
217254,-68.9655172413793,4,2,1,5,0,1
217341,-68.9655172413793,4,2,1,85,0,1
218641,-68.9655172413793,4,2,1,5,0,1
218728,-68.9655172413793,4,2,1,85,0,1
219682,-68.9655172413793,4,2,1,5,0,1
219768,-68.9655172413793,4,2,1,85,0,1
220029,-68.9655172413793,4,2,1,5,0,1
220115,-68.9655172413793,4,2,1,85,0,1
222803,-68.9655172413793,4,2,1,5,0,1
222890,-68.9655172413793,4,2,1,85,0,1
223323,-68.9655172413793,4,2,1,5,0,1
223410,-68.9655172413793,4,2,1,85,0,1
224190,-68.9655172413793,4,2,1,5,0,1
224277,-68.9655172413793,4,2,1,85,0,1
225578,-68.9655172413793,4,2,1,5,0,1
225664,-68.9655172413793,4,2,1,85,0,1
226965,-68.9655172413793,4,2,1,5,0,1
227052,-68.9655172413793,4,2,1,85,0,1
227485,-68.9655172413793,4,2,1,5,0,1
227572,-68.9655172413793,4,2,1,85,0,1
228005,-68.9655172413793,4,2,1,85,0,0
228092,-80,4,2,1,75,0,1
228352,-80,4,2,1,5,0,1
228439,-80,4,2,1,75,0,1
229393,-80,4,2,1,5,0,1
229479,-80,4,2,1,75,0,1
230780,-80,4,2,1,75,0,0
230867,-80,4,2,1,85,0,1
231127,-80,4,2,1,5,0,1
231213,-80,4,2,1,85,0,1
233555,-80,4,2,1,85,0,0
233641,-74.0740740740741,4,2,1,45,0,1
233901,-74.0740740740741,4,2,1,5,0,1
233988,-74.0740740740741,4,2,1,45,0,1
234335,-74.0740740740741,4,2,1,55,0,1
235029,-74.0740740740741,4,2,1,65,0,1
235722,-74.0740740740741,4,2,1,75,0,1
236069,-181.818181818182,4,2,1,60,0,1
237803,-181.818181818182,4,2,1,50,0,1
238844,495.049504950495,4,2,1,50,1,0
238844,-181.818181818182,4,2,1,50,0,1
239215,-181.818181818182,4,2,1,5,0,1
239277,346.820809248555,4,2,1,50,1,0
244826,-100,4,2,1,5,0,0

[Colours]
Combo1 : 203,143,199
Combo2 : 255,155,155
Combo3 : 226,95,134
Combo4 : 192,177,205
Combo5 : 197,139,139
Combo6 : 120,132,171

[HitObjects]
131,206,579,6,0,P|77:198|10:198,1,114.599996502686,2|2,2:0|2:0,2:0:0:0:
264,145,1272,2,0,P|327:129|376:102,1,114.599996502686,2|2,2:0|2:0,2:0:0:0:
167,18,1966,2,0,B|177:76|177:76|179:75|179:75|189:141,1,114.599996502686,2|2,2:0|2:0,2:0:0:0:
210,205,2486,1,2,2:0:0:0:
370,106,2833,5,6,1:2:0:0:
256,192,2920,12,4,4567,3:0:0:0:
370,106,4740,6,0,B|305:89|260:144|275:144|247:198|152:180,1,229.199993005371,6|0,1:2|1:2,2:0:0:0:
57,95,5260,1,2,2:0:0:0:
55,232,5433,2,0,P|94:198|168:193,1,114.599996502686,0|0,1:2|2:0,2:0:0:0:
219,355,5780,2,0,P|175:318|119:312,1,114.599996502686,2|8,1:2|2:0,2:0:0:0:
278,253,6127,6,0,P|406:269|434:188,1,229.199993005371,0|0,1:2|1:2,2:0:0:0:
310,134,6647,1,0,2:0:0:0:
447,61,6820,2,0,P|432:118|424:175,1,114.599996502686,0|8,1:2|3:0,2:0:0:0:
258,63,7167,1,8,3:0:0:0:
501,0,7341,1,4,3:0:0:0:
501,0,7427,1,4,3:0:0:0:
501,0,7514,6,0,L|501:236,1,229.199993005371,2|0,1:2|1:2,2:0:0:0:
435,350,8034,1,0,2:0:0:0:
322,269,8208,2,0,P|364:228|421:237,1,114.599996502686,0|0,1:2|2:0,2:0:0:0:
276,356,8555,1,0,1:2:0:0:
194,244,8728,1,8,2:0:0:0:
88,360,8901,6,0,P|171:365|187:237,1,229.199993005371,0|0,1:2|1:2,2:0:0:0:
108,134,9422,1,8,2:0:0:0:
16,246,9595,2,0,P|87:247|118:199,1,114.599996502686,0|8,1:2|3:0,2:0:0:0:
180,97,9942,1,4,3:0:0:0:
10,7,10115,1,10,2:0:0:0:
10,7,10202,1,10,2:0:0:0:
10,7,10289,6,0,L|10:240,1,229.199993005371,6|0,1:2|1:2,2:0:0:0:
121,319,10809,1,0,2:0:0:0:
219,223,10982,2,0,P|168:184|116:194,1,114.599996502686,0|0,1:2|2:0,2:0:0:0:
241,350,11329,1,0,1:2:0:0:
327,162,11503,1,10,2:0:0:0:
327,162,11589,1,10,2:0:0:0:
327,162,11676,6,0,P|313:251|311:295,1,114.599996502686,2|8,1:2|2:0,2:0:0:0:
121,190,12023,1,8,2:0:0:0:
203,80,12196,1,2,1:2:0:0:
203,80,12283,1,2,1:2:0:0:
203,80,12370,2,0,P|215:144|221:203,1,114.599996502686,10|8,2:0|3:0,2:0:0:0:
407,82,12716,6,0,B|370:88|343:66|347:64|325:37|274:51,1,128.924996065521,4|0,3:0|2:0,2:0:0:0:
276,32,13063,6,0,B|325:17|353:52|348:54|383:82|439:73,1,171.899994754028,6|8,1:2|2:0,2:0:0:0:
446,68,13930,5,8,3:0:0:0:
490,137,14104,2,0,P|481:175|473:228,1,85.9499973770142,4|0,3:0|2:0,2:0:0:0:
479,236,14450,6,0,P|446:198|385:219,1,114.599996502686,4|0,3:0|2:0,2:0:0:0:
349,281,14971,2,0,P|316:319|255:298,1,114.599996502686,4|0,0:3|1:2,2:0:0:0:
199,255,15491,6,0,P|161:262|136:266,1,57.2999982513428,8|0,2:0|1:2,2:0:0:0:
73,243,15838,6,0,P|64:191|55:140,1,95.5,6|2,1:2|0:0,0:0:0:0:
201,9,16531,2,0,P|192:61|183:112,1,95.5,2|2,0:0|0:0,0:0:0:0:
238,162,17052,1,2,2:0:0:0:
306,115,17225,6,0,P|350:122|397:73,1,95.5,2|2,2:0|2:0,2:0:0:0:
440,36,17745,2,0,P|430:88|425:144,1,95.5,2|0,2:0|2:0,2:0:0:0:
377,189,18266,1,2,2:0:0:0:
429,244,18439,1,2,2:0:0:0:
386,307,18612,6,0,P|341:298|283:298,1,95.5,2|2,2:0|2:0,2:0:0:0:
217,317,19133,2,0,P|172:333|122:338,1,95.5,2|0,2:0|2:0,2:0:0:0:
61,293,19653,2,0,P|70:250|71:233,1,47.75,2|2,2:0|2:0,2:0:0:0:
16,192,20000,6,0,P|53:215|122:157,1,143.25,2|2,2:0|2:0,2:0:0:0:
86,93,20693,2,0,P|52:103|30:108,1,47.75,2|0,2:0|2:0,2:0:0:0:
155,66,21040,1,2,2:0:0:0:
94,19,21213,1,2,1:2:0:0:
155,66,21387,6,0,P|209:70|245:35,1,95.5,6|2,1:2|2:0,2:0:0:0:
310,16,21907,1,0,2:0:0:0:
365,68,22081,2,0,P|413:46|457:69,1,95.5,2|2,2:0|2:0,2:0:0:0:
475,134,22601,1,2,2:0:0:0:
475,134,22774,6,0,P|468:182|463:243,1,95.5,2|2,2:0|2:0,2:0:0:0:
465,305,23294,2,0,B|458:295|447:283|447:283|410:269|369:286,1,95.5,2|2,2:0|2:0,2:0:0:0:
314,318,23815,1,0,2:0:0:0:
253,271,23988,1,2,2:0:0:0:
193,318,24161,6,0,B|167:343|131:328|131:328|116:307|89:308,1,95.5,2|2,2:0|2:0,2:0:0:0:
48,262,24682,2,0,B|23:219|23:219|47:168,2,95.5,2|2|2,2:0|2:0|2:0,2:0:0:0:
157,202,25549,6,0,P|129:203|105:211,1,47.75,2|0,2:0|2:0,2:0:0:0:
218,162,25896,2,0,P|240:168|264:168,1,47.75,2|0,2:0|2:0,2:0:0:0:
155,127,26242,2,0,P|141:102|144:80,1,47.75,2|0,2:0|2:0,2:0:0:0:
302,105,26589,6,0,P|324:63|315:23,1,85.9499973770142,2|2,2:0|2:0,2:0:0:0:
212,4,26936,6,0,L|212:148,1,133.6999959198,6|2,1:2|2:0,2:0:0:0:
160,207,27456,1,0,2:0:0:0:
222,267,27630,2,0,B|270:259|270:259|303:271|303:271|359:260,1,133.6999959198,2|2,2:0|2:0,2:0:0:0:
420,207,28150,1,2,2:0:0:0:
484,265,28323,6,0,P|440:228|465:151,1,133.6999959198,2|2,2:0|2:0,2:0:0:0:
499,85,28844,1,2,2:0:0:0:
419,48,29017,2,0,P|378:64|350:67,1,66.8499979599,2|0,2:0|2:0,2:0:0:0:
272,91,29364,2,0,P|231:75|203:72,1,66.8499979599,2|2,2:0|2:0,2:0:0:0:
143,15,29711,6,0,B|103:41|54:33|54:33|40:57|10:69,1,133.6999959198,2|2,2:0|2:0,2:0:0:0:
7,147,30231,1,2,2:0:0:0:
87,179,30404,2,0,P|91:135|95:109,1,66.8499979599,0|2,2:0|2:0,2:0:0:0:
22,226,30751,2,0,P|26:259|29:292,1,66.8499979599,0|2,2:0|2:0,2:0:0:0:
94,350,31098,6,0,B|140:344|140:344|175:355|175:355|230:349,1,133.6999959198,2|2,2:0|2:0,2:0:0:0:
295,297,31618,1,2,2:0:0:0:
223,247,31792,2,0,P|180:253|155:269,1,66.8499979599,2|0,2:0|2:0,2:0:0:0:
287,196,32138,2,0,P|316:210|349:213,1,66.8499979599,2|0,2:0|1:2,2:0:0:0:
428,175,32485,6,0,B|456:155|465:119|465:119|453:83|423:65,2,133.6999959198,6|2|2,1:2|2:0|2:0,2:0:0:0:
357,123,33352,1,0,2:0:0:0:
291,179,33526,2,0,P|248:182|224:167,1,66.8499979599,2|2,2:0|2:0,2:0:0:0:
165,109,33872,6,0,P|127:78|62:123,1,133.6999959198,2|2,2:0|2:0,2:0:0:0:
26,197,34393,1,0,2:0:0:0:
84,261,34566,2,0,P|130:246|159:246,1,66.8499979599,2|0,2:0|2:0,2:0:0:0:
196,340,34913,2,0,P|150:325|121:325,1,66.8499979599,4|0,3:0|2:0,2:0:0:0:
240,260,35260,6,0,B|293:272|316:241|306:239|338:206|387:226,1,143.25,6|0,1:2|2:0,2:0:0:0:
401,235,35607,1,0,1:2:0:0:
196,340,35780,2,0,P|124:344|90:267,1,143.25,8|0,2:0|2:0,2:0:0:0:
92,257,36127,1,2,1:2:0:0:
188,178,36300,1,10,2:0:0:0:
17,0,36474,1,2,1:2:0:0:
17,0,36560,1,2,1:2:0:0:
17,0,36647,6,0,L|17:189,1,171.899994754028,6|8,1:2|2:0,2:0:0:0:
18,202,36994,1,8,2:0:0:0:
195,159,37167,2,0,P|139:118|86:137,1,114.599996502686,2|0,1:2|2:0,2:0:0:0:
257,49,37514,1,2,1:2:0:0:
347,158,37687,6,0,P|413:160|452:118,1,124.149994316864,10|8,2:0|0:0,2:0:0:0:
484,55,37948,1,8,0:0:0:0:
488,25,38034,6,0,L|488:245,1,210.100006411743,6|10,1:2|2:0,2:0:0:0:
403,342,38555,1,2,2:0:0:0:
285,271,38728,2,0,P|354:262|383:237,1,105.050003205872,0|2,2:0|1:2,2:0:0:0:
199,340,39075,2,0,P|146:311|92:317,1,105.050003205872,8|2,2:0|2:0,2:0:0:0:
52,186,39422,6,0,B|108:192|131:154|119:153|151:121|195:133,1,157.575004808808,0|0,1:2|2:0,2:0:0:0:
219,147,39768,1,8,2:0:0:0:
111,61,39942,1,0,1:2:0:0:
219,147,40115,2,0,P|278:138|323:115,1,105.050003205872,2|0,2:0|1:2,2:0:0:0:
403,10,40462,2,0,L|403:188,1,157.575004808808,10|0,2:0|2:0,2:0:0:0:
408,190,40809,6,0,P|382:156|298:251,1,210.100006411743,2|10,1:2|2:0,2:0:0:0:
344,363,41329,1,2,2:0:0:0:
467,305,41503,2,0,P|424:270|375:270,1,105.050003205872,0|2,2:0|1:2,2:0:0:0:
212,241,41849,2,0,P|263:239|302:205,1,105.050003205872,8|2,2:0|2:0,2:0:0:0:
337,72,42196,5,2,1:2:0:0:
440,160,42370,1,2,2:0:0:0:
337,72,42543,2,0,P|285:81|241:109,1,105.050003205872,10|2,2:0|1:2,2:0:0:0:
440,160,42890,2,0,P|448:88|457:46,1,105.050003205872,2|2,2:0|1:2,2:0:0:0:
302,205,43237,2,0,P|311:256|316:308,1,105.050003205872,10|2,2:0|1:2,2:0:0:0:
446,353,43583,6,0,P|376:351|276:354,1,157.575004808808,6|0,1:2|2:0,2:0:0:0:
265,355,43930,1,8,2:0:0:0:
393,263,44104,1,2,2:0:0:0:
265,355,44277,2,0,P|175:340|187:226,1,210.100006411743,2|8,2:0|2:0,2:0:0:0:
266,137,44797,1,2,2:0:0:0:
162,46,44971,6,0,P|146:101|173:148,1,105.050003205872,2|0,1:2|2:0,2:0:0:0:
242,29,45318,1,10,2:0:0:0:
70,0,45491,2,0,L|70:177,1,157.575004808808,2|0,1:2|2:0,2:0:0:0:
70,186,45838,1,2,1:2:0:0:
234,253,46011,2,0,P|191:212|141:224,1,105.050003205872,8|2,2:0|2:0,2:0:0:0:
68,328,46358,6,0,B|143:317|143:317|200:340|200:340|283:330,1,210.100006411743,2|10,1:2|2:0,2:0:0:0:
361,227,46878,1,2,1:2:0:0:
442,344,47052,2,0,P|391:312|335:314,1,105.050003205872,0|2,2:0|1:2,2:0:0:0:
193,237,47398,2,0,P|244:233|287:203,1,105.050003205872,8|2,2:0|1:2,2:0:0:0:
372,80,47745,5,8,2:0:0:0:
469,192,47919,1,8,2:0:0:0:
280,132,48092,1,0,1:2:0:0:
453,41,48266,1,14,2:0:0:0:
403,247,48439,6,0,P|351:210|293:206,1,114.599996502686,2|8,1:2|3:0,2:0:0:0:
474,172,48786,1,4,3:0:0:0:
286,0,48959,1,0,1:2:0:0:
286,0,49046,1,0,1:2:0:0:
286,0,49133,6,0,L|286:238,1,210.100006411743,6|10,1:2|2:0,2:0:0:0:
365,322,49653,1,2,2:0:0:0:
232,352,49826,2,0,P|179:327|126:324,1,105.050003205872,0|2,2:0|1:2,2:0:0:0:
34,228,50173,2,0,P|92:226|139:191,1,105.050003205872,8|2,2:0|2:0,2:0:0:0:
189,62,50520,5,0,1:2:0:0:
303,136,50693,1,0,2:0:0:0:
189,62,50867,2,0,P|198:116|203:173,1,105.050003205872,8|0,2:0|1:2,2:0:0:0:
289,240,51213,2,0,P|293:187|302:135,1,105.050003205872,2|0,2:0|1:2,2:0:0:0:
114,12,51560,2,0,L|114:181,1,157.575004808808,10|0,2:0|2:0,2:0:0:0:
95,198,51907,6,0,B|157:166|201:217|188:224|239:266|292:240,1,210.100006411743,2|10,1:2|2:0,2:0:0:0:
393,157,52427,1,2,2:0:0:0:
292,64,52601,2,0,P|241:60|202:103,1,105.050003205872,0|2,2:0|1:2,2:0:0:0:
393,157,52948,2,0,P|444:161|483:118,1,105.050003205872,8|2,2:0|1:2,2:0:0:0:
342,4,53294,5,12,2:0:0:0:
260,160,53468,1,8,2:0:0:0:
416,61,53641,1,0,1:2:0:0:
197,0,53815,1,8,2:0:0:0:
197,0,53901,1,8,2:0:0:0:
197,0,53988,6,0,P|213:63|217:102,1,95.5,8|8,3:0|3:0,2:0:0:0:
181,189,54335,6,0,P|186:151|197:114,1,76.4,4|4,3:0|3:0,2:0:0:0:
342,4,54682,6,0,L|342:196,1,171.899994754028,6|0,1:2|2:0,2:0:0:0:
341,206,55029,1,8,2:0:0:0:
237,344,55202,6,0,P|274:285|365:314,1,157.575004808808,6|0,1:2|2:0,2:0:0:0:
370,318,55549,1,0,1:2:0:0:
261,199,55722,6,0,P|212:206|180:253,1,95.5,8|2,2:0|1:2,2:0:0:0:
76,362,56069,6,0,P|10:315|41:218,1,186.224991475296,6|0,1:2|2:0,2:0:0:0:
55,202,56416,1,8,2:0:0:0:
184,40,56589,6,0,L|184:239,1,171.899994754028,6|0,1:2|2:0,2:0:0:0:
183,239,56936,1,0,1:2:0:0:
355,218,57109,6,0,P|315:176|264:182,1,105.050003205872,10|0,2:0|1:2,2:0:0:0:
264,310,57456,6,0,B|313:303|313:303|343:315|343:315|398:307,1,133.6999959198,6|0,1:2|2:0,2:0:0:0:
435,230,57976,1,0,1:2:0:0:
340,152,58150,2,0,P|351:194|356:225,1,66.8499979599,8|0,2:0|1:2,2:0:0:0:
423,136,58497,2,0,P|434:94|439:63,1,66.8499979599,0|8,2:0|2:0,2:0:0:0:
424,48,58757,1,0,2:0:0:0:
424,48,58844,6,0,P|374:26|319:48,1,95.5,0|0,1:2|2:0,2:0:0:0:
266,82,59364,1,0,1:2:0:0:
64,105,59537,6,0,L|52:29,2,63.6666666666667,10|2|2,2:0|2:0|2:0,2:0:0:0:
120,172,59884,2,0,L|109:244,2,63.6666666666667,2|2|2,2:0|2:0|2:0,2:0:0:0:
173,105,60231,6,0,P|234:22|356:106,1,267.3999918396,6|10,1:2|2:0,2:0:0:0:
284,221,60751,1,0,2:0:0:0:
414,267,60924,2,0,P|424:196|433:134,1,133.6999959198,2|0,2:0|1:2,2:0:0:0:
213,353,61271,2,0,P|279:343|345:334,1,133.6999959198,10|2,2:0|2:0,2:0:0:0:
222,171,61618,6,0,B|161:152|128:200|140:202|107:249|42:230,1,200.5499938797,0|0,1:2|2:0,2:0:0:0:
20,217,61965,1,8,2:0:0:0:
111,101,62138,1,0,1:2:0:0:
20,217,62312,2,0,P|-19:153|3:98,1,133.6999959198,2|0,2:0|1:2,2:0:0:0:
217,0,62659,2,0,L|217:212,1,200.5499938797,10|0,2:0|2:0,2:0:0:0:
212,228,63005,6,0,P|260:176|337:202,1,133.6999959198,2|0,1:2|2:0,2:0:0:0:
431,276,63352,1,10,2:0:0:0:
478,137,63526,2,0,P|378:116|332:208,1,200.5499938797,2|0,2:0|2:0,2:0:0:0:
333,214,63872,1,2,1:2:0:0:
485,340,64046,2,0,P|513:283|476:210,1,133.6999959198,10|2,2:0|2:0,2:0:0:0:
373,129,64393,6,0,B|288:101|251:163|263:165|229:224|123:204,1,267.3999918396,0|8,1:2|2:0,2:0:0:0:
16,115,64913,1,0,1:2:0:0:
121,13,65086,2,0,P|188:6|229:71,1,133.6999959198,2|2,2:0|1:2,2:0:0:0:
102,132,65433,1,10,2:0:0:0:
314,11,65607,1,2,1:2:0:0:
314,11,65693,1,2,1:2:0:0:
314,11,65780,6,0,L|314:229,1,200.5499938797,6|0,1:2|2:0,2:0:0:0:
312,235,66127,2,0,B|377:210|377:210|381:211|381:211|441:185,1,133.6999959198,10|0,2:0|2:0,2:0:0:0:
217,222,66474,1,2,2:0:0:0:
345,324,66647,1,0,1:2:0:0:
217,222,66820,2,0,P|151:215|108:279,1,133.6999959198,10|2,2:0|2:0,2:0:0:0:
74,324,67081,1,2,2:0:0:0:
64,348,67167,6,0,L|64:124,1,200.5499938797,2|0,1:2|2:0,2:0:0:0:
64,118,67514,2,0,P|103:73|182:85,1,133.6999959198,10|0,2:0|1:2,2:0:0:0:
307,136,67861,1,2,2:0:0:0:
239,5,68034,1,0,1:2:0:0:
307,136,68208,2,0,P|371:143|415:96,1,133.6999959198,10|0,2:0|1:2,2:0:0:0:
447,314,68555,6,0,B|476:275|476:275|311:300,1,200.5499938797,14|0,2:0|2:0,2:0:0:0:
305,302,68901,1,10,2:0:0:0:
489,117,69075,1,2,1:2:0:0:
481,150,69161,1,0,1:2:0:0:
473,183,69248,1,8,2:0:0:0:
220,100,69422,6,0,B|231:172|231:172|228:173|228:173|241:258,1,143.250005464554,10|0,2:0|2:0,2:0:0:0:
418,0,69768,6,0,B|403:93|403:93|406:93|406:93|386:222,1,214.875008196831,6|0,1:2|2:0,2:0:0:0:
382,240,70115,1,8,2:0:0:0:
304,103,70289,1,8,2:0:0:0:
473,183,70462,1,0,1:2:0:0:
265,228,70635,1,10,2:0:0:0:
489,102,70809,1,0,1:2:0:0:
473,356,70982,6,0,P|426:345|382:340,1,71.625002732277,8|8,2:0|2:0,2:0:0:0:
207,243,71156,2,0,P|242:237|277:229,1,71.625002732277,8|8,2:0|2:0,2:0:0:0:
128,363,71329,6,0,B|56:348|-15:342|-15:342|19:331|39:318,1,200.5499938797,6|0,1:2|2:0,2:0:0:0:
28,163,71676,6,0,L|55:294,1,133.6999959198,10|0,2:0|2:0,2:0:0:0:
193,126,72023,2,0,P|222:54|185:-3,1,133.6999959198,2|0,2:0|1:2,2:0:0:0:
73,84,72370,1,10,2:0:0:0:
125,222,72543,6,0,B|183:197|222:234|210:238|266:279|332:247,1,200.5499938797,2|0,2:0|2:0,2:0:0:0:
337,234,72890,1,2,2:0:0:0:
397,106,73063,2,0,P|332:99|287:145,1,133.6999959198,8|0,2:0|1:2,2:0:0:0:
444,216,73410,1,2,2:0:0:0:
287,145,73583,1,0,1:2:0:0:
469,1,73757,2,0,L|469:217,1,200.5499938797,10|0,2:0|2:0,2:0:0:0:
479,240,74104,6,0,P|426:196|354:220,1,133.6999959198,2|0,1:2|2:0,2:0:0:0:
305,341,74450,1,10,2:0:0:0:
145,284,74624,2,0,B|101:262|101:262|261:250,1,200.5499938797,2|0,2:0|2:0,2:0:0:0:
278,248,74971,1,2,1:2:0:0:
199,124,75144,2,0,P|122:124|92:179,1,133.6999959198,10|2,2:0|2:0,2:0:0:0:
278,248,75491,6,0,P|353:188|286:53,1,267.3999918396,0|8,1:2|2:0,2:0:0:0:
144,25,76011,1,0,1:2:0:0:
281,146,76185,1,2,2:0:0:0:
89,156,76358,1,2,1:2:0:0:
289,54,76531,1,10,2:0:0:0:
190,239,76705,1,2,1:2:0:0:
46,15,76878,6,0,L|46:229,1,200.5499938797,6|0,1:2|2:0,2:0:0:0:
46,242,77225,1,10,2:0:0:0:
247,150,77398,2,0,P|194:107|126:120,1,133.6999959198,2|0,2:0|2:0,2:0:0:0:
246,307,77745,1,2,1:2:0:0:
348,200,77919,2,0,P|373:129|332:71,1,133.6999959198,8|0,2:0|1:2,2:0:0:0:
315,65,78179,1,0,1:2:0:0:
315,65,78266,6,0,B|256:43|219:90|230:94|200:138|110:109,1,200.5499938797,6|0,1:2|2:0,2:0:0:0:
112,97,78612,1,10,2:0:0:0:
145,284,78786,2,0,P|204:217|317:243,1,200.5499938797,2|0,2:0|2:0,2:0:0:0:
330,253,79133,1,2,1:2:0:0:
458,326,79306,2,0,P|494:265|466:202,1,133.6999959198,8|0,2:0|1:2,2:0:0:0:
330,23,79653,6,0,L|330:240,1,200.5499938797,6|0,1:2|2:0,2:0:0:0:
330,253,80000,1,8,2:0:0:0:
440,127,80173,1,0,1:2:0:0:
246,220,80346,1,8,2:0:0:0:
474,209,80520,1,0,1:2:0:0:
244,113,80693,1,10,2:0:0:0:
345,344,80867,1,2,1:2:0:0:
135,238,81040,6,0,B|159:190|220:202|235:253|230:254|266:285|311:275,1,200.5499938797,6|0,1:2|2:0,2:0:0:0:
330,253,81387,1,10,2:0:0:0:
86,327,81560,6,0,P|21:260|80:162,1,200.5499938797,6|0,1:2|2:0,2:0:0:0:
79,159,81907,1,2,1:2:0:0:
248,190,82081,2,0,P|205:238|141:233,1,133.6999959198,8|2,2:0|1:2,2:0:0:0:
186,12,82427,6,0,B|179:60|179:60|188:97|188:97|182:153,1,114.6,6|0,1:2|2:0,2:0:0:0:
188,141,82774,1,0,1:2:0:0:
289,107,82948,2,0,P|278:58|274:28,1,76.4,10|0,2:0|1:2,2:0:0:0:
274,32,83468,6,0,P|353:40|447:45,1,152.8,14|0,2:0|2:0,2:0:0:0:
480,108,83988,1,0,1:2:0:0:
438,180,84161,2,0,P|380:168|350:168,1,76.4,10|8,2:0|2:0,2:0:0:0:
348,173,84422,1,8,2:0:0:0:
348,173,84508,2,0,L|357:281,1,76.4,10|8,2:0|3:0,2:0:0:0:
282,293,84855,2,0,L|273:185,1,76.4,4|0,3:0|1:2,2:0:0:0:
210,163,85202,6,0,P|151:137|73:189,1,152.8,14|0,2:0|1:2,2:0:0:0:
46,263,85722,1,8,2:0:0:0:
127,305,85896,2,0,P|142:266|124:218,1,76.4,0|0,1:2|2:0,2:0:0:0:
78,177,86242,5,2,2:0:0:0:
256,192,86329,12,0,87803,2:0:0:0:
22,183,87976,6,0,B|87:200|132:145|117:145|145:91|240:109,1,229.199993005371,6|0,1:2|1:2,2:0:0:0:
331,214,88497,1,2,2:0:0:0:
424,98,88670,2,0,P|385:64|311:59,1,114.599996502686,0|0,1:2|2:0,2:0:0:0:
232,230,89017,2,0,P|276:193|332:187,1,114.599996502686,2|8,1:2|2:0,2:0:0:0:
143,0,89364,6,0,L|143:238,1,229.199993005371,0|0,1:2|1:2,2:0:0:0:
228,352,89884,1,0,2:0:0:0:
335,249,90057,2,0,P|293:208|232:215,1,114.599996502686,0|8,1:2|3:0,2:0:0:0:
150,312,90404,1,8,3:0:0:0:
389,369,90578,1,4,3:0:0:0:
389,369,90664,1,4,3:0:0:0:
389,369,90751,6,0,P|450:276|392:181,1,229.199993005371,2|0,1:2|1:2,2:0:0:0:
276,94,91271,1,0,2:0:0:0:
396,183,91445,2,0,P|451:169|477:102,1,114.599996502686,0|0,1:2|2:0,2:0:0:0:
330,12,91792,1,0,1:2:0:0:
206,136,91965,1,8,2:0:0:0:
102,29,92138,6,0,P|133:14|164:4,3,57.2999982513428,2|2|2|2,1:2|2:0|2:0|2:0,2:0:0:0:
55,108,92485,2,0,P|28:98|2:85,3,57.2999982513428,2|2|10|2,1:2|2:0|2:0|2:0,2:0:0:0:
112,177,92832,5,2,1:2:0:0:
112,177,92919,1,2,2:0:0:0:
112,177,93005,2,0,P|105:218|101:248,1,57.2999982513428,8|2,3:0|2:0,2:0:0:0:
19,293,93179,5,4,3:0:0:0:
19,293,93266,1,2,2:0:0:0:
19,292,93352,2,0,P|13:263|9:235,1,57.2999982513428,10|10,2:0|2:0,2:0:0:0:
109,328,93526,6,0,B|182:361|223:307|214:305|259:256|332:290,1,229.199993005371,6|0,1:2|1:2,2:0:0:0:
452,213,94046,1,0,2:0:0:0:
495,355,94219,2,0,P|438:357|395:312,1,114.599996502686,0|0,1:2|2:0,2:0:0:0:
322,190,94566,1,0,1:2:0:0:
467,99,94740,1,10,2:0:0:0:
467,99,94826,1,10,2:0:0:0:
467,99,94913,6,0,P|453:188|451:232,1,114.599996502686,2|8,1:2|2:0,2:0:0:0:
391,17,95260,1,8,2:0:0:0:
271,122,95433,1,2,1:2:0:0:
271,122,95520,1,2,1:2:0:0:
271,122,95607,2,0,P|335:110|394:104,1,114.599996502686,10|8,2:0|3:0,2:0:0:0:
177,179,95953,6,0,B|140:185|113:163|117:161|95:134|44:148,1,128.924996065521,4|0,3:0|2:0,2:0:0:0:
32,155,96300,6,0,B|85:146|120:174|115:176|143:211|192:196,1,171.899994754028,6|8,1:2|2:0,2:0:0:0:
205,190,97167,5,8,3:0:0:0:
265,234,97341,2,0,P|303:225|356:217,1,85.9499973770142,4|0,3:0|2:0,2:0:0:0:
360,226,97687,6,0,P|328:187|369:140,1,114.599996502686,4|0,3:0|2:0,2:0:0:0:
312,83,98208,1,8,2:0:0:0:
312,83,98294,1,8,2:0:0:0:
312,83,98381,2,0,P|265:97|242:100,1,57.2999982513428,8|4,2:0|3:0,2:0:0:0:
381,32,98728,1,4,3:0:0:0:
209,9,98901,1,8,2:0:0:0:
209,9,98988,1,8,2:0:0:0:
209,9,99075,6,0,L|209:177,1,152.8,6|2,1:2|1:2,2:0:0:0:
132,226,99595,1,0,2:0:0:0:
211,284,99768,2,0,P|251:268|288:262,1,76.4,2|0,1:2|2:0,2:0:0:0:
339,364,100115,2,0,P|299:348|262:342,1,76.4,2|2,1:2|2:0,2:0:0:0:
358,290,100462,6,0,P|435:291|460:211,1,152.8,2|2,1:2|1:2,2:0:0:0:
457,130,100982,1,2,2:0:0:0:
457,130,101156,2,0,B|422:121|407:147|411:148|389:175|346:163,1,114.6,0|0,1:2|2:0,2:0:0:0:
341,158,101503,2,0,P|351:108|350:78,1,76.4,2|2,1:2|2:0,2:0:0:0:
275,17,101849,6,0,P|195:6|166:69,1,152.8,2|2,1:2|1:2,2:0:0:0:
110,144,102370,1,2,2:0:0:0:
23,94,102543,2,0,P|11:55|23:18,1,76.4,0|0,1:2|2:0,2:0:0:0:
110,144,102890,2,0,P|122:183|110:220,1,76.4,2|2,1:2|2:0,2:0:0:0:
23,260,103237,6,0,P|101:259|157:260,1,114.6,0|0,1:2|2:0,2:0:0:0:
155,259,103583,1,0,1:2:0:0:
218,181,103757,1,8,2:0:0:0:
230,279,103930,2,0,P|191:255|154:256,1,76.4,2|8,1:2|3:0,2:0:0:0:
288,224,104277,2,0,P|345:212|364:184,1,76.4,4|0,3:0|1:2,2:0:0:0:
365,180,104537,1,0,1:2:0:0:
371,161,104624,6,0,P|405:111|474:162,1,152.8,6|2,1:2|1:2,2:0:0:0:
503,244,105144,1,0,2:0:0:0:
452,328,105318,2,0,P|403:317|316:313,1,114.6,2|0,1:2|2:0,2:0:0:0:
328,302,105664,2,0,P|372:298|405:277,1,76.4,2|2,1:2|2:0,2:0:0:0:
250,358,106011,6,0,P|191:343|91:343,1,152.8,2|2,1:2|1:2,2:0:0:0:
23,277,106531,1,2,2:0:0:0:
121,186,106705,2,0,P|100:244|97:275,1,76.4,0|0,1:2|2:0,2:0:0:0:
1,156,107052,1,2,1:2:0:0:
45,66,107225,1,2,2:0:0:0:
45,66,107312,1,0,2:0:0:0:
45,66,107398,6,0,B|93:42|120:75|114:77|147:106|197:91,1,152.8,2|2,1:2|1:2,2:0:0:0:
272,39,107919,1,2,2:0:0:0:
356,91,108092,2,0,P|411:81|437:66,1,76.4,0|2,1:2|2:0,2:0:0:0:
272,39,108439,5,0,1:2:0:0:
200,174,108612,1,10,2:0:0:0:
200,174,108959,5,2,2:0:0:0:
206,187,109133,2,0,L|165:183,1,38.2,2|2,2:0|2:0,2:0:0:0:
288,227,109479,2,0,L|291:188,1,38.2,2|0,2:0|1:2,2:0:0:0:
142,87,109826,6,0,P|149:158|152:249,1,143.25,8|0,2:0|2:0,2:0:0:0:
99,280,110173,6,0,B|146:261|174:293|168:295|202:326|245:311,1,152.8,6|2,1:2|1:2,2:0:0:0:
314,245,110693,1,0,2:0:0:0:
387,312,110867,2,0,P|430:267|400:185,1,152.8,2|2,1:2|1:2,2:0:0:0:
316,141,111387,1,10,2:0:0:0:
416,36,111560,6,0,P|406:113|404:202,1,152.8,0|2,1:2|1:2,2:0:0:0:
324,255,112081,1,2,2:0:0:0:
265,174,112254,2,0,P|312:161|340:146,1,76.4,0|8,1:2|3:0,2:0:0:0:
194,221,112601,2,0,P|159:204|122:195,1,76.4,4|0,3:0|1:2,2:0:0:0:
99,210,112861,1,0,1:2:0:0:
99,210,112948,6,0,P|45:176|79:94,1,152.8,2|2,1:2|1:2,2:0:0:0:
140,33,113468,1,2,2:0:0:0:
204,107,113641,2,0,P|255:107|277:91,1,76.4,0|2,1:2|2:0,2:0:0:0:
319,4,113988,2,0,P|268:4|246:20,1,76.4,0|10,1:2|2:0,2:0:0:0:
403,3,114335,6,0,P|401:80|403:177,1,152.8,0|0,1:2|1:2,2:0:0:0:
456,239,114855,1,8,2:0:0:0:
317,266,115029,2,0,P|346:234|384:233,1,76.4,2|8,1:2|3:0,2:0:0:0:
368,330,115375,1,4,3:0:0:0:
252,218,115549,1,8,2:0:0:0:
252,218,115635,1,8,2:0:0:0:
252,218,115722,6,0,P|188:210|157:255,1,114.6,6|0,1:2|2:0,2:0:0:0:
155,260,116069,2,0,P|165:309|168:340,1,76.4,2|0,1:2|2:0,2:0:0:0:
77,243,116416,2,0,P|81:205|89:167,1,76.4,2|0,1:2|2:0,2:0:0:0:
151,65,116763,2,0,P|155:102|163:140,1,76.4,2|10,1:2|2:0,2:0:0:0:
10,0,117109,6,0,L|10:171,1,152.8,0|2,1:2|1:2,2:0:0:0:
70,243,117630,1,8,2:0:0:0:
148,182,117803,2,0,P|117:155|78:157,1,76.4,2|8,1:2|3:0,2:0:0:0:
216,238,118150,2,0,P|253:236|280:210,1,76.4,4|0,3:0|1:2,2:0:0:0:
378,87,118497,6,0,B|315:100|315:100|305:113|305:113|229:129,1,143.25,6|0,1:2|2:0,2:0:0:0:
221,128,118844,1,0,1:2:0:0:
293,26,119017,1,8,2:0:0:0:
221,128,119190,1,0,1:2:0:0:
378,87,119364,1,8,2:0:0:0:
175,45,119537,1,8,2:0:0:0:
348,203,119711,1,2,1:2:0:0:
348,203,119797,1,2,1:2:0:0:
348,203,119884,6,0,P|393:156|386:104,1,114.599996502686,14|10,2:0|2:0,2:0:0:0:
378,87,120144,1,10,2:0:0:0:
378,87,120231,1,10,2:0:0:0:
115,9,120404,2,0,L|115:200,1,171.899994754028,0|0,1:2|2:0,2:0:0:0:
115,208,120751,1,0,1:2:0:0:
37,345,120924,6,0,P|83:296|149:304,1,124.149994316864,10|8,2:0|2:0,2:0:0:0:
206,333,121185,1,8,2:0:0:0:
225,354,121271,6,0,B|312:343|312:343|356:361|356:361|437:349,1,210.100006411743,6|10,1:2|2:0,2:0:0:0:
503,234,121792,1,2,2:0:0:0:
379,173,121965,2,0,P|400:233|406:279,1,105.050003205872,0|2,2:0|1:2,2:0:0:0:
490,137,122312,2,0,P|511:82|482:30,1,105.050003205872,8|2,2:0|2:0,2:0:0:0:
303,18,122659,5,2,1:2:0:0:
421,86,122832,1,2,2:0:0:0:
254,102,123005,1,10,2:0:0:0:
388,6,123179,1,2,1:2:0:0:
254,102,123352,2,0,P|194:97|153:65,1,105.050003205872,2|0,2:0|1:2,2:0:0:0:
388,6,123699,2,0,L|388:182,1,157.575004808808,10|0,2:0|2:0,2:0:0:0:
401,196,124046,6,0,B|332:178|306:234|320:232|283:283|209:258,1,210.100006411743,2|10,1:2|2:0,2:0:0:0:
109,173,124566,1,2,2:0:0:0:
45,301,124740,2,0,P|107:254|140:255,1,105.050003205872,0|2,2:0|1:2,2:0:0:0:
292,339,125086,2,0,P|241:329|206:291,1,105.050003205872,8|2,2:0|2:0,2:0:0:0:
319,201,125433,5,2,1:2:0:0:
422,290,125607,1,2,2:0:0:0:
243,226,125780,1,10,2:0:0:0:
417,153,125953,1,2,1:2:0:0:
215,103,126127,2,0,P|237:165|244:216,1,105.050003205872,2|2,2:0|1:2,2:0:0:0:
346,94,126474,2,0,P|367:43|343:-1,1,105.050003205872,10|2,2:0|2:0,2:0:0:0:
133,0,126820,6,0,L|133:175,1,157.575004808808,6|0,1:2|2:0,2:0:0:0:
133,187,127167,1,8,2:0:0:0:
32,93,127341,1,2,2:0:0:0:
133,187,127514,2,0,P|187:146|236:149,1,105.050003205872,2|0,2:0|1:2,2:0:0:0:
133,302,127861,1,8,2:0:0:0:
43,199,128034,1,2,2:0:0:0:
209,252,128208,6,0,P|227:302|205:355,1,105.050003205872,2|0,1:2|2:0,2:0:0:0:
133,187,128555,1,10,2:0:0:0:
30,349,128728,2,0,P|102:347|193:348,1,157.575004808808,2|0,1:2|2:0,2:0:0:0:
210,349,129075,1,2,1:2:0:0:
305,194,129248,2,0,P|261:233|202:236,1,105.050003205872,8|2,2:0|2:0,2:0:0:0:
397,359,129595,6,0,P|452:314|394:195,1,210.100006411743,2|10,1:2|2:0,2:0:0:0:
306,107,130115,1,2,2:0:0:0:
408,199,130289,2,0,P|445:154|429:105,1,105.050003205872,0|2,2:0|1:2,2:0:0:0:
339,270,130635,1,8,2:0:0:0:
232,4,130809,6,0,L|232:214,1,186.224991475296,6|0,1:2|2:0,2:0:0:0:
232,218,131156,1,8,2:0:0:0:
138,85,131329,1,0,1:2:0:0:
323,175,131503,1,14,2:0:0:0:
323,175,131589,1,8,2:0:0:0:
323,175,131676,5,10,2:0:0:0:
88,193,131849,1,0,1:2:0:0:
331,64,132023,2,0,P|374:80|388:97,1,62.0749971584321,10|8,2:0|2:0,2:0:0:0:
376,202,132196,2,0,P|333:186|319:169,1,62.0749971584321,8|8,2:0|2:0,2:0:0:0:
463,0,132370,6,0,L|463:232,1,210.100006411743,6|10,1:2|2:0,2:0:0:0:
391,328,132890,1,2,2:0:0:0:
285,235,133063,2,0,P|338:198|384:205,1,105.050003205872,0|2,2:0|1:2,2:0:0:0:
205,332,133410,2,0,P|154:332|114:298,1,105.050003205872,8|2,2:0|2:0,2:0:0:0:
100,162,133757,5,2,1:2:0:0:
206,246,133930,1,2,2:0:0:0:
29,226,134104,1,10,2:0:0:0:
206,131,134277,1,2,1:2:0:0:
83,52,134450,2,0,B|61:106|61:106|90:156,1,105.050003205872,2|0,2:0|1:2,2:0:0:0:
230,0,134797,2,0,L|230:177,1,157.575004808808,10|0,2:0|2:0,2:0:0:0:
213,182,135144,6,0,B|275:149|313:197|305:202|348:242|410:226,1,210.100006411743,2|10,1:2|2:0,2:0:0:0:
497,125,135664,1,2,2:0:0:0:
510,261,135838,2,0,P|463:222|414:225,1,105.050003205872,0|2,2:0|1:2,2:0:0:0:
335,120,136185,2,0,P|386:117|424:81,1,105.050003205872,8|2,2:0|1:2,2:0:0:0:
252,267,136531,5,8,2:0:0:0:
165,118,136705,1,8,2:0:0:0:
345,231,136878,1,0,1:2:0:0:
149,333,137052,1,8,2:0:0:0:
149,333,137138,1,8,2:0:0:0:
149,333,137225,6,0,P|124:281|138:238,1,95.5,10|8,2:0|3:0,2:0:0:0:
217,193,137572,6,0,P|229:239|217:268,1,76.4,4|10,3:0|2:0,2:0:0:0:
53,149,137919,6,0,B|9:130|9:130|150:117,1,171.899994754028,6|0,1:2|2:0,2:0:0:0:
165,118,138266,1,8,2:0:0:0:
373,102,138439,6,0,P|338:41|253:79,1,157.575004808808,6|0,1:2|2:0,2:0:0:0:
245,81,138786,1,0,1:2:0:0:
452,146,138959,6,0,P|468:91|440:46,1,95.5,8|2,2:0|1:2,2:0:0:0:
197,0,139306,6,0,L|197:204,1,186.224991475296,6|0,1:2|2:0,2:0:0:0:
197,209,139653,1,8,2:0:0:0:
102,340,139826,6,0,B|86:316|112:277|174:279|185:329|181:328|210:351|252:339,1,171.899994754028,6|0,1:2|2:0,2:0:0:0:
252,329,140173,1,0,1:2:0:0:
352,211,140346,6,0,P|293:213|269:258,1,105.050003205872,10|0,2:0|1:2,2:0:0:0:
458,369,140693,6,0,P|507:340|483:255,1,133.6999959198,6|0,1:2|2:0,2:0:0:0:
434,215,141213,1,0,1:2:0:0:
502,119,141387,6,0,P|495:148|492:180,2,44.5666653066,10|8|8,2:0|2:0|2:0,2:0:0:0:
397,90,141734,2,0,P|404:119|407:151,2,44.5666653066,8|8|8,3:0|3:0|3:0,2:0:0:0:
465,32,142081,5,6,1:2:0:0:
361,289,142601,1,0,1:2:0:0:
361,289,142687,1,0,1:2:0:0:
361,289,142774,6,0,P|401:296|439:307,2,76.3999976684571,10|2|2,2:0|2:0|2:0,2:0:0:0:
286,232,143121,2,0,P|249:242|211:248,2,76.3999976684571,2|2|2,2:0|2:0|2:0,2:0:0:0:
419,179,143468,6,0,P|366:89|238:147,1,267.3999918396,6|10,1:2|2:0,2:0:0:0:
157,267,143988,1,0,2:0:0:0:
38,181,144161,2,0,P|10:108|48:56,1,133.6999959198,2|0,2:0|1:2,2:0:0:0:
157,267,144508,2,0,P|185:340|147:392,1,133.6999959198,10|2,2:0|2:0,2:0:0:0:
229,151,144855,6,0,B|283:123|328:161|319:163|367:202|423:177,1,200.5499938797,0|0,1:2|2:0,2:0:0:0:
434,164,145202,1,8,2:0:0:0:
305,69,145375,1,0,1:2:0:0:
434,164,145549,2,0,P|443:80|456:21,1,133.6999959198,2|0,2:0|1:2,2:0:0:0:
225,0,145896,2,0,L|225:217,1,200.5499938797,10|0,2:0|2:0,2:0:0:0:
237,237,146242,6,0,P|177:189|117:211,1,133.6999959198,2|0,1:2|2:0,2:0:0:0:
299,309,146589,1,10,2:0:0:0:
118,341,146763,2,0,P|160:284|282:296,1,200.5499938797,2|0,2:0|2:0,2:0:0:0:
299,309,147109,1,2,1:2:0:0:
450,363,147283,2,0,P|494:295|467:231,1,133.6999959198,10|2,2:0|2:0,2:0:0:0:
365,30,147630,6,0,B|336:93|370:139|374:124|402:180|372:234,1,200.5499938797,0|0,1:2|2:0,2:0:0:0:
368,249,147976,1,8,2:0:0:0:
450,110,148150,1,0,1:2:0:0:
368,249,148323,2,0,P|303:230|234:226,1,133.6999959198,2|2,2:0|1:2,2:0:0:0:
70,60,148670,1,10,2:0:0:0:
21,212,148844,1,2,1:2:0:0:
21,212,148930,1,2,1:2:0:0:
21,212,149017,6,0,B|89:224|124:173|107:170|143:124|210:144,1,200.5499938797,6|0,1:2|2:0,2:0:0:0:
228,148,149364,2,0,P|256:77|214:21,1,133.6999959198,10|0,2:0|2:0,2:0:0:0:
253,239,149711,2,0,P|225:310|267:366,1,133.6999959198,2|0,2:0|1:2,2:0:0:0:
373,140,150057,1,10,2:0:0:0:
488,268,150231,1,2,2:0:0:0:
500,286,150318,1,2,2:0:0:0:
512,305,150404,6,0,L|310:306,1,200.5499938797,2|0,1:2|2:0,2:0:0:0:
311,293,150751,2,0,P|380:282|403:215,1,133.6999959198,10|0,2:0|1:2,2:0:0:0:
307,81,151098,2,0,B|279:146|279:146|321:211,1,133.6999959198,2|0,2:0|1:2,2:0:0:0:
466,150,151445,2,0,B|494:85|494:85|452:20,1,133.6999959198,10|0,2:0|1:2,2:0:0:0:
199,1,151792,6,0,L|199:224,1,200.5499938797,14|0,2:0|2:0,2:0:0:0:
198,230,152138,1,10,2:0:0:0:
378,104,152312,1,2,1:2:0:0:
344,93,152398,1,0,1:2:0:0:
307,81,152485,1,8,2:0:0:0:
325,329,152659,6,0,B|347:263|347:263|345:260|345:260|367:194,1,143.250005464554,10|0,2:0|2:0,2:0:0:0:
53,26,153005,6,0,B|74:130|74:130|72:133|72:133|98:253,1,214.875008196831,6|0,1:2|2:0,2:0:0:0:
101,268,153352,1,8,2:0:0:0:
186,119,153526,1,8,2:0:0:0:
0,260,153699,1,0,1:2:0:0:
278,204,153872,1,10,2:0:0:0:
35,108,154046,1,0,1:2:0:0:
118,364,154219,6,0,P|162:342|199:339,1,71.625002732277,8|8,2:0|2:0,2:0:0:0:
270,198,154393,2,0,P|239:216|204:223,1,71.625002732277,8|8,2:0|2:0,2:0:0:0:
393,372,154566,6,0,P|448:306|386:202,1,200.5499938797,6|0,1:2|2:0,2:0:0:0:
373,198,154913,2,0,P|449:192|473:131,1,133.6999959198,10|0,2:0|2:0,2:0:0:0:
329,73,155260,1,2,2:0:0:0:
250,212,155433,1,0,1:2:0:0:
123,114,155607,2,0,P|199:89|246:137,1,133.6999959198,10|2,2:0|2:0,2:0:0:0:
234,300,155953,6,0,P|141:291|26:291,1,200.5499938797,0|0,1:2|2:0,2:0:0:0:
15,293,156300,1,8,2:0:0:0:
166,199,156474,1,0,1:2:0:0:
19,79,156647,2,0,P|39:150|49:220,1,133.6999959198,2|0,2:0|1:2,2:0:0:0:
244,0,156994,2,0,B|213:55|247:101|251:91|279:147|247:204,1,200.5499938797,10|0,2:0|2:0,2:0:0:0:
250,212,157341,6,0,P|299:144|410:175,1,200.5499938797,2|0,1:2|2:0,2:0:0:0:
422,189,157687,1,10,2:0:0:0:
362,352,157861,2,0,P|316:287|334:237,1,133.6999959198,2|0,2:0|2:0,2:0:0:0:
501,147,158208,1,2,1:2:0:0:
512,323,158381,2,0,P|457:280|386:286,1,133.6999959198,10|2,2:0|2:0,2:0:0:0:
196,170,158728,6,0,B|260:179|285:138|275:134|319:86|380:111,1,200.5499938797,0|0,1:2|2:0,2:0:0:0:
397,123,159075,1,8,2:0:0:0:
263,35,159248,1,0,1:2:0:0:
397,123,159422,1,2,2:0:0:0:
200,90,159595,1,2,1:2:0:0:
399,15,159768,1,10,2:0:0:0:
338,217,159942,1,2,1:2:0:0:
171,0,160115,6,0,L|171:222,1,200.5499938797,6|0,1:2|2:0,2:0:0:0:
171,234,160462,1,10,2:0:0:0:
72,360,160635,2,0,P|27:304|47:234,1,133.6999959198,2|0,2:0|0:0,2:0:0:0:
147,129,160982,1,2,1:2:0:0:
268,326,161156,1,8,2:0:0:0:
421,208,161329,1,0,1:2:0:0:
421,208,161416,1,0,1:2:0:0:
421,208,161503,6,0,B|361:225|319:185|330:181|290:143|225:163,1,200.5499938797,6|0,1:2|2:0,2:0:0:0:
208,179,161849,1,10,2:0:0:0:
306,51,162023,2,0,P|378:48|423:101,1,133.6999959198,2|0,2:0|2:0,2:0:0:0:
208,179,162370,1,2,1:2:0:0:
52,136,162543,2,0,P|18:78|48:20,1,133.6999959198,8|0,2:0|1:2,2:0:0:0:
35,228,162890,6,0,P|80:151|191:169,1,200.5499938797,6|0,1:2|2:0,2:0:0:0:
208,179,163237,1,8,2:0:0:0:
324,289,163410,1,0,1:2:0:0:
126,238,163583,1,8,2:0:0:0:
324,117,163757,1,0,1:2:0:0:
126,238,163930,1,10,2:0:0:0:
362,372,164104,1,2,1:2:0:0:
362,372,164190,1,2,1:2:0:0:
362,372,164277,6,0,P|434:307|392:202,1,200.5499938797,6|0,1:2|2:0,2:0:0:0:
384,190,164624,1,10,2:0:0:0:
212,0,164797,2,0,L|212:203,1,200.5499938797,6|0,1:2|2:0,2:0:0:0:
213,223,165144,1,2,1:2:0:0:
109,100,165318,1,8,2:0:0:0:
297,211,165491,1,2,1:2:0:0:
75,319,165664,6,0,P|85:263|95:200,1,114.6,6|0,1:2|2:0,2:0:0:0:
92,188,166011,1,0,1:2:0:0:
248,318,166185,2,0,P|203:304|173:298,1,76.4,10|0,2:0|1:2,2:0:0:0:
174,298,166705,6,0,B|221:304|253:274|239:273|267:243|317:255,1,152.8,14|0,2:0|2:0,2:0:0:0:
401,284,167225,1,0,1:2:0:0:
438,200,167398,2,0,P|448:150|438:115,1,76.4,10|8,2:0|2:0,2:0:0:0:
297,80,167745,2,0,P|332:94|359:121,1,76.4,10|8,2:0|3:0,2:0:0:0:
227,23,168092,2,0,P|188:46|154:44,1,76.4,4|0,3:0|1:2,2:0:0:0:
144,32,168352,1,0,1:2:0:0:
144,32,168439,6,0,P|157:108|168:204,1,152.8,14|0,2:0|1:2,2:0:0:0:
200,272,168959,1,8,2:0:0:0:
262,117,169133,2,0,P|255:155|251:193,1,76.4,0|0,1:2|2:0,2:0:0:0:
200,272,169479,5,6,1:2:0:0:
256,192,169566,12,2,172601,2:0:0:0:
204,225,178150,5,8,2:0:0:0:
329,137,178323,1,8,2:0:0:0:
204,225,178497,5,8,2:0:0:0:
415,179,178670,1,8,2:0:0:0:
206,118,178844,5,8,2:0:0:0:
316,310,179017,1,8,2:0:0:0:
313,29,179190,5,8,2:0:0:0:
92,173,179364,1,8,2:0:0:0:
401,278,179537,6,0,P|433:220|403:169,1,114.599996502686,6|8,1:2|2:0,2:0:0:0:
397,158,179797,1,8,2:0:0:0:
397,158,179884,1,8,2:0:0:0:
174,0,180057,6,0,L|174:198,1,186.224991475296,6|0,1:2|2:0,2:0:0:0:
174,210,180404,1,0,1:2:0:0:
379,290,180578,6,0,P|345:267|311:264,1,66.8499979599,8|8,2:0|2:0,2:0:0:0:
226,366,180751,2,0,P|258:359|284:339,1,66.8499979599,8|8,2:0|2:0,2:0:0:0:
284,180,180924,6,0,B|220:153|163:217|182:221|149:277|60:258,1,248.299988633729,6|10,1:2|2:0,2:0:0:0:
0,123,181445,1,0,2:0:0:0:
92,6,181618,2,0,P|160:-2|203:44,1,124.149994316864,2|0,2:0|1:2,2:0:0:0:
284,180,181965,1,10,2:0:0:0:
151,113,182138,1,2,2:0:0:0:
307,0,182312,6,0,L|307:200,1,186.224991475296,0|0,1:2|2:0,2:0:0:0:
304,210,182659,2,0,P|354:163|415:175,1,124.149994316864,10|0,2:0|1:2,2:0:0:0:
341,350,183005,1,2,2:0:0:0:
221,260,183179,1,0,1:2:0:0:
341,350,183352,2,0,P|385:297|368:239,1,124.149994316864,10|0,2:0|2:0,2:0:0:0:
81,247,183699,6,0,B|74:268|59:289|59:289|211:265,1,186.224991475296,2|0,1:2|2:0,2:0:0:0:
221,260,184046,1,8,2:0:0:0:
247,113,184219,2,0,P|194:52|93:87,1,186.224991475296,2|0,1:2|2:0,2:0:0:0:
85,99,184566,1,0,1:2:0:0:
319,175,184740,2,0,P|340:109|319:61,1,124.149994316864,8|0,2:0|2:0,2:0:0:0:
312,277,185086,6,0,P|376:266|441:258,1,124.149994316864,2|0,1:2|2:0,2:0:0:0:
198,172,185433,1,8,2:0:0:0:
68,324,185607,2,0,B|119:300|161:336|151:340|198:375|253:357,1,186.224991475296,2|0,1:2|2:0,2:0:0:0:
262,346,185953,1,0,1:2:0:0:
319,175,186127,2,0,B|246:179|202:124|202:124|227:152|216:184,1,186.224991475296,8|0,2:0|2:0,2:0:0:0:
325,189,186474,6,0,P|386:188|349:55,1,248.299988633729,6|10,1:2|2:0,2:0:0:0:
213,11,186994,1,2,2:0:0:0:
135,183,187167,2,0,P|128:127|108:52,1,124.149994316864,0|2,2:0|1:2,2:0:0:0:
300,0,187514,2,0,L|300:194,1,186.224991475296,8|0,2:0|2:0,2:0:0:0:
299,214,187861,5,2,1:2:0:0:
411,117,188034,1,0,2:0:0:0:
299,214,188208,2,0,P|232:188|171:188,1,124.149994316864,10|0,2:0|1:2,2:0:0:0:
381,289,188555,2,0,P|454:277|503:232,1,124.149994316864,2|0,2:0|1:2,2:0:0:0:
486,66,188901,2,0,B|439:49|398:89|408:93|370:132|306:110,1,186.224991475296,10|0,2:0|2:0,2:0:0:0:
291,85,189248,6,0,P|233:25|141:63,1,186.224991475296,6|0,1:2|2:0,2:0:0:0:
130,89,189595,1,8,2:0:0:0:
197,250,189768,2,0,P|243:195|230:132,1,124.149994316864,2|0,1:2|2:0,2:0:0:0:
87,212,190115,1,0,1:2:0:0:
87,0,190289,6,0,L|87:194,1,186.224991475296,14|0,2:0|2:0,2:0:0:0:
87,212,190635,5,0,1:2:0:0:
185,83,190809,1,8,2:0:0:0:
0,218,190982,5,8,2:0:0:0:
239,147,191156,1,0,1:2:0:0:
0,77,191329,5,8,2:0:0:0:
120,311,191503,1,8,2:0:0:0:
120,311,191589,1,8,2:0:0:0:
120,311,191676,6,0,P|166:297|209:289,1,66.8499979599,8|8,2:0|2:0,2:0:0:0:
303,165,191849,2,0,P|271:154|238:146,1,66.8499979599,8|8,2:0|2:0,2:0:0:0:
328,318,192023,6,0,P|425:344|481:206,1,248.299988633729,6|10,1:2|2:0,2:0:0:0:
373,121,192543,1,0,2:0:0:0:
505,29,192716,2,0,P|484:95|478:165,1,124.149994316864,2|0,2:0|1:2,2:0:0:0:
279,2,193063,2,0,L|279:214,1,186.224991475296,10|0,2:0|2:0,2:0:0:0:
279,226,193410,6,0,B|291:196|270:163|214:155|180:181|168:240|175:241|148:269|95:255,1,248.299988633729,0|10,1:2|2:0,2:0:0:0:
141,112,193930,1,0,1:2:0:0:
233,317,194104,2,0,B|295:303|295:303|300:305|300:305|359:292,1,124.149994316864,2|0,2:0|1:2,2:0:0:0:
478,150,194450,2,0,B|402:164|402:164|388:188|388:188|297:206,1,186.224991475296,10|0,2:0|2:0,2:0:0:0:
279,226,194797,6,0,P|288:158|301:93,1,124.149994316864,2|0,1:2|2:0,2:0:0:0:
62,124,195144,1,10,2:0:0:0:
187,3,195318,2,0,L|187:210,1,186.224991475296,0|0,1:2|2:0,2:0:0:0:
187,221,195664,1,0,1:2:0:0:
78,328,195838,2,0,P|29:265|73:209,1,124.149994316864,10|0,2:0|1:2,2:0:0:0:
71,208,196098,1,0,1:2:0:0:
71,208,196185,5,2,1:2:0:0:
178,322,196358,1,0,2:0:0:0:
71,208,196531,1,8,2:0:0:0:
296,142,196705,2,0,P|286:212|179:213,1,186.224991475296,2|0,1:2|2:0,2:0:0:0:
163,201,197052,1,0,1:2:0:0:
364,336,197225,2,0,P|375:255|388:205,1,124.149994316864,8|0,2:0|1:2,2:0:0:0:
488,105,197572,6,0,B|427:128|376:75|386:71|344:21|257:54,1,248.299988633729,6|10,1:2|2:0,2:0:0:0:
181,180,198092,1,2,1:2:0:0:
45,118,198266,2,0,P|13:63|39:2,1,124.149994316864,0|2,2:0|1:2,2:0:0:0:
181,180,198612,1,8,2:0:0:0:
8,288,198786,1,2,1:2:0:0:
8,288,198872,1,2,1:2:0:0:
8,288,198959,6,0,P|74:241|121:243,1,124.149994316864,6|0,1:2|2:0,2:0:0:0:
230,336,199306,1,10,2:0:0:0:
351,202,199479,2,0,P|301:146|193:163,1,186.224991475296,2|0,1:2|2:0,2:0:0:0:
181,180,199826,1,2,1:2:0:0:
409,265,200000,2,0,P|435:205|407:148,1,124.149994316864,8|0,2:0|1:2,2:0:0:0:
266,244,200346,5,6,1:2:0:0:
370,350,200520,1,0,2:0:0:0:
187,265,200693,1,8,2:0:0:0:
337,29,200867,6,0,B|319:97|367:147|367:147|347:169|351:208,1,186.224991475296,2|0,1:2|2:0,2:0:0:0:
348,228,201213,1,2,1:2:0:0:
243,121,201387,1,10,2:0:0:0:
348,228,201560,6,0,P|430:229|473:142,1,186.224991475296,6|0,1:2|2:0,2:0:0:0:
466,119,201907,1,0,1:2:0:0:
348,228,202081,1,10,2:0:0:0:
178,59,202254,6,0,P|249:21|323:110,1,186.224991475296,6|0,1:2|2:0,2:0:0:0:
323,106,202601,1,8,3:0:0:0:
178,59,202774,1,4,3:0:0:0:
90,234,202948,6,0,P|168:258|234:140,1,229.2,6|0,1:2|1:2,2:0:0:0:
178,59,203641,1,2,2:0:0:0:
178,59,203728,1,2,2:0:0:0:
178,59,203815,6,0,P|127:74|85:78,1,76.4,10|8,2:0|3:0,2:0:0:0:
2,107,204161,6,0,P|62:92|108:85,1,85.9499973770142,4|0,3:0|2:0,2:0:0:0:
104,77,204508,6,0,P|97:119|91:162,1,85.9499973770142,6|2,1:2|2:0,2:0:0:0:
87,181,205115,1,2,2:0:0:0:
88,181,205202,5,2,2:0:0:0:
250,349,205896,6,0,P|321:331|368:329,1,114.599996502686,6|2,1:2|2:0,2:0:0:0:
456,228,207283,6,0,P|399:224|344:208,1,114.599996502686,0|2,2:0|2:0,2:0:0:0:
293,145,208323,1,2,2:0:0:0:
411,31,208670,6,0,B|402:85|402:85|404:85|404:85|391:153,1,114.599996502686,2|0,2:0|2:0,2:0:0:0:
344,207,209711,1,2,2:0:0:0:
293,145,210057,6,0,P|245:137|217:158,1,85.9499973770142,2|0,2:0|2:0,2:0:0:0:
154,208,210751,6,0,P|134:202|91:194,1,57.2999982513428,2|2,2:0|2:0,2:0:0:0:
210,266,211098,6,0,P|231:256|270:249,1,57.3,2|2,2:0|2:0,2:0:0:0:
303,265,211445,6,0,B|282:215|305:186|305:186|334:173|339:133,1,133.6999959198,2|2,2:0|2:0,2:0:0:0:
365,73,211965,2,0,B|344:123|367:152|367:152|396:165|401:205,1,133.6999959198,0|2,2:0|2:0,2:0:0:0:
437,260,212485,1,2,2:0:0:0:
380,316,212659,1,2,2:0:0:0:
380,316,212745,1,2,2:0:0:0:
380,316,212832,6,0,P|312:306|268:303,1,100.27499693985,2|0,2:0|2:0,2:0:0:0:
265,307,213179,2,0,P|304:298|335:286,1,66.8499979599,2|0,2:0|2:0,2:0:0:0:
224,242,213526,2,0,P|185:233|154:221,1,66.8499979599,2|0,2:0|2:0,2:0:0:0:
344,4,213872,6,0,P|339:72|339:119,1,114.6,2|0,2:0|2:0,2:0:0:0:
393,186,214219,6,0,P|328:123|222:154,1,200.5499938797,14|0,2:0|2:0,2:0:0:0:
213,166,214566,1,10,2:0:0:0:
305,289,214740,1,2,1:2:0:0:
334,280,214826,1,0,1:2:0:0:
366,270,214913,1,8,2:0:0:0:
98,0,215086,6,0,L|98:216,1,214.875008196831,10|0,2:0|2:0,2:0:0:0:
35,286,215433,6,0,B|13:237|74:204|116:216|138:267|130:268|163:298|212:286,1,229.2,6|0,1:2|2:0,2:0:0:0:
227,264,215780,5,8,2:0:0:0:
343,138,215953,1,8,2:0:0:0:
227,264,216127,1,0,1:2:0:0:
431,294,216300,5,10,2:0:0:0:
417,272,216387,1,8,2:0:0:0:
398,258,216474,2,0,P|354:245|316:242,1,76.4,0|0,1:2|1:2,2:0:0:0:
159,146,216647,5,8,2:0:0:0:
176,119,216734,1,8,2:0:0:0:
197,98,216820,2,0,P|241:85|271:84,1,76.4,8|8,2:0|2:0,2:0:0:0:
466,0,216994,6,0,L|466:217,1,207.712506338883,6|0,1:2|2:0,2:0:0:0:
466,207,217341,2,0,P|412:156|341:171,1,138.475004225922,10|0,2:0|2:0,2:0:0:0:
251,306,217687,1,2,2:0:0:0:
153,170,217861,1,0,1:2:0:0:
251,306,218034,2,0,P|332:288|353:236,1,138.475004225922,10|2,2:0|2:0,2:0:0:0:
313,78,218381,6,0,B|240:51|194:113|194:113|188:158|138:175,1,207.712506338883,0|0,1:2|2:0,2:0:0:0:
128,171,218728,1,8,2:0:0:0:
1,74,218901,1,0,1:2:0:0:
7,240,219075,2,0,P|47:197|152:186,1,138.475004225922,2|0,2:0|1:2,2:0:0:0:
136,368,219422,2,0,B|119:375|81:368|81:368|52:326|75:277|75:277|111:254|144:274,1,207.712506338883,10|0,2:0|2:0,2:0:0:0:
163,279,219768,6,0,B|224:305|268:267|253:260|302:220|362:235,1,207.712506338883,2|0,1:2|2:0,2:0:0:0:
386,254,220115,1,10,2:0:0:0:
252,156,220289,1,2,2:0:0:0:
411,33,220462,2,0,P|380:114|373:180,1,138.475004225922,0|2,2:0|1:2,2:0:0:0:
289,5,220809,1,10,2:0:0:0:
474,122,220982,1,2,2:0:0:0:
285,243,221156,6,0,P|313:159|486:196,1,276.950008451844,0|8,1:2|2:0,2:0:0:0:
410,328,221676,1,0,1:2:0:0:
213,289,221849,2,0,P|184:237|213:158,1,138.475004225922,2|2,2:0|1:2,2:0:0:0:
372,242,222196,1,10,2:0:0:0:
268,371,222370,1,2,1:2:0:0:
268,371,222456,1,2,1:2:0:0:
268,371,222543,6,0,P|188:369|54:371,1,207.712506338883,6|0,1:2|2:0,2:0:0:0:
30,371,222890,1,10,2:0:0:0:
85,201,223063,2,0,B|143:173|181:214|172:222|219:257|282:229,1,207.712506338883,2|0,2:0|2:0,2:0:0:0:
306,210,223410,1,2,1:2:0:0:
187,93,223583,1,8,2:0:0:0:
388,7,223757,1,0,1:2:0:0:
388,7,223844,1,0,1:2:0:0:
388,7,223930,6,0,L|388:231,1,207.712506338883,6|0,1:2|2:0,2:0:0:0:
389,243,224277,1,10,2:0:0:0:
501,364,224450,2,0,P|532:289|502:239,1,138.475004225922,2|0,2:0|2:0,2:0:0:0:
306,210,224797,1,2,1:2:0:0:
217,351,224971,2,0,P|312:337|376:334,1,138.475004225922,8|0,2:0|1:2,2:0:0:0:
507,243,225318,6,0,B|447:257|408:214|418:206|374:165|309:192,1,207.712506338883,6|0,1:2|2:0,2:0:0:0:
306,210,225664,1,8,2:0:0:0:
442,114,225838,1,0,1:2:0:0:
306,210,226011,1,8,2:0:0:0:
512,164,226185,1,0,1:2:0:0:
301,88,226358,1,10,2:0:0:0:
426,309,226531,1,2,1:2:0:0:
472,35,226705,6,0,P|392:2|305:86,1,207.712506338883,6|0,1:2|2:0,2:0:0:0:
301,88,227052,1,10,2:0:0:0:
109,204,227225,2,0,B|55:180|55:180|224:156,1,207.712506338883,6|0,1:2|2:0,2:0:0:0:
228,155,227572,1,2,1:2:0:0:
135,17,227745,2,0,P|57:17|26:72,1,138.475004225922,8|10,2:0|0:0,2:0:0:0:
26,100,228005,1,8,2:0:0:0:
26,100,228092,6,0,L|26:291,1,179.0625,6|0,1:2|2:0,2:0:0:0:
28,308,228439,1,0,1:2:0:0:
221,247,228612,2,0,P|136:240|100:211,1,119.375,8|0,2:0|1:2,2:0:0:0:
268,349,228959,1,0,2:0:0:0:
322,216,229133,6,0,P|386:181|460:263,1,179.0625,14|0,2:0|2:0,2:0:0:0:
462,262,229479,1,0,1:2:0:0:
502,124,229653,1,8,2:0:0:0:
462,262,229826,2,0,P|473:186|484:135,1,119.375,10|0,2:0|1:2,2:0:0:0:
360,38,230173,2,0,P|371:96|379:155,1,119.375,10|8,2:0|3:0,2:0:0:0:
326,297,230520,1,4,3:0:0:0:
146,216,230693,1,8,2:0:0:0:
146,216,230780,1,8,2:0:0:0:
146,216,230867,6,0,B|213:208|213:208|251:223|251:223|349:213,1,179.0625,6|0,1:2|2:0,2:0:0:0:
334,215,231213,1,0,1:2:0:0:
263,71,231387,2,0,B|203:54|203:54|157:96,1,119.375,8|0,2:0|1:2,2:0:0:0:
294,144,231734,1,0,2:0:0:0:
127,0,231907,6,0,L|127:250,1,238.75,14|0,2:0|1:2,2:0:0:0:
209,356,232427,1,8,2:0:0:0:
322,253,232601,2,0,P|245:244|199:215,1,119.375,8|0,2:0|1:2,2:0:0:0:
364,171,232948,1,10,2:0:0:0:
478,258,233121,1,8,3:0:0:0:
278,165,233294,1,4,3:0:0:0:
477,37,233468,1,10,2:0:0:0:
477,37,233555,1,8,2:0:0:0:
477,37,233641,6,0,L|477:242,1,193.387500737715,6|0,1:2|2:0,2:0:0:0:
478,258,233988,5,8,2:0:0:0:
361,156,234161,1,10,2:0:0:0:
255,345,234335,5,8,2:0:0:0:
386,255,234508,1,8,2:0:0:0:
164,187,234682,5,10,2:0:0:0:
298,262,234855,1,8,2:0:0:0:
221,93,235029,5,8,2:0:0:0:
78,273,235202,1,10,2:0:0:0:
361,156,235375,5,8,2:0:0:0:
82,78,235549,1,8,2:0:0:0:
255,345,235722,5,10,2:0:0:0:
299,19,235896,1,0,1:2:0:0:
33,188,236069,6,0,B|98:202|137:143|123:142|156:91|225:112,1,210.100006411743,14|2,2:0|1:2,2:0:0:0:
265,167,236936,1,0,2:0:0:0:
234,233,237109,6,0,P|186:222|164:219,1,52.5250016029358,10|8,2:0|3:0,2:0:0:0:
308,267,237456,2,0,P|356:256|378:253,1,52.5250016029358,4|2,3:0|2:0,2:0:0:0:
434,311,237803,6,0,B|398:266|417:211|417:211|470:174|452:104,1,210.100006411743,6|2,1:2|2:0,2:0:0:0:
312,26,238844,6,0,B|321:67|321:67|322:67|322:67|333:122,1,78.7875024044038,2|0,2:0|2:0,2:0:0:0:
340,142,239277,5,6,1:2:0:0:
256,192,239363,12,0,244826,2:0:0:0:
