osu file format v14

[General]
AudioFilename: Luminous.mp3
AudioLeadIn: 0
PreviewTime: 205115
Countdown: 0
SampleSet: Soft
StackLeniency: 0.4
Mode: 0
LetterboxInBreaks: 0
WidescreenStoryboard: 1

[Editor]
Bookmarks: 15862,15948,16035,16122,16208,16295,16382,16469,16555,16642,16729,16815,16902,16989,17075,17162,17249,17336,17422,17509,17596,17682,17769,17856,17943,18029,18116,18203,18289,18376,18463,18549,18636,18723,18810,18896,18983,19070,19156,19243,19330,19417,19503,19590,19677,19763,19850,19937,20023,20110,20197,20284,20370,20457,20544,20630,20717,20804,20891,20977,21064,21151,21237,21324,21411,21497,21584,21671,21758,21844,21931,22018,22104,22191,22278,22365,22451,22538,22625,22711,22798,22885,22971,23058,23145,23232,23318,23405,23492,23578,23665,23752,23838,23925,24012,24099,24185,24272,24359,24445,24532,24619,24706,24792,24879,24966,25052,25139,25226,25312,25399,25486,25573,25659,25746,25833,25919,26006,26093,26180,26266,26353,26440,26526,26613,26700,26786,26873,26960,38058,49156,60255,71353,82451,93549,104648,115746,126844,135168,143492,154590,165688,172625,172711,172798,172885,172971,173058,173145,173232,173318,173405,173492,173578,173665,173752,173838,173925,174012,174099,174185,174272,174359,174445,174532,174619,174706,174792,174879,174966,175052,175139,175226,175312,175399,175486,175573,175659,175746,175833,175919,176006,176093,176180,176266,176353,176440,176526,176613,176700,176786,176873,176960,177047,177133,177220,177307,177393,177480,177567,177654,177740,177827,177914,178000,178087,178174,186497,197596,205919,206006,206093,206180,206266,206353,206440,206526,206613,206700,206786,206873,206960,207047,207133,207220,207307,207393,207480,207567,207654,207740,207827,207914,208000,208087,208174,208260,208347,208434,208521,208607,208694,208781,208867,208954,209041,209128,209214,209301,209388,209474,209561,209648,209734,209821,209908,209995,210081,210168,210255,210341,210428,210515,210602,210688,210775,210862,210948,211035,211122,211208,211295,211382,211469,217018,228116
DistanceSpacing: 1.4
BeatDivisor: 4
GridSize: 32
TimelineZoom: 2.6

[Metadata]
Title:Luminous
TitleUnicode:ルミナス
Artist:ClariS
ArtistUnicode:ClariS
Creator:Sarawatlism
Version:Ex & AsuKo's Hard
Source:劇場版 魔法少女まどか☆マギカ
Tags:clara alice op opening anime jpop j-pop pop japanese Puella Magi Madoka Magica movie mahou shoujo Hajimari no Monogatari Eien no Monogatari [_lost_] conner c_o_n_n_e_r asukow -_ex_- ex xhappy- p_kung grazuko
BeatmapID:3437840
BeatmapSetID:1070262

[Difficulty]
HPDrainRate:5
CircleSize:4
OverallDifficulty:7
ApproachRate:8
SliderMultiplier:1.4
SliderTickRate:1

[Events]
//Background and Video events
0,0,"BG.jpg",0,0
//Break Periods
2,16038,26135
2,172800,177349
2,206096,210644
//Storyboard Layer 0 (Background)
//Storyboard Layer 1 (Fail)
//Storyboard Layer 2 (Pass)
//Storyboard Layer 3 (Foreground)
//Storyboard Layer 4 (Overlay)
//Storyboard Sound Samples

[TimingPoints]
579,346.820809248555,4,2,1,35,1,0
2833,-125,4,2,1,65,0,0
4394,-125,4,2,1,65,0,0
4740,346.820809248555,4,2,1,60,1,0
4740,-100,4,2,1,60,0,0
13063,-125,4,2,1,55,0,0
14450,-125,4,2,1,50,0,0
15751,-125,4,2,1,5,0,0
15838,-125,4,2,1,40,0,0
26936,-125,4,2,1,40,0,0
35260,-125,4,2,1,50,0,0
36647,-125,4,2,1,60,0,0
38034,-111.111111111111,4,2,1,50,0,0
38294,-111.111111111111,4,2,1,5,0,0
38381,-111.111111111111,4,2,1,50,0,0
40722,-111.111111111111,4,2,1,5,0,0
40809,-111.111111111111,4,2,1,50,0,0
41069,-111.111111111111,4,2,1,5,0,0
41156,-111.111111111111,4,2,1,50,0,0
47745,-111.111111111111,4,2,1,60,0,0
49133,-111.111111111111,4,2,1,50,0,0
53294,-111.111111111111,4,2,1,60,0,0
54682,-111.111111111111,4,2,1,70,0,0
56069,-111.111111111111,4,2,1,75,0,0
57456,-111.111111111111,4,2,1,55,0,0
58844,-111.111111111111,4,2,1,45,0,0
59537,-111.111111111111,4,2,1,75,0,0
60231,-90.9090909090909,4,2,1,85,0,1
66040,-90.9090909090909,4,2,1,5,0,1
66127,-90.9090909090909,4,2,1,85,0,1
68468,-90.9090909090909,4,2,1,5,0,1
68555,-90.9090909090909,4,2,1,90,0,1
69768,-90.9090909090909,4,2,1,95,0,1
71329,-90.9090909090909,4,2,1,85,0,1
77138,-90.9090909090909,4,2,1,5,0,1
77225,-90.9090909090909,4,2,1,85,0,1
82427,-100,4,2,1,75,0,0
85202,-100,4,2,1,85,0,0
86242,-100,4,2,1,50,0,0
87976,-100,4,2,1,65,0,0
93526,-100,4,2,1,65,0,0
96300,-125,4,2,1,60,0,0
97687,-125,4,2,1,55,0,0
99075,-125,4,2,1,50,0,0
104884,-125,4,2,1,5,0,0
104971,-125,4,2,1,50,0,0
108786,-125,4,2,1,40,0,0
109826,-125,4,2,1,60,0,0
110173,-111.111111111111,4,2,1,50,0,0
110433,-111.111111111111,4,2,1,5,0,0
110520,-111.111111111111,4,2,1,50,0,0
115722,-111.111111111111,4,2,1,50,0,0
118410,-111.111111111111,4,2,1,5,0,0
118497,-111.111111111111,4,2,1,60,0,0
119884,-111.111111111111,4,2,1,65,0,0
121271,-111.111111111111,4,2,1,60,0,0
121531,-111.111111111111,4,2,1,5,0,0
121618,-111.111111111111,4,2,1,60,0,0
123959,-111.111111111111,4,2,1,5,0,0
124046,-111.111111111111,4,2,1,60,0,0
124306,-111.111111111111,4,2,1,5,0,0
124393,-111.111111111111,4,2,1,60,0,0
126820,-111.111111111111,4,2,1,60,0,0
130809,-111.111111111111,4,2,1,65,0,0
132370,-111.111111111111,4,2,1,60,0,0
132630,-111.111111111111,4,2,1,5,0,0
132716,-111.111111111111,4,2,1,60,0,0
135057,-111.111111111111,4,2,1,5,0,0
135144,-111.111111111111,4,2,1,60,0,0
137919,-111.111111111111,4,2,1,70,0,0
139306,-111.111111111111,4,2,1,75,0,0
140693,-111.111111111111,4,2,1,55,0,0
142081,-111.111111111111,4,2,1,45,0,0
142774,-111.111111111111,4,2,1,75,0,0
143468,-90.9090909090909,4,2,1,85,0,1
149277,-90.9090909090909,4,2,1,5,0,1
149364,-90.9090909090909,4,2,1,85,0,1
151705,-90.9090909090909,4,2,1,5,0,1
151792,-90.9090909090909,4,2,1,90,0,1
153005,-90.9090909090909,4,2,1,95,0,1
154566,-90.9090909090909,4,2,1,85,0,1
160375,-90.9090909090909,4,2,1,5,0,1
160462,-90.9090909090909,4,2,1,85,0,1
165664,-100,4,2,1,75,0,0
168439,-100,4,2,1,85,0,0
169479,-200,4,2,1,50,0,0
172601,-200,4,2,1,40,0,0
178150,-100,4,2,1,30,0,0
178323,-100,4,2,1,40,0,0
178497,-100,4,2,1,50,0,0
178670,-100,4,2,1,60,0,0
178844,-100,4,2,1,70,0,0
179017,-100,4,2,1,80,0,0
180057,-100,4,2,1,85,0,0
180924,-100,4,2,1,80,0,0
181185,-100,4,2,1,5,0,0
181271,-100,4,2,1,80,0,0
183612,-100,4,2,1,5,0,0
183699,-100,4,2,1,80,0,0
186387,-100,4,2,1,5,0,0
186474,-100,4,2,1,80,0,0
188121,-100,4,2,1,5,0,0
188208,-100,4,2,1,80,0,0
188815,-100,4,2,1,5,0,0
188901,-100,4,2,1,80,0,0
189248,-100,4,2,1,85,0,0
190289,-100,4,2,1,90,0,0
192023,-100,4,2,1,80,0,0
192283,-100,4,2,1,5,0,0
192370,-100,4,2,1,80,0,0
197485,-100,4,2,1,5,0,0
197572,-100,4,2,1,85,0,0
198959,-100,4,2,1,90,0,0
200346,-100,4,2,1,80,0,0
202948,-100,4,2,1,70,0,0
204508,-125,4,2,1,60,0,0
205896,-166.666666666667,4,2,1,50,0,0
211445,-111.111111111111,4,2,1,60,0,0
213526,-100,4,2,1,60,0,0
214219,-100,4,2,1,90,0,0
215433,-100,4,2,1,95,0,0
216994,-90.9090909090909,4,2,1,85,0,1
222803,-90.9090909090909,4,2,1,5,0,1
222890,-90.9090909090909,4,2,1,85,0,1
223844,-90.9090909090909,4,2,1,5,0,1
223930,-90.9090909090909,4,2,1,85,0,1
228092,-100,4,2,1,75,0,0
230867,-100,4,2,1,85,0,0
233641,-95.2380952380952,4,2,1,45,0,0
234335,-95.2380952380952,4,2,1,55,0,0
235029,-95.2380952380952,4,2,1,65,0,0
235722,-95.2380952380952,4,2,1,75,0,0
236069,-95.2380952380952,4,2,1,60,0,0
236676,-95.2380952380952,4,2,1,5,0,0
236763,-95.2380952380952,4,2,1,60,0,0
237803,-125,4,2,1,50,0,0
238844,495.049504950495,4,2,1,50,1,0
239277,346.820809248555,4,2,1,50,1,0
244826,-100,4,2,1,5,0,0

[Colours]
Combo1 : 203,143,199
Combo2 : 255,155,155
Combo3 : 226,95,134
Combo4 : 192,177,205
Combo5 : 197,139,139
Combo6 : 120,132,171

[HitObjects]
60,271,2833,6,0,B|114:346|210:349|276:302|291:218|291:218|201:184|163:257,1,448,6|0,1:2|0:0,0:0:0:0:
102,205,4394,1,4,3:0:0:0:
151,144,4567,1,4,3:0:0:0:
74,82,4740,6,0,P|34:69|-1:59,1,70,6|0,1:2|0:0,0:0:0:0:
151,144,5086,2,0,P|191:131|226:121,1,70,0|2,1:2|0:0,0:0:0:0:
279,46,5433,2,0,P|337:55|387:143,1,140,0|2,1:2|1:2,0:0:0:0:
327,196,5953,1,8,0:0:0:0:
412,244,6127,6,0,P|465:230|503:220,1,70,0|0,1:2|0:0,0:0:0:0:
398,345,6474,1,0,1:2:0:0:
398,345,6647,1,0,0:0:0:0:
314,292,6820,2,0,P|265:276|224:266,1,70,0|8,1:2|3:0,0:0:0:0:
160,318,7167,1,8,3:0:0:0:
92,261,7341,5,4,3:0:0:0:
92,261,7427,1,4,3:0:0:0:
92,261,7514,2,0,P|107:207|138:96,1,140,2|0,1:2|1:2,0:0:0:0:
167,35,8034,1,0,0:0:0:0:
236,104,8208,2,0,P|285:93|326:83,1,70,0|0,1:2|0:0,0:0:0:0:
365,164,8555,2,0,P|414:153|455:143,1,70,0|8,1:2|0:0,0:0:0:0:
500,76,8901,6,0,P|485:133|458:236,1,140,0|0,1:2|1:2,0:0:0:0:
501,307,9422,1,8,0:0:0:0:
501,307,9595,1,0,1:2:0:0:
415,354,9768,2,0,P|370:341|334:331,1,70,8|4,3:0|3:0,0:0:0:0:
266,279,10115,5,10,0:0:0:0:
266,279,10202,1,10,0:0:0:0:
266,279,10289,2,0,P|201:286|151:351,2,140,6|0|0,1:2|1:2|1:2,0:0:0:0:
75,251,11329,1,0,1:2:0:0:
75,251,11503,1,10,0:0:0:0:
134,172,11676,6,0,P|123:115|116:78,1,70,2|8,1:2|0:0,0:0:0:0:
98,7,12023,1,8,0:0:0:0:
98,7,12196,1,2,1:2:0:0:
183,55,12370,2,0,P|230:43|272:32,1,70,10|8,0:0|3:0,0:0:0:0:
340,144,12716,2,0,P|293:132|251:121,1,70,4|0,3:0|0:0,0:0:0:0:
188,198,13063,5,6,1:2:0:0:
188,198,13583,2,0,P|203:242|228:319,1,112,8|8,0:0|3:0,0:0:0:0:
253,377,14104,1,4,3:0:0:0:
113,305,14450,5,4,3:0:0:0:
113,305,14971,2,0,P|150:269|224:262,1,112,4|0,0:3|1:2,0:0:0:0:
285,267,15491,2,0,P|273:310|259:359,1,84,8|0,0:0|0:0,0:0:0:0:
253,377,15838,5,6,1:2:0:0:
512,13,26936,6,0,P|506:68|500:131,1,112,6|2,1:2|0:0,0:0:0:0:
509,281,27630,2,0,P|454:283|410:247,1,112,2|2,0:0|0:0,0:0:0:0:
350,200,28150,6,0,P|359:247|370:318,1,112,2|0,0:0|0:0,0:0:0:0:
308,360,28670,2,0,B|215:330|230:398|146:371,1,168,2|0,0:0|0:0,0:0:0:0:
122,297,29364,2,0,P|96:303|67:311,1,56,2|2,0:0|0:0,0:0:0:0:
2,358,29711,6,0,P|31:312|14:261,1,112,2|2,0:0|0:0,0:0:0:0:
6,182,30231,2,0,P|33:186|70:192,1,56,2|0,0:0|0:0,0:0:0:0:
101,122,30578,2,0,P|74:118|37:112,1,56,2|0,0:0|0:0,0:0:0:0:
8,43,30924,6,0,P|79:4|155:31,1,168,2|2,0:0|0:0,0:0:0:0:
306,77,31792,2,0,P|297:29|294:7,1,56,2|0,0:0|0:0,0:0:0:0:
375,22,32138,2,0,P|383:69|387:92,1,56,2|0,0:0|1:2,0:0:0:0:
448,119,32485,6,0,P|395:112|352:146,1,112,6|2,1:2|0:0,0:0:0:0:
216,225,33179,2,0,P|269:217|312:251,1,112,2|2,0:0|0:0,0:0:0:0:
323,333,33699,6,0,P|381:321|437:310,1,112,2|0,0:0|0:0,0:0:0:0:
492,362,34219,2,0,P|511:333|509:296,1,56,2|0,0:0|0:0,0:0:0:0:
475,243,34566,2,0,P|458:220|454:193,1,56,2|0,0:0|0:0,0:0:0:0:
508,136,34913,1,4,3:0:0:0:
412,11,35260,6,0,P|360:13|327:69,1,112,6|0,1:2|1:2,0:0:0:0:
366,127,35780,1,8,0:0:0:0:
263,246,36127,1,2,1:2:0:0:
263,246,36300,2,0,L|248:171,1,56,10|2,0:0|1:2,0:0:0:0:
248,178,36560,5,2,1:2:0:0:
244,165,36647,2,0,P|191:168|154:113,1,112,6|8,1:2|0:0,0:0:0:0:
115,58,37167,1,2,1:2:0:0:
1,165,37514,1,2,1:2:0:0:
118,284,37861,5,0,1:2:0:0:
118,284,37948,1,0,1:2:0:0:
118,284,38034,2,0,P|186:264|216:256,1,94.499997116089,6|0,1:2|0:0,0:0:0:0:
239,250,38381,1,10,0:0:0:0:
309,303,38555,2,0,P|298:349|293:369,1,62.9999980773926,2|0,0:0|0:0,0:0:0:0:
406,292,38901,2,0,P|395:246|390:226,1,62.9999980773926,2|8,1:2|0:0,0:0:0:0:
341,157,39248,6,0,P|353:108|377:17,1,125.999996154785,2|0,0:0|0:0,0:0:0:0:
263,106,39768,2,0,P|219:95|194:89,1,62.9999980773926,8|0,0:0|1:2,0:0:0:0:
130,38,40115,2,0,P|94:51|51:66,1,62.9999980773926,2|0,0:0|1:2,0:0:0:0:
4,118,40462,2,0,P|-6:162|11:214,1,94.499997116089,10|0,0:0|0:0,0:0:0:0:
30,229,40809,6,0,P|84:217|127:207,1,94.499997116089,2|0,1:2|0:0,0:0:0:0:
150,212,41156,1,10,0:0:0:0:
216,152,41329,2,0,P|205:109|199:82,1,62.9999980773926,2|0,0:0|0:0,0:0:0:0:
291,67,41676,2,0,P|302:24|308:-3,1,62.9999980773926,2|8,1:2|0:0,0:0:0:0:
358,146,42023,6,0,P|409:134|491:117,1,125.999996154785,2|2,0:0|0:0,0:0:0:0:
510,202,42543,2,0,P|499:238|491:269,1,62.9999980773926,10|2,0:0|1:2,0:0:0:0:
417,309,42890,2,0,P|428:345|436:376,2,62.9999980773926,2|2|10,0:0|1:2|0:0,0:0:0:0:
356,244,43410,1,2,1:2:0:0:
293,305,43583,6,0,P|242:337|167:339,1,125.999996154785,6|8,1:2|0:0,0:0:0:0:
93,312,44104,1,2,0:0:0:0:
140,238,44277,2,0,P|128:182|124:162,1,62.9999980773926,2|0,0:0|1:2,0:0:0:0:
69,108,44624,1,8,0:0:0:0:
69,108,44797,1,2,0:0:0:0:
123,38,44971,6,0,P|173:10|255:18,1,125.999996154785,2|10,1:2|0:0,0:0:0:0:
311,64,45491,2,0,P|298:106|291:133,1,62.9999980773926,2|0,1:2|0:0,0:0:0:0:
331,204,45838,2,0,P|374:195|415:187,1,62.9999980773926,2|8,1:2|0:0,0:0:0:0:
304,300,46185,1,2,0:0:0:0:
235,244,46358,6,0,P|192:235|151:227,1,62.9999980773926,2|0,1:2|0:0,0:0:0:0:
99,280,46705,1,10,0:0:0:0:
33,221,46878,2,0,P|44:173|53:139,1,62.9999980773926,2|0,1:2|0:0,0:0:0:0:
106,93,47225,2,0,P|95:45|86:11,1,62.9999980773926,2|8,1:2|0:0,0:0:0:0:
202,141,47572,1,2,1:2:0:0:
261,75,47745,6,0,P|272:27|281:-7,2,62.9999980773926,8|8|0,0:0|0:0|1:2,0:0:0:0:
202,141,48266,2,0,P|213:191|231:277,1,125.999996154785,14|8,0:0|3:0,0:0:0:0:
252,354,48786,1,4,3:0:0:0:
252,354,48959,1,0,1:2:0:0:
315,293,49133,6,0,P|377:272|434:314,1,125.999996154785,6|10,1:2|0:0,0:0:0:0:
492,241,49653,2,0,L|465:102,1,125.999996154785,2|2,0:0|1:2,0:0:0:0:
500,35,50173,1,8,0:0:0:0:
410,16,50346,6,0,B|337:7|356:50|291:45,1,125.999996154785,2|0,0:0|0:0,0:0:0:0:
208,14,50867,1,8,0:0:0:0:
208,14,51213,2,0,P|177:19|146:25,1,62.9999980773926,2|0,0:0|1:2,0:0:0:0:
149,114,51560,2,0,P|179:108|210:102,1,62.9999980773926,10|0,0:0|0:0,0:0:0:0:
294,130,51907,6,0,B|326:167|326:167|294:237,1,125.999996154785,2|10,1:2|0:0,0:0:0:0:
342,311,52427,2,0,P|287:281|227:294,1,125.999996154785,2|2,0:0|1:2,0:0:0:0:
174,365,52948,2,0,P|137:356|104:351,1,62.9999980773926,8|2,0:0|1:2,0:0:0:0:
100,350,53208,1,0,1:2:0:0:
88,347,53294,5,12,0:0:0:0:
0,283,53468,1,8,0:0:0:0:
0,283,53988,6,0,P|9:247|20:200,1,62.9999980773926,8|8,3:0|3:0,0:0:0:0:
77,159,54335,1,4,3:0:0:0:
77,159,54508,1,4,3:0:0:0:
13,95,54682,6,0,P|67:66|134:86,1,125.999996154785,6|8,1:2|0:0,0:0:0:0:
205,127,55202,2,0,B|253:116|253:116|276:127|276:127|340:117,1,125.999996154785,6|0,1:2|1:2,0:0:0:0:
384,53,55722,1,8,0:0:0:0:
384,53,55896,1,2,1:2:0:0:
465,87,56069,6,0,P|454:141|442:219,1,125.999996154785,6|8,1:2|0:0,0:0:0:0:
395,285,56589,2,0,P|353:306|286:268,1,125.999996154785,6|0,1:2|1:2,0:0:0:0:
226,208,57109,2,0,P|256:203|309:192,1,62.9999980773926,10|0,0:0|1:2,0:0:0:0:
354,138,57456,6,0,P|299:159|226:69,1,188.999994232178,6|0,1:2|1:2,0:0:0:0:
152,21,58150,1,8,0:0:0:0:
77,68,58323,1,0,1:2:0:0:
77,68,58670,1,8,0:0:0:0:
5,17,58844,6,0,P|-15:86|82:157,1,188.999994232178,0|0,1:2|1:2,0:0:0:0:
137,110,59537,2,0,B|175:109|197:144|197:144|174:182|137:261,1,188.999994232178,2|0,0:0|0:0,0:0:0:0:
168,352,60231,6,0,P|219:340|257:333,1,77.0000023498536,6|0,1:2|0:0,0:0:0:0:
335,245,60578,2,0,P|284:233|246:226,1,77.0000023498536,10|0,0:0|0:0,0:0:0:0:
342,360,60924,2,0,P|405:347|471:287,1,154.000004699707,2|10,0:0|0:0,0:0:0:0:
505,185,61445,6,0,P|454:196|414:205,1,77.0000023498536,2|0,0:0|1:2,0:0:0:0:
333,154,61792,2,0,P|346:87|365:-7,1,154.000004699707,2|0,0:0|1:2,0:0:0:0:
234,93,62312,2,0,P|186:80|148:70,1,77.0000023498536,2|0,0:0|1:2,0:0:0:0:
97,181,62659,2,0,P|49:194|11:204,1,77.0000023498536,10|0,0:0|0:0,0:0:0:0:
135,308,63005,6,0,P|207:295|269:232,1,154.000004699707,2|10,1:2|0:0,0:0:0:0:
333,154,63526,2,0,P|395:167|433:175,1,77.0000023498536,2|0,0:0|0:0,0:0:0:0:
508,211,63872,1,2,1:2:0:0:
503,319,64046,1,10,0:0:0:0:
401,354,64219,6,0,P|356:342|311:332,1,77.0000023498536,2|0,0:0|1:2,0:0:0:0:
230,284,64566,2,0,P|153:300|104:383,1,154.000004699707,2|0,0:0|1:2,0:0:0:0:
18,298,65086,1,2,0:0:0:0:
87,215,65260,1,2,1:2:0:0:
9,139,65433,2,0,P|26:80|37:40,1,77.0000023498536,10|2,0:0|1:2,0:0:0:0:
122,9,65780,6,0,P|176:32|212:109,1,115.50000352478,6|0,1:2|0:0,0:0:0:0:
197,115,66127,2,0,P|153:105|108:97,1,77.0000023498536,10|0,0:0|0:0,0:0:0:0:
248,203,66474,2,0,P|292:193|337:185,1,77.0000023498536,2|0,0:0|1:2,0:0:0:0:
364,87,66820,2,0,P|408:97|453:105,1,77.0000023498536,10|2,0:0|0:0,0:0:0:0:
457,109,67081,1,2,0:0:0:0:
469,115,67167,6,0,P|447:174|431:217,1,77.0000023498536,2|0,1:2|0:0,0:0:0:0:
367,307,67514,2,0,P|345:248|329:205,1,77.0000023498536,10|0,0:0|1:2,0:0:0:0:
262,348,67861,2,0,P|212:334|173:323,1,77.0000023498536,2|0,0:0|1:2,0:0:0:0:
80,312,68208,2,0,P|45:253|54:189,1,115.50000352478,10|0,0:0|0:0,0:0:0:0:
56,183,68555,5,14,0:0:0:0:
56,183,68901,1,10,0:0:0:0:
154,138,69075,2,0,L|158:82,2,38.5000011749268,2|0|8,1:2|1:2|0:0,0:0:0:0:
250,184,69422,2,0,P|312:169|349:159,1,77.0000023498536,10|0,0:0|0:0,0:0:0:0:
419,112,69768,6,0,P|479:151|486:243,1,154.000004699707,6|8,1:2|0:0,0:0:0:0:
489,336,70289,2,0,P|438:327|400:320,1,77.0000023498536,8|0,0:0|1:2,0:0:0:0:
306,330,70635,2,0,P|316:287|321:250,1,77.0000023498536,10|0,0:0|1:2,0:0:0:0:
323,239,70896,1,0,1:2:0:0:
325,225,70982,2,0,P|319:179|316:161,3,38.5000011749268,8|8|8|8,0:0|0:0|0:0|0:0,0:0:0:0:
310,160,71329,6,0,P|279:188|237:186,1,77.0000023498536,6|0,1:2|0:0,0:0:0:0:
153,132,71676,2,0,P|141:81|134:43,1,77.0000023498536,10|0,0:0|0:0,0:0:0:0:
29,39,72023,2,0,P|42:101|68:213,1,154.000004699707,2|10,0:0|0:0,0:0:0:0:
117,282,72543,6,0,P|66:293|26:302,1,77.0000023498536,2|0,0:0|1:2,0:0:0:0:
161,357,72890,2,0,B|247:331|225:384|311:363,1,154.000004699707,2|0,0:0|1:2,0:0:0:0:
418,349,73410,2,0,P|399:297|355:277,1,77.0000023498536,2|0,0:0|1:2,0:0:0:0:
281,249,73757,2,0,P|290:211|300:174,1,77.0000023498536,10|0,0:0|0:0,0:0:0:0:
210,114,74104,6,0,P|159:163|83:143,1,154.000004699707,2|10,1:2|0:0,0:0:0:0:
10,66,74624,2,0,P|47:58|85:50,1,77.0000023498536,2|0,0:0|0:0,0:0:0:0:
183,5,74971,1,2,1:2:0:0:
286,36,75144,1,10,0:0:0:0:
293,143,75318,6,0,P|338:131|383:121,1,77.0000023498536,2|0,0:0|1:2,0:0:0:0:
433,38,75664,2,0,B|495:81|495:81|458:170,1,154.000004699707,2|0,0:0|1:2,0:0:0:0:
406,244,76185,1,2,0:0:0:0:
490,311,76358,1,2,1:2:0:0:
407,380,76531,2,0,P|370:369|332:358,1,77.0000023498536,10|2,0:0|1:2,0:0:0:0:
224,352,76878,6,0,P|297:299|292:274,1,115.50000352478,6|0,1:2|0:0,0:0:0:0:
291,272,77225,1,10,0:0:0:0:
192,227,77398,2,0,P|152:237|115:246,1,77.0000023498536,2|0,0:0|0:0,0:0:0:0:
236,154,77745,2,0,P|276:164|313:173,1,77.0000023498536,2|8,1:2|0:0,0:0:0:0:
407,241,78092,5,0,1:2:0:0:
407,241,78179,1,0,1:2:0:0:
407,241,78266,2,0,P|409:192|412:162,1,77.0000023498536,6|0,1:2|0:0,0:0:0:0:
483,83,78612,1,10,0:0:0:0:
394,20,78786,2,0,P|356:28|305:39,1,77.0000023498536,2|0,0:0|0:0,0:0:0:0:
217,73,79133,1,2,1:2:0:0:
114,37,79306,2,0,P|123:72|137:120,1,77.0000023498536,8|0,0:0|1:2,0:0:0:0:
188,203,79653,6,0,P|121:137|61:156,1,154.000004699707,6|8,1:2|0:0,0:0:0:0:
3,233,80173,1,0,1:2:0:0:
73,313,80346,2,0,P|110:302|153:288,1,77.0000023498536,8|0,0:0|1:2,0:0:0:0:
257,277,80693,1,10,0:0:0:0:
257,277,80867,1,2,1:2:0:0:
338,347,81040,6,0,P|360:311|357:265,1,77.0000023498536,6|0,1:2|0:0,0:0:0:0:
297,189,81387,1,10,0:0:0:0:
385,127,81560,2,0,P|422:132|475:140,1,77.0000023498536,6|0,1:2|0:0,0:0:0:0:
309,69,81907,2,0,L|225:84,1,77.0000023498536,2|8,1:2|0:0,0:0:0:0:
135,35,82254,1,2,1:2:0:0:
69,107,82427,6,0,P|81:155|102:257,1,140,6|0,1:2|1:2,0:0:0:0:
126,338,82948,2,0,P|176:354|208:358,1,70,10|0,0:0|1:2,0:0:0:0:
193,356,83468,6,0,P|252:331|348:322,1,140,14|0,0:0|0:0,0:0:0:0:
417,358,83988,1,0,1:2:0:0:
497,301,84161,2,0,P|489:252|483:211,1,70,10|8,0:0|0:0,0:0:0:0:
406,173,84508,2,0,P|414:124|420:83,1,70,10|8,0:0|3:0,0:0:0:0:
436,7,84855,1,4,3:0:0:0:
436,7,85029,1,0,1:2:0:0:
347,49,85202,6,0,P|280:33|190:12,1,140,14|0,0:0|1:2,0:0:0:0:
136,80,85722,1,8,0:0:0:0:
220,129,85896,2,0,P|208:174|198:209,1,70,0|0,1:2|0:0,0:0:0:0:
146,251,86242,5,2,0:0:0:0:
256,192,86329,12,2,87630,0:0:0:0:
146,251,87976,6,0,P|104:237|71:228,1,70,6|0,1:2|0:0,0:0:0:0:
185,341,88323,2,0,P|227:327|260:318,1,70,0|2,1:2|0:0,0:0:0:0:
320,250,88670,2,0,P|371:266|462:298,1,140,0|2,1:2|1:2,0:0:0:0:
498,207,89190,1,8,0:0:0:0:
432,133,89364,6,0,P|379:147|341:157,1,70,0|0,1:2|0:0,0:0:0:0:
285,101,89711,1,0,1:2:0:0:
285,101,89884,1,0,0:0:0:0:
222,176,90057,2,0,P|238:225|248:266,1,70,0|8,1:2|3:0,0:0:0:0:
265,338,90404,1,8,3:0:0:0:
175,362,90578,5,4,3:0:0:0:
175,362,90664,1,4,3:0:0:0:
175,362,90751,2,0,P|91:343|26:329,1,140,2|0,1:2|1:2,0:0:0:0:
11,237,91271,1,0,2:0:0:0:
96,188,91445,2,0,P|84:137|75:103,1,70,0|0,1:2|2:0,0:0:0:0:
59,24,91792,1,0,1:2:0:0:
59,24,91965,1,8,2:0:0:0:
142,75,92138,6,0,P|193:93|229:104,1,70,2|2,1:2|2:0,0:0:0:0:
274,24,92485,2,0,P|325:6|361:-5,1,70,2|10,1:2|2:0,0:0:0:0:
435,26,92832,1,2,1:2:0:0:
508,90,93005,1,8,3:0:0:0:
423,140,93179,2,0,P|378:129|340:120,1,70,4|10,3:0|0:0,0:0:0:0:
339,121,93439,1,10,0:0:0:0:
325,120,93526,6,0,P|267:137|226:209,1,140,6|0,1:2|1:2,0:0:0:0:
162,277,94046,1,0,0:0:0:0:
208,362,94219,2,0,L|293:358,1,70,0|0,1:2|0:0,0:0:0:0:
375,369,94566,2,0,P|408:377|441:367,1,70,0|10,1:2|0:0,0:0:0:0:
453,362,94826,1,10,0:0:0:0:
462,352,94913,5,2,1:2:0:0:
510,267,95086,1,8,0:0:0:0:
413,249,95260,2,0,P|423:211|429:180,1,70,8|2,0:0|1:2,0:0:0:0:
376,97,95607,2,0,L|307:107,2,70,10|8|4,0:0|3:0|3:0,0:0:0:0:
452,23,96127,5,2,0:0:0:0:
452,23,96213,1,2,0:0:0:0:
452,23,96300,2,0,B|493:12|515:48|515:48|503:86|482:151,1,168,6|8,1:2|0:0,0:0:0:0:
486,137,97167,1,8,3:0:0:0:
415,170,97341,2,0,P|405:140|408:113,1,56,4|0,3:0|0:0,0:0:0:0:
465,224,97687,6,0,P|404:215|334:206,1,112,4|0,3:0|0:0,0:0:0:0:
286,166,98208,2,0,L|295:138,2,28,8|8|8,0:0|0:0|0:0,0:0:0:0:
207,206,98555,1,4,3:0:0:0:
207,206,98728,2,0,L|218:275,1,56,4|8,3:0|0:0,0:0:0:0:
220,272,98988,1,8,0:0:0:0:
224,285,99075,6,0,P|258:276|289:279,1,56,6|0,1:2|0:0,0:0:0:0:
337,328,99422,2,0,P|313:274|336:223,2,112,2|2|2,1:2|1:2|1:2,0:0:0:0:
398,377,100289,2,0,P|452:368|518:359,1,112,2|0,0:0|0:0,0:0:0:0:
511,281,100809,2,0,P|456:289|391:299,2,112,2|0|2,1:2|1:2|1:2,0:0:0:0:
470,213,101676,1,2,0:0:0:0:
501,141,101849,6,0,P|459:175|404:175,1,112,2|2,1:2|1:2,0:0:0:0:
336,135,102370,2,0,P|323:65|312:5,1,112,2|0,0:0|0:0,0:0:0:0:
238,7,102890,1,2,1:2:0:0:
176,55,103063,6,0,P|186:110|196:165,1,112,2|0,0:0|0:0,0:0:0:0:
157,235,103583,1,0,1:2:0:0:
157,235,103757,1,8,0:0:0:0:
226,269,103930,2,0,P|253:261|279:253,1,56,2|8,1:2|3:0,0:0:0:0:
177,338,104277,2,0,P|150:330|124:322,1,56,4|0,3:0|1:2,0:0:0:0:
47,300,104624,6,0,L|32:210,1,84,6|0,1:2|0:0,0:0:0:0:
17,193,104971,2,0,P|27:154|36:123,1,56,2|0,1:2|0:0,0:0:0:0:
57,65,105318,2,0,P|94:38|174:49,1,112,2|2,1:2|1:2,0:0:0:0:
216,92,105838,6,0,P|253:119|333:108,1,112,2|0,0:0|0:0,0:0:0:0:
380,70,106358,2,0,P|362:150|350:201,2,112,2|0|2,1:2|1:2|1:2,0:0:0:0:
461,146,107225,1,2,0:0:0:0:
489,218,107398,6,0,P|474:272|461:329,1,112,2|2,1:2|1:2,0:0:0:0:
392,364,107919,2,0,P|354:354|330:348,1,56,2|0,0:0|1:2,0:0:0:0:
289,288,108266,2,0,P|251:298|227:304,1,56,2|0,0:0|1:2,0:0:0:0:
160,328,108612,1,10,0:0:0:0:
106,270,108786,5,2,0:0:0:0:
106,270,109653,1,0,1:2:0:0:
151,206,109826,2,0,P|141:164|136:140,1,56,8|0,0:0|0:0,0:0:0:0:
158,65,110173,6,0,P|207:37|264:47,1,94.499997116089,6|0,1:2|0:0,0:0:0:0:
269,64,110520,2,0,P|317:75|347:80,1,62.9999980773926,2|0,1:2|0:0,0:0:0:0:
405,124,110867,2,0,P|453:113|483:108,1,62.9999980773926,2|0,1:2|0:0,0:0:0:0:
393,225,111213,1,2,1:2:0:0:
308,198,111387,6,0,P|260:187|230:182,1,62.9999980773926,10|0,0:0|1:2,0:0:0:0:
167,143,111734,1,0,0:0:0:0:
94,193,111907,2,0,P|104:238|111:269,1,62.9999980773926,2|2,1:2|0:0,0:0:0:0:
70,336,112254,1,0,1:2:0:0:
70,336,112427,1,8,3:0:0:0:
148,377,112601,2,0,P|192:367|230:360,1,62.9999980773926,4|0,3:0|1:2,0:0:0:0:
229,360,112861,1,0,1:2:0:0:
243,361,112948,6,0,P|293:341|309:254,1,125.999996154785,2|2,1:2|1:2,0:0:0:0:
256,213,113468,2,0,P|329:228|402:243,1,125.999996154785,2|2,0:0|0:0,0:0:0:0:
464,207,113988,1,0,1:2:0:0:
464,207,114161,1,10,0:0:0:0:
408,138,114335,6,0,P|423:88|444:9,1,125.999996154785,0|0,1:2|1:2,0:0:0:0:
327,97,114855,1,8,0:0:0:0:
261,38,115029,2,0,P|218:49|186:56,1,62.9999980773926,2|8,1:2|3:0,0:0:0:0:
152,127,115375,2,0,P|195:138|227:145,1,62.9999980773926,4|8,3:0|0:0,0:0:0:0:
230,146,115635,1,8,0:0:0:0:
246,150,115722,6,0,P|255:179|250:210,1,62.9999980773926,6|0,1:2|0:0,0:0:0:0:
190,275,116069,2,0,L|57:243,2,125.999996154785,2|2|2,1:2|1:2|1:2,0:0:0:0:
253,342,116936,6,0,B|306:332|306:332|325:343|325:343|395:334,1,125.999996154785,10|0,0:0|0:0,0:0:0:0:
447,286,117456,2,0,P|451:255|440:226,1,62.9999980773926,2|8,1:2|0:0,0:0:0:0:
377,164,117803,2,0,L|300:188,1,62.9999980773926,2|8,1:2|3:0,0:0:0:0:
242,231,118150,2,0,P|205:259|147:243,1,94.499997116089,4|0,3:0|0:0,0:0:0:0:
137,242,118497,6,0,P|152:165|163:108,1,125.999996154785,6|0,1:2|1:2,0:0:0:0:
139,37,119017,1,8,0:0:0:0:
61,79,119190,2,0,P|65:104|72:150,1,62.9999980773926,0|8,1:2|0:0,0:0:0:0:
9,207,119537,2,0,P|0:238|10:267,1,62.9999980773926,8|2,0:0|1:2,0:0:0:0:
17,278,119797,1,2,1:2:0:0:
23,287,119884,6,0,B|84:267|71:309|157:287,1,125.999996154785,14|10,0:0|0:0,0:0:0:0:
217,236,120404,1,0,1:2:0:0:
217,236,120751,1,0,1:2:0:0:
291,282,120924,1,10,0:0:0:0:
367,233,121098,5,8,0:0:0:0:
367,233,121185,1,8,0:0:0:0:
367,233,121271,2,0,P|347:165|339:135,1,94.499997116089,6|0,1:2|0:0,0:0:0:0:
333,112,121618,1,10,0:0:0:0:
367,31,121792,2,0,P|397:19|428:21,1,62.9999980773926,2|0,0:0|0:0,0:0:0:0:
508,59,122138,2,0,P|500:89|493:120,1,62.9999980773926,2|8,1:2|0:0,0:0:0:0:
510,206,122485,6,0,P|479:155|407:148,1,125.999996154785,2|2,0:0|0:0,0:0:0:0:
340,187,123005,2,0,P|347:217|355:248,1,62.9999980773926,10|2,0:0|1:2,0:0:0:0:
302,319,123352,2,0,P|265:322|233:309,1,62.9999980773926,2|0,0:0|1:2,0:0:0:0:
171,259,123699,2,0,P|178:202|186:140,1,94.499997116089,10|0,0:0|0:0,0:0:0:0:
183,139,124046,6,0,P|154:92|99:84,1,94.499997116089,2|0,1:2|0:0,0:0:0:0:
91,83,124393,1,10,0:0:0:0:
30,147,124566,2,0,P|37:177|45:208,1,62.9999980773926,2|0,0:0|0:0,0:0:0:0:
80,292,124913,2,0,P|37:301|3:282,1,62.9999980773926,2|8,1:2|0:0,0:0:0:0:
130,227,125260,6,0,P|184:234|256:245,1,125.999996154785,2|2,0:0|0:0,0:0:0:0:
329,291,125780,2,0,P|346:260|346:230,1,62.9999980773926,10|2,0:0|1:2,0:0:0:0:
286,168,126127,2,0,P|277:137|268:107,2,62.9999980773926,2|2|10,0:0|1:2|0:0,0:0:0:0:
346,232,126647,1,2,0:0:0:0:
408,169,126820,6,0,P|417:116|433:24,1,125.999996154785,6|8,1:2|0:0,0:0:0:0:
311,91,127341,1,2,0:0:0:0:
252,25,127514,2,0,P|204:13|170:5,1,62.9999980773926,2|0,0:0|1:2,0:0:0:0:
118,58,127861,1,8,0:0:0:0:
118,58,128034,1,2,0:0:0:0:
170,129,128208,6,0,P|191:187|167:265,1,125.999996154785,2|10,1:2|0:0,0:0:0:0:
100,290,128728,2,0,P|48:279|16:273,1,62.9999980773926,2|0,1:2|0:0,0:0:0:0:
130,371,129075,2,0,P|182:360|214:354,1,62.9999980773926,2|8,1:2|0:0,0:0:0:0:
284,346,129422,5,2,0:0:0:0:
284,346,129508,1,2,0:0:0:0:
284,346,129595,2,0,P|295:294|303:259,1,62.9999980773926,2|0,1:2|0:0,0:0:0:0:
332,203,129942,1,10,0:0:0:0:
263,147,130115,2,0,P|231:152|196:157,1,62.9999980773926,2|0,0:0|0:0,0:0:0:0:
294,60,130462,2,0,P|326:65|361:70,1,62.9999980773926,2|8,1:2|0:0,0:0:0:0:
457,48,130809,6,0,P|487:90|477:184,1,125.999996154785,6|8,1:2|0:0,0:0:0:0:
409,204,131329,1,0,1:2:0:0:
409,204,131503,1,14,0:0:0:0:
450,296,131676,2,0,P|501:284|523:279,1,62.9999980773926,10|0,0:0|1:2,0:0:0:0:
408,365,132023,2,0,L|357:350,3,31.4999990386963,10|0|8|8,0:0|0:0|0:0|0:0,0:0:0:0:
351,334,132370,6,0,P|292:351|240:368,1,94.499997116089,6|0,1:2|0:0,0:0:0:0:
228,374,132716,1,10,0:0:0:0:
150,330,132890,2,0,P|135:283|131:249,1,62.9999980773926,2|0,0:0|0:0,0:0:0:0:
56,226,133237,2,0,P|78:182|99:155,1,62.9999980773926,2|8,1:2|0:0,0:0:0:0:
124,91,133583,6,0,P|167:104|258:132,1,125.999996154785,2|2,0:0|0:0,0:0:0:0:
324,167,134104,2,0,P|363:157|397:151,1,62.9999980773926,10|2,0:0|1:2,0:0:0:0:
475,86,134450,2,0,P|436:76|402:70,1,62.9999980773926,2|0,0:0|1:2,0:0:0:0:
356,4,134797,2,0,P|318:17|249:43,1,94.499997116089,10|0,0:0|0:0,0:0:0:0:
245,45,135144,6,0,P|192:12|130:20,1,125.999996154785,2|10,1:2|0:0,0:0:0:0:
43,31,135664,2,0,B|12:71|12:71|54:144,1,125.999996154785,2|2,0:0|1:2,0:0:0:0:
120,189,136185,2,0,P|157:180|190:175,1,62.9999980773926,8|2,0:0|1:2,0:0:0:0:
194,174,136445,1,0,1:2:0:0:
206,171,136531,5,8,0:0:0:0:
293,227,136705,1,8,0:0:0:0:
293,227,137225,2,0,P|285:257|278:288,1,62.9999980773926,10|8,0:0|3:0,0:0:0:0:
260,377,137572,1,4,3:0:0:0:
260,377,137745,1,10,0:0:0:0:
178,342,137919,6,0,B|106:334|120:374|56:367,1,125.999996154785,6|8,1:2|0:0,0:0:0:0:
0,300,138439,2,0,P|6:231|13:168,1,125.999996154785,6|0,1:2|1:2,0:0:0:0:
80,117,138959,1,8,0:0:0:0:
80,117,139133,1,2,1:2:0:0:
148,172,139306,6,0,B|211:178|197:138|269:146,1,125.999996154785,6|8,1:2|0:0,0:0:0:0:
329,210,139826,2,0,P|363:159|344:100,1,125.999996154785,6|0,1:2|1:2,0:0:0:0:
283,38,140346,2,0,P|252:44|221:49,1,62.9999980773926,10|0,0:0|1:2,0:0:0:0:
136,22,140693,6,0,P|56:15|17:64,1,125.999996154785,6|0,1:2|0:0,0:0:0:0:
0,127,141213,1,0,1:2:0:0:
78,168,141387,2,0,P|100:161|127:152,2,41.9999987182618,10|8|8,0:0|0:0|0:0,0:0:0:0:
40,235,141734,2,0,P|17:228|-9:219,2,41.9999987182618,8|8|8,3:0|3:0|3:0,0:0:0:0:
86,293,142081,6,0,B|180:253|158:342|265:308,1,188.999994232178,6|0,1:2|1:2,0:0:0:0:
280,301,142687,1,0,1:2:0:0:
295,292,142774,2,0,P|275:171|263:99,1,188.999994232178,10|0,0:0|0:0,0:0:0:0:
324,15,143468,6,0,P|380:32|413:43,1,77.0000023498536,6|0,1:2|0:0,0:0:0:0:
496,123,143815,2,0,P|440:140|407:151,1,77.0000023498536,10|0,0:0|0:0,0:0:0:0:
318,176,144161,2,0,P|259:161|150:137,1,154.000004699707,2|10,0:0|0:0,0:0:0:0:
70,93,144682,6,0,P|79:45|86:8,1,77.0000023498536,2|0,0:0|1:2,0:0:0:0:
14,163,145029,2,0,P|-2:237|43:321,1,154.000004699707,2|0,0:0|1:2,0:0:0:0:
134,371,145549,2,0,P|193:357|237:349,1,77.0000023498536,2|0,0:0|1:2,0:0:0:0:
313,284,145896,2,0,P|372:298|416:306,1,77.0000023498536,10|0,0:0|0:0,0:0:0:0:
276,191,146242,6,0,B|261:142|261:142|308:33,1,154.000004699707,2|10,1:2|0:0,0:0:0:0:
401,5,146763,2,0,P|424:49|424:91,1,77.0000023498536,2|0,0:0|0:0,0:0:0:0:
380,173,147109,1,2,1:2:0:0:
474,225,147283,1,10,0:0:0:0:
444,328,147456,6,0,P|381:316|337:307,1,77.0000023498536,2|0,0:0|1:2,0:0:0:0:
266,274,147803,2,0,P|234:223|254:127,1,154.000004699707,2|0,0:0|1:2,0:0:0:0:
166,63,148323,1,2,0:0:0:0:
251,3,148497,1,2,1:2:0:0:
166,63,148670,2,0,P|111:51|69:43,1,77.0000023498536,10|2,0:0|1:2,0:0:0:0:
9,118,149017,6,0,P|24:169|48:258,1,115.50000352478,6|0,1:2|0:0,0:0:0:0:
54,257,149364,2,0,P|101:240|137:229,1,77.0000023498536,10|0,0:0|0:0,0:0:0:0:
235,159,149711,2,0,P|188:142|152:131,1,77.0000023498536,2|0,0:0|1:2,0:0:0:0:
261,262,150057,2,0,P|308:245|344:234,1,77.0000023498536,10|2,0:0|0:0,0:0:0:0:
355,232,150318,1,2,0:0:0:0:
369,235,150404,6,0,L|462:261,1,77.0000023498536,2|0,1:2|0:0,0:0:0:0:
512,131,150751,2,0,L|419:157,1,77.0000023498536,10|0,0:0|1:2,0:0:0:0:
362,42,151098,2,0,L|269:68,1,77.0000023498536,2|0,0:0|1:2,0:0:0:0:
181,42,151445,2,0,P|198:108|213:164,1,115.50000352478,10|0,0:0|0:0,0:0:0:0:
220,183,151792,5,14,0:0:0:0:
220,183,152138,1,10,0:0:0:0:
276,275,152312,2,0,L|337:258,2,38.5000011749268,2|0|8,1:2|1:2|0:0,0:0:0:0:
202,353,152659,2,0,P|150:343|110:337,1,77.0000023498536,10|0,0:0|0:0,0:0:0:0:
20,316,153005,6,0,B|-2:270|-2:270|40:152,1,154.000004699707,6|8,1:2|0:0,0:0:0:0:
62,69,153526,2,0,P|123:84|154:91,1,77.0000023498536,8|0,0:0|1:2,0:0:0:0:
225,148,153872,2,0,P|286:133|317:126,1,77.0000023498536,10|0,0:0|1:2,0:0:0:0:
319,127,154133,1,0,1:2:0:0:
341,128,154219,2,0,L|351:178,3,38.5000011749268,8|8|8|8,0:0|0:0|0:0|0:0,0:0:0:0:
358,191,154566,6,0,P|388:168|426:166,1,77.0000023498536,6|0,1:2|0:0,0:0:0:0:
510,239,154913,2,0,P|502:276|493:318,1,77.0000023498536,10|0,0:0|0:0,0:0:0:0:
396,361,155260,2,0,B|345:336|313:360|319:361|293:387|246:367,1,154.000004699707,2|10,0:0|0:0,0:0:0:0:
150,323,155780,6,0,P|134:288|150:249,1,77.0000023498536,2|0,0:0|1:2,0:0:0:0:
234,190,156127,2,0,P|161:202|78:216,1,154.000004699707,2|0,0:0|1:2,0:0:0:0:
10,134,156647,2,0,P|49:128|105:119,1,77.0000023498536,2|0,0:0|1:2,0:0:0:0:
167,50,156994,2,0,P|205:56|243:61,1,77.0000023498536,10|0,0:0|0:0,0:0:0:0:
341,16,157341,6,0,B|390:59|390:59|342:154,1,154.000004699707,2|10,1:2|0:0,0:0:0:0:
326,243,157861,2,0,P|365:250|401:227,1,77.0000023498536,2|0,0:0|0:0,0:0:0:0:
464,153,158208,1,2,1:2:0:0:
510,250,158381,1,10,0:0:0:0:
452,340,158555,6,0,P|407:328|362:318,1,77.0000023498536,2|0,0:0|1:2,0:0:0:0:
269,316,158901,2,0,P|232:249|264:171,1,154.000004699707,2|0,0:0|1:2,0:0:0:0:
344,117,159422,1,2,0:0:0:0:
270,37,159595,1,2,1:2:0:0:
196,115,159768,2,0,P|159:104|122:93,1,77.0000023498536,10|2,0:0|1:2,0:0:0:0:
13,91,160115,6,0,P|20:131|35:212,1,115.50000352478,6|0,1:2|0:0,0:0:0:0:
38,227,160462,1,10,0:0:0:0:
120,287,160635,2,0,P|161:277|206:264,1,77.0000023498536,2|0,0:0|0:0,0:0:0:0:
74,362,160982,2,0,P|33:352|-12:339,1,77.0000023498536,2|8,1:2|0:0,0:0:0:0:
173,361,161329,5,0,1:2:0:0:
173,361,161416,1,0,1:2:0:0:
173,361,161503,2,0,P|210:351|247:341,1,77.0000023498536,6|0,1:2|0:0,0:0:0:0:
353,361,161849,1,10,0:0:0:0:
434,290,162023,2,0,P|440:252|423:218,1,77.0000023498536,2|0,0:0|0:0,0:0:0:0:
324,176,162370,1,2,1:2:0:0:
395,94,162543,2,0,P|430:85|478:71,1,77.0000023498536,8|0,0:0|1:2,0:0:0:0:
313,21,162890,6,0,B|247:19|247:19|218:38|218:38|150:36,1,154.000004699707,6|8,1:2|0:0,0:0:0:0:
59,11,163410,1,0,1:2:0:0:
0,101,163583,2,0,P|6:137|14:183,1,77.0000023498536,8|0,0:0|1:2,0:0:0:0:
85,263,163930,1,10,0:0:0:0:
85,263,164104,1,2,1:2:0:0:
144,173,164277,6,0,P|180:155|234:166,1,77.0000023498536,6|0,1:2|0:0,0:0:0:0:
308,213,164624,1,10,0:0:0:0:
393,147,164797,2,0,P|430:152|483:160,1,77.0000023498536,6|0,1:2|0:0,0:0:0:0:
502,260,165144,2,0,L|418:275,1,77.0000023498536,2|8,1:2|0:0,0:0:0:0:
337,335,165491,1,2,1:2:0:0:
254,282,165664,6,0,P|262:227|274:142,1,140,6|0,1:2|1:2,0:0:0:0:
245,49,166185,2,0,P|202:33|161:20,1,70,10|0,0:0|1:2,0:0:0:0:
179,25,166705,6,0,P|133:62|116:141,1,140,14|0,0:0|0:0,0:0:0:0:
78,229,167225,1,0,1:2:0:0:
128,312,167398,2,0,P|172:300|214:290,1,70,10|8,0:0|0:0,0:0:0:0:
264,224,167745,2,0,P|308:236|350:246,1,70,10|8,0:0|3:0,0:0:0:0:
417,191,168092,1,4,3:0:0:0:
417,191,168266,1,0,1:2:0:0:
499,245,168439,6,0,P|479:291|441:387,1,140,14|0,0:0|1:2,0:0:0:0:
364,266,168959,1,8,0:0:0:0:
292,333,169133,2,0,P|241:351|203:361,1,70,0|0,1:2|0:0,0:0:0:0:
129,374,169479,6,0,B|24:297|19:164|85:73|201:51|201:51|250:176|148:230,1,630,6|2,1:2|0:0,0:0:0:0:
495,302,178150,6,0,P|503:330|512:369,2,70,8|8|8,0:0|0:0|0:0,0:0:0:0:
506,204,178670,1,8,0:0:0:0:
506,204,178844,1,8,0:0:0:0:
419,157,179017,2,0,P|384:165|350:172,1,70,8|8,0:0|0:0,0:0:0:0:
268,117,179364,1,8,0:0:0:0:
210,195,179537,6,0,P|276:210|306:270,1,140,6|8,1:2|0:0,0:0:0:0:
253,353,180057,2,0,B|173:332|188:384|118:366,1,140,6|0,1:2|1:2,0:0:0:0:
19,357,180578,2,0,L|10:321,3,35,8|8|8|8,0:0|0:0|0:0|0:0,0:0:0:0:
11,306,180924,6,0,P|47:286|52:217,1,105,6|0,1:2|0:0,0:0:0:0:
47,216,181271,2,0,P|36:169|31:144,1,70,10|0,0:0|0:0,0:0:0:0:
66,55,181618,2,0,P|111:85|148:80,1,70,2|0,0:0|1:2,0:0:0:0:
207,32,181965,1,10,0:0:0:0:
207,32,182138,1,2,0:0:0:0:
299,66,182312,6,0,B|329:112|329:112|270:194,1,140,0|10,1:2|0:0,0:0:0:0:
199,238,182832,1,0,1:2:0:0:
277,296,183005,2,0,P|312:286|351:277,1,70,2|0,0:0|1:2,0:0:0:0:
425,334,183352,2,0,P|396:284|416:239,1,105,10|0,0:0|0:0,0:0:0:0:
428,235,183699,6,0,P|405:138|392:85,1,140,2|8,1:2|0:0,0:0:0:0:
377,2,184219,2,0,P|443:8|483:65,1,140,2|0,1:2|1:2,0:0:0:0:
452,158,184740,1,8,0:0:0:0:
357,130,184913,5,2,0:0:0:0:
357,130,185000,1,2,0:0:0:0:
357,130,185086,2,0,B|312:107|281:118|281:118|269:147|219:144,1,140,2|8,1:2|0:0,0:0:0:0:
160,75,185607,2,0,P|175:131|199:225,1,140,2|0,1:2|1:2,0:0:0:0:
242,297,186127,2,0,P|310:286|342:317,1,105,8|0,0:0|0:0,0:0:0:0:
345,335,186474,6,0,P|403:322|431:317,1,70,6|0,1:2|0:0,0:0:0:0:
508,294,186820,1,10,0:0:0:0:
448,215,186994,2,0,P|459:166|467:133,1,70,2|0,0:0|0:0,0:0:0:0:
341,208,187341,2,0,P|260:190|183:174,1,140,2|0,1:2|0:0,0:0:0:0:
129,114,187861,6,0,P|58:144|32:185,1,105,2|0,1:2|0:0,0:0:0:0:
25,189,188208,2,0,P|41:245|52:282,1,70,10|0,0:0|1:2,0:0:0:0:
82,346,188555,2,0,P|136:367|203:351,1,105,2|0,0:0|0:0,0:0:0:0:
203,347,188901,2,0,P|190:305|181:269,1,70,10|0,0:0|0:0,0:0:0:0:
126,199,189248,6,0,P|138:134|155:49,1,140,6|8,1:2|0:0,0:0:0:0:
241,20,189768,2,0,P|312:27|359:83,1,140,2|0,1:2|1:2,0:0:0:0:
402,162,190289,2,0,P|454:148|482:139,1,70,14|0,0:0|0:0,0:0:0:0:
371,253,190635,6,0,P|319:239|291:230,1,70,0|8,1:2|0:0,0:0:0:0:
216,200,190982,1,8,0:0:0:0:
216,200,191156,1,0,1:2:0:0:
162,281,191329,2,0,P|172:337|178:368,1,70,8|8,0:0|0:0,0:0:0:0:
60,256,191676,2,0,L|72:207,3,35,8|8|8|8,0:0|0:0|0:0|0:0,0:0:0:0:
81,198,192023,6,0,P|69:137|55:71,1,105,6|0,1:2|0:0,0:0:0:0:
74,67,192370,2,0,P|117:78|151:87,1,70,10|0,0:0|0:0,0:0:0:0:
210,155,192716,2,0,P|253:144|287:135,1,70,2|0,0:0|1:2,0:0:0:0:
359,81,193063,1,10,0:0:0:0:
359,81,193237,1,2,0:0:0:0:
424,154,193410,6,0,P|409:201|379:305,1,140,0|10,1:2|0:0,0:0:0:0:
345,378,193930,1,0,1:2:0:0:
267,317,194104,2,0,P|220:325|174:334,1,70,2|0,0:0|1:2,0:0:0:0:
108,367,194450,2,0,P|61:359|15:350,1,70,10|0,0:0|0:0,0:0:0:0:
10,260,194797,6,0,P|44:210|129:188,1,140,2|10,1:2|0:0,0:0:0:0:
180,111,195318,2,0,P|214:161|299:183,1,140,0|0,1:2|1:2,0:0:0:0:
370,131,195838,1,10,0:0:0:0:
449,204,196011,5,0,1:2:0:0:
449,204,196098,1,0,1:2:0:0:
449,204,196185,2,0,L|485:59,1,140,2|8,1:2|0:0,0:0:0:0:
401,11,196705,2,0,P|331:15|281:74,1,140,2|0,1:2|1:2,0:0:0:0:
239,150,197225,2,0,P|181:141|119:132,1,105,8|0,0:0|0:0,0:0:0:0:
122,126,197572,6,0,P|138:61|86:21,1,140,6|10,1:2|0:0,0:0:0:0:
8,81,198092,2,0,P|14:119|26:176,1,70,2|0,1:2|0:0,0:0:0:0:
77,236,198439,1,2,1:2:0:0:
77,236,198612,1,8,0:0:0:0:
1,298,198786,1,2,1:2:0:0:
74,362,198959,6,0,B|127:351|127:351|152:364|152:364|208:354,1,140,6|10,1:2|0:0,0:0:0:0:
294,306,199479,2,0,P|276:276|243:265,1,70,2|0,1:2|0:0,0:0:0:0:
160,213,199826,1,2,1:2:0:0:
215,151,200000,2,0,P|251:147|285:141,1,70,8|0,0:0|1:2,0:0:0:0:
363,82,200346,6,0,L|342:11,2,70,6|0|8,1:2|0:0|0:0,0:0:0:0:
452,123,200867,2,0,B|489:162|489:162|456:250,1,140,2|2,1:2|1:2,0:0:0:0:
489,335,201387,1,10,0:0:0:0:
397,368,201560,6,0,P|340:331|336:264,1,140,6|0,1:2|1:2,0:0:0:0:
392,183,202081,1,10,0:0:0:0:
333,103,202254,2,0,B|250:90|269:145|202:137,1,140,6|8,1:2|3:0,0:0:0:0:
131,69,202774,1,4,3:0:0:0:
73,148,202948,6,0,B|88:200|33:232|33:232|-26:192|-1:142,1,210,6|0,1:2|1:2,0:0:0:0:
0,142,203815,1,10,0:0:0:0:
17,45,203988,2,0,P|39:16|83:5,1,70,8|4,3:0|3:0,0:0:0:0:
157,48,204335,5,2,1:2:0:0:
157,48,204422,1,2,0:0:0:0:
157,48,204508,2,0,B|198:4|272:11|272:11|292:75|359:71,1,224,6|2,1:2|0:0,0:0:0:0:
256,192,205896,5,6,1:2:0:0:
24,338,211445,6,0,P|69:325|157:303,1,125.999996154785,2|2,0:0|0:0,0:0:0:0:
145,305,212138,2,0,P|189:325|220:338,1,62.9999980773926,2|2,0:0|0:0,0:0:0:0:
290,231,212485,2,0,P|246:251|215:264,1,62.9999980773926,2|2,0:0|0:0,0:0:0:0:
309,365,212832,6,0,P|371:353|429:310,1,125.999996154785,2|2,0:0|0:0,0:0:0:0:
421,317,213526,2,0,P|436:272|451:233,1,70,2|0,0:0|0:0,0:0:0:0:
356,159,213872,2,0,P|341:114|326:75,1,70,2|0,0:0|0:0,0:0:0:0:
247,199,214219,5,14,0:0:0:0:
247,199,214566,1,10,0:0:0:0:
165,145,214740,2,0,L|173:102,2,35,2|0|8,1:2|1:2|0:0,0:0:0:0:
87,205,215086,2,0,P|40:193|-1:182,1,70,10|0,0:0|0:0,0:0:0:0:
107,315,215433,6,0,P|154:303|256:276,1,140,6|8,1:2|0:0,0:0:0:0:
334,243,215953,2,0,P|322:189|315:159,1,70,8|0,0:0|1:2,0:0:0:0:
329,76,216300,2,0,L|371:88,3,35,10|8|0|0,0:0|0:0|1:2|1:2,0:0:0:0:
393,92,216647,2,0,L|435:80,3,35,8|8|8|8,0:0|0:0|0:0|0:0,0:0:0:0:
458,82,216994,6,0,P|483:111|483:149,1,77.0000023498536,6|0,1:2|0:0,0:0:0:0:
425,240,217341,2,0,P|400:211|400:173,1,77.0000023498536,10|0,0:0|0:0,0:0:0:0:
511,268,217687,2,0,P|439:274|340:283,1,154.000004699707,2|10,0:0|0:0,0:0:0:0:
293,369,218208,6,0,P|244:330|238:293,1,77.0000023498536,2|0,0:0|1:2,0:0:0:0:
268,214,218555,2,0,P|243:100|231:37,1,154.000004699707,2|0,0:0|1:2,0:0:0:0:
138,14,219075,2,0,P|100:6|66:21,1,77.0000023498536,2|0,0:0|1:2,0:0:0:0:
3,108,219422,2,0,P|12:144|23:189,1,77.0000023498536,10|0,0:0|0:0,0:0:0:0:
65,281,219768,6,0,B|150:253|129:317|211:299,1,154.000004699707,2|10,1:2|0:0,0:0:0:0:
296,232,220289,2,0,P|299:191|280:156,1,77.0000023498536,2|0,0:0|0:0,0:0:0:0:
190,104,220635,1,2,1:2:0:0:
267,28,220809,1,10,0:0:0:0:
344,102,220982,6,0,P|389:90|434:80,1,77.0000023498536,2|0,0:0|1:2,0:0:0:0:
481,17,221329,2,0,B|442:61|442:61|474:150,1,154.000004699707,2|0,0:0|1:2,0:0:0:0:
511,252,221849,1,2,0:0:0:0:
420,311,222023,1,2,1:2:0:0:
322,265,222196,2,0,P|339:206|350:166,1,77.0000023498536,10|2,0:0|1:2,0:0:0:0:
305,89,222543,6,0,P|266:126|201:118,1,115.50000352478,6|0,1:2|0:0,0:0:0:0:
191,111,222890,1,10,0:0:0:0:
97,163,223063,2,0,P|105:200|114:237,1,77.0000023498536,2|0,0:0|0:0,0:0:0:0:
67,335,223410,1,2,1:2:0:0:
170,361,223583,2,0,P|227:370|271:332,1,115.50000352478,8|0,0:0|0:0,0:0:0:0:
275,316,223930,6,0,P|315:321|353:327,1,77.0000023498536,6|0,1:2|0:0,0:0:0:0:
448,374,224277,1,10,0:0:0:0:
500,280,224450,2,0,L|484:201,1,77.0000023498536,2|0,0:0|0:0,0:0:0:0:
413,122,224797,1,2,1:2:0:0:
493,49,224971,2,0,P|461:21|416:16,1,77.0000023498536,8|0,0:0|1:2,0:0:0:0:
318,57,225318,6,0,P|328:109|351:220,1,154.000004699707,6|8,1:2|0:0,0:0:0:0:
300,305,225838,2,0,B|230:297|230:297|203:312|203:312|133:306,1,154.000004699707,0|0,1:2|1:2,0:0:0:0:
51,263,226358,1,10,0:0:0:0:
51,263,226531,1,2,1:2:0:0:
125,184,226705,6,0,P|200:191|253:138,1,154.000004699707,6|10,1:2|0:0,0:0:0:0:
210,39,227225,2,0,P|166:48|126:55,1,77.0000023498536,6|0,1:2|0:0,0:0:0:0:
37,5,227572,2,0,P|14:40|10:74,1,77.0000023498536,2|8,1:2|0:0,0:0:0:0:
39,187,227919,5,2,1:2:0:0:
39,187,228005,1,0,0:0:0:0:
39,187,228092,2,0,P|102:174|201:157,1,140,6|0,1:2|1:2,0:0:0:0:
265,201,228612,2,0,P|247:256|240:281,1,70,8|0,0:0|1:2,0:0:0:0:
243,267,229133,6,0,P|275:305|363:328,1,140,14|0,0:0|1:2,0:0:0:0:
454,299,229653,1,8,0:0:0:0:
406,213,229826,2,0,P|414:169|422:127,1,70,10|0,0:0|1:2,0:0:0:0:
321,38,230173,2,0,P|329:82|337:124,1,70,10|8,0:0|3:0,0:0:0:0:
285,192,230520,1,4,3:0:0:0:
208,131,230693,5,8,0:0:0:0:
208,131,230780,1,8,0:0:0:0:
208,131,230867,2,0,P|144:98|66:113,1,140,6|0,1:2|1:2,0:0:0:0:
10,177,231387,2,0,P|25:236|32:267,1,70,8|0,0:0|1:2,0:0:0:0:
1,339,231734,1,0,0:0:0:0:
94,368,231907,6,0,P|139:360|232:343,1,140,14|0,0:0|1:2,0:0:0:0:
312,286,232427,1,8,0:0:0:0:
233,226,232601,2,0,P|245:171|254:139,1,70,8|0,0:0|1:2,0:0:0:0:
323,95,232948,2,0,P|311:40|302:8,1,70,10|8,0:0|3:0,0:0:0:0:
410,149,233294,1,4,3:0:0:0:
345,223,233468,5,10,0:0:0:0:
345,223,233555,1,8,0:0:0:0:
345,223,233641,2,0,P|361:275|371:308,1,73.4999977569581,6|0,1:2|0:0,0:0:0:0:
300,373,233988,1,8,0:0:0:0:
300,373,234161,1,10,0:0:0:0:
220,306,234335,2,0,P|171:318|135:327,1,73.4999977569581,8|8,0:0|0:0,0:0:0:0:
53,296,234682,1,10,0:0:0:0:
53,296,234855,1,8,0:0:0:0:
119,217,235029,5,8,0:0:0:0:
33,158,235202,2,0,P|47:107|59:70,1,73.4999977569581,10|8,0:0|0:0,0:0:0:0:
118,7,235549,1,8,0:0:0:0:
182,86,235722,1,10,0:0:0:0:
250,9,235896,1,0,1:2:0:0:
344,50,236069,6,0,B|396:99|396:99|316:284,1,257.249992149353,14|0,0:0|0:0,0:0:0:0:
307,299,236763,1,2,1:2:0:0:
162,151,237109,1,10,0:0:0:0:
162,48,237283,1,8,0:0:0:0:
262,23,237456,2,0,P|311:36|346:47,1,73.4999977569581,4|2,3:0|0:0,0:0:0:0:
408,71,237803,6,0,B|453:15|453:15|420:186,1,224,6|2,1:2|0:0,0:0:0:0:
375,355,238844,1,2,0:0:0:0:
170,164,239277,5,6,1:2:0:0:
256,192,239363,12,0,244826,0:0:0:0:
