osu file format v14

[General]
AudioFilename: audio.mp3
AudioLeadIn: 0
PreviewTime: 59474
Countdown: 0
SampleSet: Soft
StackLeniency: 0.6
Mode: 0
LetterboxInBreaks: 0
WidescreenStoryboard: 0

[Editor]
Bookmarks: 4763,15862,26960,38058,49156,60255,71353,88000,99099,110197,121295,132393,143492,171237,178174,180948,205919,211469,217018,239317
DistanceSpacing: 0.15
BeatDivisor: 4
GridSize: 4
TimelineZoom: 2.2

[Metadata]
Title:Luminous
TitleUnicode:ルミナス
Artist:ClariS
ArtistUnicode:ClariS
Creator:Meg
Version:kisata's Hard
Source:劇場版 魔法少女まどか☆マギカ
Tags:Gekijouban Mahou Shoujo Madoka Magica opening Hajimari no Monogatari anime japanese pop iMage-- Akitoshi Corinn -Laura- apaffy kisata
BeatmapID:2158260
BeatmapSetID:753062

[Difficulty]
HPDrainRate:4.5
CircleSize:4.2
OverallDifficulty:6.5
ApproachRate:8
SliderMultiplier:1.4
SliderTickRate:1

[Events]
//Background and Video events
0,0,"BG.jpg",0,0
//Break Periods
2,13287,15112
2,88000,98349
2,172625,177424
2,206119,210719
//Storyboard Layer 0 (Background)
//Storyboard Layer 1 (Fail)
//Storyboard Layer 2 (Pass)
//Storyboard Layer 3 (Foreground)
//Storyboard Layer 4 (Overlay)
//Storyboard Sound Samples

[TimingPoints]
602,346.820809248555,4,2,2,50,1,0
4763,-100,4,2,1,50,0,0
15862,-133.333333333333,4,2,2,50,0,0
35284,-133.333333333333,4,2,1,50,0,0
38058,-100,4,2,1,60,0,0
59561,-200,4,2,2,60,0,0
60167,-200,4,2,2,5,0,0
60255,-100,4,2,1,70,0,1
88000,-100,4,2,1,60,0,0
99099,-133.333333333333,4,2,2,50,0,0
108636,-133.333333333333,4,2,1,50,0,0
119908,-100,4,2,1,50,0,0
120168,-100,4,2,1,60,0,0
120255,-100,4,2,1,50,0,0
121295,-100,4,2,1,60,0,0
142798,-200,4,2,1,60,0,0
143404,-200,4,2,1,5,0,0
143492,-100,4,2,1,70,0,1
169503,-100,4,2,1,40,0,0
178174,-200,4,2,1,30,0,0
178521,-153.846153846154,4,2,1,50,0,0
178867,-125,4,2,1,60,0,0
179040,-125,4,2,1,65,0,0
179214,-100,4,2,1,70,0,0
179387,-100,4,2,1,75,0,0
179561,-100,4,2,1,80,0,0
179821,-100,4,2,1,40,0,0
179908,-100,4,2,1,80,0,0
180948,-100,4,2,1,70,0,0
204532,-100,4,2,1,60,0,0
205226,-200,4,2,1,80,0,0
205919,-100,4,2,2,50,0,0
211469,-100,4,2,2,50,0,0
212856,-100,4,2,2,60,0,0
214243,-100,4,2,1,70,0,0
217018,-100,4,2,1,80,0,1
234012,-100,4,2,1,20,0,1
234359,-100,4,2,1,30,0,1
234706,-100,4,2,1,40,0,1
235052,-100,4,2,1,50,0,1
235399,-100,4,2,1,60,0,1
235572,-100,4,2,1,70,0,1
235746,-100,4,2,1,80,0,1
235919,-100,4,2,1,90,0,1
236093,-133.333333333333,4,2,1,100,0,0
236786,-133.333333333333,4,2,1,70,0,0
237827,359.281437125748,4,2,1,50,1,0
237827,-200,4,2,1,50,0,0
238904,413.793103448276,4,2,2,50,1,0
238904,-200,4,2,2,50,0,0

[Colours]
Combo1 : 218,210,141
Combo2 : 255,70,117
Combo3 : 198,181,198
Combo4 : 0,168,249

[HitObjects]
167,337,602,5,2,0:0:0:0:
250,329,948,1,2,0:0:0:0:
333,321,1295,5,2,0:0:0:0:
416,313,1642,1,2,0:0:0:0:
499,305,1989,5,2,0:0:0:0:
451,238,2336,1,2,0:0:0:0:
451,238,2509,1,2,0:0:0:0:
403,171,2856,5,6,0:0:0:0:
256,192,2943,12,0,4070,0:0:0:0:
374,255,4417,6,0,L|408:258,3,35,8|0|0|0,0:3|0:0|0:0|0:0,0:0:0:0:
301,245,4763,2,0,P|234:257|179:316,1,140,6|2,0:0|0:0,0:0:0:0:
127,370,5284,1,0,0:0:0:0:
62,311,5457,2,0,L|86:145,1,140,2|2,0:0|0:0,0:0:0:0:
94,96,5977,1,8,0:0:0:0:
171,102,6151,6,0,P|238:85|298:34,2,140,2|2|2,0:0|0:0|0:0,0:0:0:0:
94,96,7018,2,0,L|5:86,1,70,4|2,0:3|0:0,0:0:0:0:
171,102,7365,1,4,0:3:0:0:
171,102,7451,1,4,0:3:0:0:
171,102,7538,6,0,B|276:114|276:114|321:150,1,140,2|2,0:0|0:0,0:0:0:0:
374,199,8058,1,0,0:0:0:0:
442,135,8232,2,0,L|455:50,1,70,2|0,0:0|0:0,0:0:0:0:
384,16,8578,1,2,0:0:0:0:
384,16,8752,1,8,0:0:0:0:
453,66,8925,6,0,P|496:83|524:170,1,140,2|2,0:0|0:0,0:0:0:0:
451,230,9445,2,0,P|446:274|468:322,1,70,4|2,0:3|0:0,0:0:0:0:
500,372,9792,1,4,0:3:0:0:
396,349,9966,2,0,P|362:338|335:316,1,70,2|8,0:0|0:0,0:0:0:0:
308,288,10226,1,8,0:0:0:0:
288,255,10312,6,0,P|227:241|147:288,1,140,6|2,0:0|0:0,0:0:0:0:
120,340,10833,2,0,B|46:350|46:350|-24:308,1,140
38,256,11353,1,2,0:0:0:0:
14,182,11526,1,8,0:0:0:0:
14,182,11613,1,0,0:0:0:0:
14,182,11700,6,0,L|31:95,1,70,8|8,0:0|0:0,0:0:0:0:
101,20,12047,2,0,B|108:59|108:59|92:105,1,70,2|0,0:0|0:0,0:0:0:0:
158,174,12393,1,2,0:0:0:0:
223,94,12567,2,0,L|304:76,1,70,4|2,0:3|0:0,0:0:0:0:
387,58,12914,1,0,0:0:0:0:
387,58,13087,1,4,0:0:0:0:
387,58,15862,5,6,0:0:0:0:
387,58,16208,2,0,P|399:123|417:178,2,105.000004005432
307,67,17075,2,0,P|253:67|189:45,1,105.000004005432
131,21,17596,2,0,L|58:33,1,52.5000020027161,0|2,0:0|0:0,0:0:0:0:
79,29,18289,1,2,0:0:0:0:
79,29,18463,1,0,0:0:0:0:
79,29,18636,6,0,P|87:79|91:147,1,105.000004005432,2|0,0:0|0:0,0:0:0:0:
37,200,19156,2,0,P|77:220|139:205,1,105.000004005432
199,162,19677,1,0,0:0:0:0:
262,115,19850,2,0,P|312:102|407:159,1,157.500006008148
430,223,20544,1,2,0:0:0:0:
403,296,20717,2,0,L|332:286,1,52.5000020027161,2|0,0:0|0:0,0:0:0:0:
367,365,21064,2,0,L|296:355,1,52.5000020027161,2|0,0:0|0:0,0:0:0:0:
212,266,21411,5,4,0:0:0:0:
212,266,21758,2,0,P|214:200|222:144,2,105.000004005432
286,290,22625,2,0,P|261:327|196:343,1,105.000004005432
126,334,23145,1,0,0:0:0:0:
47,326,23318,2,0,B|32:292|32:292|46:208,1,105.000004005432,2|2,0:0|0:0,0:0:0:0:
90,161,23838,1,0,0:0:0:0:
90,161,24012,1,0,0:0:0:0:
149,212,24185,6,0,P|199:224|259:200,1,105.000004005432,2|0,0:0|0:0,0:0:0:0:
317,168,24706,2,0,L|379:161,1,52.5000020027161
495,147,25052,2,0,L|433:154,1,52.5000020027161,0|2,0:0|0:0,0:0:0:0:
419,228,25399,2,0,P|411:282|418:357,2,105.000004005432,2|0|0,0:0|0:0|0:0,0:0:0:0:
442,152,26266,2,0,P|448:115|436:41,1,105.000004005432,2|2,0:0|0:0,0:0:0:0:
361,30,26786,1,2,0:0:0:0:
283,44,26960,5,6,0:0:0:0:
283,44,27307,2,0,P|232:47|171:26,2,105.000004005432
361,30,28174,2,0,B|414:19|414:19|518:49,1,157.500006008148
502,125,28867,2,0,P|455:114|394:148,1,105.000004005432
454,272,29388,2,0,P|497:257|513:244,1,52.5000020027161
456,196,29734,6,0,L|341:234,1,105.000004005432,2|0,0:0|0:0,0:0:0:0:
281,255,30255,2,0,L|230:270,1,52.5000020027161
159,304,30602,2,0,P|157:341|167:377,1,52.5000020027161
236,374,30948,1,0,0:0:0:0:
236,374,31122,6,0,P|241:328|222:250,1,105.000004005432,2|0,0:0|0:0,0:0:0:0:
189,202,31642,1,0,0:0:0:0:
220,129,31815,1,0,0:0:0:0:
220,129,32162,1,0,0:0:0:0:
220,129,32509,6,0,L|291:120,1,52.5000020027161,6|0,0:0|0:0,0:0:0:0:
336,168,32856,2,0,L|407:159,1,52.5000020027161
404,84,33203,2,0,L|475:75,1,52.5000020027161
507,136,33549,1,0,0:0:0:0:
507,136,33723,6,0,P|479:173|470:238,1,105.000004005432
482,307,34243,2,0,L|497:368,1,52.5000020027161
399,293,34590,2,0,L|414:354,1,52.5000020027161,2|0,0:0|0:0,0:0:0:0:
316,279,34937,2,0,L|331:340,1,52.5000020027161
233,265,35284,1,6,0:0:0:0:
233,265,35630,5,0,0:0:0:0:
198,335,35804,2,0,L|178:385,1,52.5000020027161,8|0,0:0|0:0,0:0:0:0:
178,208,36151,2,0,L|145:166,2,52.5000020027161,2|2|0,0:0|0:0|0:0,0:0:0:0:
233,265,36671,5,2,0:0:0:0:
310,255,36844,2,0,L|357:247,2,26.2500010013581,0|2|8,0:0|0:0|0:0,0:0:0:0:
233,265,37191,2,0,L|160:278,1,52.5000020027161,2|0,0:0|0:0,0:0:0:0:
107,302,37538,2,0,L|45:288,1,52.5000020027161,2|0,0:0|3:0,0:0:0:0:
39,213,37885,1,8,0:0:0:0:
39,213,37971,1,8,0:0:0:0:
39,213,38058,6,0,P|30:143|64:81,1,140,6|8,0:0|0:0,0:0:0:0:
134,42,38578,2,0,L|217:26,1,70,0|2,0:0|0:0,0:0:0:0:
285,11,38925,1,2,0:0:0:0:
285,11,39099,2,0,L|216:24,1,70,8|0,0:0|0:0,0:0:0:0:
197,105,39445,6,0,B|188:146|188:146|234:256,1,140,2|8,0:0|0:0,0:0:0:0:
300,276,39966,1,0,0:0:0:0:
370,230,40139,2,0,P|374:181|366:157,1,70,2|2,0:0|0:0,0:0:0:0:
283,75,40486,2,0,P|279:124|287:148,1,70,8|0,0:0|0:0,0:0:0:0:
368,161,40833,6,0,L|506:137,1,140,2|8,0:0|0:0,0:0:0:0:
509,52,41353,2,0,L|440:64,1,70,0|2,0:0|0:0,0:0:0:0:
355,66,41700,1,2,0:0:0:0:
355,66,41873,2,0,L|286:54,1,70,8|0,0:0|0:0,0:0:0:0:
201,48,42220,6,0,L|55:65,1,140,2|8,0:0|0:0,0:0:0:0:
23,139,42740,1,0,0:0:0:0:
83,197,42914,2,0,P|96:230|88:283,2,70,2|2|8,0:0|0:0|0:0,0:0:0:0:
23,139,43434,1,0,0:0:0:0:
61,64,43607,6,0,L|201:48,1,140,2|8,0:0|0:0,0:0:0:0:
275,87,44128,1,0,0:0:0:0:
308,164,44301,2,0,P|319:225|284:302,1,140,2|8,0:0|0:0,0:0:0:0:
207,313,44821,1,0,0:0:0:0:
123,303,44995,6,0,L|24:289,1,70,2|0,0:0|0:0,0:0:0:0:
22,215,45341,1,8,0:0:0:0:
48,135,45515,2,0,P|61:96|33:3,2,140,0|2|0,0:0|0:0|0:0,0:0:0:0:
22,215,46382,6,0,P|22:251|41:291,1,70,2|0,0:0|0:0,0:0:0:0:
102,331,46729,1,8,0:0:0:0:
184,314,46902,2,0,P|245:301|327:319,1,140,0|2,0:0|0:0,0:0:0:0:
396,351,47422,2,0,L|473:338,1,70,8|0,0:0|0:0,0:0:0:0:
498,262,47769,5,2,0:0:0:0:
498,262,47943,1,0,0:0:0:0:
450,192,48116,1,8,0:0:0:0:
481,114,48289,2,0,P|445:90|373:107,1,105,4|0,0:0|0:0,0:0:0:0:
353,123,48636,2,0,L|280:113,1,70,8|8,0:0|0:0,0:0:0:0:
219,58,48983,1,8,0:0:0:0:
165,122,49156,6,0,B|110:114|110:114|82:100|82:100|28:92,1,140,6|8,0:0|0:0,0:0:0:0:
17,176,49677,2,0,P|13:218|25:257,1,70,0|2,0:0|0:0,0:0:0:0:
94,282,50023,2,0,P|98:240|86:201,1,70,2|8,0:0|0:0,0:0:0:0:
19,244,50370,1,0,0:0:0:0:
24,328,50544,6,0,B|48:354|48:354|95:366,1,70,2|0,0:0|0:0,0:0:0:0:
159,331,50891,1,8,0:0:0:0:
185,251,51064,2,0,B|200:181|200:181|177:99,1,140,0|2,0:0|0:0,0:0:0:0:
98,31,51584,2,0,B|90:68|90:68|100:107,1,70,8|0,0:0|0:0,0:0:0:0:
181,115,51931,6,0,L|252:106,1,70,2|0,0:0|0:0,0:0:0:0:
324,146,52278,1,8,0:0:0:0:
383,87,52451,2,0,L|454:78,1,70
500,147,52798,2,0,B|507:185|507:185|497:232,1,70,2|8,0:0|0:0,0:0:0:0:
443,277,53145,1,0,0:0:0:0:
369,237,53318,5,8,0:0:0:0:
311,298,53492,2,0,P|272:294|244:281,1,70,12|0,0:0|0:0,0:0:0:0:
171,239,53838,1,0,0:0:0:0:
171,239,53925,1,0,0:0:0:0:
171,239,54012,1,8,0:0:0:0:
244,281,54185,1,8,0:0:0:0:
171,324,54359,1,2,0:0:0:0:
244,366,54532,1,0,0:0:0:0:
318,324,54706,6,0,P|370:313|469:332,1,140,4|8,0:0|0:0,0:0:0:0:
496,203,55226,2,0,P|444:230|358:224,1,140,4|2,0:0|0:0,0:0:0:0:
304,166,55746,1,8,0:0:0:0:
262,93,55919,1,2,0:0:0:0:
218,20,56093,6,0,P|162:18|76:70,1,140,4|8,0:0|0:0,0:0:0:0:
31,179,56613,2,0,L|178:153,1,140,4|2,0:0|0:0,0:0:0:0:
256,193,57133,1,2,0:0:0:0:
196,267,57307,1,0,0:0:0:0:
262,335,57480,5,4,0:0:0:0:
262,335,58000,1,2,0:0:0:0:
327,266,58174,1,8,0:0:0:0:
386,338,58347,2,0,L|465:328,1,70,2|4,0:0|3:0,0:0:0:0:
502,247,58694,1,0,0:0:0:0:
502,247,58867,1,4,3:0:0:0:
502,247,59388,5,0,0:0:0:0:
502,247,59561,2,0,L|373:269,1,122.5,6|0,0:0|0:0,0:0:0:0:
334,277,60255,6,0,P|325:236|336:195,1,70,12|0,0:1|0:0,0:0:0:0:
396,137,60602,1,8,0:0:0:0:
490,110,60775,2,0,B|509:174|509:174|501:250,1,140,0|2,0:0|0:0,0:0:0:0:
449,322,61295,1,8,0:0:0:0:
360,344,61469,1,0,0:0:0:0:
269,334,61642,6,0,L|123:321,1,140,2|8,0:0|0:0,0:0:0:0:
38,313,62162,1,0,0:0:0:0:
26,222,62336,2,0,L|13:139,1,70,2|2,0:0|0:0,0:0:0:0:
105,243,62682,2,0,L|170:190,1,70,8|0,0:0|0:0,0:0:0:0:
129,321,63029,6,0,P|174:325|279:279,1,140,2|8,0:0|0:0,0:0:0:0:
327,229,63549,2,0,P|383:218|471:239,1,140,0|2,0:0|0:0,0:0:0:0:
491,322,64070,1,8,0:0:0:0:
491,322,64243,1,0,0:0:0:0:
401,304,64417,6,0,L|388:162,1,140,2|8,0:0|0:0,0:0:0:0:
381,73,64937,1,0,0:0:0:0:
296,106,65110,2,0,P|250:108|226:102,2,70,2|2|8,0:0|0:0|0:0,0:0:0:0:
381,73,65630,1,0,0:0:0:0:
469,49,65804,6,0,P|486:97|461:172,1,105,6|0,0:0|0:0,0:0:0:0:
445,182,66151,2,0,L|372:172,1,70,8|0,0:0|0:0,0:0:0:0:
270,136,66497,6,0,P|227:132|158:174,1,105,2|0,0:0|0:0,0:0:0:0:
145,194,66844,2,0,L|50:177,1,70,8|0,0:0|0:0,0:0:0:0:
39,76,67191,6,0,L|160:99,1,105,2|0,0:0|0:0,0:0:0:0:
186,107,67538,2,0,B|199:71|199:71|191:31,1,70,8|0,0:0|0:0,0:0:0:0:
304,25,67885,6,0,P|301:85|336:138,1,105,2|0,0:0|0:0,0:0:0:0:
358,150,68232,2,0,L|434:139,1,70,8|0,0:0|0:0,0:0:0:0:
506,61,68578,6,0,P|452:39|371:64,1,140,6|8,0:0|0:0,0:0:0:0:
358,150,69099,1,0,0:0:0:0:
358,150,69185,1,2,0:0:0:0:
358,150,69272,1,2,0:0:0:0:
436,196,69445,5,8,0:0:0:0:
280,104,69792,1,4,0:0:0:0:
436,12,70139,1,8,0:0:0:0:
393,92,70312,6,0,L|372:138,2,35,8|0|0,0:0|0:0|0:0,0:0:0:0:
436,196,70659,2,0,L|415:242,2,35,2|0|2,0:0|0:0|0:0,0:0:0:0:
479,300,71006,1,8,0:0:0:0:
479,300,71093,1,8,0:0:0:0:
479,300,71180,1,8,0:0:0:0:
479,300,71266,1,8,0:0:0:0:
479,300,71353,6,0,L|403:309,1,70,6|0,0:0|0:0,0:0:0:0:
338,250,71700,1,8,0:0:0:0:
292,328,71873,2,0,B|218:353|142:306,1,140,0|2,0:0|0:0,0:0:0:0:
85,255,72393,1,8,0:0:0:0:
149,190,72567,1,0,0:0:0:0:
87,123,72740,6,0,P|145:102|225:145,1,140,2|8,0:0|0:0,0:0:0:0:
234,220,73260,1,0,0:0:0:0:
319,250,73434,2,0,P|362:247|401:238,1,70,2|2,0:0|0:0,0:0:0:0:
460,85,73781,2,0,P|417:88|378:97,1,70,8|0,0:0|0:0,0:0:0:0:
336,164,74128,6,0,P|386:167|472:225,1,140,2|8,0:0|0:0,0:0:0:0:
393,357,74648,2,0,P|343:354|257:296,1,140,0|2,0:0|0:0,0:0:0:0:
365,261,75168,1,8,0:0:0:0:
365,261,75341,1,0,0:0:0:0:
450,293,75515,6,0,P|465:248|464:150,1,140,2|8,0:0|0:0,0:0:0:0:
443,67,76035,1,0,0:0:0:0:
366,115,76208,2,0,L|356:197,2,70,2|2|8,0:0|0:0|0:0,0:0:0:0:
322,33,76729,1,0,0:0:0:0:
322,33,76902,6,0,B|262:48|262:48|163:33,1,140,6|8,0:0|0:0,0:0:0:0:
35,71,77422,2,0,L|119:84,1,70,2|0,0:0|0:0,0:0:0:0:
184,36,77769,1,2,0:0:0:0:
104,81,77943,2,0,P|86:129|89:200,1,105,8|0,0:0|0:0,0:0:0:0:
118,212,78289,6,0,L|266:188,1,140,6|8,0:0|0:0,0:0:0:0:
411,213,78810,2,0,L|327:226,1,70,8|0,0:0|0:0,0:0:0:0:
256,189,79156,1,2,0:0:0:0:
341,223,79330,2,0,P|359:271|356:342,1,105,8|0,0:0|0:0,0:0:0:0:
323,351,79677,6,0,L|253:340,1,70,6|0,0:0|0:0,0:0:0:0:
164,323,80023,1,8,0:0:0:0:
117,244,80197,1,0,0:0:0:0:
64,317,80370,1,8,0:0:0:0:
17,238,80544,1,0,0:0:0:0:
117,244,80717,2,0,B|126:204|126:204|118:153,1,70,8|0,0:0|0:0,0:0:0:0:
75,96,81064,5,6,0:0:0:0:
75,96,81411,1,0,0:0:0:0:
165,88,81584,2,0,L|314:68,1,140,4|2,0:0|0:0,0:0:0:0:
380,19,82104,1,0,0:0:0:0:
433,92,82278,1,2,0:0:0:0:
489,20,82451,6,0,P|475:88|469:162,1,140,6|0,0:0|0:0,0:0:0:0:
466,249,82971,1,8,0:0:0:0:
466,249,83145,1,2,0:0:0:0:
466,249,83492,6,0,P|425:246|349:380,1,210,4|0,0:0|0:0,0:0:0:0:
429,335,84185,1,2,0:0:0:0:
429,335,84532,5,8,0:0:0:0:
392,251,84706,1,8,0:0:0:0:
355,167,84879,2,0,L|324:98,1,70,2|0,0:0|0:0,0:0:0:0:
220,30,85226,6,0,P|202:81|240:183,1,140,4|0,0:0|0:0,0:0:0:0:
286,226,85746,1,4,0:3:0:0:
286,226,85919,1,8,0:0:0:0:
156,354,86266,5,0,0:0:0:0:
255,194,99099,5,6,0:0:0:0:
255,194,99445,2,0,L|268:252,1,52.5000020027161
339,205,99792,2,0,L|352:263,1,52.5000020027161
423,216,100139,2,0,L|436:274,1,52.5000020027161
497,311,100486,6,0,P|457:340|385:326,1,105.000004005432,2|0,0:0|0:0,0:0:0:0:
333,300,101006,2,0,P|281:296|239:326,1,105.000004005432
167,359,101526,2,0,B|135:361|99:343,1,52.5000020027161
68,233,101873,5,2,0:0:0:0:
68,233,102220,2,0,L|55:291,1,52.5000020027161
152,222,102566,2,0,L|139:280,1,52.5000020027161
236,211,102914,2,0,L|223:269,1,52.5000020027161
279,318,103260,6,0,L|398:303,1,105.000004005432,2|0,0:0|0:0,0:0:0:0:
455,271,103781,2,0,P|459:236|451:207,1,52.5000020027161,4|0,0:3|0:0,0:0:0:0:
387,179,104128,1,0,0:0:0:0:
457,143,104301,2,0,L|465:84,1,52.5000020027161
473,12,104648,5,6,0:0:0:0:
457,143,104995,1,0,0:0:0:0:
473,12,105341,1,0,0:0:0:0:
457,143,105688,1,0,0:0:0:0:
473,12,106035,6,0,P|420:24|350:10,1,105.000004005432,2|0,0:0|0:0,0:0:0:0:
291,22,106555,2,0,P|282:53|291:89,1,52.5000020027161
351,146,106902,2,0,P|360:115|351:79,1,52.5000020027161
266,151,107249,1,0,0:0:0:0:
266,151,107422,5,2,0:0:0:0:
370,17,107769,1,0,0:0:0:0:
266,151,108116,1,0,0:0:0:0:
370,17,108463,1,0,0:0:0:0:
317,82,108636,5,8,0:0:0:0:
317,82,108983,2,0,L|266:64,2,52.5000020027161
390,111,109503,2,0,L|453:102,1,52.5000020027161
495,25,109850,1,4,0:0:0:0:
495,25,110197,5,6,0:0:0:0:
495,25,110544,2,0,L|443:32,1,52.5000020027161,2|0,0:0|0:0,0:0:0:0:
463,105,110891,2,0,L|411:112,1,52.5000020027161,2|0,0:0|0:0,0:0:0:0:
431,185,111237,1,2,0:0:0:0:
431,185,111411,1,8,0:0:0:0:
405,259,111584,6,0,P|457:259|499:215,1,105.000004005432,2|2,0:0|0:0,0:0:0:0:
431,185,112104,2,0,L|379:192,1,52.5000020027161,0|2,0:0|0:0,0:0:0:0:
314,146,112451,1,0,0:0:0:0:
281,217,112625,2,0,L|232:197,1,52.5000020027161,2|0,0:0|0:0,0:0:0:0:
155,164,112971,6,0,L|172:268,1,105.000004005432,6|2,0:0|0:0,0:0:0:0:
144,342,113492,2,0,P|109:318|98:297,1,52.5000020027161,0|2,0:0|0:0,0:0:0:0:
223,332,113838,2,0,P|241:310|250:283,1,52.5000020027161,0|2,0:0|0:0,0:0:0:0:
172,268,114185,1,12,0:0:0:0:
223,332,114359,6,0,L|332:318,1,105.000004005432,6|2,0:0|0:0,0:0:0:0:
405,312,114879,1,4,0:3:0:0:
482,322,115052,1,2,0:0:0:0:
492,245,115226,1,2,0:0:0:0:
415,235,115399,1,0,0:0:0:0:
405,312,115573,1,8,0:0:0:0:
405,312,115659,1,8,0:0:0:0:
405,312,115746,6,0,L|300:325,3,105.000004005432,6|2|2|2,0:0|0:0|0:0|0:0,0:0:0:0:
245,269,116960,1,8,0:0:0:0:
211,339,117133,6,0,P|175:322|144:261,1,105.000004005432,2|2,0:0|0:0,0:0:0:0:
158,188,117654,1,0,0:0:0:0:
182,113,117827,2,0,L|198:48,1,52.5000020027161,2|0,0:0|0:0,0:0:0:0:
269,85,118174,2,0,L|285:20,1,52.5000020027161,2|0,0:0|0:0,0:0:0:0:
356,57,118521,5,6,0:0:0:0:
356,57,118694,1,0,0:0:0:0:
419,103,118867,1,2,0:0:0:0:
419,103,119041,1,0,0:0:0:0:
347,134,119214,5,8,0:0:0:0:
410,180,119388,1,0,0:0:0:0:
338,211,119561,1,8,0:0:0:0:
275,165,119734,1,0,0:0:0:0:
284,88,119908,6,0,P|336:65|393:80,1,105,6|0,0:0|0:0,0:0:0:0:
419,103,120255,2,0,L|496:91,1,70,8|2,0:0|0:0,0:0:0:0:
275,165,120775,1,2,0:0:0:0:
347,134,120948,1,4,0:0:0:0:
344,218,121122,1,8,0:0:0:0:
344,218,121208,1,8,0:0:0:0:
344,218,121295,6,0,L|202:199,1,140,6|8,0:0|0:0,0:0:0:0:
115,181,121815,2,0,P|91:134|123:40,1,140,0|2,0:0|0:0,0:0:0:0:
194,38,122336,2,0,L|278:28,1,70,8|0,0:0|0:0,0:0:0:0:
346,15,122682,6,0,P|367:79|341:143,1,140,2|8,0:0|0:0,0:0:0:0:
267,184,123203,2,0,L|197:192,1,70,0|2,0:0|0:0,0:0:0:0:
115,181,123549,1,2,0:0:0:0:
64,248,123723,2,0,B|53:287|53:287|66:330,1,70,8|0,0:0|0:0,0:0:0:0:
135,355,124070,6,0,B|146:316|146:316|133:273,1,70,2|0,0:0|0:0,0:0:0:0:
64,248,124417,1,8,0:0:0:0:
115,181,124590,2,0,L|131:28,1,140,0|2,0:0|0:0,0:0:0:0:
48,17,125110,2,0,B|37:56|37:56|50:99,1,70,8|0,0:0|0:0,0:0:0:0:
209,72,125457,6,0,P|276:62|350:56,1,140,2|8,0:0|0:0,0:0:0:0:
432,61,125977,1,0,0:0:0:0:
476,132,126151,2,0,L|511:207,2,70,2|2|8,0:0|0:0|0:0,0:0:0:0:
432,61,126671,1,0,0:0:0:0:
347,56,126844,6,0,P|278:61|209:72,1,140,6|8,0:0|0:0,0:0:0:0:
170,147,127365,2,0,P|239:152|308:162,1,140,0|2,0:0|0:0,0:0:0:0:
368,222,127885,1,8,0:0:0:0:
368,222,128058,1,0,0:0:0:0:
285,239,128232,6,0,P|215:244|146:254,1,140,2|8,0:0|0:0,0:0:0:0:
59,196,128752,2,0,P|41:236|79:335,1,140,0|2,0:0|0:0,0:0:0:0:
147,347,129272,2,0,L|227:337,1,70,8|0,0:0|0:0,0:0:0:0:
287,200,129619,6,0,L|255:274,1,70,2|0,0:0|0:0,0:0:0:0:
295,338,129966,2,0,L|365:347,1,70,8|0,0:0|0:0,0:0:0:0:
447,329,130312,1,2,0:0:0:0:
447,329,130486,1,2,0:0:0:0:
493,259,130659,1,8,0:0:0:0:
408,255,130833,6,0,P|396:209|426:110,1,140,4|0,0:0|0:0,0:0:0:0:
472,56,131353,1,8,0:0:0:0:
418,121,131526,2,0,L|271:104,1,140
194,94,132047,1,8,0:0:0:0:
176,92,132133,1,8,0:0:0:0:
159,91,132220,1,8,0:0:0:0:
141,89,132307,1,8,0:0:0:0:
124,88,132393,6,0,P|101:121|128:231,1,140,6|8,0:0|0:0,0:0:0:0:
211,276,132914,2,0,P|276:258|355:263,1,140,0|2,0:0|0:0,0:0:0:0:
429,280,133434,2,0,L|515:305,1,70,8|0,0:0|0:0,0:0:0:0:
441,363,133781,6,0,P|390:347|297:349,1,140,2|8,0:0|0:0,0:0:0:0:
220,359,134301,1,0,0:0:0:0:
137,344,134474,2,0,L|60:334,1,70,2|2,0:0|0:0,0:0:0:0:
21,241,134821,2,0,L|98:251,1,70,8|0,0:0|0:0,0:0:0:0:
174,258,135168,6,0,P|153:193|63:170,1,140,2|8,0:0|0:0,0:0:0:0:
21,241,135688,2,0,P|42:306|132:329,1,140,0|2,0:0|0:0,0:0:0:0:
187,327,136208,2,0,L|256:317,1,70,8|0,0:0|0:0,0:0:0:0:
340,308,136555,5,8,0:0:0:0:
416,343,136729,1,12,0:0:0:0:
473,281,136902,2,0,B|484:225|484:225|475:170,1,105,0|2,0:0|0:0,0:0:0:0:
465,137,137249,2,0,L|448:54,1,70,8|8,0:0|0:0,0:0:0:0:
383,17,137596,1,2,0:0:0:0:
450,68,137769,1,0,0:0:0:0:
371,99,137943,6,0,P|332:95|243:46,1,140,4|8,0:0|0:0,0:0:0:0:
131,32,138463,2,0,L|154:176,1,140,4|0,0:0|0:0,0:0:0:0:
126,250,138983,2,0,P|92:232|69:187,1,70,8|2,0:0|0:0,0:0:0:0:
236,192,139330,6,0,P|226:243|216:335,1,140,4|8,0:0|0:0,0:0:0:0:
319,353,139850,2,0,L|461:328,1,140,4|2,0:0|0:0,0:0:0:0:
501,257,140370,2,0,L|511:187,1,70,8|0,0:0|0:0,0:0:0:0:
481,108,140717,5,4,0:0:0:0:
481,108,141237,1,0,0:0:0:0:
481,108,141411,6,0,L|492:161,2,46.6666666666667,8|4|0,0:0|0:3|0:0,0:0:0:0:
423,53,141758,2,0,L|412:0,2,46.6666666666667,4|4|0,0:3|0:3|0:0,0:0:0:0:
397,130,142104,6,0,P|338:127|276:69,1,140
237,21,142567,2,0,P|209:18|186:21,1,46.6666666666667
146,71,142798,6,0,B|101:80|101:80|77:96|77:96|28:104,1,122.5,4|0,0:0|0:0,0:0:0:0:
10,141,143492,6,0,P|11:191|28:223,1,70,12|0,0:1|0:0,0:0:0:0:
96,239,143838,1,8,0:0:0:0:
178,221,144012,2,0,P|242:207|326:253,1,140,0|2,0:0|0:0,0:0:0:0:
335,314,144532,1,8,0:0:0:0:
262,357,144706,1,0,0:0:0:0:
175,350,144879,6,0,P|154:285|178:221,1,140,2|8,0:0|0:0,0:0:0:0:
237,161,145399,1,0,0:0:0:0:
280,89,145573,2,0,P|285:41|276:14,1,70,2|2,0:0|0:0,0:0:0:0:
165,129,145919,2,0,P|160:177|169:204,1,70,8|0,0:0|0:0,0:0:0:0:
289,236,146266,6,0,B|347:227|347:227|374:232|374:232|446:219,1,140,2|8,0:0|0:0,0:0:0:0:
345,318,146786,2,0,B|287:327|287:327|260:322|260:322|188:335,1,140,0|2,0:0|0:0,0:0:0:0:
130,295,147307,1,8,0:0:0:0:
130,295,147480,1,0,0:0:0:0:
207,331,147654,6,0,B|260:322|260:322|287:327|287:327|345:318,1,140,2|8,0:0|0:0,0:0:0:0:
428,306,148174,1,0,0:0:0:0:
456,227,148347,2,0,L|484:143,2,70,2|2|8,0:0|0:0|0:0,0:0:0:0:
428,306,148867,1,0,0:0:0:0:
345,318,149041,5,6,0:0:0:0:
257,96,149388,1,8,0:0:0:0:
167,318,149734,1,2,0:0:0:0:
365,186,150081,1,8,0:0:0:0:
365,186,150255,1,0,0:0:0:0:
365,186,150428,5,2,0:0:0:0:
147,186,150775,1,8,0:0:0:0:
345,318,151122,1,2,0:0:0:0:
257,96,151469,1,8,0:0:0:0:
167,318,151815,5,6,0:0:0:0:
167,318,152162,1,8,0:0:0:0:
251,319,152336,1,0,0:0:0:0:
251,319,152422,1,2,0:0:0:0:
251,319,152509,1,2,0:0:0:0:
335,320,152682,2,0,P|390:314|442:280,1,105,8|0,0:0|0:0,0:0:0:0:
449,250,153029,2,0,L|465:153,1,70,4|0,0:0|0:0,0:0:0:0:
472,97,153376,5,8,0:0:0:0:
425,26,153549,1,8,0:0:0:0:
378,96,153723,1,0,0:0:0:0:
331,25,153896,1,2,0:0:0:0:
284,95,154070,1,2,0:0:0:0:
331,166,154243,1,8,0:0:0:0:
331,166,154330,1,0,0:0:0:0:
331,166,154417,2,0,L|362:215,1,35
375,228,154590,6,0,L|221:214,2,140,6|8|2,0:0|0:0|0:0,0:0:0:0:
458,240,155457,1,2,0:0:0:0:
492,316,155630,2,0,P|481:357|456:376,1,70,8|0,0:0|0:0,0:0:0:0:
380,346,155977,6,0,P|320:338|228:336,1,140,2|8,0:0|0:0,0:0:0:0:
156,345,156497,1,0,0:0:0:0:
156,345,156671,2,0,B|143:305|143:305|152:263,1,70,2|2,0:0|0:0,0:0:0:0:
235,168,157018,2,0,B|248:208|248:208|239:250,1,70,8|0,0:0|0:0,0:0:0:0:
166,203,157365,6,0,B|151:131|151:131|174:63,1,140,2|8,0:0|0:0,0:0:0:0:
339,68,157885,2,0,B|361:131|361:131|346:203,1,140,0|2,0:0|0:0,0:0:0:0:
322,283,158405,2,0,L|304:359,1,70,8|0,0:0|0:0,0:0:0:0:
206,351,158752,2,0,L|190:283,1,70,2|0,0:0|0:0,0:0:0:0:
256,231,159099,5,8,0:0:0:0:
322,283,159272,1,0,0:0:0:0:
401,256,159445,2,0,P|441:244|481:237,2,70,2|2|8,0:0|0:0|0:0,0:0:0:0:
322,283,159966,1,0,0:0:0:0:
234,310,160139,6,0,P|191:297|78:293,1,140,6|8,0:0|0:0,0:0:0:0:
24,334,160659,2,0,B|16:296|16:296|22:249,1,70,2|0,0:0|0:0,0:0:0:0:
53,165,161006,1,2,0:0:0:0:
155,189,161180,2,0,L|285:213,1,105,8|0,0:0|0:0,0:0:0:0:
299,215,161526,6,0,P|360:217|439:178,1,140,6|8,0:0|0:0,0:0:0:0:
477,114,162047,2,0,B|485:76|485:76|479:29,1,70,8|0,0:0|0:0,0:0:0:0:
379,17,162393,1,2,0:0:0:0:
276,40,162567,2,0,L|146:64,1,105,8|0,0:0|0:0,0:0:0:0:
131,66,162914,6,0,P|124:120|136:166,1,70,6|0,0:0|0:0,0:0:0:0:
260,245,163260,2,0,P|262:210|255:175,1,70,8|0,0:0|0:0,0:0:0:0:
178,211,163607,1,8,0:0:0:0:
94,200,163781,1,8,0:0:0:0:
10,189,163954,1,8,0:0:0:0:
61,122,164128,1,8,0:0:0:0:
94,200,164301,5,6,0:0:0:0:
28,44,164648,1,0,0:0:0:0:
112,55,164821,2,0,P|168:59|260:42,1,140,4|8,0:0|0:0,0:0:0:0:
331,22,165341,1,8,0:0:0:0:
331,22,165515,1,2,0:0:0:0:
408,54,165688,6,0,P|418:106|417:269,1,210,4|8,0:0|0:0,0:0:0:0:
349,342,166382,1,2,0:0:0:0:
349,342,166729,2,0,P|274:319|197:348,2,140,4|0|4,0:0|0:0|0:3,0:0:0:0:
431,357,167596,5,0,0:0:0:0:
476,286,167769,1,8,0:0:0:0:
476,286,167943,1,8,0:0:0:0:
428,216,168116,2,0,L|419:124,1,70,2|0,0:0|0:0,0:0:0:0:
383,71,168463,6,0,P|432:64|501:127,1,140,4|0,0:0|0:0,0:0:0:0:
421,146,168983,1,8,0:0:0:0:
421,146,169156,1,4,0:3:0:0:
294,40,169503,5,4,0:0:0:0:
294,40,178174,6,0,P|288:66|289:89,1,35,8|8,0:0|0:0,0:0:0:0:
380,129,178521,6,0,P|384:97|380:66,1,45.4999979171754,8|8,0:0|0:0,0:0:0:0:
278,157,178867,6,0,P|276:189|281:227,1,56,8|8,0:0|0:0,0:0:0:0:
376,282,179214,6,0,P|380:250|367:203,1,70,8|8,0:0|0:0,0:0:0:0:
201,254,179561,6,0,P|195:293|218:362,1,105,4|0,0:0|0:0,0:0:0:0:
253,368,179908,2,0,L|320:351,1,70,0|4,0:0|0:0,0:0:0:0:
458,183,180428,1,0,0:0:0:0:
475,265,180602,2,0,L|485:308,3,35,8|8|8|8,0:0|0:0|0:0|0:0,0:0:0:0:
436,257,180948,6,0,L|364:247,1,70,6|0,0:0|0:0,0:0:0:0:
283,236,181295,2,0,P|263:190|311:93,1,140,8|2,0:0|0:0,0:0:0:0:
365,70,181815,1,0,0:0:0:0:
365,70,181989,2,0,L|437:60,1,70,8|0,0:0|0:0,0:0:0:0:
494,119,182336,6,0,P|498:170|485:205,1,70,2|0,0:0|0:0,0:0:0:0:
415,219,182682,1,8,0:0:0:0:
331,205,182856,2,0,P|280:203|199:258,1,140,0|2,0:0|0:0,0:0:0:0:
207,339,183376,2,0,P|247:326|275:301,1,70,8|0,0:0|0:0,0:0:0:0:
134,283,183723,6,0,P|75:269|14:213,1,140,2|8,0:0|0:0,0:0:0:0:
25,121,184243,2,0,P|69:135|102:162,1,70,0|2,0:0|0:0,0:0:0:0:
158,195,184590,1,2,0:0:0:0:
158,195,184763,2,0,P|192:195|226:185,1,70,8|0,0:0|0:0,0:0:0:0:
303,151,185110,6,0,P|368:137|448:159,1,140,2|8,0:0|0:0,0:0:0:0:
492,238,185630,2,0,P|444:244|374:322,1,140,0|2,0:0|0:0,0:0:0:0:
310,354,186151,2,0,L|230:340,1,70,8|0,0:0|0:0,0:0:0:0:
138,320,186497,5,6,0:0:0:0:
138,320,186844,1,8,0:0:0:0:
241,341,187018,2,0,P|252:291|231:200,1,140,0|2,0:0|0:0,0:0:0:0:
185,136,187538,2,0,P|180:85|191:43,1,70,8|0,0:0|0:0,0:0:0:0:
264,44,187885,6,0,L|338:28,1,70,2|0,0:0|0:0,0:0:0:0:
472,55,188232,2,0,L|398:71,1,70,8|0,0:0|0:0,0:0:0:0:
294,156,188578,2,0,L|368:140,1,70,2|2,0:0|0:0,0:0:0:0:
502,167,188925,2,0,L|428:183,1,70,8|0,0:0|0:0,0:0:0:0:
346,243,189272,6,0,P|342:290|355:336,1,70,6|0,0:0|0:0,0:0:0:0:
420,351,189619,1,8,0:0:0:0:
489,304,189792,2,0,P|493:257|480:211,1,70,8|2,0:0|0:0,0:0:0:0:
415,196,190139,1,0,0:0:0:0:
346,243,190312,2,0,P|281:266|194:242,1,140,12|2,0:0|0:0,0:0:0:0:
121,199,190833,5,4,0:0:0:0:
121,199,191006,1,12,0:0:0:0:
48,275,191180,2,0,P|41:325|50:367,1,70,0|8,0:0|0:0,0:0:0:0:
147,356,191526,1,8,0:0:0:0:
164,353,191613,1,8,0:0:0:0:
181,350,191700,2,0,L|232:339,3,35,8|8|8|8,0:0|0:0|0:0|0:0,0:0:0:0:
253,334,192047,6,0,P|318:335|351:348,1,70,6|0,0:0|0:0,0:0:0:0:
403,358,192393,2,0,P|437:363|472:360,1,70,8|0,0:0|0:0,0:0:0:0:
501,281,192740,1,2,0:0:0:0:
501,281,192914,1,2,0:0:0:0:
440,223,193087,2,0,P|405:217|370:220,1,70,8|0,0:0|0:0,0:0:0:0:
289,242,193434,6,0,P|203:256|138:229,1,140,2|8,0:0|0:0,0:0:0:0:
99,175,193954,2,0,L|116:30,1,140,8|2,0:0|0:0,0:0:0:0:
31,32,194474,2,0,B|21:69|21:69|31:109,1,70,8|0,0:0|0:0,0:0:0:0:
186,92,194821,2,0,P|243:70|328:60,1,140,2|8,0:0|0:0,0:0:0:0:
404,66,195341,5,0,0:0:0:0:
460,128,195515,1,2,0:0:0:0:
460,128,195688,1,2,0:0:0:0:
396,183,195862,2,0,L|316:173,1,70,8|0,0:0|0:0,0:0:0:0:
268,114,196208,6,0,P|241:183|288:249,1,140,2|8,0:0|0:0,0:0:0:0:
390,241,196729,2,0,P|417:172|370:106,1,140,0|2,0:0|0:0,0:0:0:0:
326,174,197249,2,0,L|318:256,1,70,8|0,0:0|0:0,0:0:0:0:
292,325,197596,6,0,P|236:330|184:289,1,105,6|0,0:0|0:0,0:0:0:0:
166,275,197943,2,0,L|83:258,1,70,8|4,0:0|0:0,0:0:0:0:
35,204,198289,1,0,0:0:0:0:
35,204,198463,1,2,0:0:0:0:
60,124,198636,2,0,L|80:45,1,70,8|0,0:0|0:0,0:0:0:0:
154,22,198983,6,0,P|210:17|262:58,1,105,6|0,0:0|0:0,0:0:0:0:
280,72,199330,2,0,L|363:89,1,70,8|4,0:0|0:0,0:0:0:0:
423,47,199677,1,0,0:0:0:0:
423,47,199850,1,2,0:0:0:0:
458,123,200023,2,0,L|485:194,1,70,8|0,0:0|0:0,0:0:0:0:
473,272,200370,6,0,P|423:277|382:258,1,70,6|0,0:0|0:0,0:0:0:0:
322,184,200717,1,8,0:0:0:0:
322,184,200891,2,0,P|372:179|413:198,1,70,4|0,0:0|0:0,0:0:0:0:
309,271,201237,2,0,P|259:276|218:257,1,70,2|8,0:0|0:0,0:0:0:0:
158,183,201584,1,12,0:0:0:0:
158,183,201931,6,0,P|208:178|249:197,1,70,0|8,0:0|0:0,0:0:0:0:
145,270,202278,1,12,0:0:0:0:
145,270,202625,2,0,P|95:275|54:256,1,70,2|8,0:0|0:0,0:0:0:0:
52,152,202971,6,0,P|27:107|85:164,1,350,4|8,0:0|0:0,0:0:0:0:
45,236,204012,6,0,P|31:280|28:317,2,70,4|2|0,0:3|0:0|0:0,0:0:0:0:
88,163,204532,1,4,0:0:0:0:
88,163,205226,6,0,B|148:151|148:151|171:137|171:137|221:127,1,140,0|6,0:0|0:0,0:0:0:0:
221,126,211469,5,2,0:0:0:0:
228,138,212856,5,2,0:0:0:0:
235,150,214243,6,0,P|286:169|372:125,1,140,6|0,0:0|0:0,0:0:0:0:
407,59,214763,1,0,0:0:0:0:
407,59,214850,1,2,0:0:0:0:
407,59,214937,1,2,0:0:0:0:
462,131,215110,2,0,P|469:172|472:208,1,70,8|0,0:0|0:0,0:0:0:0:
366,275,215457,6,0,P|352:210|368:121,1,140,4|0,0:0|0:0,0:0:0:0:
407,59,215977,1,4,0:0:0:0:
462,131,216151,2,0,P|469:172|472:208,1,70,0|8,0:0|0:0,0:0:0:0:
465,290,216497,1,8,0:0:0:0:
465,290,216584,1,8,0:0:0:0:
465,290,216671,2,0,L|458:342,3,35,8|8|8|8,0:0|0:0|0:0|0:0,0:0:0:0:
452,363,217018,6,0,L|376:349,1,70,12|0,0:1|0:0,0:0:0:0:
297,262,217365,2,0,L|373:276,1,70,8|0,0:0|0:0,0:0:0:0:
269,346,217711,2,0,L|193:332,1,70,2|2,0:0|0:0,0:0:0:0:
112,205,218058,2,0,L|188:219,1,70,8|0,0:0|0:0,0:0:0:0:
88,282,218405,6,0,P|43:245|50:154,1,140,2|8,0:0|0:0,0:0:0:0:
113,112,218925,1,0,0:0:0:0:
113,112,219099,2,0,P|122:154|115:184,1,70,2|2,0:0|0:0,0:0:0:0:
180,279,219445,2,0,P|174:244|183:211,1,70,8|0,0:0|0:0,0:0:0:0:
250,149,219792,6,0,L|401:125,1,140,2|8,0:0|0:0,0:0:0:0:
474,259,220312,2,0,L|323:283,1,140,0|2,0:0|0:0,0:0:0:0:
259,332,220833,2,0,P|243:293|252:251,1,70,8|0,0:0|0:0,0:0:0:0:
300,193,221180,6,0,P|338:178|380:186,1,70,2|0,0:0|0:0,0:0:0:0:
445,224,221526,1,8,0:0:0:0:
445,224,221700,1,0,0:0:0:0:
456,133,221873,2,0,L|467:57,2,70,2|2|8,0:0|0:0|0:0,0:0:0:0:
445,224,222393,1,0,0:0:0:0:
434,314,222567,6,0,P|379:331|304:281,1,140,6|8,0:0|0:0,0:0:0:0:
279,206,223087,2,0,L|264:126,1,70,2|0,0:0|0:0,0:0:0:0:
248,47,223434,1,2,0:0:0:0:
266,137,223607,2,0,P|321:139|376:97,1,105,8|0,0:0|0:0,0:0:0:0:
393,80,223954,6,0,L|380:227,1,140,2|8,0:0|0:0,0:0:0:0:
335,298,224474,2,0,L|255:286,1,70,8|0,0:0|0:0,0:0:0:0:
175,274,224821,1,2,0:0:0:0:
265,287,224995,2,0,P|257:226|197:191,1,105,8|0,0:0|0:0,0:0:0:0:
183,188,225341,6,0,L|103:176,1,70,6|0,0:0|0:0,0:0:0:0:
23,161,225688,1,8,0:0:0:0:
76,234,225862,2,0,B|106:172|106:172|87:91,1,140,4|2,0:0|0:0,0:0:0:0:
66,21,226382,1,8,0:0:0:0:
66,21,226555,1,0,0:0:0:0:
66,21,226729,6,0,B|125:30|125:30|148:41|148:41|211:50,1,140,4|0,0:0|0:0,0:0:0:0:
323,132,227249,2,0,B|268:139|268:139|245:150|245:150|186:159,1,140,4|2,0:0|0:0,0:0:0:0:
85,186,227769,1,8,0:0:0:0:
80,188,227856,1,8,0:0:0:0:
75,190,227943,1,8,0:0:0:0:
70,192,228029,1,8,0:0:0:0:
66,196,228116,6,0,P|43:238|74:335,1,140,4|0,0:0|0:0,0:0:0:0:
145,341,228636,2,0,L|221:326,1,70,8|2,0:0|0:0,0:0:0:0:
296,313,228983,1,0,0:0:0:0:
379,352,229156,6,0,P|388:304|221:298,1,280,4|2,0:0|0:0,0:0:0:0:
379,352,230197,5,2,0:0:0:0:
379,352,230370,1,2,0:0:0:0:
459,327,230544,1,8,0:0:0:0:
396,271,230717,1,8,0:0:0:0:
396,271,230804,1,8,0:0:0:0:
396,271,230891,6,0,P|386:200|402:116,1,140,4|8,0:0|0:0,0:0:0:0:
429,55,231411,2,0,L|359:42,1,70,8|4,0:0|0:3,0:0:0:0:
277,28,231758,1,0,0:0:0:0:
194,44,231931,6,0,P|194:92|359:66,1,280,4|8,0:0|0:0,0:0:0:0:
277,28,232798,5,0,0:0:0:0:
194,44,232971,1,8,0:0:0:0:
111,26,233145,1,0,0:0:0:0:
28,42,233318,1,8,0:0:0:0:
28,42,233665,6,0,L|22:112,1,70,4|0,0:0|0:0,0:0:0:0:
107,173,234012,2,0,L|192:158,1,70,8|8,0:0|0:0,0:0:0:0:
269,113,234359,6,0,L|263:183,1,70,8|8,0:0|0:0,0:0:0:0:
348,244,234706,2,0,L|433:229,1,70,8|8,0:0|0:0,0:0:0:0:
481,149,235052,6,0,P|469:101|439:62,1,70,8|8,0:0|0:0,0:0:0:0:
365,34,235399,2,0,P|317:20|268:26,1,70,8|8,0:0|0:0,0:0:0:0:
196,50,235746,2,0,P|160:84|141:129,1,70,8|8,0:0|0:0,0:0:0:0:
136,206,236093,1,6,0:0:0:0:
136,206,236786,6,0,L|243:193,1,105.000004005432,0|2,3:0|0:0,0:0:0:0:
319,183,237307,2,0,L|371:176,2,52.5000020027161,2|2|0,0:0|0:0|0:0,0:0:0:0:
240,193,237827,6,0,P|227:233|297:297,1,140,4|0,0:0|3:0,0:0:0:0:
378,283,238904,6,0,L|423:274,2,35,0|0|2,0:0|0:0|0:0,0:0:0:0:
256,192,239421,12,2,243145,0:0:0:0:
