osu file format v14

[General]
AudioFilename: audio.mp3
AudioLeadIn: 0
PreviewTime: 63206
Countdown: 0
SampleSet: Soft
StackLeniency: 0.7
Mode: 0
LetterboxInBreaks: 0
WidescreenStoryboard: 1

[Editor]
DistanceSpacing: 1
BeatDivisor: 4
GridSize: 32
TimelineZoom: 3.4

[Metadata]
Title:Kite (Cut Ver.)
TitleUnicode:カイト (Cut Ver.)
Artist:ClariS
ArtistUnicode:ClariS
Creator:Syoko
Version:Insane
Source:
Tags:j-pop japanese pop border [-evil-] Krisom Cayssa cut short ver
BeatmapID:2532129
BeatmapSetID:1212689

[Difficulty]
HPDrainRate:5
CircleSize:4
OverallDifficulty:7.5
ApproachRate:8.8
SliderMultiplier:1.9
SliderTickRate:1

[Events]
//Background and Video events
0,0,"ego rock.jpg",0,0
//Break Periods
//Storyboard Layer 0 (Background)
//Storyboard Layer 1 (Fail)
//Storyboard Layer 2 (Pass)
//Storyboard Layer 3 (Foreground)
//Storyboard Layer 4 (Overlay)
//Storyboard Sound Samples

[TimingPoints]
382,389.610389610389,4,2,1,33,1,0
5057,-200,4,2,1,62,0,0
6615,-117.647058823529,4,2,1,50,0,0
6907,-117.647058823529,4,2,1,5,0,0
7005,-117.647058823529,4,2,1,50,0,0
12849,-117.647058823529,4,2,1,65,0,0
19083,-117.647058823529,4,2,1,37,0,0
19472,-117.647058823529,4,2,1,37,0,0
19862,-125,4,2,1,37,0,0
25219,-125,4,2,1,5,0,0
25317,-125,4,2,1,37,0,0
28726,-125,4,2,1,5,0,0
28823,-125,4,2,1,37,0,0
31550,-125,4,2,1,44,0,0
34570,-125,4,2,1,5,0,0
34667,-125,4,2,1,44,0,0
39148,-125,4,2,1,55,0,0
39343,-125,4,2,1,55,0,0
39537,-125,4,2,1,55,0,0
39830,-125,4,2,1,5,0,0
39927,-125,4,2,1,68,0,0
40317,-125,4,2,1,68,0,0
42459,-125,4,2,1,45,0,0
47037,-125,4,2,1,5,0,0
47135,-125,4,2,1,45,0,0
48693,-125,4,2,1,55,0,0
64278,-105.263157894737,4,2,1,75,0,1
67005,-133.333333333334,4,2,1,75,0,1
67297,-133.333333333334,4,2,1,5,0,1
67394,-105.263157894737,4,2,1,75,0,1
73531,-105.263157894737,4,2,1,5,0,1
73628,-105.263157894737,4,2,1,75,0,1
79472,-133.333333333334,4,2,1,75,0,1
79765,-133.333333333334,4,2,1,5,0,1
79862,-105.263157894737,4,2,1,75,0,1
84440,-105.263157894737,4,2,1,5,0,1
84537,-105.263157894737,4,2,1,75,0,1
86388,-105.263157894737,4,2,1,5,0,1
86485,-105.263157894737,4,2,1,75,0,1
90381,-142.857142857143,4,2,1,75,0,1
92330,-125,4,2,1,75,0,0
93011,-125,4,2,1,5,0,0
93109,-125,4,2,1,75,0,0
93790,-125,4,2,1,5,0,0
93888,-142.857142857143,4,2,1,75,0,0
94667,-142.857142857143,4,2,1,45,0,0
94862,-142.857142857143,4,2,1,60,0,0
95446,-111.111111111111,4,2,1,75,0,0
96907,-111.111111111111,4,2,1,5,0,0
97005,-111.111111111111,4,2,1,75,0,0
112784,-111.111111111111,4,2,1,35,0,0
113174,-111.111111111111,4,2,1,45,0,0
113563,-111.111111111111,4,2,1,55,0,0

[Colours]
Combo1 : 126,150,132
Combo2 : 156,178,201
Combo3 : 116,142,199
Combo4 : 231,210,204

[HitObjects]
35,51,5057,5,10,0:0:0:0:
50,210,5252,1,10,0:0:0:0:
176,130,5446,5,10,0:0:0:0:
153,327,5641,1,10,0:0:0:0:
153,327,6031,5,2,1:2:0:0:
153,327,6128,1,2,0:0:0:0:
153,327,6226,1,14,0:0:0:0:
130,300,6323,1,2,0:0:0:0:
120,266,6420,1,2,0:0:0:0:
126,231,6518,1,2,0:0:0:0:
146,202,6615,6,0,B|201:194|201:194|225:202|225:202|278:194,1,121.125002310276,4|0,1:2|0:0,0:0:0:0:
304,188,7005,1,8,0:0:0:0:
304,188,7200,1,0,0:0:0:0:
379,127,7394,1,0,1:0:0:0:
369,269,7589,1,2,1:2:0:0:
259,81,7784,1,10,0:0:0:0:
282,304,7979,1,2,0:0:0:0:
467,151,8174,6,0,B|491:198|491:198|461:332,1,161.500003080368,2|8,1:2|0:0,0:0:0:0:
443,384,8758,1,0,0:0:0:0:
296,224,8953,2,0,L|379:213,1,80.750001540184,0|0,1:0|1:0,0:0:0:0:
224,125,9343,1,8,0:0:0:0:
196,293,9537,1,2,0:0:0:0:
49,204,9732,6,0,B|51:270|51:270|36:297|36:297|40:362,1,161.500003080368,2|8,1:2|0:0,0:0:0:0:
203,237,10317,1,2,0:0:0:0:
203,237,10511,1,0,1:0:0:0:
112,155,10706,1,0,1:0:0:0:
202,317,10901,1,8,0:0:0:0:
299,164,11096,1,2,0:0:0:0:
299,164,11193,1,2,0:0:0:0:
299,164,11291,6,0,B|315:194|300:233|300:233|309:255|309:255|294:295|304:328,1,161.500003080368,4|8,1:2|0:0,0:0:0:0:
236,384,11875,1,0,0:0:0:0:
181,234,12070,1,2,1:2:0:0:
181,234,12265,1,8,0:0:0:0:
299,164,12459,5,8,0:3:0:0:
267,47,12654,1,4,0:3:0:0:
380,266,12849,6,0,L|462:276,1,80.750001540184,2|0,1:2|0:0,0:0:0:0:
281,324,13239,2,0,L|199:334,1,80.750001540184,10|0,0:0|0:0,0:0:0:0:
120,320,13628,1,10,0:0:0:0:
317,214,13823,1,0,1:0:0:0:
294,366,14018,1,8,0:0:0:0:
198,235,14213,6,0,L|203:155,1,80.750001540184,2|8,1:2|0:0,0:0:0:0:
337,53,14602,2,0,L|343:134,1,80.750001540184,2|8,1:2|0:0,0:0:0:0:
315,229,14992,1,2,1:2:0:0:
428,120,15187,1,10,0:0:0:0:
214,68,15381,5,2,1:2:0:0:
214,68,15479,1,2,0:0:0:0:
214,68,15576,1,10,0:0:0:0:
183,51,15674,1,2,0:0:0:0:
153,58,15771,1,2,1:2:0:0:
122,42,15869,1,2,0:0:0:0:
91,49,15966,6,0,L|-9:32,1,80.750001540184,10|0,0:0|0:0,0:0:0:0:
222,181,16356,2,0,L|121:198,1,80.750001540184,10|0,0:0|1:0,0:0:0:0:
315,40,16745,2,0,L|214:24,1,80.750001540184,10|0,0:0|1:0,0:0:0:0:
353,181,17135,1,8,0:0:0:0:
489,69,17330,6,0,L|390:67,1,80.750001540184,2|8,1:2|0:0,0:0:0:0:
272,178,17719,2,0,L|361:181,1,80.750001540184,2|8,1:2|0:0,0:0:0:0:
451,211,18109,1,10,0:0:0:0:
328,102,18304,1,8,0:3:0:0:
268,281,18498,1,4,0:3:0:0:
179,128,18693,2,0,B|165:169|165:169|174:214,1,80.750001540184,8|0,0:0|1:0,0:0:0:0:
260,47,19083,6,0,P|191:14|112:36,1,161.500003080368,6|2,1:2|1:2,0:0:0:0:
31,111,19667,1,2,0:0:0:0:
31,111,19862,2,0,L|28:27,1,76,0|2,1:0|0:0,0:0:0:0:
179,119,20252,1,2,1:2:0:0:
109,243,20446,1,0,1:0:0:0:
109,243,20544,1,0,1:0:0:0:
109,243,20641,6,0,B|172:241|172:241|198:254|198:254|259:251,1,152,2|0,1:2|1:0,0:0:0:0:
195,358,21226,1,0,0:0:0:0:
332,317,21420,2,0,P|360:248|325:183,1,152,2|2,1:2|1:2,0:0:0:0:
243,134,22005,1,0,0:0:0:0:
437,125,22200,6,0,B|462:165|462:165|442:279,1,152,2|0,1:2|1:0,0:0:0:0:
409,359,22784,1,2,0:0:0:0:
235,169,22979,2,0,B|238:205|222:248|222:248|244:278|245:323,1,152,2|0,1:2|1:2,0:0:0:0:
347,234,23563,1,2,0:0:0:0:
163,88,23758,6,0,P|231:57|302:82,1,152,2|0,1:2|1:2,0:0:0:0:
236,180,24343,1,2,0:0:0:0:
94,141,24537,2,0,B|105:180|105:180|98:215,1,76,2|2,1:2|0:0,0:0:0:0:
37,308,24927,2,0,P|90:290|142:312,1,114,2|0,1:2|0:0,0:0:0:0:
169,340,25317,6,0,B|209:335|239:315|239:315|277:338|317:340,1,152,2|2,1:2|1:2,0:0:0:0:
391,360,25901,2,0,B|387:324|387:324|394:284,1,76,2|0,0:0|1:0,0:0:0:0:
413,204,26290,1,2,0:0:0:0:
512,235,26485,2,0,B|516:195|516:195|507:155,1,76,2|0,1:2|0:0,0:0:0:0:
444,70,26875,6,0,B|401:54|359:70|380:85|338:100|296:85,1,152,2|0,1:2|1:0,0:0:0:0:
271,200,27459,1,0,0:0:0:0:
415,239,27654,2,0,L|420:158,1,76,2|2,1:2|0:0,0:0:0:0:
342,322,28044,1,2,1:2:0:0:
236,211,28239,1,2,1:2:0:0:
236,211,28336,1,2,1:2:0:0:
236,211,28433,6,0,L|240:339,1,114,2|0,1:2|0:0,0:0:0:0:
243,360,28823,2,0,B|283:351|283:351|320:359,1,76,2|0,1:2|0:0,0:0:0:0:
135,215,29213,2,0,L|140:314,1,76,2|0,1:2|0:0,0:0:0:0:
144,369,29602,1,2,1:2:0:0:
32,267,29797,1,2,0:0:0:0:
199,137,29992,6,0,P|131:109|64:140,1,152,4|0,1:2|0:0,0:0:0:0:
23,215,30576,1,2,0:0:0:0:
23,215,30674,1,2,0:0:0:0:
23,215,30771,1,2,0:0:0:0:
179,249,30966,1,2,1:2:0:0:
143,50,31161,1,10,0:0:0:0:
143,50,31356,1,2,1:2:0:0:
226,134,31550,6,0,B|291:129|291:129|318:142|318:142|383:137,1,152,6|10,1:2|0:0,0:0:0:0:
285,331,32135,2,0,B|274:296|274:296|280:256,1,76,2|0,0:0|1:0,0:0:0:0:
333,165,32524,1,2,1:2:0:0:
397,274,32719,2,0,B|441:280|441:280|472:276,1,76,10|0,0:0|0:0,0:0:0:0:
187,159,33109,6,0,B|158:198|158:198|170:310,1,152,0|8,1:0|0:0,0:0:0:0:
183,380,33693,1,0,0:0:0:0:
70,236,33888,1,2,1:2:0:0:
73,344,34083,1,0,1:0:0:0:
140,142,34278,2,0,P|88:122|35:139,1,114,10|0,0:0|0:0,0:0:0:0:
7,150,34667,6,0,B|12:113|29:78|29:78|11:48|4:3,1,152,2|8,1:2|0:0,0:0:0:0:
134,78,35252,1,0,0:0:0:0:
226,174,35446,2,0,L|230:98,1,76,2|0,1:2|1:0,0:0:0:0:
231,17,35836,1,8,0:0:0:0:
152,278,36031,1,2,1:2:0:0:
152,278,36128,1,2,1:2:0:0:
152,278,36226,6,0,B|195:275|225:259|225:259|264:280|319:283,1,152,2|8,1:2|0:0,0:0:0:0:
394,298,36810,1,2,1:2:0:0:
404,264,36907,1,2,1:2:0:0:
396,234,37005,1,2,1:2:0:0:
366,383,37200,1,0,1:0:0:0:
397,138,37394,1,8,0:0:0:0:
397,138,37784,6,0,B|333:132|333:132|307:145|307:145|245:138,1,152,2|10,1:2|0:0,0:0:0:0:
135,167,38369,2,0,B|124:128|124:128|136:93,1,76,2|0,0:0|1:0,0:0:0:0:
240,136,38757,1,2,1:2:0:0:
193,247,38953,1,10,0:0:0:0:
234,20,39148,1,0,1:0:0:0:
234,20,39245,1,0,1:0:0:0:
234,20,39343,6,0,B|197:23|197:23|153:13,1,76,0|0,1:0|1:0,0:0:0:0:
37,75,39732,2,0,P|19:77|-14:84,1,38,8|0,0:0|0:0,0:0:0:0:
66,148,39927,2,0,B|66:120|73:83|73:83|64:64|64:64|73:31|72:-2,1,152,6|8,1:2|0:3,0:1:0:0:
53,232,40511,1,10,0:0:0:0:
78,223,40609,1,8,0:0:0:0:
105,228,40706,1,10,0:0:0:0:
127,245,40804,1,8,0:0:0:0:
140,270,40901,6,0,B|127:312|127:312|128:368,1,76,2|0,1:2|1:0,0:0:0:0:
133,383,41193,1,0,1:0:0:0:
133,383,41291,1,10,0:0:0:0:
246,311,41485,1,6,1:2:0:0:
246,311,41875,1,2,1:2:0:0:
170,180,42070,1,8,0:0:0:0:
163,286,42265,1,2,1:2:0:0:
239,102,42459,6,0,P|171:72|102:101,1,152,6|8,1:2|0:0,0:0:0:0:
60,188,43044,1,2,0:0:0:0:
114,52,43239,2,0,L|18:39,1,76,0|0,1:0|1:0,0:0:0:0:
243,167,43628,2,0,L|162:181,1,76,10|0,0:0|0:0,0:0:0:0:
397,44,44018,6,0,B|335:38|335:38|308:51|308:51|248:44,1,152,2|8,1:2|0:0,0:0:0:0:
195,142,44602,1,2,0:0:0:0:
360,195,44797,2,0,L|355:99,1,76,0|0,1:0|1:0,0:0:0:0:
471,290,45187,2,0,L|480:215,1,76,10|0,0:0|0:0,0:0:0:0:
268,372,45576,6,0,B|264:309|264:309|248:285|248:285|246:224,1,152,2|8,1:2|0:0,0:0:0:0:
156,304,46161,1,2,0:0:0:0:
198,143,46356,2,0,L|274:138,1,76,0|0,1:0|1:0,0:0:0:0:
78,198,46745,2,0,P|59:151|77:91,1,114,10|0,0:0|0:0,0:0:0:0:
106,59,47135,5,2,1:2:0:0:
106,59,47330,1,2,0:0:0:0:
219,208,47524,1,10,0:0:0:0:
297,64,47719,2,0,B|235:58|235:58|208:71|208:71|148:64,1,152,2|10,1:2|0:0,0:0:0:0:
219,208,48304,1,8,0:3:0:0:
337,69,48498,1,2,1:2:0:0:
337,69,48596,1,0,1:0:0:0:
337,69,48693,5,6,1:2:0:0:
147,4,48888,1,2,0:0:0:0:
337,69,49083,1,2,1:2:0:0:
337,69,49472,1,2,1:2:0:0:
337,69,49862,1,0,1:2:0:0:
337,69,50252,5,2,1:2:0:0:
298,232,50446,1,2,0:0:0:0:
337,69,50641,1,2,1:2:0:0:
337,69,51031,1,2,1:2:0:0:
337,69,51420,1,0,1:0:0:0:
389,185,51615,1,10,0:0:0:0:
481,107,51810,5,2,1:2:0:0:
462,275,52005,1,2,0:0:0:0:
481,107,52200,1,2,1:2:0:0:
481,107,52589,1,2,1:2:0:0:
481,107,52979,1,2,1:2:0:0:
481,107,53369,5,2,1:2:0:0:
308,132,53563,1,0,0:0:0:0:
481,107,53758,1,0,1:2:0:0:
481,107,54148,1,2,1:2:0:0:
387,224,54343,1,0,1:0:0:0:
387,224,54440,1,0,1:0:0:0:
387,224,54537,2,0,L|390:312,1,76,8|2,0:0|0:0,0:0:0:0:
450,132,54927,6,0,P|388:109|310:145,1,152,6|8,1:2|0:0,0:0:0:0:
215,177,55511,1,0,1:0:0:0:
215,177,55609,1,0,1:0:0:0:
215,177,55706,2,0,L|218:93,1,76,0|0,1:0|1:0,0:0:0:0:
220,15,56096,1,10,0:0:0:0:
119,130,56291,1,2,0:0:0:0:
340,210,56485,6,0,B|341:147|341:147|328:122|328:122|331:61,1,152,2|10,1:2|0:0,0:0:0:0:
239,158,57070,1,2,0:0:0:0:
482,140,57265,2,0,L|477:40,1,76,0|0,1:1|1:0,0:0:0:0:
368,246,57654,2,0,L|375:148,1,76,10|0,0:0|0:0,0:0:0:0:
348,355,58044,6,0,B|394:334|394:334|494:367,1,152,2|8,1:2|0:0,0:0:0:0:
264,266,58628,1,0,0:0:0:0:
241,382,58823,1,0,1:2:0:0:
119,201,59018,1,0,1:0:0:0:
131,335,59213,1,10,0:0:0:0:
218,180,59407,1,2,0:0:0:0:
8,262,59602,6,0,B|15:219|36:191|36:191|15:150|16:95,1,152,0|8,1:0|0:0,0:0:0:0:
133,200,60187,1,2,0:0:0:0:
91,47,60381,2,0,L|13:35,1,76,0|0,1:0|1:0,0:0:0:0:
209,189,60771,2,0,L|130:201,1,76,8|0,0:0|0:0,0:0:0:0:
342,79,61161,5,2,1:2:0:0:
201,0,61356,1,2,1:2:0:0:
201,0,61745,1,2,1:2:0:0:
201,0,62135,1,2,1:2:0:0:
213,127,62330,1,8,0:0:0:0:
330,64,62524,6,0,B|350:105|350:105|329:218,1,152,2|8,1:2|0:0,0:0:0:0:
449,174,63109,1,8,0:0:0:0:
449,174,63304,1,2,0:0:0:0:
435,325,63498,5,2,0:0:0:0:
431,309,63596,1,2,0:0:0:0:
426,291,63693,1,2,0:0:0:0:
392,271,63791,1,2,0:0:0:0:
368,281,63888,5,10,0:0:0:0:
340,311,63985,1,2,0:0:0:0:
281,301,64083,1,2,0:0:0:0:
249,366,64180,1,2,0:0:0:0:
170,336,64278,6,0,B|119:315|68:336|93:356|43:377|-7:356,1,180.49999518013,6|8,1:2|0:0,0:0:0:0:
0,160,64862,1,2,0:0:0:0:
23,280,65057,1,2,1:2:0:0:
158,144,65252,1,0,1:2:0:0:
132,300,65446,1,8,0:0:0:0:
72,79,65641,1,0,1:0:0:0:
72,79,65739,1,0,1:0:0:0:
72,78,65836,6,0,P|148:34|230:65,1,180.49999518013,2|8,1:2|0:0,0:0:0:0:
275,165,66420,1,2,0:0:0:0:
386,124,66615,2,0,L|375:224,1,90.2499975900651,2|0,1:2|1:0,0:0:0:0:
330,332,67005,2,0,B|281:315|281:315|222:331,1,106.875004076958,10|0,0:0|0:0,0:0:0:0:
183,337,67394,6,0,B|143:295|143:237|161:203|161:203|186:220|188:253,1,180.49999518013,2|8,1:2|0:0,0:0:0:0:
17,214,67979,1,2,0:0:0:0:
35,322,68174,1,2,1:2:0:0:
163,205,68369,1,0,1:2:0:0:
144,342,68563,1,8,0:0:0:0:
111,108,68758,1,0,1:0:0:0:
111,108,68856,1,0,1:0:0:0:
111,108,68953,6,0,B|155:91|155:91|204:99,1,90.2499975900651,2|0,1:2|0:0,0:0:0:0:
276,138,69343,1,8,0:0:0:0:
29,190,69537,2,0,P|-8:111|30:33,1,180.49999518013,2|2,1:2|1:2,0:0:0:0:
122,0,70122,1,10,0:0:0:0:
274,143,70317,1,2,1:2:0:0:
262,152,70414,1,0,1:2:0:0:
252,159,70511,6,0,L|254:68,1,90.2499975900651,6|0,1:2|0:0,0:0:0:0:
176,210,70901,1,8,0:0:0:0:
362,167,71096,2,0,L|360:257,1,90.2499975900651,2|0,0:0|1:0,0:0:0:0:
454,209,71485,1,2,1:2:0:0:
316,335,71680,2,0,P|272:323|230:338,1,90.2499975900651,10|0,0:0|1:0,0:0:0:0:
198,357,71972,1,0,1:0:0:0:
198,357,72070,6,0,L|102:355,1,90.2499975900651,2|0,1:2|0:0,0:0:0:0:
16,304,72459,1,8,0:0:0:0:
136,233,72654,1,2,0:0:0:0:
33,121,72849,2,0,L|26:217,1,90.2499975900651,0|2,1:0|1:2,0:0:0:0:
175,172,73239,2,0,B|172:116|172:116|184:94|184:94|180:40,1,135.374996385098,10|0,0:0|0:0,0:0:0:0:
177,11,73628,6,0,L|85:-8,1,90.2499975900651,2|0,1:2|0:0,0:0:0:0:
294,166,74018,2,0,L|202:184,1,90.2499975900651,14|0,0:0|0:0,0:0:0:0:
418,28,74407,2,0,L|327:7,1,90.2499975900651,2|0,1:2|1:0,0:0:0:0:
488,197,74797,2,0,L|397:217,1,90.2499975900651,14|0,0:0|0:0,0:0:0:0:
318,234,75187,5,6,1:2:0:0:
401,336,75381,1,10,0:0:0:0:
475,66,75576,5,10,0:0:0:0:
418,191,75771,1,0,1:0:0:0:
290,34,75966,5,2,1:2:0:0:
276,56,76063,1,2,1:2:0:0:
259,67,76161,1,2,1:2:0:0:
218,71,76258,1,2,1:2:0:0:
181,53,76356,5,10,0:0:0:0:
134,50,76453,1,10,0:0:0:0:
80,86,76550,1,10,0:0:0:0:
69,158,76648,1,10,0:0:0:0:
109,234,76745,6,0,B|157:211|207:228|184:248|239:268|281:248,1,180.49999518013,6|8,1:2|0:0,0:0:0:0:
244,333,77330,1,2,0:0:0:0:
373,172,77524,1,2,1:2:0:0:
387,279,77719,1,0,1:0:0:0:
261,128,77914,1,8,0:0:0:0:
301,347,78109,1,0,0:0:0:0:
456,146,78304,6,0,B|487:195|487:195|462:322,1,180.49999518013,2|8,1:2|0:0,0:0:0:0:
400,384,78888,1,2,0:0:0:0:
328,189,79083,2,0,L|331:286,1,90.2499975900651,2|0,1:2|1:0,0:0:0:0:
393,58,79472,2,0,B|344:75|344:75|285:59,1,106.875004076958,10|0,0:0|0:0,0:0:0:0:
248,51,79862,6,0,B|248:25|232:9|232:9|210:40|210:97|239:144,1,180.49999518013,2|8,1:2|0:0,0:0:0:0:
115,146,80446,1,2,0:0:0:0:
125,12,80641,1,2,1:2:0:0:
24,207,80836,1,0,1:2:0:0:
0,76,81031,1,8,0:0:0:0:
180,202,81226,1,0,1:0:0:0:
179,217,81323,1,0,1:0:0:0:
178,232,81420,6,0,L|172:354,1,90.2499975900651,2|0,1:2|1:0,0:0:0:0:
68,262,81810,1,8,0:0:0:0:
290,198,82005,2,0,P|324:271|280:361,1,180.49999518013,2|0,1:2|1:0,0:0:0:0:
162,384,82589,1,10,0:0:0:0:
45,230,82784,1,2,1:2:0:0:
45,230,82881,1,0,1:2:0:0:
45,230,82979,6,0,B|28:276|28:276|39:323,1,90.2499975900651,6|0,1:2|0:0,0:0:0:0:
182,271,83369,1,8,0:0:0:0:
125,136,83563,2,0,B|81:144|81:144|32:126,1,90.2499975900651,2|0,0:0|1:0,0:0:0:0:
184,260,83952,1,2,1:2:0:0:
265,59,84148,2,0,B|206:69|206:69|174:51|136:35,1,135.374996385098,10|0,0:0|0:0,0:0:0:0:
104,19,84537,1,2,1:2:0:0:
265,59,84732,5,0,0:0:0:0:
284,223,84927,1,8,0:0:0:0:
483,123,85122,2,0,P|402:88|326:130,1,180.49999518013,2|0,1:2|1:2,0:0:0:0:
334,215,85706,2,0,B|348:254|348:254|341:305,1,90.2499975900651,10|0,0:0|0:0,0:0:0:0:
115,160,86096,6,0,P|179:144|235:178,1,135.374996385098,2|0,1:2|0:0,0:0:0:0:
237,218,86485,2,0,B|223:257|223:257|230:308,1,90.2499975900651,8|0,0:0|0:0,0:0:0:0:
242,382,86875,1,2,1:2:0:0:
115,237,87070,1,0,1:2:0:0:
119,371,87265,1,8,0:0:0:0:
8,232,87459,1,0,0:0:0:0:
167,108,87654,6,0,L|73:97,1,90.2499975900651,2|2,1:2|1:2,0:0:0:0:
7,155,88044,1,10,0:0:0:0:
231,188,88239,2,0,P|274:112|232:36,1,180.49999518013,6|2,1:2|1:2,0:0:0:0:
139,9,88823,2,0,B|92:11|92:11|44:-2,1,90.2499975900651,14|0,0:0|0:0,0:0:0:0:
348,5,89213,6,0,B|356:52|356:52|342:99,2,90.2499975900651,6|0|8,1:2|0:0|0:0,0:0:0:0:
420,222,89797,2,0,P|344:180|267:220,1,180.49999518013,0|8,1:0|0:0,0:0:0:0:
366,316,90284,1,8,0:0:0:0:
366,316,90381,6,0,B|295:311|258:377|258:377|230:298|138:288|138:288|146:314|166:321,1,332.499989852906,4|2,1:2|0:2,0:0:0:0:
35,358,91453,1,0,0:0:0:0:
35,358,91550,6,0,B|40:328|56:296|56:296|41:268|33:229,1,132.999995941162,2|2,0:2|0:0,0:0:0:0:
56,89,92330,2,0,P|86:54|162:180,1,266,2|0,1:2|0:0,0:0:0:0:
141,214,93109,2,0,B|211:178|282:214|246:249|317:284|388:249,1,266,2|0,1:2|0:0,0:0:0:0:
456,200,93888,6,0,B|481:158|487:134|487:134|470:340,1,265.999991882324,2|2,1:2|0:0,0:0:0:0:
294,176,94862,1,10,0:0:0:0:
322,367,95057,5,2,0:0:0:0:
304,349,95154,1,2,0:0:0:0:
283,336,95251,1,2,0:0:0:0:
258,331,95349,1,2,0:0:0:0:
235,332,95446,6,0,B|281:311|327:332|304:351|350:371|397:351,1,170.999994781494,6|8,1:2|0:0,0:0:0:0:
490,194,96031,1,2,0:0:0:0:
457,314,96226,1,0,1:0:0:0:
368,166,96420,1,0,1:0:0:0:
333,281,96615,2,0,B|328:244|316:215|316:215|325:178|325:146,1,128.249996086121,8|0,0:0|0:0,0:0:0:0:
338,73,97005,6,0,B|268:67|268:67|238:81|238:81|170:73,1,170.999994781494,2|8,1:2|0:0,0:0:0:0:
189,193,97589,1,2,0:0:0:0:
77,117,97784,2,0,B|67:73|67:73|79:32,1,85.4999973907472,2|0,1:2|1:0,0:0:0:0:
173,84,98174,1,8,0:0:0:0:
0,175,98369,1,0,1:0:0:0:
0,175,98466,1,0,1:0:0:0:
0,175,98563,6,0,L|3:265,1,85.4999973907472,2|0,1:2|0:0,0:0:0:0:
73,359,98953,1,8,0:0:0:0:
263,243,99148,2,0,P|190:203|115:238,1,170.999994781494,2|0,0:0|1:0,0:0:0:0:
156,358,99732,2,0,L|256:365,1,85.4999973907472,8|0,0:0|0:0,0:0:0:0:
408,279,100122,5,2,1:2:0:0:
279,301,100317,1,2,1:2:0:0:
381,142,100511,1,10,0:0:0:0:
264,126,100706,2,0,B|233:173|233:173|258:290,1,170.999994781494,6|8,1:2|0:0,0:0:0:0:
339,83,101291,1,2,0:0:0:0:
338,73,101388,1,2,0:0:0:0:
338,64,101485,1,2,0:0:0:0:
338,54,101583,1,2,0:0:0:0:
337,45,101680,6,0,P|260:12|184:46,1,170.999994781494,6|8,1:2|0:0,0:0:0:0:
137,123,102265,1,2,0:0:0:0:
11,74,102459,2,0,L|15:161,1,85.4999973907472,0|2,1:0|1:2,0:0:0:0:
18,252,102849,1,10,0:0:0:0:
137,123,103044,1,2,0:0:0:0:
205,304,103239,6,0,B|275:304|275:304|303:320|303:320|372:319,1,170.999994781494,2|8,1:2|0:0,0:0:0:0:
447,140,103823,2,0,P|393:141|346:244,1,170.999994781494,0|0,1:0|1:0,0:0:0:0:
372,320,104407,1,8,0:0:0:0:
474,240,104602,1,2,0:0:0:0:
250,143,104797,6,0,B|215:187|215:187|233:307,1,170.999994781494,2|8,1:2|0:0,0:0:0:0:
245,384,105381,1,2,0:0:0:0:
91,200,105576,2,0,L|85:289,1,85.4999973907472,0|0,1:2|1:0,0:0:0:0:
77,368,105966,1,8,0:0:0:0:
170,127,106161,1,2,1:2:0:0:
170,127,106258,1,2,1:2:0:0:
170,127,106356,6,0,P|133:96|19:121,1,170.999994781494,2|8,1:2|0:0,0:0:0:0:
0,200,106940,1,0,1:0:0:0:
149,301,107135,2,0,B|143:257|143:257|154:208,1,85.4999973907472,2|0,0:0|1:0,0:0:0:0:
170,127,107524,1,8,0:0:0:0:
27,211,107719,1,0,1:0:0:0:
25,189,107817,1,0,1:0:0:0:
24,168,107914,6,0,L|17:71,1,85.4999973907472,6|0,1:2|0:0,0:0:0:0:
155,281,108304,2,0,L|162:195,1,85.4999973907472,10|0,0:0|0:0,0:0:0:0:
172,114,108693,1,10,0:0:0:0:
242,282,108888,5,0,1:0:0:0:
106,362,109083,1,8,0:0:0:0:
320,318,109278,6,0,B|329:278|329:278|315:225,1,85.4999973907472,2|8,1:2|0:0,0:0:0:0:
448,141,109667,2,0,L|443:231,1,85.4999973907472,2|8,1:2|0:0,0:0:0:0:
437,309,110057,1,0,1:0:0:0:
346,184,110252,1,8,0:0:0:0:
499,70,110446,5,2,1:2:0:0:
499,70,110544,1,2,0:0:0:0:
499,70,110641,1,10,0:0:0:0:
468,53,110739,1,2,0:0:0:0:
438,60,110836,1,2,1:2:0:0:
407,44,110934,1,2,0:0:0:0:
376,51,111031,6,0,L|276:34,1,85.4999973907472,10|0,0:0|0:0,0:0:0:0:
159,165,111420,2,0,L|259:148,1,85.4999973907472,10|0,0:0|1:0,0:0:0:0:
323,129,111810,1,10,0:0:0:0:
138,90,112005,5,0,1:0:0:0:
225,22,112200,1,8,0:0:0:0:
170,196,112394,1,2,1:2:0:0:
10,105,112589,5,12,0:0:0:0:
10,105,112784,1,10,0:0:0:0:
40,288,112979,1,8,0:0:0:0:
40,288,113174,1,10,0:0:0:0:
148,197,113369,1,8,0:0:0:0:
148,197,113563,5,10,0:0:0:0:
239,291,113758,1,10,0:0:0:0:
305,119,113953,1,10,0:0:0:0:
