osu file format v14

[General]
AudioFilename: audio.mp3
AudioLeadIn: 0
PreviewTime: 63206
Countdown: 0
SampleSet: Soft
StackLeniency: 0.7
Mode: 0
LetterboxInBreaks: 0
WidescreenStoryboard: 1

[Editor]
DistanceSpacing: 1
BeatDivisor: 4
GridSize: 32
TimelineZoom: 1.100001

[Metadata]
Title:Kite (Cut Ver.)
TitleUnicode:カイト (Cut Ver.)
Artist:ClariS
ArtistUnicode:ClariS
Creator:Syoko
Version:Easy
Source:
Tags:j-pop japanese pop border [-evil-] Krisom Cayssa cut short ver
BeatmapID:2535101
BeatmapSetID:1212689

[Difficulty]
HPDrainRate:2
CircleSize:3
OverallDifficulty:2
ApproachRate:3
SliderMultiplier:0.899999999999999
SliderTickRate:1

[Events]
//Background and Video events
0,0,"ego rock.jpg",0,0
//Break Periods
//Storyboard Layer 0 (Background)
//Storyboard Layer 1 (Fail)
//Storyboard Layer 2 (Pass)
//Storyboard Layer 3 (Foreground)
//Storyboard Layer 4 (Overlay)
//Storyboard Sound Samples

[TimingPoints]
382,389.610389610389,4,2,1,33,1,0
5057,-100,4,2,1,62,0,0
6615,-100,4,2,1,50,0,0
6907,-100,4,2,1,5,0,0
7005,-100,4,2,1,50,0,0
12849,-100,4,2,1,65,0,0
19083,-100,4,2,1,37,0,0
19472,-100,4,2,1,37,0,0
19667,-100,4,2,1,37,0,0
25219,-100,4,2,1,5,0,0
25317,-100,4,2,1,37,0,0
28726,-100,4,2,1,5,0,0
28823,-100,4,2,1,37,0,0
31550,-100,4,2,1,44,0,0
39148,-100,4,2,1,55,0,0
39343,-100,4,2,1,55,0,0
39537,-100,4,2,1,55,0,0
39830,-100,4,2,1,5,0,0
39927,-100,4,2,1,68,0,0
40317,-100,4,2,1,68,0,0
40511,-100,4,2,1,68,0,0
42459,-100,4,2,1,45,0,0
47037,-100,4,2,1,5,0,0
47135,-100,4,2,1,45,0,0
48693,-100,4,2,1,55,0,0
48888,-100,4,2,1,55,0,0
49083,-100,4,2,1,55,0,0
54927,-100,4,2,1,55,0,0
64278,-100,4,2,1,75,0,1
67297,-100,4,2,1,5,0,1
67394,-100,4,2,1,75,0,1
73531,-100,4,2,1,5,0,1
73628,-100,4,2,1,75,0,1
79765,-100,4,2,1,5,0,1
79862,-100,4,2,1,75,0,1
84440,-100,4,2,1,5,0,1
84537,-100,4,2,1,75,0,1
86388,-100,4,2,1,5,0,1
86485,-100,4,2,1,75,0,1
92330,-100,4,2,1,75,0,0
93011,-100,4,2,1,5,0,0
93109,-100,4,2,1,75,0,0
93790,-100,4,2,1,5,0,0
93888,-100,4,2,1,75,0,0
94667,-100,4,2,1,45,0,0
94862,-100,4,2,1,60,0,0
95446,-100,4,2,1,75,0,0
96907,-100,4,2,1,5,0,0
97005,-100,4,2,1,75,0,0
112784,-100,4,2,1,35,0,0
112979,-100,4,2,1,35,0,0
113174,-100,4,2,1,45,0,0
113369,-100,4,2,1,45,0,0
113563,-100,4,2,1,55,0,0
113758,-100,4,2,1,55,0,0

[Colours]
Combo1 : 126,150,132
Combo2 : 156,178,201
Combo3 : 116,142,199
Combo4 : 231,210,204

[HitObjects]
12,85,382,6,0,P|132:143|248:84,1,270
313,26,1940,2,0,P|366:5|366:156,1,270
302,181,3498,2,0,B|271:168|229:172|203:201|200:249|200:249|163:262|135:279|135:279|95:266|52:259,1,270
25,197,5057,2,0,B|30:164|43:133|43:133|37:92|39:60,2,135,10|10|14,0:0|0:0|0:0,0:0:0:0:
49,283,6615,6,0,B|82:286|120:299|120:299|154:289|186:289,1,135,6|2,1:2|0:0,0:0:0:0:
315,274,7784,1,10,0:0:0:0:
387,220,8174,2,0,B|390:186|401:155|401:155|393:114|393:82,2,135,2|2|10,1:2|0:0|0:0,0:0:0:0:
358,305,9732,6,0,B|297:292|297:292|224:305,2,135,2|2|8,1:2|0:0|0:0,0:0:0:0:
446,323,11291,1,6,1:2:0:0:
404,147,12070,2,0,L|398:55,1,89.9999999999999,2|8,1:2|0:3,0:0:0:0:
311,34,12849,5,2,1:2:0:0:
231,81,13239,1,10,0:0:0:0:
151,39,13628,1,10,0:0:0:0:
27,94,14213,2,0,L|14:-3,2,89.9999999999999,2|2|2,1:2|1:2|1:2,0:0:0:0:
103,305,15966,5,10,0:0:0:0:
183,345,16356,1,10,0:0:0:0:
267,314,16745,1,10,0:0:0:0:
392,264,17330,2,0,L|392:363,2,89.9999999999999,2|2|10,1:2|1:2|0:0,0:0:0:0:
391,131,18693,1,8,0:0:0:0:
326,66,19083,6,0,P|261:83|197:63,1,135,6|2,1:2|0:0,0:0:0:0:
76,4,20252,1,2,1:2:0:0:
22,76,20641,2,0,L|30:177,1,89.9999999999999,2|0,1:2|1:0,0:0:0:0:
116,185,21420,2,0,L|124:286,1,89.9999999999999,2|2,1:2|1:2,0:0:0:0:
193,331,22200,6,0,B|242:306|291:331|266:355|315:380|365:355,1,180,2|2,1:2|1:2,0:0:0:0:
435,310,23369,1,0,1:2:0:0:
474,229,23758,2,0,B|498:179|474:130|449:155|424:106|449:56,1,180,2|2,1:2|1:2,0:0:0:0:
269,27,25317,6,0,B|240:24|204:33|204:33|168:19|131:17,1,135,2|2,1:2|0:0,0:0:0:0:
5,48,26485,1,2,1:2:0:0:
42,135,26875,2,0,L|51:260,1,89.9999999999999,0|0,1:0|1:0,0:0:0:0:
131,258,27654,2,0,L|140:383,1,89.9999999999999,2|2,1:2|1:2,0:0:0:0:
223,374,28433,6,0,P|264:297|350:286,1,180,2|2,1:2|1:2,0:0:0:0:
437,309,29602,1,2,1:2:0:0:
501,245,29992,1,4,1:2:0:0:
436,76,30771,2,0,B|392:75|392:75|341:63,1,89.9999999999999,2|10,0:0|0:0,0:0:0:0:
263,99,31550,6,0,P|215:122|134:95,1,135,6|2,1:2|0:0,0:0:0:0:
10,141,32719,1,10,0:0:0:0:
24,229,33109,2,0,L|114:269,1,89.9999999999999,0|8,1:0|0:0,0:0:0:0:
191,236,33888,2,0,L|281:276,1,89.9999999999999,2|10,1:2|0:0,0:0:0:0:
350,315,34667,6,0,P|395:308|439:315,2,89.9999999999999,2|8|2,1:2|0:0|1:2,0:0:0:0:
276,366,35836,1,8,0:0:0:0:
185,366,36226,2,0,L|81:360,1,89.9999999999999,2|8,1:2|0:0,0:0:0:0:
27,301,37005,1,2,1:2:0:0:
47,213,37394,1,8,0:0:0:0:
76,127,37784,6,0,B|108:122|143:106|143:106|179:119|213:125,2,135,2|2|10,1:2|0:0|0:0,0:0:0:0:
10,65,39343,1,2,1:2:0:0:
134,13,39927,1,6,1:2:0:0:
262,53,40511,1,10,0:0:0:0:
348,76,40901,6,0,L|337:217,1,135,2|6,1:2|1:2,0:0:0:0:
325,345,42070,1,10,0:0:0:0:
235,345,42459,2,0,P|174:363|99:341,2,135,6|2|10,1:2|0:0|0:0,0:0:0:0:
301,283,44018,6,0,P|362:265|437:287,2,135,2|2|10,1:2|0:0|0:0,0:0:0:0:
227,230,45576,2,0,P|161:223|76:218,1,135,2|2,1:2|0:0,0:0:0:0:
17,106,46745,1,10,0:0:0:0:
76,38,47135,6,0,B|111:41|144:60|144:60|179:44|212:42,2,135,2|2|8,1:2|1:2|0:3,0:0:0:0:
13,102,48693,1,6,1:2:0:0:
27,190,49083,1,2,1:2:0:0:
38,279,49472,1,2,1:2:0:0:
88,106,50252,6,0,L|-1:119,2,89.9999999999999,2|2|2,1:2|1:2|1:2,0:0:0:0:
173,132,51420,1,0,1:0:0:0:
258,159,51810,2,0,L|346:145,1,89.9999999999999,2|2,1:2|1:2,0:0:0:0:
395,220,52589,2,0,L|483:206,1,89.9999999999999,2|2,1:2|1:2,0:0:0:0:
511,120,53369,5,2,1:2:0:0:
355,29,54148,1,2,1:2:0:0:
270,59,54537,1,8,0:0:0:0:
187,93,54927,2,0,P|116:144|114:231,1,180,6|0,1:2|1:0,0:0:0:0:
145,314,56096,1,10,0:0:0:0:
227,355,56485,6,0,L|336:347,1,89.9999999999999,2|10,1:2|0:0,0:0:0:0:
346,262,57265,2,0,L|457:253,1,89.9999999999999,0|10,1:1|0:0,0:0:0:0:
491,183,58044,2,0,P|426:73|299:88,1,270,2|10,1:2|0:0,0:0:0:0:
241,156,59602,5,2,1:2:0:0:
107,134,60187,1,2,0:0:0:0:
32,246,60771,1,10,0:0:0:0:
94,311,61161,2,0,B|159:292|159:292|225:316,1,135,2|2,1:2|1:2,0:0:0:0:
309,337,62135,1,2,1:2:0:0:
391,302,62524,2,0,L|400:159,1,135,2|8,1:2|0:0,0:0:0:0:
398,77,63498,1,2,0:0:0:0:
326,21,63888,1,10,0:0:0:0:
246,63,64278,6,0,B|198:39|150:63|174:86|126:110|78:86,1,180,6|2,1:2|1:2,0:0:0:0:
19,154,65446,1,8,0:0:0:0:
59,234,65836,2,0,L|166:247,1,89.9999999999999,2|8,1:2|0:0,0:0:0:0:
164,333,66615,2,0,L|271:346,1,89.9999999999999,2|10,1:2|0:0,0:0:0:0:
328,293,67394,6,0,P|359:213|444:205,1,180,2|2,1:2|1:2,0:0:0:0:
473,119,68563,1,8,0:0:0:0:
416,49,68953,1,2,1:2:0:0:
288,93,69537,1,2,1:2:0:0:
159,134,70122,1,10,0:0:0:0:
73,161,70511,6,0,P|37:104|40:37,2,135,6|2|10,1:2|0:0|0:0,0:0:0:0:
153,201,72070,2,0,B|158:237|170:271|170:271|156:305|151:337,1,135,2|2,1:2|0:0,0:0:0:0:
278,378,73239,1,10,0:0:0:0:
336,306,73628,6,0,L|315:212,1,89.9999999999999,2|14,1:2|0:0,0:0:0:0:
398,180,74407,2,0,L|377:86,1,89.9999999999999,2|14,1:2|0:0,0:0:0:0:
311,31,75187,2,0,B|269:41|234:73|234:73|190:56|139:52,1,180,6|2,1:2|1:2,0:0:0:0:
57,32,76356,1,10,0:0:0:0:
42,120,76745,6,0,P|63:170|180:182,1,180,6|2,1:2|1:2,0:0:0:0:
259,151,77914,1,8,0:0:0:0:
329,94,78304,2,0,L|423:104,1,89.9999999999999,2|8,1:2|0:0,0:0:0:0:
492,155,79083,2,0,B|480:202|480:202|489:245,1,89.9999999999999,2|10,1:2|0:0,0:0:0:0:
445,322,79862,6,0,P|359:300|283:343,1,180,2|2,1:2|1:2,0:0:0:0:
194,356,81031,1,8,0:0:0:0:
121,303,81420,2,0,L|113:166,1,135,2|2,1:2|1:2,0:0:0:0:
104,33,82589,1,10,0:0:0:0:
192,14,82979,5,6,1:2:0:0:
318,59,83563,1,2,0:0:0:0:
445,103,84148,1,10,0:0:0:0:
436,191,84537,2,0,B|410:253|410:253|419:328,2,135,2|2|10,1:2|1:2|0:0,0:0:0:0:
376,123,86096,6,0,L|272:118,1,89.9999999999999,2|8,1:2|0:0,0:0:0:0:
248,200,86875,2,0,L|144:195,1,89.9999999999999,2|8,1:2|0:0,0:0:0:0:
68,191,87654,1,2,1:2:0:0:
82,321,88239,1,6,1:2:0:0:
209,366,88823,1,14,0:0:0:0:
294,341,89213,6,0,P|365:321|431:346,2,135,6|2|6,1:2|1:2|1:2,0:0:0:0:
382,85,91550,1,2,0:2:0:0:
222,168,92330,6,0,P|163:192|69:125,2,180,2|2|2,1:2|1:2|1:2,0:0:0:0:
455,160,95446,6,0,B|482:113|482:113|467:21,2,135,6|2|10,1:2|0:0|0:0,0:0:0:0:
397,229,97005,2,0,B|370:276|370:276|385:368,2,135,2|2|10,1:2|0:0|0:0,0:0:0:0:
440,149,98563,6,0,L|297:121,1,135,2|2,1:2|0:0,0:0:0:0:
174,97,99732,1,10,0:0:0:0:
92,134,100122,2,0,P|62:192|79:256,2,135,2|6|2,1:2|1:2|0:0,0:0:0:0:
171,91,101680,6,0,L|272:98,1,89.9999999999999,6|8,1:2|0:0,0:0:0:0:
322,29,102459,2,0,L|423:36,1,89.9999999999999,0|10,1:0|0:0,0:0:0:0:
501,41,103239,1,2,1:2:0:0:
482,174,103823,1,2,1:2:0:0:
468,308,104407,1,8,0:0:0:0:
388,265,104797,6,0,B|356:263|321:252|321:252|285:266|251:264,1,135,2|2,1:2|0:0,0:0:0:0:
128,308,105966,1,8,0:0:0:0:
58,250,106356,2,0,L|62:148,1,89.9999999999999,2|8,1:2|0:0,0:0:0:0:
132,105,107135,2,0,L|136:3,1,89.9999999999999,2|8,0:0|0:0,0:0:0:0:
225,13,107914,5,6,1:2:0:0:
299,62,108304,1,10,0:0:0:0:
377,19,108693,1,10,0:0:0:0:
467,119,109278,2,0,L|460:222,2,89.9999999999999,2|2|2,1:2|1:2|1:2,0:0:0:0:
330,297,111031,5,10,0:0:0:0:
256,248,111421,1,10,0:0:0:0:
178,291,111810,1,10,0:0:0:0:
256,192,112394,12,10,113953,0:0:0:0:
