osu file format v14

[General]
AudioFilename: audio.mp3
AudioLeadIn: 0
PreviewTime: 65651
Countdown: 0
SampleSet: Normal
StackLeniency: 0.4
Mode: 0
LetterboxInBreaks: 0
WidescreenStoryboard: 0

[Editor]
Bookmarks: 66003,125709,128618,134345,135799,136527,137254,140163,151799,175092,192547,194743,198016,201281,202016,213639,222366,263173,274725,334719
DistanceSpacing: 1
BeatDivisor: 4
GridSize: 32
TimelineZoom: 3.599998

[Metadata]
Title:Kimi no shiranai monogatari
TitleUnicode:Kimi no shiranai monogatari
Artist:ClariS
ArtistUnicode:ClariS
Creator:moneybags
Version:axsdd
Source:
Tags:
BeatmapID:1723179
BeatmapSetID:822179

[Difficulty]
HPDrainRate:4
CircleSize:4
OverallDifficulty:9
ApproachRate:9
SliderMultiplier:1.8
SliderTickRate:1

[Events]
//Background and Video events
0,0,"20016.jpg",0,0
//Break Periods
//Storyboard Layer 0 (Background)
//Storyboard Layer 1 (Fail)
//Storyboard Layer 2 (Pass)
//Storyboard Layer 3 (Foreground)
//Storyboard Sound Samples

[TimingPoints]
563,363.636363636364,4,1,0,50,1,0
563,-117.647058823529,4,1,0,50,0,0
3276,363.636363636364,4,1,0,50,1,0
3276,-117.647058823529,4,1,0,50,0,0
6366,363.636363636364,4,1,0,50,1,0
6366,-117.647058823529,4,1,0,50,0,0
12197,363.636363636364,4,1,0,50,1,0
12197,-100,4,1,0,50,0,0
13277,363.636363636364,4,1,0,50,1,0
14357,363.636363636364,4,1,0,50,1,0
16797,363.636363636364,4,1,0,50,1,0
16874,363.636363636364,4,1,0,50,1,0
17612,363.636363636364,4,1,0,50,1,0
20890,363.636363636364,4,1,0,50,1,0
22740,363.636363636364,4,1,0,50,1,0
25275,363.636363636364,4,1,0,50,1,0
29638,-100,4,1,0,50,0,0
30897,363.636363636364,4,1,0,50,1,0
31634,363.636363636364,4,1,0,50,1,0
40904,363.636363636364,4,1,0,50,1,0
41275,363.636363636364,4,1,0,50,1,0
45100,363.636363636364,4,1,0,50,1,0
45269,363.636363636364,4,1,0,50,1,0
45458,363.636363636364,4,1,0,50,1,0
67464,363.636363636364,4,1,0,50,1,0
67476,363.636363636364,4,1,0,50,1,0
67476,-100,4,1,0,50,0,1
68018,363.636363636364,4,1,0,50,1,0
68541,363.636363636364,4,1,0,50,1,1
68921,363.636363636364,4,1,0,50,1,1
69277,363.636363636364,4,1,0,50,1,1
69804,363.636363636364,4,1,0,50,1,1
71266,363.636363636364,4,1,0,50,1,1
71450,363.636363636364,4,1,0,50,1,1
84383,363.636363636364,4,1,0,50,1,1
84551,363.636363636364,4,1,0,50,1,1
84725,363.636363636364,4,1,0,50,1,1
84906,-117.647058823529,4,1,0,50,0,1
86377,363.636363636364,4,1,0,50,1,1
86377,-117.647058823529,4,1,0,50,0,1
89273,363.636363636364,4,1,0,50,1,1
89273,-117.647058823529,4,1,0,50,0,1
90193,363.636363636364,4,1,0,50,1,1
90193,-117.647058823529,4,1,0,50,0,1
93636,-100,4,1,0,50,0,1
96545,-100,4,1,0,50,0,1
102363,-105.263157894737,4,1,0,50,0,0
105265,363.636363636364,4,1,0,50,1,0
106543,363.636363636364,4,1,0,50,1,0
106709,363.636363636364,4,1,0,50,1,0
113113,363.636363636364,4,1,0,50,1,0
113489,363.636363636364,4,1,0,50,1,0
113997,363.636363636364,4,1,0,50,1,0
114370,363.636363636364,4,1,0,50,1,0
116363,363.636363636364,4,1,0,50,1,0
133792,363.636363636364,4,1,0,50,1,0
134358,363.636363636364,4,1,0,50,1,0
134358,-133.333333333333,4,1,0,50,0,0
135812,-125,4,1,0,50,0,0
140163,-90.9090909090909,4,1,0,50,0,1
140163,-90.9090909090909,4,1,0,50,0,1
146547,363.636363636364,4,1,0,50,1,1
151819,-125,4,1,0,50,0,1
157637,-125,4,1,0,50,0,0
163456,-125,4,1,0,50,0,1
172173,-100,4,1,0,50,0,1
175080,363.636363636364,4,1,0,50,1,1
175446,363.636363636364,4,1,0,50,1,1
175446,-100,4,1,0,50,0,0
176182,363.636363636364,4,1,0,50,1,0
177599,363.636363636364,4,1,0,50,1,0
177840,363.636363636364,4,1,0,50,1,0
183827,363.636363636364,4,1,0,50,1,0
185468,363.636363636364,4,1,0,50,1,0
188370,363.636363636364,4,1,0,50,1,0
190016,-100,4,1,0,50,0,0
192551,-100,4,1,0,50,0,1
194746,363.636363636364,4,1,0,50,1,1
195095,363.636363636364,4,1,0,50,1,1
195468,363.636363636364,4,1,0,50,1,1
195643,363.636363636364,4,1,0,50,1,1
195818,363.636363636364,4,1,0,50,1,1
197984,363.636363636364,4,1,0,50,1,1
198353,363.636363636364,4,1,0,50,1,1
201276,363.636363636364,4,1,0,50,1,1
202003,-100,4,1,0,50,0,0
213644,363.636363636364,4,1,0,50,1,0
215106,363.636363636364,4,1,0,50,1,0
216551,363.636363636364,4,1,0,50,1,0
219460,-86.9565217391304,4,1,0,50,0,1
224540,363.636363636364,4,1,0,50,1,1
224896,363.636363636364,4,1,0,50,1,1
227794,363.636363636364,4,1,0,50,1,1
227983,363.636363636364,4,1,0,50,1,1
228175,363.636363636364,4,1,0,50,1,1
228175,-142.857142857143,4,1,0,30,0,0
229458,363.636363636364,4,1,0,30,1,0
229458,-142.857142857143,4,1,0,30,0,0
235281,363.636363636364,4,1,0,30,1,0
235281,-142.857142857143,4,1,0,30,0,0
241446,363.636363636364,4,1,0,30,1,0
241446,-142.857142857143,4,1,0,30,0,0
243987,363.636363636364,4,1,0,30,1,0
243987,-142.857142857143,4,1,0,30,0,0
245083,363.636363636364,4,1,0,30,1,0
245083,-142.857142857143,4,1,0,30,0,0
245650,363.636363636364,4,1,0,30,1,0
245650,-142.857142857143,4,1,0,30,0,0
249824,363.636363636364,4,1,0,30,1,0
249824,-142.857142857143,4,1,0,30,0,0
251446,363.636363636364,4,1,0,30,1,0
251446,-117.647058823529,4,1,0,40,0,0
257627,-117.647058823529,4,1,0,40,0,1
261816,363.636363636364,4,1,0,30,1,1
261816,-117.647058823529,4,1,0,40,0,1
263452,-117.647058823529,4,1,0,40,0,0
274725,363.636363636364,4,1,0,30,1,0
274725,-117.647058823529,4,1,0,40,0,0
286367,363.636363636364,4,1,0,30,1,0
286367,-100,4,1,0,30,0,1
292190,363.636363636364,4,1,0,30,1,1
298232,363.636363636364,4,1,0,50,1,1
298362,363.636363636364,4,1,0,50,1,1
298362,-100,4,1,0,50,0,0
300915,363.636363636364,4,1,0,50,1,0
300915,-86.9565217391304,4,1,0,50,0,1
303824,-100,4,1,0,50,0,0
304539,363.636363636364,4,1,0,50,1,0
304539,-100,4,1,0,50,0,0
305448,363.636363636364,4,1,0,50,1,0
305448,-100,4,1,0,50,0,0
306734,363.636363636364,4,1,0,50,1,0
306734,-100,4,1,0,50,0,0
308915,-86.9565217391304,4,1,0,50,0,0
309643,-86.9565217391304,4,1,0,50,0,1
315466,363.636363636364,4,1,0,50,1,0
315466,-95.2380952380952,4,1,0,50,0,0
322356,363.636363636364,4,1,0,50,1,0
324174,-100,4,1,0,50,0,1
327810,-222.222222222222,4,1,0,50,0,0

[HitObjects]
117,269,563,6,0,P|148:282|212:284,2,76.5000014591217,0|0|0,3:0|3:0|3:0,3:0:0:0:
92,119,1108,2,0,P|113:185|112:300,1,153.000002918243,0|0,3:0|3:0,3:0:0:0:
223,163,1653,2,0,P|229:194|223:257,1,76.5000014591217,0|0,3:0|3:0,3:0:0:0:
256,370,2017,2,0,P|218:365|175:333,2,76.5000014591217,0|0|0,3:0|3:0|3:0,3:0:0:0:
353,309,2563,2,0,P|378:226|366:138,1,153.000002918243,0|0,3:0|3:0,3:0:0:0:
317,75,3290,6,0,P|365:75|413:59,2,76.5000014591217,0|0|0,3:0|3:0|3:0,3:0:0:0:
208,32,3821,2,0,P|176:32|112:48,1,76.5000014591217,0|0,3:0|3:0,3:0:0:0:
48,160,4185,2,0,P|128:176|224:144,1,153.000002918243,0|0,3:0|3:0,3:0:0:0:
240,219,4730,2,0,P|208:187|192:139,1,76.5000014591217,0|0,3:0|3:0,3:0:0:0:
368,160,5094,2,0,P|384:192|400:256,1,76.5000014591217,0|0,3:0|3:0,3:0:0:0:
304,320,5457,2,0,L|128:336,1,153.000002918243,0|0,3:0|3:0,3:0:0:0:
144,48,6366,6,0,P|192:112|160:48,1,229.500004377365,0|0,3:0|3:0,3:0:0:0:
320,160,7093,6,0,B|338:23|338:23|384:112,1,229.500004377365,0|0,3:0|3:0,3:0:0:0:
448,256,7820,6,0,B|336:288|336:208|224:256,1,229.500004377365,0|0,3:0|3:0,3:0:0:0:
48,320,8547,6,0,P|176:352|288:320,1,229.500004377365,0|0,3:0|3:0,3:0:0:0:
352,160,9275,6,0,P|320:192|256:208,1,76.5000014591217,0|0,3:0|3:0,3:0:0:0:
144,224,9638,1,0,3:0:0:0:
160,48,9820,1,0,3:0:0:0:
272,128,10002,5,0,3:0:0:0:
48,176,10184,1,0,3:0:0:0:
304,192,10366,5,0,3:0:0:0:
80,96,10547,1,0,3:0:0:0:
272,288,10729,5,0,3:0:0:0:
304,32,10911,1,0,3:0:0:0:
160,160,11093,5,0,3:0:0:0:
400,144,11275,1,0,3:0:0:0:
176,64,11456,5,0,3:0:0:0:
384,304,11638,5,0,3:0:0:0:
288,112,11820,1,0,3:0:0:0:
237,122,11911,1,0,3:0:0:0:
187,132,12002,1,0,3:0:0:0:
137,142,12093,1,0,3:0:0:0:
90,158,12197,6,0,B|131:227|73:243|146:342,1,180,0|0,3:0|3:0,3:0:0:0:
23,217,12742,1,0,3:0:0:0:
203,266,12924,2,0,P|256:274|326:267,1,90,0|0,3:0|3:0,3:0:0:0:
416,144,13277,2,0,P|371:136|288:144,1,90,0|0,3:0|3:0,3:0:0:0:
188,94,13640,2,0,P|172:158|220:286,1,180,0|0,3:0|3:0,3:0:0:0:
288,320,14186,1,0,3:0:0:0:
304,112,14357,6,0,L|320:224,1,90,0|0,3:0|3:0,3:0:0:0:
432,32,14720,2,0,L|416:128,1,90,0|0,3:0|3:0,3:0:0:0:
124,97,15084,2,0,L|316:113,1,180,0|0,3:0|3:0,3:0:0:0:
418,121,15629,1,0,3:0:0:0:
304,256,15811,2,0,P|288:208|288:160,1,90,0|0,3:0|3:0,3:0:0:0:
448,240,16175,2,0,P|464:288|448:352,1,90,0|0,3:0|3:0,3:0:0:0:
376,294,16538,1,0,3:0:0:0:
218,343,16797,1,0,3:0:0:0:
218,343,16874,2,0,P|192:344|153:337,1,45,0|0,3:0|3:0,3:0:0:0:
95,317,17055,5,0,3:0:0:0:
29,249,17237,2,0,L|21:195,2,45,0|0|0,3:0|3:0|3:0,3:0:0:0:
112,272,17601,5,0,3:0:0:0:
114,227,17702,1,0,3:0:0:0:
110,182,17793,1,0,3:0:0:0:
99,138,17884,1,0,3:0:0:0:
81,97,17975,2,0,P|165:113|272:101,1,180,0|0,3:0|3:0,3:0:0:0:
383,168,18521,2,0,L|400:272,2,90,0|0|0,3:0|3:0|3:0,3:0:0:0:
361,52,19066,1,0,3:0:0:0:
283,192,19248,5,0,3:0:0:0:
283,192,19339,1,0,3:0:0:0:
283,192,19430,2,0,P|247:216|168:224,1,90,0|0,3:0|3:0,3:0:0:0:
65,152,19793,2,0,P|112:157|159:179,1,90,0|0,3:0|3:0,3:0:0:0:
125,332,20157,2,0,P|118:274|130:234,1,90,0|0,3:0|3:0,3:0:0:0:
196,290,20430,5,0,3:0:0:0:
240,290,20521,1,0,3:0:0:0:
285,291,20612,1,0,3:0:0:0:
330,292,20702,1,0,3:0:0:0:
375,292,20793,1,0,3:0:0:0:
421,292,20884,2,0,L|441:162,1,90,0|0,3:0|3:0,3:0:0:0:
439,170,21162,1,0,3:0:0:0:
443,132,21253,1,0,3:0:0:0:
257,192,21435,6,0,B|351:170|348:231|472:193,1,180,0|0,3:0|3:0,3:0:0:0:
316,109,21980,1,0,3:0:0:0:
206,110,22162,2,0,B|119:127|122:57|-8:107,1,180,0|0,3:0|3:0,3:0:0:0:
185,27,22708,1,0,3:0:0:0:
84,179,22921,2,0,P|75:253|105:365,1,180,0|0,3:0|3:0,3:0:0:0:
280,198,23830,6,0,L|293:17,1,180,0|0,3:0|3:0,3:0:0:0:
429,144,24376,1,0,3:0:0:0:
360,64,24558,1,0,3:0:0:0:
345,228,24740,1,0,3:0:0:0:
462,225,24921,1,0,3:0:0:0:
354,144,25103,1,0,3:0:0:0:
270,320,25285,6,0,P|310:346|385:333,1,90,0|0,3:0|3:0,3:0:0:0:
452,345,25638,1,0,3:0:0:0:
334,222,25820,2,0,P|297:200|234:190,1,90,0|0,3:0|3:0,3:0:0:0:
149,224,26184,1,0,3:0:0:0:
158,332,26365,2,0,P|220:282|249:159,1,180,0|0,3:0|3:0,3:0:0:0:
236,38,26911,5,0,3:0:0:0:
130,135,27093,1,0,3:0:0:0:
273,129,27275,1,0,3:0:0:0:
86,61,27456,1,0,3:0:0:0:
346,40,27638,1,0,3:0:0:0:
374,276,27820,6,0,P|403:208|401:155,1,90,0|0,3:0|3:0,3:0:0:0:
428,58,28365,5,0,3:0:0:0:
299,245,28547,1,0,3:0:0:0:
231,41,28729,5,0,3:0:0:0:
218,337,28911,1,0,3:0:0:0:
296,106,29093,5,0,3:0:0:0:
107,340,29275,1,0,3:0:0:0:
44,74,29456,1,0,3:0:0:0:
288,187,29638,6,0,P|287:236|315:285,1,90,0|0,3:0|3:0,3:0:0:0:
447,254,30002,2,0,P|406:229|352:220,1,90,0|0,3:0|3:0,3:0:0:0:
260,338,30365,2,0,P|347:294|361:203,1,180,0|0,3:0|3:0,3:0:0:0:
348,60,30897,1,0,3:0:0:0:
269,161,31078,2,0,B|298:256|234:256|264:355,1,180,0|0,3:0|3:0,3:0:0:0:
93,338,31624,2,0,P|132:291|179:261,1,90,0|0,3:0|3:0,3:0:0:0:
261,256,31997,2,0,L|110:237,1,135,0|0,3:0|3:0,3:0:0:0:
83,232,32361,1,0,3:0:0:0:
168,110,32543,6,0,P|191:156|195:206,1,90,0|0,3:0|3:0,3:0:0:0:
45,168,32906,2,0,P|26:116|41:32,1,135,0|0,3:0|3:0,3:0:0:0:
193,83,33270,2,0,P|128:85|79:69,1,90,0|0,3:0|3:0,3:0:0:0:
37,38,33634,1,0,3:0:0:0:
281,50,33815,2,0,P|291:149|248:261,1,180,0|0,3:0|3:0,3:0:0:0:
216,302,34361,1,0,3:0:0:0:
189,181,34543,6,0,P|282:187|374:163,1,180,0|0,3:0|3:0,3:0:0:0:
453,136,35088,2,0,L|338:119,1,90,0|0,3:0|3:0,3:0:0:0:
118,69,35452,6,0,P|130:173|167:83,1,270,0|0,3:0|3:0,3:0:0:0:
272,36,36179,6,0,B|302:116|263:224|263:224|298:189|345:169,1,270,0|0,3:0|3:0,3:0:0:0:
455,112,36906,6,0,P|376:232|241:208,1,270,0|0,3:0|3:0,3:0:0:0:
225,127,37634,6,0,P|294:174|460:99,1,270,0|0,3:0|3:0,3:0:0:0:
225,58,38361,6,0,B|200:145|263:140|218:258,1,180,0|0,3:0|3:0,3:0:0:0:
186,337,39088,1,0,3:0:0:0:
63,211,39270,2,0,P|111:207|156:192,1,90,0|0,3:0|3:0,3:0:0:0:
137,17,39634,2,0,P|129:99|156:207,1,180,0|0,3:0|3:0,3:0:0:0:
286,259,40179,6,0,P|261:204|235:168,1,90,0|0,3:0|3:0,3:0:0:0:
433,209,40543,2,0,P|393:205|340:177,1,90,0|0,3:0|3:0,3:0:0:0:
490,117,40904,1,0,3:0:0:0:
299,76,41267,6,0,P|301:116|286:179,1,90,0|0,3:0|3:0,3:0:0:0:
215,255,41638,1,0,3:0:0:0:
94,146,41820,2,0,L|267:121,1,135,0|0,3:0|3:0,3:0:0:0:
261,123,42184,1,0,3:0:0:0:
121,46,42365,2,0,P|150:90|189:105,1,90,0|0,3:0|3:0,3:0:0:0:
71,147,42729,2,0,P|26:167|-22:167,1,90,0|0,3:0|3:0,3:0:0:0:
50,71,43093,1,0,3:0:0:0:
155,235,43275,6,0,P|158:282|191:355,1,90,0|0,3:0|3:0,3:0:0:0:
288,248,43638,2,0,P|287:192|271:145,1,90,0|0,3:0|3:0,3:0:0:0:
181,101,44002,1,0,3:0:0:0:
365,117,44184,6,0,L|466:124,1,90,0|0,3:0|3:0,3:0:0:0:
312,41,44547,2,0,P|275:131|344:217,1,180,0|0,3:0|3:0,3:0:0:0:
481,227,45100,1,0,3:0:0:0:
407,164,45269,1,0,3:0:0:0:
359,269,45458,2,0,P|357:315|372:377,1,90,0|0,3:0|3:0,3:0:0:0:
459,316,45821,5,0,3:0:0:0:
232,343,46003,1,0,3:0:0:0:
270,253,46185,2,0,L|372:271,1,90,0|0,3:0|3:0,3:0:0:0:
214,165,46548,2,0,L|110:144,1,90,0|0,3:0|3:0,3:0:0:0:
26,125,46912,1,0,3:0:0:0:
320,7,47094,6,0,P|371:75|321:175,1,180,0|0,3:0|3:0,3:0:0:0:
317,331,47639,1,0,3:0:0:0:
114,212,47821,2,0,L|0:232,1,90,0|0,3:0|3:0,3:0:0:0:
198,115,48185,2,0,L|289:107,1,90,0|0,3:0|3:0,3:0:0:0:
475,259,48548,2,0,B|386:234|386:234|289:296,1,180,0|0,3:0|3:0,3:0:0:0:
139,286,49094,5,0,3:0:0:0:
300,358,49276,1,0,3:0:0:0:
229,187,49458,1,0,3:0:0:0:
159,378,49639,1,0,3:0:0:0:
50,206,49821,1,0,3:0:0:0:
275,63,50003,6,0,P|303:131|209:181,1,180,0|0,3:0|3:0,3:0:0:0:
86,82,50548,1,0,3:0:0:0:
251,277,50730,2,0,P|261:322|226:386,1,90,0|0,3:0|3:0,3:0:0:0:
157,138,51094,2,0,L|268:115,1,90,0|0,3:0|3:0,3:0:0:0:
422,218,51458,2,0,P|376:213|338:158,1,90,0|0,3:0|3:0,3:0:0:0:
418,10,51821,6,0,L|409:123,1,90,0|0,3:0|3:0,3:0:0:0:
326,325,52185,2,0,L|313:210,1,90,0|0,3:0|3:0,3:0:0:0:
100,111,52548,2,0,P|147:128|207:103,1,90,0|0,3:0|3:0,3:0:0:0:
459,196,52912,6,0,B|375:168|375:168|267:213,1,180
119,290,53458,5,0,0:0:0:0:
160,45,53639,1,0,0:0:0:0:
277,271,53821,5,0,0:0:0:0:
160,45,54003,1,0,0:0:0:0:
378,119,54185,5,0,0:0:0:0:
149,159,54367,1,0,0:0:0:0:
312,320,54548,5,0,0:0:0:0:
263,58,54730,1,0,0:0:0:0:
79,281,54912,6,0,L|27:294,2,45
313,215,55276,1,0,0:0:0:0:
85,118,55458,1,0,0:0:0:0:
263,58,55639,1,0,0:0:0:0:
225,258,55821,6,0,P|222:303|270:371,1,90
421,183,56185,2,0,P|424:135|406:87,1,90
72,163,56548,2,0,B|152:121|152:121|250:148,1,180
419,280,57094,5,0,0:0:0:0:
419,280,57185,1,0,0:0:0:0:
419,280,57276,2,0,P|374:299|300:276,1,90
105,215,57639,2,0,P|149:231|209:213,1,90
364,76,58003,1,0,0:0:0:0:
155,146,58185,1,0,0:0:0:0:
357,220,58367,1,0,0:0:0:0:
204,19,58548,1,0,0:0:0:0:
22,143,58730,6,0,L|42:255,1,90
162,343,59094,2,0,P|212:352|272:328,1,90
389,147,59458,2,0,P|302:129|231:202,1,180
20,83,60003,5,0,0:0:0:0:
64,77,60093,1,0,0:0:0:0:
109,72,60185,2,0,L|233:60,1,90
319,222,60548,2,0,P|289:177|299:117,1,90
426,82,60912,1,0,0:0:0:0:
440,299,61094,5,0,0:0:0:0:
395,303,61184,1,0,0:0:0:0:
350,307,61275,1,0,0:0:0:0:
305,312,61366,1,0,0:0:0:0:
260,316,61457,1,0,0:0:0:0:
216,320,61548,1,0,0:0:0:0:
171,326,61639,6,0,B|149:273|149:273|162:210|162:210|138:124,1,180
315,25,62185,2,0,L|351:145,1,90
373,289,62548,1,0,0:0:0:0:
464,98,62730,1,0,0:0:0:0:
299,350,62912,1,0,0:0:0:0:
57,165,63094,6,0,L|168:150,1,90
365,45,63458,1,0,0:0:0:0:
386,241,63639,1,0,0:0:0:0:
386,241,63730,1,0,0:0:0:0:
386,241,63821,2,0,L|253:237,1,90
54,335,64185,2,0,P|91:354|157:340,1,90
150,93,64548,5,0,0:0:0:0:
219,338,64730,1,0,0:0:0:0:
290,37,64912,5,0,0:0:0:0:
302,285,65094,1,0,0:0:0:0:
440,81,65276,5,0,0:0:0:0:
172,235,65458,1,0,0:0:0:0:
157,215,65548,1,0,0:0:0:0:
146,193,65639,1,0,0:0:0:0:
139,151,65729,1,0,0:0:0:0:
149,111,65820,1,0,0:0:0:0:
173,78,65911,1,0,0:0:0:0:
209,56,66002,1,0,0:0:0:0:
56,135,67094,5,0,3:0:0:0:
98,129,67185,1,0,3:0:0:0:
140,124,67276,1,0,3:0:0:0:
182,119,67367,1,0,3:0:0:0:
216,115,67458,2,0,B|240:176|240:176|208:208|208:208|241:302,1,180,0|0,3:0|3:0,3:0:0:0:
335,351,68021,5,0,3:0:0:0:
367,143,68199,1,0,3:0:0:0:
447,271,68381,1,0,3:0:0:0:
254,238,68541,2,0,P|232:186|230:139,1,90,0|0,3:0|3:0,3:0:0:0:
415,47,68921,2,0,P|431:95|421:165,1,90,0|0,3:0|3:0,3:0:0:0:
223,47,69277,1,0,3:0:0:0:
303,239,69458,1,0,3:0:0:0:
351,95,69640,1,0,3:0:0:0:
175,175,69804,1,0,3:0:0:0:
95,31,69985,1,0,3:0:0:0:
63,191,70167,5,0,3:0:0:0:
63,240,70258,1,0,3:0:0:0:
79,287,70349,2,0,B|154:266|154:266|245:299,1,135,0|0,3:0|3:0,3:0:0:0:
237,307,70713,5,0,3:0:0:0:
319,95,70894,1,0,3:0:0:0:
367,367,71076,1,0,3:0:0:0:
223,175,71266,1,0,3:0:0:0:
383,271,71450,6,0,P|431:271|507:255,1,90,0|0,3:0|3:0,3:0:0:0:
319,95,71813,2,0,P|271:95|190:110,1,90,0|0,3:0|3:0,3:0:0:0:
47,175,72177,1,0,3:0:0:0:
255,239,72359,1,0,3:0:0:0:
15,287,72540,1,0,3:0:0:0:
351,239,72722,5,0,3:0:0:0:
143,63,72904,1,0,3:0:0:0:
399,118,73086,5,0,3:0:0:0:
415,159,73177,1,0,3:0:0:0:
421,204,73268,2,0,P|403:255|351:317,1,135,0|0,3:0|3:0,3:0:0:0:
325,332,73631,5,0,3:0:0:0:
242,107,73813,1,0,3:0:0:0:
153,268,73995,5,0,3:0:0:0:
368,207,74177,1,0,3:0:0:0:
37,162,74359,5,0,3:0:0:0:
279,230,74540,1,0,3:0:0:0:
116,35,74722,5,0,3:0:0:0:
153,268,74904,1,0,3:0:0:0:
236,129,75086,5,0,3:0:0:0:
247,101,75177,1,0,3:0:0:0:
258,73,75268,1,0,3:0:0:0:
269,46,75359,1,0,3:0:0:0:
279,20,75450,2,0,L|303:156,1,135,0|0,3:0|3:0,3:0:0:0:
329,255,75813,1,0,3:0:0:0:
424,85,75995,1,0,3:0:0:0:
172,211,76177,6,0,L|289:188,1,90,0|0,3:0|3:0,3:0:0:0:
421,165,76540,1,0,3:0:0:0:
231,37,76722,1,0,3:0:0:0:
182,38,76813,1,0,3:0:0:0:
139,63,76904,2,0,L|122:184,1,90,0|0,3:0|3:0,3:0:0:0:
111,283,77268,1,0,3:0:0:0:
301,168,77450,6,0,L|308:220,1,45,0|0,3:0|3:0,3:0:0:0:
244,375,77631,2,0,L|238:311,1,45,0|0,3:0|3:0,3:0:0:0:
457,250,77813,1,0,3:0:0:0:
141,241,77995,1,0,3:0:0:0:
374,339,78177,1,0,3:0:0:0:
108,205,78359,1,0,3:0:0:0:
435,176,78540,5,0,3:0:0:0:
407,134,78631,1,0,3:0:0:0:
368,101,78722,1,0,3:0:0:0:
322,82,78813,1,0,3:0:0:0:
272,77,78904,1,0,3:0:0:0:
223,86,78995,1,0,3:0:0:0:
179,107,79086,6,0,B|189:226|189:226|227:168,1,180,0|0,3:0|3:0,3:0:0:0:
324,35,79631,1,0,3:0:0:0:
355,200,79813,2,0,L|374:314,1,90,0|0,3:0|3:0,3:0:0:0:
208,141,80177,6,0,L|181:266,1,90,0|0,3:0|3:0,3:0:0:0:
49,348,80540,2,0,P|22:261|46:167,1,180,0|0,3:0|3:0,3:0:0:0:
228,305,81086,2,0,L|126:275,1,90,0|0,3:0|3:0,3:0:0:0:
268,177,81450,2,0,L|391:209,1,90,0|0,3:0|3:0,3:0:0:0:
82,193,81813,6,0,L|33:173,1,45,0|0,3:0|3:0,3:0:0:0:
25,122,81995,2,0,B|116:87|116:156|239:105,1,180,0|0,3:0|3:0,3:0:0:0:
291,78,82540,1,0,3:0:0:0:
394,40,82722,1,0,3:0:0:0:
484,99,82904,1,0,3:0:0:0:
379,168,83086,6,0,L|365:222,1,45,0|0,3:0|3:0,3:0:0:0:
248,281,83268,2,0,L|267:213,1,45,0|0,3:0|3:0,3:0:0:0:
236,69,83450,2,0,P|221:142|266:243,1,180,0|0,3:0|3:0,3:0:0:0:
312,137,83995,2,0,L|359:142,2,45,0|0|0,3:0|3:0|3:0,3:0:0:0:
91,120,84359,1,0,3:0:0:0:
388,83,84564,1,0,3:0:0:0:
50,238,84732,1,0,3:0:0:0:
266,284,84906,6,0,P|335:308|424:287,1,153.000002918243,0|0,3:0|3:0,3:0:0:0:
500,232,85452,1,0,3:0:0:0:
285,128,85634,2,0,L|302:222,1,76.5000014591217,0|0,3:0|3:0,3:0:0:0:
404,101,85997,2,0,L|389:16,1,76.5000014591217,0|0,3:0|3:0,3:0:0:0:
220,100,86361,5,0,3:0:0:0:
361,155,86558,1,0,3:0:0:0:
122,164,86740,1,0,3:0:0:0:
321,41,86922,1,0,3:0:0:0:
234,250,87104,2,0,L|47:269,1,153.000002918243,0|0,3:0|3:0,3:0:0:0:
114,134,87649,6,0,L|129:173,1,38.2500007295609,0|0,3:0|3:0,3:0:0:0:
180,231,87831,2,0,P|177:138|188:52,1,153.000002918243,0|0,3:0|3:0,3:0:0:0:
287,26,88377,1,0,3:0:0:0:
352,172,88558,6,0,L|249:167,1,76.5000014591217,0|0,3:0|3:0,3:0:0:0:
363,283,88922,2,0,L|470:291,1,76.5000014591217,0|0,3:0|3:0,3:0:0:0:
494,297,89286,1,0,3:0:0:0:
255,220,89454,2,0,L|262:314,1,76.5000014591217,0|0,3:0|3:0,3:0:0:0:
267,382,89818,1,0,3:0:0:0:
345,178,90000,1,0,3:0:0:0:
131,251,90182,2,0,L|45:274,2,76.5000014591217,0|0|0,3:0|3:0|3:0,3:0:0:0:
300,200,90738,5,0,3:0:0:0:
186,329,90920,1,0,3:0:0:0:
165,165,91102,1,0,3:0:0:0:
310,323,91283,1,0,3:0:0:0:
76,172,91465,5,0,3:0:0:0:
396,143,91647,1,0,3:0:0:0:
208,334,91829,1,0,3:0:0:0:
230,48,92011,1,0,3:0:0:0:
443,212,92193,5,0,3:0:0:0:
57,169,92374,1,0,3:0:0:0:
292,9,92556,1,0,3:0:0:0:
185,332,92738,1,0,3:0:0:0:
162,31,92920,5,0,3:0:0:0:
466,250,93102,1,0,3:0:0:0:
51,274,93283,1,0,3:0:0:0:
427,16,93465,5,12,3:0:0:0:
209,219,93647,2,4,L|218:329,1,90,4|4,3:0|3:0,3:0:0:0:
452,94,94011,5,12,3:0:0:0:
108,138,94193,2,4,L|97:258,1,90,4|4,3:0|3:0,3:0:0:0:
470,174,94556,5,12,3:0:0:0:
0,39,94738,2,4,L|24:157,1,90,4|4,3:0|3:0,3:0:0:0:
195,384,95102,6,0,P|225:285|207:187,1,180,0|0,3:0|3:0,3:0:0:0:
99,203,95647,2,0,L|125:303,1,90,0|0,3:0|3:0,3:0:0:0:
337,382,96011,2,0,L|298:260,1,90,0|0,3:0|3:0,3:0:0:0:
256,113,96374,1,0,3:0:0:0:
215,210,96556,6,0,B|304:244|303:172|412:219,1,180,0|0,3:0|3:0,3:0:0:0:
471,237,97102,1,0,3:0:0:0:
273,301,97283,2,0,P|227:303|177:288,1,90,0|0,3:0|3:0,3:0:0:0:
322,101,97647,2,0,P|366:97|413:106,1,90,0|0,3:0|3:0,3:0:0:0:
210,196,98011,2,0,P|173:113|203:27,1,180,0|0,3:0|3:0,3:0:0:0:
389,188,98556,2,0,L|205:196,1,180,0|0,3:0|3:0,3:0:0:0:
63,64,99102,2,0,L|88:156,1,90,0|0,3:0|3:0,3:0:0:0:
228,283,99465,2,0,L|206:181,1,90,0|0,3:0|3:0,3:0:0:0:
189,79,99829,5,0,3:0:0:0:
116,272,100011,1,0,3:0:0:0:
341,223,100193,1,0,3:0:0:0:
74,183,100374,5,0,3:0:0:0:
67,143,100465,1,0,3:0:0:0:
61,104,100556,1,0,3:0:0:0:
54,64,100647,1,0,3:0:0:0:
47,22,100738,2,0,B|102:125|102:125|112:57,1,180,0|0,3:0|3:0,3:0:0:0:
191,34,101283,5,0,3:0:0:0:
119,309,101465,1,0,3:0:0:0:
376,77,101647,5,0,3:0:0:0:
147,226,101829,1,0,3:0:0:0:
511,121,102011,5,0,3:0:0:0:
174,140,102193,1,0,3:0:0:0:
434,197,102374,6,0,L|451:291,1,85.4999977169037,0|0,3:0|3:0,3:0:0:0:
310,134,102738,2,0,L|305:230,1,85.4999977169037,0|0,3:0|3:0,3:0:0:0:
180,367,103102,2,0,L|187:270,1,85.4999977169037,0|0,3:0|3:0,3:0:0:0:
201,158,103465,1,0,3:0:0:0:
63,308,103647,1,0,3:0:0:0:
375,170,103829,6,0,P|392:123|381:71,1,85.4999977169037,0|0,3:0|3:0,3:0:0:0:
345,19,104193,1,0,3:0:0:0:
219,123,104374,2,0,L|306:112,1,85.4999977169037,0|0,3:0|3:0,3:0:0:0:
224,253,104738,2,0,P|127:276|106:253,1,128.249996575356,0|0,3:0|3:0,3:0:0:0:
97,235,105102,5,0,3:0:0:0:
54,83,105283,1,0,3:0:0:0:
189,183,105446,1,0,3:0:0:0:
0,176,105628,1,0,3:0:0:0:
203,86,105810,1,0,3:0:0:0:
95,157,105992,2,0,P|61:125|49:84,2,90,0|0|0,3:0|3:0|3:0,3:0:0:0:
343,157,106537,1,0,3:0:0:0:
291,72,106724,2,0,L|202:85,2,90,0|0|0,3:0|3:0|3:0,3:0:0:0:
434,85,107254,6,0,P|451:130|454:179,1,90,0|0,3:0|3:0,3:0:0:0:
309,268,107618,2,0,P|288:223|284:181,1,90,0|0,3:0|3:0,3:0:0:0:
464,247,107981,1,0,3:0:0:0:
391,345,108163,2,0,P|331:373|223:344,1,180,0|0,3:0|3:0,3:0:0:0:
148,220,108890,5,0,3:0:0:0:
286,250,109072,1,0,3:0:0:0:
123,337,109254,1,0,3:0:0:0:
37,205,109436,1,0,3:0:0:0:
37,205,109527,1,0,3:0:0:0:
37,205,109618,2,0,B|13:86|13:86|63:143,1,180,0|0,3:0|3:0,3:0:0:0:
246,232,110163,6,0,P|205:251|138:235,1,90,0|0,3:0|3:0,3:0:0:0:
164,43,110527,2,0,L|184:139,1,90,0|0,3:0|3:0,3:0:0:0:
373,101,110890,1,0,3:0:0:0:
362,144,110981,1,0,3:0:0:0:
355,187,111072,2,0,P|351:236|433:334,1,180,0|0,3:0|3:0,3:0:0:0:
238,235,111618,6,0,P|237:177|252:138,1,90,0|0,3:0|3:0,3:0:0:0:
364,277,111981,1,0,3:0:0:0:
200,333,112163,2,0,P|151:335|88:362,1,90,0|0,3:0|3:0,3:0:0:0:
63,223,112527,6,0,B|115:208|146:244|146:244|133:197|176:144,1,180,0|0,3:0|3:0,3:0:0:0:
215,52,113072,1,0,3:0:0:0:
241,238,113294,1,0,3:0:0:0:
63,120,113476,1,0,3:0:0:0:
365,133,114034,6,0,L|483:139,1,90,0|0,3:0|3:0,3:0:0:0:
447,242,114360,1,0,3:0:0:0:
279,196,114551,2,0,P|256:152|260:93,2,90,0|0|0,3:0|3:0|3:0,3:0:0:0:
388,313,115097,2,0,L|231:331,1,135,0|0,3:0|3:0,3:0:0:0:
231,331,115460,5,0,3:0:0:0:
183,182,115642,1,0,3:0:0:0:
125,345,115824,1,0,3:0:0:0:
91,221,116006,2,0,L|-24:209,1,90,0|0,3:0|3:0,3:0:0:0:
222,276,116363,2,0,P|242:222|223:152,1,90,0|0,3:0|3:0,3:0:0:0:
233,65,116726,5,0,3:0:0:0:
108,140,116908,2,0,P|123:180|168:216,1,90,0|0,3:0|3:0,3:0:0:0:
317,161,117272,2,0,P|296:127|211:122,1,90,0|0,3:0|3:0,3:0:0:0:
309,277,117635,1,0,3:0:0:0:
458,160,117817,1,0,3:0:0:0:
232,176,117999,1,0,3:0:0:0:
472,258,118181,1,0,3:0:0:0:
330,132,118363,6,0,P|328:85|359:35,2,90,0|0|0,3:0|3:0|3:0,3:0:0:0:
472,258,118908,2,0,P|488:212|480:157,1,90,0|0,3:0|3:0,3:0:0:0:
285,315,119272,2,0,L|406:336,1,90,0|0,3:0|3:0,3:0:0:0:
269,214,119635,1,0,3:0:0:0:
181,316,119817,6,0,L|82:327,1,90,0|0,3:0|3:0,3:0:0:0:
31,182,120181,1,0,3:0:0:0:
91,328,120363,1,0,3:0:0:0:
182,193,120544,2,0,L|205:101,1,90,0|0,3:0|3:0,3:0:0:0:
230,15,120908,1,0,3:0:0:0:
70,109,121090,1,0,3:0:0:0:
292,161,121272,6,0,L|401:175,1,90,0|0,3:0|3:0,3:0:0:0:
489,299,121635,2,0,L|360:282,1,90,0|0,3:0|3:0,3:0:0:0:
294,321,121999,1,0,3:0:0:0:
345,103,122181,1,0,3:0:0:0:
264,236,122363,2,0,L|299:335,1,90,0|0,3:0|3:0,3:0:0:0:
145,253,122726,2,0,L|113:152,1,90,0|0,3:0|3:0,3:0:0:0:
82,75,123090,1,0,3:0:0:0:
26,225,123272,1,0,3:0:0:0:
244,146,123453,6,0,L|209:46,1,90,0|0,3:0|3:0,3:0:0:0:
281,235,123817,1,0,3:0:0:0:
325,26,123999,1,0,3:0:0:0:
373,168,124181,2,0,L|409:280,1,90,0|0,3:0|3:0,3:0:0:0:
429,362,124544,1,0,3:0:0:0:
503,169,124726,1,0,3:0:0:0:
294,320,124908,1,0,3:0:0:0:
268,204,125090,5,0,3:0:0:0:
260,168,125181,1,0,3:0:0:0:
252,133,125272,1,0,3:0:0:0:
244,98,125363,1,0,3:0:0:0:
236,63,125453,1,0,3:0:0:0:
81,124,125635,6,0,P|173:153|266:124,1,180,0|0,3:0|3:0,3:0:0:0:
367,56,126181,1,0,3:0:0:0:
191,77,126363,1,0,3:0:0:0:
436,130,126544,5,0,3:0:0:0:
134,167,126726,1,0,3:0:0:0:
438,194,126908,5,0,3:0:0:0:
123,98,127090,1,0,3:0:0:0:
369,60,127272,5,0,3:0:0:0:
220,348,127453,1,0,3:0:0:0:
234,144,127635,1,0,3:0:0:0:
385,290,127817,2,0,P|397:334|398:415,1,90,0|0,3:0|3:0,3:0:0:0:
239,319,128181,5,0,3:0:0:0:
222,278,128272,1,0,3:0:0:0:
215,233,128363,1,0,3:0:0:0:
217,188,128453,1,0,3:0:0:0:
234,144,128544,2,0,P|231:236|134:278,1,180,0|0,3:0|3:0,3:0:0:0:
50,267,129090,5,0,3:0:0:0:
42,101,129272,1,0,3:0:0:0:
156,201,129453,1,0,3:0:0:0:
151,69,129635,5,0,3:0:0:0:
191,50,129726,1,0,3:0:0:0:
236,43,129817,1,0,3:0:0:0:
280,47,129908,1,0,3:0:0:0:
322,62,129999,6,0,P|343:99|353:159,1,90,0|0,3:0|3:0,3:0:0:0:
361,296,130363,1,0,3:0:0:0:
194,193,130544,2,0,P|225:150|274:124,1,90,0|0,3:0|3:0,3:0:0:0:
384,188,130908,1,0,3:0:0:0:
145,266,131090,1,0,3:0:0:0:
342,314,131272,1,0,3:0:0:0:
255,130,131453,6,0,L|136:111,1,90,0|0,3:0|3:0,3:0:0:0:
20,218,131817,2,0,L|145:234,1,90,0|0,3:0|3:0,3:0:0:0:
254,347,132181,2,0,L|131:336,1,90,0|0,3:0|3:0,3:0:0:0:
336,196,132544,2,0,L|351:303,1,90,0|0,3:0|3:0,3:0:0:0:
364,373,132908,5,0,3:0:0:0:
464,211,133090,1,0,3:0:0:0:
233,295,133272,1,0,3:0:0:0:
466,304,133453,1,0,3:0:0:0:
466,304,133544,1,0,3:0:0:0:
466,304,133635,1,0,3:0:0:0:
215,195,133817,2,0,L|194:73,2,90,0|0|0,3:0|3:0|3:0,3:0:0:0:
308,213,134358,6,0,B|312:143|339:96|523:66|518:290|416:311|345:288|345:288|394:256|381:182,1,506.250019311906,0|0,3:0|3:0,3:0:0:0:
387,42,135812,6,0,P|281:79|221:227,1,252,0|0,3:0|3:0,3:0:0:0:
233,234,136539,6,0,P|94:193|-22:251,1,252,0|0,3:0|3:0,3:0:0:0:
117,297,137267,6,0,P|178:323|245:317,1,108,0|0,3:0|3:0,3:0:0:0:
261,323,137630,1,0,3:0:0:0:
164,207,137812,1,0,3:0:0:0:
342,230,137994,5,0,3:0:0:0:
67,225,138176,1,0,3:0:0:0:
380,308,138358,5,0,3:0:0:0:
215,86,138539,1,0,3:0:0:0:
187,257,138721,5,0,3:0:0:0:
388,125,138903,1,0,3:0:0:0:
75,142,139085,5,0,3:0:0:0:
317,226,139267,1,0,3:0:0:0:
203,45,139448,5,0,3:0:0:0:
172,44,139539,1,0,3:0:0:0:
142,52,139630,1,0,3:0:0:0:
115,68,139721,1,0,3:0:0:0:
94,91,139812,1,0,3:0:0:0:
80,118,139903,1,0,3:0:0:0:
73,148,139994,1,0,3:0:0:0:
75,178,140085,1,0,3:0:0:0:
80,210,140176,6,0,B|178:157|178:239|296:193,1,198.000006042481,0|0,3:0|3:0,3:0:0:0:
369,196,140721,2,0,P|315:208|252:192,1,99.0000030212403,0|0,3:0|3:0,3:0:0:0:
158,116,141085,1,0,3:0:0:0:
324,23,141267,2,0,P|311:75|316:131,1,99.0000030212403,0|0,3:0|3:0,3:0:0:0:
486,235,141630,2,0,P|503:185|500:116,1,99.0000030212403,0|0,3:0|3:0,3:0:0:0:
260,275,141994,2,0,P|309:291|397:274,1,99.0000030212403,0|0,3:0|3:0,3:0:0:0:
415,194,142358,1,0,3:0:0:0:
125,222,142539,1,0,3:0:0:0:
433,297,142721,1,0,3:0:0:0:
97,298,142903,6,0,P|71:305|36:331,1,49.5000015106202,0|0,3:0|3:0,3:0:0:0:
199,358,143085,2,0,P|221:305|195:226,1,99.0000030212403,0|0,3:0|3:0,3:0:0:0:
44,88,143448,2,0,P|40:138|64:200,1,99.0000030212403,0|0,3:0|3:0,3:0:0:0:
251,165,143812,1,0,3:0:0:0:
137,164,143994,1,0,3:0:0:0:
336,279,144176,6,0,P|387:301|443:296,1,99.0000030212403,0|0,3:0|3:0,3:0:0:0:
448,84,144539,2,0,P|428:119|437:213,1,99.0000030212403,0|0,3:0|3:0,3:0:0:0:
496,239,144903,1,0,3:0:0:0:
248,181,145085,1,0,3:0:0:0:
450,130,145267,1,0,3:0:0:0:
296,320,145448,1,0,3:0:0:0:
113,233,145630,5,0,3:0:0:0:
77,199,145721,1,0,3:0:0:0:
64,153,145812,1,0,3:0:0:0:
71,104,145903,1,0,3:0:0:0:
96,64,145994,2,0,B|195:30|194:99|300:63,1,198.000006042481,0|0,3:0|3:0,3:0:0:0:
423,228,146547,6,0,P|390:248|305:247,1,90,0|0,3:0|3:0,3:0:0:0:
180,236,146910,1,0,3:0:0:0:
338,69,147092,2,0,P|353:110|355:164,1,90,0|0,3:0|3:0,3:0:0:0:
163,125,147456,2,0,P|147:71|148:19,1,90,0|0,3:0|3:0,3:0:0:0:
232,227,147819,5,0,3:0:0:0:
182,222,147910,1,0,3:0:0:0:
133,218,148001,1,0,3:0:0:0:
83,214,148092,1,0,3:0:0:0:
35,209,148183,2,0,P|38:146|46:103,1,90,0|0,3:0|3:0,3:0:0:0:
254,49,148547,2,0,P|259:112|249:163,1,90,0|0,3:0|3:0,3:0:0:0:
164,373,148910,2,0,P|140:327|139:248,1,90,0|0,3:0|3:0,3:0:0:0:
237,373,149274,1,0,3:0:0:0:
342,107,149456,5,0,3:0:0:0:
342,107,149547,1,0,3:0:0:0:
342,107,149637,2,0,P|364:156|357:228,1,90,0|0,3:0|3:0,3:0:0:0:
355,346,150001,1,0,3:0:0:0:
177,151,150183,2,0,L|170:86,1,45,0|0,3:0|3:0,3:0:0:0:
145,258,150365,2,0,L|151:327,1,45,0|0,3:0|3:0,3:0:0:0:
0,182,150547,1,0,3:0:0:0:
293,268,150728,1,0,3:0:0:0:
172,106,150910,1,0,3:0:0:0:
61,296,151092,1,0,3:0:0:0:
300,98,151274,5,0,3:0:0:0:
339,97,151365,1,0,3:0:0:0:
377,108,151456,1,0,3:0:0:0:
410,129,151547,1,0,3:0:0:0:
436,158,151637,1,0,3:0:0:0:
453,194,151728,1,0,3:0:0:0:
463,232,151819,2,0,L|286:255,1,144,0|0,3:0|3:0,3:0:0:0:
183,272,152365,1,0,3:0:0:0:
243,95,152547,6,0,P|255:145|247:191,1,72,0|0,3:0|3:0,3:0:0:0:
63,124,152910,2,0,P|55:77|67:32,1,72,0|0,3:0|3:0,3:0:0:0:
193,218,153274,2,0,P|153:224|106:192,1,72,0|0,3:0|3:0,3:0:0:0:
235,59,153637,1,0,3:0:0:0:
318,195,153819,2,0,L|336:296,1,72,0|0,3:0|3:0,3:0:0:0:
439,148,154183,2,0,L|423:59,1,72,0|0,3:0|3:0,3:0:0:0:
288,138,154547,2,0,P|283:192|350:276,1,144,0|0,3:0|3:0,3:0:0:0:
401,257,155092,6,0,L|313:266,1,72,0|0,3:0|3:0,3:0:0:0:
282,316,155456,2,0,P|316:288|333:231,1,72,0|0,3:0|3:0,3:0:0:0:
152,236,155819,6,0,L|241:245,1,72,0|0,3:0|3:0,3:0:0:0:
158,119,156183,2,0,L|71:113,1,72,0|0,3:0|3:0,3:0:0:0:
26,227,156547,1,0,3:0:0:0:
277,157,156728,1,0,3:0:0:0:
277,157,156819,1,0,3:0:0:0:
277,157,156910,1,0,3:0:0:0:
16,133,157092,1,0,3:0:0:0:
283,275,157274,1,0,3:0:0:0:
153,61,157456,1,0,3:0:0:0:
133,279,157637,6,0,L|147:384,1,72,0|0,3:0|3:0,3:0:0:0:
166,294,158001,2,0,P|140:281|100:279,1,36,0|0,3:0|3:0,3:0:0:0:
49,313,158183,1,0,3:0:0:0:
257,335,158365,2,0,L|396:339,1,108,0|0,3:0|3:0,3:0:0:0:
439,294,158728,6,0,L|345:300,1,72,0|0,3:0|3:0,3:0:0:0:
246,224,159092,2,0,L|336:217,1,72,0|0,3:0|3:0,3:0:0:0:
436,211,159456,1,0,3:0:0:0:
203,301,159637,1,0,3:0:0:0:
232,79,159819,6,0,L|246:230,1,144,0|0,3:0|3:0,3:0:0:0:
144,104,160365,1,0,3:0:0:0:
108,231,160547,2,0,L|127:313,1,72,0|0,3:0|3:0,3:0:0:0:
256,378,160910,2,0,L|237:287,1,72,0|0,3:0|3:0,3:0:0:0:
314,142,161274,2,0,L|354:307,1,144,0|0,3:0|3:0,3:0:0:0:
195,88,161819,5,0,3:0:0:0:
195,88,161910,1,0,3:0:0:0:
195,88,162001,1,0,3:0:0:0:
367,134,162183,2,0,P|334:145|273:153,1,72,0|0,3:0|3:0,3:0:0:0:
142,249,162547,2,0,P|186:228|237:219,1,72,0|0,3:0|3:0,3:0:0:0:
349,257,162910,1,0,3:0:0:0:
253,329,163092,1,0,3:0:0:0:
367,135,163274,1,0,3:0:0:0:
379,338,163456,5,0,3:0:0:0:
316,71,163637,1,0,3:0:0:0:
266,352,163819,5,0,3:0:0:0:
244,25,164001,1,0,3:0:0:0:
140,364,164183,5,0,3:0:0:0:
251,97,164365,1,0,3:0:0:0:
215,318,164547,5,0,3:0:0:0:
124,13,164728,1,0,3:0:0:0:
136,252,164910,5,0,3:0:0:0:
421,191,165092,1,0,3:0:0:0:
83,147,165274,5,0,3:0:0:0:
371,253,165456,1,0,3:0:0:0:
19,197,165637,5,0,3:0:0:0:
426,126,165819,1,0,3:0:0:0:
100,212,166001,1,0,3:0:0:0:
269,32,166183,5,0,3:0:0:0:
300,275,166365,2,0,L|315:375,1,72,0|0,3:0|3:0,3:0:0:0:
174,8,166728,5,0,3:0:0:0:
216,313,166910,2,0,L|221:385,1,72,0|0,3:0|3:0,3:0:0:0:
79,0,167274,5,0,3:0:0:0:
72,327,167456,2,0,L|242:310,1,144,0|0,3:0|3:0,3:0:0:0:
333,294,168001,1,0,3:0:0:0:
89,230,168183,1,0,3:0:0:0:
317,150,168365,2,0,L|334:304,1,144,0|0,3:0|3:0,3:0:0:0:
422,182,168910,6,0,L|411:78,1,72,0|0,3:0|3:0,3:0:0:0:
302,80,169274,2,0,P|385:70|451:34,1,144,0|0,3:0|3:0,3:0:0:0:
296,237,169819,2,0,P|371:199|448:189,1,144,0|0,3:0|3:0,3:0:0:0:
165,182,170365,6,0,P|247:204|303:243,1,144,0|0,3:0|3:0,3:0:0:0:
247,64,170910,2,0,P|326:65|388:34,1,144,0|0,3:0|3:0,3:0:0:0:
132,74,171456,1,0,3:0:0:0:
149,213,171637,1,0,3:0:0:0:
18,86,171819,1,0,3:0:0:0:
7,282,172001,1,0,3:0:0:0:
149,213,172183,6,0,P|191:102|177:17,1,180,0|0,3:0|3:0,3:0:0:0:
266,275,172728,2,0,P|259:171|281:95,1,180,0|0,3:0|3:0,3:0:0:0:
358,363,173274,2,0,P|362:277|341:186,1,180,0|0,3:0|3:0,3:0:0:0:
451,290,173819,2,0,P|457:205|494:105,1,180,0|0,3:0|3:0,3:0:0:0:
410,49,174365,2,0,P|393:85|381:140,1,90,0|0,3:0|3:0,3:0:0:0:
354,205,174728,5,0,3:0:0:0:
350,160,174819,1,0,3:0:0:0:
339,116,174910,1,0,3:0:0:0:
321,75,175001,1,0,3:0:0:0:
301,41,175092,2,0,L|160:45,1,135,0|0,3:0|3:0,3:0:0:0:
76,99,175443,6,0,L|201:74,1,90,0|0,3:0|3:0,3:0:0:0:
303,141,175809,2,0,L|207:164,1,90,0|0,3:0|3:0,3:0:0:0:
64,207,176173,2,0,P|104:241|170:260,2,90,0|0|0,3:0|3:0|3:0,3:0:0:0:
243,238,176727,2,0,P|238:296|201:338,1,90,0|0,3:0|3:0,3:0:0:0:
111,349,177091,1,0,3:0:0:0:
358,256,177272,2,0,P|373:203|371:157,1,90,0|0,3:0|3:0,3:0:0:0:
360,68,177599,1,0,3:0:0:0:
205,322,177840,5,0,3:0:0:0:
163,51,178021,1,0,3:0:0:0:
349,224,178203,1,0,3:0:0:0:
137,172,178385,6,0,L|8:185,1,90,0|0,3:0|3:0,3:0:0:0:
163,51,178749,2,0,L|266:39,1,90,0|0,3:0|3:0,3:0:0:0:
372,168,179112,2,0,P|325:157|291:124,1,90,0|0,3:0|3:0,3:0:0:0:
423,78,179476,2,0,L|522:67,2,90,0|0|0,3:0|3:0|3:0,3:0:0:0:
261,232,180021,2,0,L|377:210,1,90,0|0,3:0|3:0,3:0:0:0:
382,198,180294,5,0,3:0:0:0:
360,152,180385,1,0,3:0:0:0:
324,118,180476,1,0,3:0:0:0:
277,98,180567,1,0,3:0:0:0:
227,97,180658,1,0,3:0:0:0:
184,110,180749,2,0,L|201:161,1,45,0|0,3:0|3:0,3:0:0:0:
251,204,180930,2,0,P|158:210|57:193,1,180,0|0,3:0|3:0,3:0:0:0:
89,54,181476,1,0,3:0:0:0:
233,115,181658,6,0,P|232:154|252:211,1,90,0|0,3:0|3:0,3:0:0:0:
362,340,182021,2,0,P|365:298|354:221,1,90,0|0,3:0|3:0,3:0:0:0:
337,118,182385,1,0,3:0:0:0:
261,310,182567,2,0,B|172:345|174:259|64:317,1,180,0|0,3:0|3:0,3:0:0:0:
78,177,183112,6,0,L|184:197,1,90,0|0,3:0|3:0,3:0:0:0:
337,118,183476,2,0,L|218:99,1,90,0|0,3:0|3:0,3:0:0:0:
429,261,183827,2,0,L|453:72,1,180,0|0,3:0|3:0,3:0:0:0:
348,207,184372,5,0,3:0:0:0:
310,24,184554,1,0,3:0:0:0:
244,263,184736,2,0,P|168:313|59:269,1,180,0|0,3:0|3:0,3:0:0:0:
15,212,185281,1,0,3:0:0:0:
136,126,185463,6,0,P|135:173|156:224,1,90,0|0,3:0|3:0,3:0:0:0:
242,112,185831,2,0,L|230:60,2,45,0|0|0,3:0|3:0|3:0,3:0:0:0:
263,204,186195,1,0,3:0:0:0:
418,126,186377,2,0,P|331:104|223:117,1,180,0|0,3:0|3:0,3:0:0:0:
302,261,187104,6,0,P|305:299|281:369,1,90,0|0,3:0|3:0,3:0:0:0:
143,267,187468,2,0,P|138:217|157:151,1,90,0|0,3:0|3:0,3:0:0:0:
377,179,187831,2,0,L|216:207,1,135,0|0,3:0|3:0,3:0:0:0:
220,207,188195,1,0,3:0:0:0:
202,93,188370,2,0,L|184:-4,2,90,0|0|0,3:0|3:0|3:0,3:0:0:0:
379,84,188915,2,0,P|332:89|281:65,1,90,0|0,3:0|3:0,3:0:0:0:
458,140,189279,5,0,3:0:0:0:
445,183,189370,1,0,3:0:0:0:
432,226,189460,1,0,3:0:0:0:
420,269,189551,1,0,3:0:0:0:
408,313,189642,2,0,L|242:328,1,135,0|0,3:0|3:0,3:0:0:0:
243,328,190006,5,0,3:0:0:0:
325,238,190188,1,0,3:0:0:0:
143,264,190370,2,0,P|94:254|56:233,1,90,0|0,3:0|3:0,3:0:0:0:
200,87,190733,2,0,L|178:193,1,90,0|0,3:0|3:0,3:0:0:0:
88,103,191097,2,0,P|40:105|0:65,2,90,0|0|0,3:0|3:0|3:0,3:0:0:0:
275,43,191642,2,0,P|188:7|93:6,1,180,0|0,3:0|3:0,3:0:0:0:
288,216,192188,2,0,P|321:182|343:106,1,90,0|0,3:0|3:0,3:0:0:0:
353,43,192551,5,0,3:0:0:0:
397,279,192733,1,0,3:0:0:0:
465,99,192915,1,0,3:0:0:0:
221,258,193097,5,0,3:0:0:0:
482,204,193279,1,0,3:0:0:0:
210,134,193460,1,0,3:0:0:0:
320,345,193642,5,0,3:0:0:0:
337,151,193824,1,0,3:0:0:0:
152,338,194006,1,0,3:0:0:0:
397,256,194188,5,0,3:0:0:0:
52,210,194370,1,0,3:0:0:0:
268,314,194551,1,0,3:0:0:0:
121,124,194733,6,0,L|107:27,1,90,0|0,3:0|3:0,3:0:0:0:
254,224,195095,2,0,L|273:354,1,90,0|0,3:0|3:0,3:0:0:0:
422,267,195458,5,0,3:0:0:0:
145,271,195643,1,0,3:0:0:0:
406,177,195824,1,0,3:0:0:0:
89,190,195999,1,0,3:0:0:0:
362,338,196181,5,0,3:0:0:0:
290,78,196363,1,0,3:0:0:0:
64,321,196545,1,0,3:0:0:0:
336,224,196727,1,0,3:0:0:0:
53,148,196908,5,0,3:0:0:0:
420,132,197090,1,0,3:0:0:0:
145,254,197272,1,0,3:0:0:0:
202,29,197454,1,0,3:0:0:0:
374,320,197636,5,0,3:0:0:0:
361,55,197818,1,0,3:0:0:0:
126,324,197999,2,0,L|291:300,1,135,0|0,3:0|3:0,3:0:0:0:
406,276,198347,5,0,3:0:0:0:
82,164,198534,1,0,3:0:0:0:
294,384,198716,1,0,3:0:0:0:
258,35,198898,1,0,3:0:0:0:
145,297,199080,5,0,3:0:0:0:
440,137,199262,1,0,3:0:0:0:
77,95,199443,1,0,3:0:0:0:
360,312,199625,1,0,3:0:0:0:
355,18,199807,5,0,3:0:0:0:
89,236,199989,1,0,3:0:0:0:
456,215,200171,1,0,3:0:0:0:
56,85,200353,1,0,3:0:0:0:
281,353,200534,5,0,3:0:0:0:
462,89,200716,1,0,3:0:0:0:
45,285,200898,1,0,3:0:0:0:
123,74,201262,5,0,3:0:0:0:
145,118,201366,1,0,3:0:0:0:
155,168,201457,1,0,3:0:0:0:
152,218,201548,1,0,3:0:0:0:
114,261,201639,5,0,3:0:0:0:
167,237,201730,1,0,3:0:0:0:
226,232,201821,1,0,3:0:0:0:
283,246,201912,1,0,3:0:0:0:
332,276,202003,6,0,L|376:188,1,90,0|0,3:0|3:0,3:0:0:0:
384,177,202276,1,0,3:0:0:0:
334,44,202366,2,0,L|282:140,1,90,0|0,3:0|3:0,3:0:0:0:
206,230,202730,1,0,3:0:0:0:
149,73,202912,1,0,3:0:0:0:
291,123,203094,1,0,3:0:0:0:
95,186,203276,6,0,P|51:207|-28:196,1,90,0|0,3:0|3:0,3:0:0:0:
50,70,203639,1,0,3:0:0:0:
148,274,203821,2,0,P|151:318|174:373,1,90,0|0,3:0|3:0,3:0:0:0:
298,262,204185,2,0,P|294:211|274:167,1,90,0|0,3:0|3:0,3:0:0:0:
303,89,204548,2,0,P|219:112|194:188,1,135,0|0,3:0|3:0,3:0:0:0:
194,189,204912,1,0,3:0:0:0:
84,102,205094,6,0,L|101:153,1,45,0|0,3:0|3:0,3:0:0:0:
56,192,205276,2,0,L|171:173,1,90,0|0,3:0|3:0,3:0:0:0:
276,262,205639,2,0,L|155:280,1,90,0|0,3:0|3:0,3:0:0:0:
71,288,206003,1,0,3:0:0:0:
283,172,206185,6,0,L|274:273,1,90,0|0,3:0|3:0,3:0:0:0:
391,375,206548,2,0,P|411:334|402:200,1,180,0|0,3:0|3:0,3:0:0:0:
326,46,207094,2,0,P|356:85|375:136,1,90,0|0,3:0|3:0,3:0:0:0:
163,82,207457,2,0,L|259:51,1,90,0|0,3:0|3:0,3:0:0:0:
48,172,207821,5,0,3:0:0:0:
89,189,207912,1,0,3:0:0:0:
133,197,208003,1,0,3:0:0:0:
178,193,208094,1,0,3:0:0:0:
222,182,208185,1,0,3:0:0:0:
266,178,208276,1,0,3:0:0:0:
311,182,208366,1,0,3:0:0:0:
355,193,208457,1,0,3:0:0:0:
399,178,208548,5,0,3:0:0:0:
374,140,208639,1,0,3:0:0:0:
339,112,208730,1,0,3:0:0:0:
297,98,208821,1,0,3:0:0:0:
252,99,208912,1,0,3:0:0:0:
210,114,209003,1,0,3:0:0:0:
176,143,209094,1,0,3:0:0:0:
153,182,209185,1,0,3:0:0:0:
145,226,209276,1,0,3:0:0:0:
152,270,209366,1,0,3:0:0:0:
173,310,209457,1,0,3:0:0:0:
206,340,209548,1,0,3:0:0:0:
267,324,209639,5,0,3:0:0:0:
222,320,209730,1,0,3:0:0:0:
177,316,209821,1,0,3:0:0:0:
132,313,209912,1,0,3:0:0:0:
86,310,210003,6,0,P|58:217|67:164,2,135,0|0|0,3:0|3:0|3:0,3:0:0:0:
182,231,210730,2,0,P|162:180|165:125,1,90,0|0,3:0|3:0,3:0:0:0:
182,40,211094,1,0,3:0:0:0:
334,223,211276,1,0,3:0:0:0:
334,223,211366,1,0,3:0:0:0:
334,223,211457,2,0,P|343:277|318:343,1,90,0|0,3:0|3:0,3:0:0:0:
169,327,211821,1,0,3:0:0:0:
286,156,212003,5,0,3:0:0:0:
330,148,212094,1,0,3:0:0:0:
375,140,212185,2,0,P|377:88|353:45,1,90,0|0,3:0|3:0,3:0:0:0:
71,186,212730,6,0,P|79:200|99:202,1,22.5,0|0,3:0|3:0,3:0:0:0:
141,161,212912,2,0,P|131:204|136:282,1,90,0|0,3:0|3:0,3:0:0:0:
385,328,213639,6,0,L|396:201,1,90,0|0,3:0|3:0,3:0:0:0:
405,117,214007,1,0,3:0:0:0:
218,229,214189,2,0,B|304:194|304:274|416:230,1,180,0|0,3:0|3:0,3:0:0:0:
273,122,214734,2,0,P|231:123|173:143,1,90,0|0,3:0|3:0,3:0:0:0:
53,263,215098,2,0,P|101:280|168:267,1,90,0|0,3:0|3:0,3:0:0:0:
272,248,215469,1,0,3:0:0:0:
170,40,215651,2,0,P|127:90|116:205,1,180,0|0,3:0|3:0,3:0:0:0:
275,47,216196,1,0,3:0:0:0:
36,116,216378,1,0,3:0:0:0:
222,154,216560,6,0,B|299:193|299:193|410:175,1,180,0|0,3:0|3:0,3:0:0:0:
495,144,217096,1,0,3:0:0:0:
310,19,217278,2,0,P|301:57|307:131,1,90,0|0,3:0|3:0,3:0:0:0:
428,269,217641,2,0,P|447:228|433:148,1,90,0|0,3:0|3:0,3:0:0:0:
306,229,217914,1,0,3:0:0:0:
305,249,218005,2,0,L|294:362,1,90,0|0,3:0|3:0,3:0:0:0:
164,283,218369,5,0,3:0:0:0:
402,298,218551,1,0,3:0:0:0:
84,343,218732,1,0,3:0:0:0:
209,241,218914,5,0,3:0:0:0:
217,209,219005,1,0,3:0:0:0:
215,176,219096,1,0,3:0:0:0:
202,145,219187,1,0,3:0:0:0:
179,121,219278,1,0,3:0:0:0:
150,106,219369,1,0,3:0:0:0:
118,100,219460,6,0,P|113:147|135:233,1,103.500001974106,0|0,3:0|3:0,3:0:0:0:
308,306,219823,2,0,P|320:254|302:189,1,103.500001974106,0|0,3:0|3:0,3:0:0:0:
258,98,220187,1,0,3:0:0:0:
191,260,220369,1,0,3:0:0:0:
417,228,220551,2,0,L|532:210,1,103.500001974106,0|0,3:0|3:0,3:0:0:0:
354,116,220914,2,0,L|223:134,1,103.500001974106,0|0,3:0|3:0,3:0:0:0:
150,171,221278,5,0,3:0:0:0:
59,132,221460,2,0,P|47:74|53:5,1,103.500001974106,0|0,3:0|3:0,3:0:0:0:
239,76,221823,2,0,P|185:88|111:75,1,103.500001974106,0|0,3:0|3:0,3:0:0:0:
328,29,222187,1,0,3:0:0:0:
212,194,222369,6,0,P|281:206|381:181,1,155.250002961159,0|0,3:0|3:0,3:0:0:0:
396,177,222732,5,0,3:0:0:0:
251,124,222914,1,0,3:0:0:0:
348,332,223096,5,0,3:0:0:0:
228,90,223278,1,0,3:0:0:0:
149,330,223460,5,0,3:0:0:0:
332,146,223641,1,0,3:0:0:0:
36,195,223823,5,0,3:0:0:0:
326,240,224005,1,0,3:0:0:0:
92,120,224187,5,0,3:0:0:0:
338,62,224369,1,0,3:0:0:0:
122,283,224551,5,0,3:0:0:0:
211,38,224721,1,0,3:0:0:0:
293,344,224903,5,0,3:0:0:0:
260,122,225077,1,0,3:0:0:0:
114,293,225259,5,0,3:0:0:0:
351,186,225441,1,0,3:0:0:0:
93,109,225623,1,0,3:0:0:0:
293,314,225805,5,0,3:0:0:0:
365,30,225986,1,0,3:0:0:0:
100,199,226168,1,0,3:0:0:0:
434,272,226350,5,0,3:0:0:0:
241,57,226532,1,0,3:0:0:0:
157,330,226714,5,0,3:0:0:0:
344,172,226896,1,0,3:0:0:0:
150,235,227077,5,0,3:0:0:0:
457,271,227259,1,0,3:0:0:0:
51,176,227441,5,0,3:0:0:0:
445,112,227623,1,0,3:0:0:0:
103,86,227805,5,0,3:0:0:0:
504,183,227975,1,0,3:0:0:0:
253,218,228175,6,0,P|191:237|109:225,1,125.999996154785,0|0,3:0|3:0,3:0:0:0:
50,176,228720,1,0,3:0:0:0:
170,85,228902,2,0,L|185:171,1,62.9999980773926,0|0,3:0|3:0,3:0:0:0:
200,249,229265,1,0,3:0:0:0:
295,185,229447,2,0,P|341:134|405:127,1,125.999996154785,0|0,3:0|3:0,3:0:0:0:
428,271,230003,2,0,P|406:245|390:213,1,62.9999980773926,0|0,3:0|3:0,3:0:0:0:
326,370,230367,2,0,L|316:294,1,62.9999980773926,0|0,3:0|3:0,3:0:0:0:
182,214,230730,6,0,L|106:246,1,62.9999980773926,0|0,3:0|3:0,3:0:0:0:
52,316,231094,2,0,P|123:322|195:301,1,125.999996154785,0|0,3:0|3:0,3:0:0:0:
272,255,231639,1,0,3:0:0:0:
111,177,231821,2,0,L|128:257,2,62.9999980773926,0|0|0,3:0|3:0|3:0,3:0:0:0:
64,103,232367,2,0,P|126:68|203:77,1,125.999996154785,0|0,3:0|3:0,3:0:0:0:
294,181,232912,6,0,P|264:182|206:161,1,62.9999980773926,0|0,3:0|3:0,3:0:0:0:
314,57,233276,2,0,P|350:61|403:75,1,62.9999980773926,0|0,3:0|3:0,3:0:0:0:
403,265,233639,1,0,3:0:0:0:
444,148,233821,1,0,3:0:0:0:
280,264,234003,6,0,P|342:277|420:255,1,125.999996154785,0|0,3:0|3:0,3:0:0:0:
493,228,234548,1,0,3:0:0:0:
331,152,234730,2,0,P|303:146|242:158,1,62.9999980773926,0|0,3:0|3:0,3:0:0:0:
169,186,235094,1,0,3:0:0:0:
130,302,235276,2,0,P|163:239|167:166,1,125.999996154785,0|0,3:0|3:0,3:0:0:0:
42,99,235826,2,0,P|41:126|51:177,1,62.9999980773926,0|0,3:0|3:0,3:0:0:0:
169,90,236190,2,0,P|170:53|161:16,1,62.9999980773926,0|0,3:0|3:0,3:0:0:0:
278,105,236553,6,0,L|292:175,1,62.9999980773926,0|0,3:0|3:0,3:0:0:0:
380,68,236917,2,0,P|343:32|246:24,1,125.999996154785,0|0,3:0|3:0,3:0:0:0:
169,90,237644,1,0,3:0:0:0:
324,146,237826,6,0,P|298:132|277:101,1,62.9999980773926,0|0,3:0|3:0,3:0:0:0:
436,88,238190,2,0,P|438:155|411:227,1,125.999996154785,0|0,3:0|3:0,3:0:0:0:
290,293,238735,6,0,P|293:253|303:215,3,62.9999980773926,0|0|0|0,3:0|3:0|3:0|3:0,3:0:0:0:
415,273,239462,1,0,3:0:0:0:
336,380,239644,1,0,3:0:0:0:
167,291,239826,6,0,L|146:151,1,125.999996154785,0|0,3:0|3:0,3:0:0:0:
128,57,240553,1,0,3:0:0:0:
55,211,240917,1,0,3:0:0:0:
237,165,241099,5,0,3:0:0:0:
238,133,241190,1,0,3:0:0:0:
240,102,241281,1,0,3:0:0:0:
244,8,241462,1,0,3:0:0:0:
339,94,241627,2,0,P|287:139|215:171,1,125.999996154785,0|0,3:0|3:0,3:0:0:0:
112,187,242173,1,0,3:0:0:0:
169,65,242355,6,0,P|175:95|170:138,1,62.9999980773926,0|0,3:0|3:0,3:0:0:0:
35,208,242718,2,0,P|38:150|81:94,1,125.999996154785,0|0,3:0|3:0,3:0:0:0:
121,224,243446,1,0,3:0:0:0:
236,111,243627,6,0,L|250:196,1,62.9999980773926,0|0,3:0|3:0,3:0:0:0:
268,278,243991,1,0,3:0:0:0:
298,286,244077,1,0,3:0:0:0:
329,288,244168,1,0,3:0:0:0:
416,292,244350,1,0,3:0:0:0:
397,167,244532,2,0,L|415:279,1,94.499997116089,0|0,3:0|3:0,3:0:0:0:
416,292,244896,1,0,3:0:0:0:
279,311,245077,2,0,P|247:309|218:297,2,62.9999980773926,0|0|0,3:0|3:0|3:0,3:0:0:0:
304,212,245628,6,0,L|290:88,1,94.499997116089,0|0,3:0|3:0,3:0:0:0:
224,51,246013,2,0,L|247:175,1,125.999996154785,0|0,3:0|3:0,3:0:0:0:
187,318,246740,5,0,3:0:0:0:
187,318,246922,2,0,B|158:198|158:198|130:274,1,188.999994232178,0|0,3:0|3:0,3:0:0:0:
95,356,247831,1,0,3:0:0:0:
289,252,248195,6,0,P|295:194|274:154,1,94.499997116089,0|0,3:0|3:0,3:0:0:0:
314,96,248559,2,0,P|336:180|371:82,1,251.999992309571,0|0,3:0|3:0,3:0:0:0:
160,70,249468,6,0,P|159:98|173:158,1,62.9999980773926,0|0,3:0|3:0,3:0:0:0:
213,209,249831,2,0,P|148:221|72:65,1,251.999992309571,0|0,3:0|3:0,3:0:0:0:
258,126,250733,1,0,3:0:0:0:
258,126,250914,1,0,3:0:0:0:
186,221,251460,6,0,L|182:325,1,76.5000014591217,0|0,3:0|3:0,3:0:0:0:
355,217,251809,2,0,L|369:308,1,76.5000014591217,0|0,3:0|3:0,3:0:0:0:
79,279,252173,2,0,L|96:375,1,76.5000014591217,0|0,3:0|3:0,3:0:0:0:
271,222,252536,2,0,L|252:126,1,76.5000014591217,0|0,3:0|3:0,3:0:0:0:
104,148,252900,2,0,P|177:157|270:142,1,153.000002918243,0|0,3:0|3:0,3:0:0:0:
405,53,253446,2,0,P|329:33|228:60,1,153.000002918243,0|0,3:0|3:0,3:0:0:0:
168,81,253991,1,0,3:0:0:0:
340,111,254173,5,0,3:0:0:0:
344,148,254264,1,0,3:0:0:0:
349,187,254355,2,0,P|400:119|403:39,1,153.000002918243,0|0,3:0|3:0,3:0:0:0:
306,45,254900,1,0,3:0:0:0:
246,141,255082,6,0,P|245:172|258:231,1,76.5000014591217,0|0,3:0|3:0,3:0:0:0:
385,317,255446,2,0,P|384:272|368:213,1,76.5000014591217,0|0,3:0|3:0,3:0:0:0:
143,294,255809,2,0,P|217:313|311:308,1,153.000002918243,0|0,3:0|3:0,3:0:0:0:
127,219,256355,6,0,P|129:248|150:318,1,76.5000014591217,0|0,3:0|3:0,3:0:0:0:
264,237,256718,5,0,3:0:0:0:
276,209,256809,1,0,3:0:0:0:
284,179,256900,1,0,3:0:0:0:
285,149,256991,1,0,3:0:0:0:
282,118,257082,1,0,3:0:0:0:
272,89,257173,1,0,3:0:0:0:
261,64,257264,2,0,L|114:87,1,114.750002188683,0|0,3:0|3:0,3:0:0:0:
48,177,257627,6,0,L|108:174,3,38.2500007295609,0|0|0|0,3:0|3:0|3:0|3:0,3:0:0:0:
210,234,257991,2,0,L|146:243,3,38.2500007295609,0|0|0|0,3:0|3:0|3:0|3:0,3:0:0:0:
68,286,258355,5,0,3:0:0:0:
91,316,258446,1,0,3:0:0:0:
122,337,258536,1,0,3:0:0:0:
159,348,258627,1,0,3:0:0:0:
197,347,258718,1,0,3:0:0:0:
233,334,258809,1,0,3:0:0:0:
263,311,258900,1,0,3:0:0:0:
284,280,258991,1,0,3:0:0:0:
295,243,259082,1,0,3:0:0:0:
303,204,259173,5,0,3:0:0:0:
340,196,259264,1,0,3:0:0:0:
374,212,259355,1,0,3:0:0:0:
390,246,259446,1,0,3:0:0:0:
382,282,259536,1,0,3:0:0:0:
354,308,259627,1,0,3:0:0:0:
317,317,259718,1,0,3:0:0:0:
280,313,259809,1,0,3:0:0:0:
245,296,259900,1,0,3:0:0:0:
219,268,259991,1,0,3:0:0:0:
207,232,260082,1,0,3:0:0:0:
188,163,260173,5,0,3:0:0:0:
95,234,260355,2,0,P|80:248|57:294,2,38.2500007295609,0|0|0,3:0|3:0|3:0,3:0:0:0:
245,243,260718,1,0,3:0:0:0:
83,144,260900,2,0,P|65:133|14:125,2,38.2500007295609,0|0|0,3:0|3:0|3:0,3:0:0:0:
307,243,261264,6,0,P|307:291|293:346,1,76.5000014591217,0|0,3:0|3:0,3:0:0:0:
291,342,261536,1,0,3:0:0:0:
279,362,261627,1,0,3:0:0:0:
79,269,261809,5,0,3:0:0:0:
123,263,261906,1,0,3:0:0:0:
168,258,261997,1,0,3:0:0:0:
213,253,262088,1,0,3:0:0:0:
258,247,262179,1,0,3:0:0:0:
303,242,262270,1,0,3:0:0:0:
349,237,262361,5,0,3:0:0:0:
335,201,262452,1,0,3:0:0:0:
306,177,262543,1,0,3:0:0:0:
269,170,262634,1,0,3:0:0:0:
233,182,262725,1,0,3:0:0:0:
208,210,262816,1,0,3:0:0:0:
200,247,262906,1,0,3:0:0:0:
210,283,262997,1,0,3:0:0:0:
235,315,263088,6,0,L|414:319,1,153.000002918243,0|0,3:0|3:0,3:0:0:0:
317,92,264179,5,0,3:0:0:0:
317,92,264543,2,0,B|274:159|351:159|307:258,1,153.000002918243,0|0,3:0|3:0,3:0:0:0:
151,314,265088,2,0,P|138:255|142:223,1,76.5000014591217,0|0,3:0|3:0,3:0:0:0:
220,174,265452,2,0,P|232:210|226:268,1,76.5000014591217,0|0,3:0|3:0,3:0:0:0:
64,258,265816,2,0,L|46:98,1,153.000002918243,0|0,3:0|3:0,3:0:0:0:
64,258,266361,1,0,3:0:0:0:
270,248,267088,5,0,3:0:0:0:
270,248,267452,2,0,B|265:217|278:200|278:200|223:169|232:116,1,153.000002918243,0|0,3:0|3:0,3:0:0:0:
405,36,267997,2,0,P|374:91|330:123,1,114.750002188683,0|0,3:0|3:0,3:0:0:0:
308,131,268361,1,0,3:0:0:0:
294,36,268543,1,0,3:0:0:0:
294,36,268725,1,0,3:0:0:0:
422,231,268906,6,0,L|261:249,1,153.000002918243,0|0,3:0|3:0,3:0:0:0:
177,256,269997,5,0,3:0:0:0:
68,153,270725,5,0,3:0:0:0:
68,153,271088,6,0,B|108:150|131:190|131:190|154:140|210:121,1,153.000002918243,0|0,3:0|3:0,3:0:0:0:
326,158,271816,6,0,P|246:161|172:129,1,153.000002918243,0|0,3:0|3:0,3:0:0:0:
179,134,272361,1,0,3:0:0:0:
201,240,272543,2,0,B|244:310|174:313|223:393,1,153.000002918243,0|0,3:0|3:0,3:0:0:0:
201,240,273088,5,0,3:0:0:0:
285,334,273270,2,0,P|353:344|446:317,1,153.000002918243,0|0,3:0|3:0,3:0:0:0:
503,274,273816,1,0,3:0:0:0:
305,187,273997,2,0,P|313:229|344:286,1,76.5000014591217,0|0,3:0|3:0,3:0:0:0:
411,256,274361,1,0,3:0:0:0:
389,119,274543,5,0,3:0:0:0:
353,108,274634,1,0,3:0:0:0:
316,105,274725,2,0,P|276:104|214:127,1,76.5000014591217,0|0,3:0|3:0,3:0:0:0:
153,171,275088,1,0,3:0:0:0:
235,272,275270,2,0,P|260:232|271:193,2,76.5000014591217,0|0|0,3:0|3:0|3:0,3:0:0:0:
143,347,275815,6,0,P|155:290|153:247,1,76.5000014591217,0|0,3:0|3:0,3:0:0:0:
34,171,276179,2,0,P|29:206|37:253,1,76.5000014591217,0|0,3:0|3:0,3:0:0:0:
72,315,276543,1,0,3:0:0:0:
163,196,276725,2,0,P|202:187|255:194,1,76.5000014591217,0|0,3:0|3:0,3:0:0:0:
114,112,277088,2,0,P|67:103|20:106,1,76.5000014591217,0|0,3:0|3:0,3:0:0:0:
214,63,277452,1,0,3:0:0:0:
214,63,277543,1,0,3:0:0:0:
214,63,277634,2,0,B|294:34|296:85|375:64,1,153.000002918243,0|0,3:0|3:0,3:0:0:0:
314,277,278725,5,0,3:0:0:0:
314,277,279088,2,0,P|261:198|262:114,1,153.000002918243,0|0,3:0|3:0,3:0:0:0:
424,142,279634,2,0,P|468:205|477:308,1,153.000002918243,0|0,3:0|3:0,3:0:0:0:
369,351,280179,2,0,P|348:296|343:258,1,76.5000014591217,0|0,3:0|3:0,3:0:0:0:
297,175,280543,2,0,P|296:243|281:353,1,153.000002918243,0|0,3:0|3:0,3:0:0:0:
101,267,281634,5,0,3:0:0:0:
101,267,281997,2,0,B|176:233|180:286|272:251,1,153.000002918243,0|0,3:0|3:0,3:0:0:0:
340,235,282543,1,0,3:0:0:0:
194,109,282906,2,0,P|198:147|212:194,1,76.5000014591217,0|0,3:0|3:0,3:0:0:0:
333,104,283270,2,0,P|331:63|316:16,1,76.5000014591217,0|0,3:0|3:0,3:0:0:0:
320,29,283815,1,0,3:0:0:0:
319,209,284543,5,0,3:0:0:0:
319,209,284906,2,0,B|237:234|235:184|149:219,1,153.000002918243,0|0,3:0|3:0,3:0:0:0:
198,358,285452,2,0,L|207:274,1,76.5000014591217,0|0,3:0|3:0,3:0:0:0:
211,170,285815,1,0,3:0:0:0:
94,293,285997,1,0,3:0:0:0:
15,146,286179,1,0,3:0:0:0:
15,146,286270,1,0,3:0:0:0:
15,146,286361,6,0,L|150:116,1,135,0|0,3:0|3:0,3:0:0:0:
172,111,286730,1,0,3:0:0:0:
74,223,286912,1,0,3:0:0:0:
215,36,287094,5,0,3:0:0:0:
251,239,287276,1,0,3:0:0:0:
130,92,287457,1,0,3:0:0:0:
355,175,287639,5,0,3:0:0:0:
252,35,287821,1,0,3:0:0:0:
207,281,288003,1,0,3:0:0:0:
448,225,288185,5,0,3:0:0:0:
225,153,288367,1,0,3:0:0:0:
382,322,288548,1,0,3:0:0:0:
379,64,288730,5,0,3:0:0:0:
290,341,288912,1,0,3:0:0:0:
165,85,289094,1,0,3:0:0:0:
80,325,289276,6,0,P|127:326|230:274,1,135,0|0,3:0|3:0,3:0:0:0:
234,279,289639,1,0,3:0:0:0:
144,160,289821,1,0,3:0:0:0:
176,336,290003,1,0,3:0:0:0:
240,80,290185,1,0,3:0:0:0:
304,320,290367,1,0,3:0:0:0:
352,16,290548,1,0,3:0:0:0:
432,320,290730,6,0,P|368:352|261:318,1,180,0|0,3:0|3:0,3:0:0:0:
323,99,291276,2,0,L|339:189,1,90,0|0,3:0|3:0,3:0:0:0:
352,272,291639,1,0,3:0:0:0:
240,48,291821,1,0,3:0:0:0:
240,320,292003,1,0,3:0:0:0:
130,255,292185,6,0,P|95:159|91:116,1,135,0|0,3:0|3:0,3:0:0:0:
95,96,292553,1,0,3:0:0:0:
272,208,292735,1,0,3:0:0:0:
48,192,292917,1,0,3:0:0:0:
320,112,293099,1,0,3:0:0:0:
128,112,293280,1,0,3:0:0:0:
400,160,293462,1,0,3:0:0:0:
208,48,293644,1,0,3:0:0:0:
464,96,293826,1,0,3:0:0:0:
208,224,294008,1,0,3:0:0:0:
320,48,294190,1,0,3:0:0:0:
368,320,294371,1,0,3:0:0:0:
448,160,294553,1,0,3:0:0:0:
288,272,294735,5,0,3:0:0:0:
236,284,294826,1,0,3:0:0:0:
186,267,294917,1,0,3:0:0:0:
135,258,295008,1,0,3:0:0:0:
80,272,295099,2,0,P|61:144|61:144,1,90,0|0,3:0|3:0,3:0:0:0:
160,0,295371,1,0,3:0:0:0:
160,0,295462,2,0,L|181:132,1,90,0|0,3:0|3:0,3:0:0:0:
176,336,295826,5,0,3:0:0:0:
176,336,295917,1,0,3:0:0:0:
176,336,296008,2,0,P|224:336|294:299,1,90,0|0,3:0|3:0,3:0:0:0:
464,224,296371,1,0,3:0:0:0:
208,240,296553,5,0,3:0:0:0:
174,219,296644,1,0,3:0:0:0:
151,187,296735,1,0,3:0:0:0:
143,148,296826,1,0,3:0:0:0:
149,110,296917,1,0,3:0:0:0:
170,77,297008,1,0,3:0:0:0:
202,54,297099,1,0,3:0:0:0:
381,250,297280,5,0,3:0:0:0:
336,255,297371,1,0,3:0:0:0:
291,260,297462,1,0,3:0:0:0:
247,266,297553,1,0,3:0:0:0:
202,271,297644,1,0,3:0:0:0:
157,277,297735,1,0,3:0:0:0:
113,282,297826,1,0,3:0:0:0:
75,72,298190,6,0,P|91:99|90:106,1,22.5,0|0,3:0|3:0,3:0:0:0:
130,172,298322,2,0,B|141:45|141:45|172:115,1,180,0|0,3:0|3:0,3:0:0:0:
269,139,298907,5,0,3:0:0:0:
275,174,298998,1,0,3:0:0:0:
274,210,299089,1,0,3:0:0:0:
265,245,299180,1,0,3:0:0:0:
249,277,299271,1,0,3:0:0:0:
227,305,299362,1,0,3:0:0:0:
191,325,299452,2,0,P|156:335|110:338,3,45,0|0|0|0,3:0|3:0|3:0|3:0,3:0:0:0:
40,274,299816,2,0,P|72:275|110:268,1,45,0|0,3:0|3:0,3:0:0:0:
204,210,299998,2,0,P|176:216|151:218,4,45,0|0|0|0|0,3:0|3:0|3:0|3:0|3:0,3:0:0:0:
298,215,300452,1,0,3:0:0:0:
159,217,300543,5,0,3:0:0:0:
140,175,300634,1,0,3:0:0:0:
129,132,300725,1,0,3:0:0:0:
125,87,300816,1,0,3:0:0:0:
124,41,300907,2,0,B|234:2|235:83|352:34,1,207.000003948212,0|0,3:0|3:0,3:0:0:0:
448,209,301460,2,0,P|397:237|318:239,1,103.500001974106,0|0,3:0|3:0,3:0:0:0:
140,194,301824,1,0,3:0:0:0:
317,143,302005,6,0,P|332:95|323:36,1,103.500001974106,0|0,3:0|3:0,3:0:0:0:
137,92,302369,2,0,P|131:136|159:234,1,103.500001974106,0|0,3:0|3:0,3:0:0:0:
262,342,302733,1,0,3:0:0:0:
81,288,302915,1,0,3:0:0:0:
81,288,303005,1,0,3:0:0:0:
81,288,303096,1,0,3:0:0:0:
212,260,303278,5,0,3:0:0:0:
262,248,303369,1,0,3:0:0:0:
312,256,303460,1,0,3:0:0:0:
362,269,303551,1,0,3:0:0:0:
414,266,303642,1,0,3:0:0:0:
414,266,303733,1,0,3:0:0:0:
414,266,303824,2,0,B|456:171|374:172|414:52,1,180,0|0,3:0|3:0,3:0:0:0:
328,220,304369,5,0,3:0:0:0:
284,23,304551,2,0,P|310:59|320:117,1,90,0|0,3:0|3:0,3:0:0:0:
178,207,304902,2,0,P|147:145|144:103,1,90,0|0,3:0|3:0,3:0:0:0:
335,182,305266,1,0,3:0:0:0:
178,207,305448,2,0,B|94:235|94:160|-27:221,1,180,0|0,3:0|3:0,3:0:0:0:
28,369,305993,2,0,P|48:310|48:277,1,90,0|0,3:0|3:0,3:0:0:0:
125,376,306357,1,0,3:0:0:0:
145,176,306538,5,0,3:0:0:0:
156,125,306629,1,0,3:0:0:0:
168,74,306720,2,0,P|177:136|211:184,1,90,0|0,3:0|3:0,3:0:0:0:
258,322,307097,1,0,3:0:0:0:
273,118,307279,1,0,3:0:0:0:
424,309,307461,2,0,P|349:286|239:342,1,180,0|0,3:0|3:0,3:0:0:0:
72,257,308188,5,0,3:0:0:0:
242,187,308370,1,0,3:0:0:0:
170,346,308552,1,0,3:0:0:0:
141,127,308734,1,0,3:0:0:0:
245,273,308915,2,0,P|322:293|416:273,1,155.250002961159,0|0,3:0|3:0,3:0:0:0:
462,255,309279,5,0,3:0:0:0:
411,245,309370,1,0,3:0:0:0:
360,235,309461,1,0,3:0:0:0:
309,225,309552,1,0,3:0:0:0:
262,215,309643,2,0,P|297:153|289:52,1,155.250002961159,0|0,3:0|3:0,3:0:0:0:
183,205,310006,1,0,3:0:0:0:
95,83,310188,5,0,3:0:0:0:
95,83,310370,2,0,B|166:49|169:122|273:71,1,155.250002961159,0|0,3:0|3:0,3:0:0:0:
299,73,310734,6,0,L|306:137,1,51.7500009870529,0|0,3:0|3:0,3:0:0:0:
400,234,310915,2,0,L|395:177,1,51.7500009870529,0|0,3:0|3:0,3:0:0:0:
428,83,311097,2,0,L|400:259,1,155.250002961159,0|0,3:0|3:0,3:0:0:0:
391,314,311461,1,0,3:0:0:0:
285,141,311643,1,0,3:0:0:0:
285,141,311824,2,0,P|258:213|314:308,1,155.250002961159,0|0,3:0|3:0,3:0:0:0:
296,324,312188,5,0,3:0:0:0:
244,323,312279,1,0,3:0:0:0:
192,322,312370,1,0,3:0:0:0:
140,321,312461,1,0,3:0:0:0:
89,321,312552,1,0,3:0:0:0:
1,323,312915,5,0,3:0:0:0:
88,105,313097,1,0,3:0:0:0:
255,319,313279,5,0,3:0:0:0:
55,45,313461,1,0,3:0:0:0:
266,361,313643,5,0,3:0:0:0:
381,32,313824,1,0,3:0:0:0:
150,199,314006,1,0,3:0:0:0:
350,300,315461,6,0,B|394:208|308:207|344:107,1,188.999994232178,0|0,3:0|3:0,3:0:0:0:
420,28,316011,1,0,3:0:0:0:
238,104,316193,2,0,L|231:213,1,94.499997116089,0|0,3:0|3:0,3:0:0:0:
111,30,316556,2,0,L|122:126,1,94.499997116089,0|0,3:0|3:0,3:0:0:0:
76,307,316920,6,0,P|115:212|122:115,1,188.999994232178,0|0,3:0|3:0,3:0:0:0:
233,137,317466,2,0,P|229:190|205:262,1,94.499997116089,0|0,3:0|3:0,3:0:0:0:
167,356,317829,1,0,3:0:0:0:
295,349,318011,2,0,P|319:290|327:247,1,94.499997116089,0|0,3:0|3:0,3:0:0:0:
423,194,318375,2,0,P|332:151|235:177,1,188.999994232178,0|0,3:0|3:0,3:0:0:0:
225,265,318920,1,0,3:0:0:0:
122,83,319102,1,0,3:0:0:0:
51,278,319284,1,0,3:0:0:0:
125,175,319466,1,0,3:0:0:0:
182,345,319647,1,0,3:0:0:0:
265,215,319829,6,0,B|246:110|306:135|292:31,1,188.999994232178,0|0,3:0|3:0,3:0:0:0:
377,135,320375,2,0,P|373:171|382:211,1,47.2499985580445,0|0,3:0|3:0,3:0:0:0:
320,266,320556,2,0,P|329:288|335:311,1,47.2499985580445,0|0,3:0|3:0,3:0:0:0:
217,327,320738,1,0,3:0:0:0:
184,314,320829,1,0,3:0:0:0:
155,295,320920,1,0,3:0:0:0:
130,271,321011,1,0,3:0:0:0:
110,242,321102,1,0,3:0:0:0:
97,210,321193,1,0,3:0:0:0:
92,171,321284,6,0,L|195:147,1,94.499997116089,0|0,3:0|3:0,3:0:0:0:
288,24,321647,2,0,L|187:45,1,94.499997116089,0|0,3:0|3:0,3:0:0:0:
231,219,322011,2,0,P|301:173|312:125,1,94.499997116089,0|0,3:0|3:0,3:0:0:0:
365,64,322375,1,0,3:0:0:0:
438,290,322719,6,0,P|358:338|271:294,1,180,0|0,3:0|3:0,3:0:0:0:
244,126,323265,2,0,P|331:169|354:283,1,180,0|0,3:0|3:0,3:0:0:0:
136,251,323810,2,0,L|301:234,1,135,0|0,3:0|3:0,3:0:0:0:
316,232,324174,5,0,3:0:0:0:
365,76,324356,1,0,3:0:0:0:
437,262,324537,1,0,3:0:0:0:
281,60,324719,1,0,3:0:0:0:
281,326,324901,5,0,3:0:0:0:
424,127,325083,1,0,3:0:0:0:
151,148,325265,1,0,3:0:0:0:
380,298,325446,1,0,3:0:0:0:
353,39,325628,5,0,3:0:0:0:
139,343,325810,1,0,3:0:0:0:
162,41,325992,1,0,3:0:0:0:
311,357,326174,1,0,3:0:0:0:
305,46,326356,5,0,3:0:0:0:
56,298,326537,1,0,3:0:0:0:
92,63,326719,1,0,3:0:0:0:
375,299,326901,1,0,3:0:0:0:
464,61,327810,6,0,B|310:153|319:30|117:-62|13:14|-80:215|131:332|235:281|260:203|219:141|219:141|278:175|306:198|316:159|397:163|428:190|456:222|476:271|471:354|402:428|279:380|253:303|303:294|313:262|313:262|273:339|189:358|121:349|39:296,1,1579.49995179749,0|0,3:0|3:0,3:0:0:0:
