osu file format v14

[General]
AudioFilename: audio.mp3
AudioLeadIn: 0
PreviewTime: 102281
Countdown: 0
SampleSet: Soft
StackLeniency: 0.4
Mode: 0
LetterboxInBreaks: 0
WidescreenStoryboard: 1

[Editor]
Bookmarks: 155431,174886
DistanceSpacing: 0.8
BeatDivisor: 4
GridSize: 4
TimelineZoom: 3

[Metadata]
Title:Kimi no shiranai monogatari
TitleUnicode:君の知らない物語
Artist:ClariS
ArtistUnicode:ClariS
Creator:Sotarks
Version:Kalibe's Insane
Source:化物語
Tags:クラリス クララ Clara カレン Karen yanaginagi やなぎなぎ ed ending bakemonogatari shaft nagi yanagi ryo araragi senjougahara hanekawa sengoku kanbaru hachikuji shinobu tsukihi oshino senjou gahara hitagi koyomi supercell kalibe
BeatmapID:1537816
BeatmapSetID:728405

[Difficulty]
HPDrainRate:5.5
CircleSize:4.1
OverallDifficulty:8
ApproachRate:9
SliderMultiplier:1.69
SliderTickRate:1

[Events]
//Background and Video events
0,0,"BG.jpg",0,0
//Break Periods
//Storyboard Layer 0 (Background)
//Storyboard Layer 1 (Fail)
//Storyboard Layer 2 (Pass)
//Storyboard Layer 3 (Foreground)
//Storyboard Sound Samples

[TimingPoints]
555,363.636363636364,4,2,22,32,1,0
555,-161.290322580645,4,2,22,32,0,0
3271,363.636363636364,4,2,22,32,1,8
3452,363.636363636364,4,2,22,32,1,0
3452,-161.290322580645,4,2,22,32,0,0
6361,-200,4,2,22,32,0,0
9270,-200,4,2,22,42,0,0
9633,-138.888888888889,4,2,22,42,0,0
9997,-121.951219512195,4,2,22,42,0,0
12179,-98.0392156862744,4,2,22,52,0,0
13633,-98.0392156862745,4,2,22,52,0,0
14712,363.636363636364,4,2,22,52,1,0
15065,363.636363636364,4,2,22,52,1,0
15065,-98.0392156862745,4,2,22,52,0,0
15807,363.636363636364,4,2,22,52,1,0
16164,363.636363636364,4,2,22,52,1,0
16164,-98.0392156862745,4,2,22,52,0,0
17257,363.636363636364,4,2,22,52,1,8
17257,-98.0392156862745,4,2,22,52,0,8
17971,363.636363636364,4,2,22,52,1,0
17971,-98.0392156862745,4,2,22,52,0,0
19442,363.636363636364,4,2,22,52,1,0
19442,-98.0392156862745,4,2,22,52,0,0
20623,-98.0392156862745,4,2,22,52,0,0
20714,-98.0392156862745,4,2,22,52,0,0
21442,-89.2857142857143,4,2,22,62,0,0
21714,-89.2857142857143,4,2,22,5,0,0
21805,-89.2857142857143,4,2,22,62,0,0
22169,-81.9672131147541,4,2,22,62,0,0
22442,-81.9672131147541,4,2,22,5,0,0
22532,-81.9672131147541,4,2,22,62,0,0
23814,363.636363636364,4,2,22,52,1,0
23814,-98.0392156862745,4,2,22,52,0,0
25265,363.636363636364,4,2,22,52,1,0
25265,-98.0392156862745,4,2,22,52,0,0
26719,-98.0392156862745,4,2,22,52,0,0
29628,-200,4,2,22,42,0,0
32566,363.636363636364,4,2,22,42,1,0
32566,-161.290322580645,4,2,22,42,0,0
36900,-161.290322580645,4,2,22,42,0,0
38346,-161.290322580645,4,2,22,42,0,0
39819,363.636363636364,4,2,22,42,1,0
39819,-161.290322580645,4,2,22,42,0,0
41265,363.636363636364,4,2,22,52,1,0
41265,-121.951219512195,4,2,22,52,0,0
47075,363.636363636364,4,2,22,52,1,0
47075,-121.951219512195,4,2,22,52,0,0
55270,363.636363636364,4,2,22,52,1,0
55270,-121.951219512195,4,2,22,52,0,0
55835,363.636363636364,4,2,22,52,1,0
55835,-108.695652173913,4,2,22,52,0,0
57279,363.636363636364,4,2,22,52,1,0
57279,-108.695652173913,4,2,22,52,0,0
61452,363.636363636364,4,2,22,52,1,0
61989,363.636363636364,4,2,22,52,1,8
63844,363.636363636364,4,2,22,52,1,0
64177,363.636363636364,4,2,22,52,1,0
65989,363.636363636364,4,2,22,52,1,0
65989,-133.333333333333,4,2,22,52,0,0
67441,363.636363636364,4,2,22,62,1,1
67441,-98.0392156862745,4,2,22,62,0,1
68885,363.636363636364,4,2,22,62,1,1
68885,-98.0392156862745,4,2,22,62,0,1
75430,-89.2857142857143,4,2,22,62,0,1
75703,-89.2857142857143,4,2,22,5,0,1
75794,-89.2857142857143,4,2,22,62,0,1
76066,-89.2857142857143,4,2,22,5,0,1
76177,363.636363636364,4,2,22,62,1,1
76177,-98.0392156862745,4,2,22,62,0,1
79066,-98.0392156862745,4,2,22,62,0,1
84521,-113.636363636364,4,2,22,62,0,1
84904,-108.695652173913,4,2,22,52,0,0
86376,363.636363636364,4,2,22,52,1,0
86376,-108.695652173913,4,2,22,52,0,0
90739,-108.695652173913,4,2,22,62,0,1
91092,363.636363636364,4,2,22,62,1,1
91092,-108.695652173913,4,2,22,62,0,1
93612,-81.9672131147541,4,2,22,62,0,1
95092,-81.9672131147541,4,2,22,62,0,0
95612,-108.695652173913,4,2,22,62,0,0
96546,363.636363636364,4,2,22,62,1,0
96546,-98.0392156862745,4,2,22,62,0,0
96915,363.636363636364,4,2,22,52,1,8
96915,-98.0392156862745,4,2,22,52,0,8
97996,363.636363636364,4,2,22,52,1,0
97996,-98.0392156862745,4,2,22,52,0,0
100722,363.636363636364,4,2,22,52,1,0
101100,363.636363636364,4,2,22,52,1,0
102358,363.636363636364,4,2,22,52,1,0
102358,-121.951219512195,4,2,22,52,0,0
106713,363.636363636364,4,2,22,52,1,0
106713,-121.951219512195,4,2,22,52,0,0
112904,363.636363636364,4,2,22,52,1,0
113107,363.636363636364,4,2,22,52,1,0
113107,-121.951219512195,4,2,22,52,0,0
113994,363.636363636364,4,2,22,52,1,0
113994,-108.695652173913,4,2,22,52,0,0
115436,363.636363636364,4,2,22,52,1,0
115436,-108.695652173913,4,2,22,52,0,0
116531,363.636363636364,4,2,22,52,1,8
116531,-108.695652173913,4,2,22,52,0,8
116894,363.636363636364,4,2,22,52,1,0
116894,-108.695652173913,4,2,22,52,0,0
119795,363.636363636364,4,2,22,52,1,0
119795,-108.695652173913,4,2,22,52,0,0
120893,363.636363636364,4,2,22,52,1,8
120893,-98.0392156862745,4,2,22,52,0,8
121256,363.636363636364,4,2,22,52,1,0
121256,-108.695652173913,4,2,22,52,0,0
121615,363.636363636364,4,2,22,52,1,8
121615,-98.0392156862745,4,2,22,52,0,8
121978,-108.695652173913,4,2,22,52,0,8
122347,363.636363636364,4,2,22,52,1,8
122347,-98.0392156862745,4,2,22,52,0,8
122710,363.636363636364,4,2,22,52,1,0
122710,-108.695652173913,4,2,22,52,0,0
123073,-98.0392156862745,4,2,22,52,0,0
123437,-108.695652173913,4,2,22,52,0,0
123800,-98.0392156862745,4,2,22,52,0,0
124168,363.636363636364,4,2,22,52,1,0
124168,-108.695652173913,4,2,22,52,0,0
124531,-98.0392156862745,4,2,22,52,0,0
124895,-108.695652173913,4,2,22,52,0,0
125631,363.636363636364,4,2,22,52,1,0
126000,363.636363636364,4,2,22,52,1,0
127812,-108.695652173913,4,2,22,52,0,0
131435,363.636363636364,4,2,22,52,1,0
131435,-108.695652173913,4,2,22,52,0,0
132705,363.636363636364,4,2,22,52,1,8
132886,363.636363636364,4,2,22,52,1,0
132886,-98.0392156862745,4,2,22,52,0,0
133259,363.636363636364,4,2,22,52,1,0
133976,-75.7575757575758,4,2,22,52,0,0
134351,363.636363636364,4,2,22,52,1,0
135815,363.636363636364,4,2,22,52,1,0
138704,-166.666666666667,4,2,22,52,0,0
138977,-100,4,2,22,52,0,0
140178,-98.0392156862745,4,2,22,62,0,1
145443,363.636363636364,4,2,22,62,1,1
145443,-98.0392156862745,4,2,22,62,0,1
146000,363.636363636364,4,2,22,62,1,1
146000,-98.0392156862745,4,2,22,62,0,1
148159,-81.9672131147541,4,2,22,62,0,1
148886,-98.0392156862745,4,2,22,62,0,1
151795,-98.0392156862745,4,2,22,62,0,1
157636,-108.695652173913,4,2,22,52,0,0
163431,-98.0392156862745,4,2,22,52,0,1
163454,-98.0392156862745,4,2,22,62,0,1
166340,-89.2857142857143,4,2,22,62,0,1
167795,-75.7575757575758,4,2,22,62,0,0
168704,-121.951219512195,4,2,22,62,0,0
169286,363.636363636364,4,2,22,72,1,1
169646,363.636363636364,4,2,22,72,1,9
170373,363.636363636364,4,2,22,72,1,9
172191,363.636363636364,4,2,22,72,1,9
173819,363.636363636364,4,2,22,72,1,9
175079,363.636363636364,4,2,22,42,1,0
175079,-138.888888888889,4,2,22,42,0,0
177614,363.636363636364,4,2,22,62,1,0
177614,-138.888888888889,4,2,22,62,0,0
177816,363.636363636364,4,2,22,62,1,0
178351,363.636363636364,4,2,22,42,1,0
178351,-138.888888888889,4,2,22,42,0,0
180542,363.636363636364,4,2,22,42,1,0
180920,363.636363636364,4,2,22,52,1,0
180920,-108.695652173913,4,2,22,52,0,0
183815,363.636363636364,4,2,22,52,1,0
183815,-108.695652173913,4,2,22,52,0,0
185988,363.636363636364,4,2,22,52,1,8
185988,-108.695652173913,4,2,22,52,0,0
186624,-100,4,2,22,52,0,8
186715,363.636363636364,4,2,22,52,1,0
186715,-121.951219512195,4,2,22,52,0,0
189634,363.636363636364,4,2,22,52,1,0
189634,-108.695652173913,4,2,22,52,0,0
191078,-138.888888888889,4,2,22,52,0,0
192537,363.636363636364,4,2,22,52,1,8
192537,-121.951219512195,4,2,22,52,0,8
193602,-121.951219512195,4,2,22,52,0,0
198373,363.636363636364,4,2,22,72,1,1
198373,-98.0392156862745,4,2,22,72,0,1
201270,363.636363636364,4,2,22,72,1,1
202009,363.636363636364,4,2,22,52,1,0
202009,-98.0392156862745,4,2,22,52,0,0
204817,363.636363636364,4,2,22,52,1,0
204890,363.636363636364,4,2,22,52,1,0
204890,-98.0392156862745,4,2,22,52,0,0
208170,363.636363636364,4,2,22,52,1,0
208170,-98.0392156862745,4,2,22,52,0,0
208552,363.636363636364,4,2,22,52,1,0
208552,-98.0392156862745,4,2,22,52,0,0
210728,363.636363636364,4,2,22,52,1,0
210728,-98.0392156862745,4,2,22,52,0,0
212195,363.636363636364,4,2,22,52,1,0
212751,363.636363636364,4,2,22,52,1,0
213626,363.636363636364,4,2,22,52,1,0
213626,-121.951219512195,4,2,22,52,0,0
219431,-108.695652173913,4,2,22,52,0,0
225249,-98.0392156862745,4,2,22,52,0,0
225262,-98.0392156862745,4,2,22,62,0,0
226716,-98.0392156862745,4,2,22,72,0,1
227789,363.636363636364,4,2,22,72,1,1
227789,-138.888888888889,4,2,22,72,0,1
228171,363.636363636364,4,2,22,32,1,0
228171,-200,4,2,22,32,0,0
229274,363.636363636364,4,2,22,32,1,0
229274,-200,4,2,22,32,0,0
239799,363.636363636364,4,2,22,32,1,0
239799,-161.290322580645,4,2,22,32,0,0
240536,363.636363636364,4,2,22,32,1,0
241435,363.636363636364,4,2,22,32,1,0
241435,-161.290322580645,4,2,22,32,0,0
245613,-200,4,2,22,32,0,0
245626,-200,4,2,22,22,0,0
247072,363.636363636364,4,2,22,22,1,0
247072,-200,4,2,22,22,0,0
248547,363.636363636364,4,2,22,22,1,0
248547,-200,4,2,22,22,0,0
250001,-133.333333333333,4,2,22,22,0,0
250728,-200,4,2,22,42,0,0
251441,363.636363636364,4,2,22,42,1,0
251441,-121.951219512195,4,2,22,42,0,0
252886,363.636363636364,4,2,22,42,1,0
252886,-121.951219512195,4,2,22,42,0,0
259431,-121.951219512195,4,2,22,52,0,0
260158,-108.695652173913,4,2,22,62,0,0
260704,-98.0392156862744,4,2,22,62,0,0
262704,-81.9672131147541,4,2,22,62,0,0
263067,-121.951219512195,4,2,22,62,0,0
264184,363.636363636364,4,2,22,42,1,8
264184,-121.951219512195,4,2,22,42,0,8
264547,363.636363636364,4,2,22,42,1,8
264547,-121.951219512195,4,2,22,42,0,0
265628,363.636363636364,4,2,22,42,1,8
265628,-121.951219512195,4,2,22,42,0,0
265991,363.636363636364,4,2,22,42,1,0
265991,-121.951219512195,4,2,22,42,0,0
269253,363.636363636364,4,2,22,42,1,8
269253,-121.951219512195,4,2,22,42,0,0
270343,363.636363636364,4,2,22,42,1,0
270343,-121.951219512195,4,2,22,42,0,0
271070,-89.2857142857143,4,2,22,42,0,0
271802,363.636363636364,4,2,22,42,1,0
271802,-121.951219512195,4,2,22,42,0,0
274714,363.636363636364,4,2,22,42,1,0
274714,-117.647058823529,4,2,22,42,0,0
286360,363.636363636364,4,2,22,42,1,0
286360,-121.951219512195,4,2,22,42,0,0
288532,-121.951219512195,4,2,22,52,0,0
288895,-121.951219512195,4,2,22,62,0,0
289259,-121.951219512195,4,2,22,72,0,0
289623,-121.951219512195,4,2,22,42,0,0
291077,-121.951219512195,4,2,22,52,0,0
291804,-121.951219512195,4,2,22,62,0,0
292168,-121.951219512195,4,2,22,72,0,0
292259,-121.951219512195,4,2,22,42,0,0
293623,-121.951219512195,4,2,22,52,0,0
294350,-121.951219512195,4,2,22,62,0,0
294714,-121.951219512195,4,2,22,72,0,0
295087,-98.0392156862744,4,2,22,82,0,1
296350,-81.9672131147541,4,2,22,82,0,1
297802,363.636363636364,4,2,22,82,1,1
297892,-100,4,2,22,82,0,0
298239,363.636363636364,4,2,22,42,1,0
298239,-81.9672131147541,4,2,22,42,0,0
298360,363.636363636364,4,2,22,92,1,1
298360,-100,4,2,22,92,0,1
298905,-100,4,2,22,52,0,1
299450,363.636363636364,4,2,22,82,1,1
299722,-100,4,2,22,42,0,1
299813,-100,4,2,22,52,0,1
299995,-100,4,2,22,82,0,0
300268,-100,4,2,22,42,0,0
300359,-100,4,2,22,52,0,0
300540,-100,4,2,22,72,0,0
300904,-98.0392156862745,4,2,22,82,0,1
301168,-98.0392156862745,4,2,22,5,0,1
301259,-98.0392156862745,4,2,22,72,0,1
303813,-98.0392156862745,4,2,22,62,0,0
309647,363.636363636364,4,2,22,62,1,1
309647,-98.0392156862745,4,2,22,62,0,1
312529,363.636363636364,4,2,22,62,1,0
312529,-98.0392156862745,4,2,22,62,0,0
315446,363.636363636364,4,2,22,72,1,0
315446,-98.0392156862745,4,2,22,72,0,0
324536,-121.951219512195,4,2,22,72,0,0
327809,-400,4,2,22,42,0,0
334718,-400,4,2,22,5,0,0
335808,363.636363636364,4,2,22,42,1,0
335894,363.636363636364,4,2,22,42,1,0

[Colours]
Combo1 : 195,121,46
Combo2 : 77,145,128
Combo3 : 149,9,8
Combo4 : 128,206,171
SliderBorder : 254,246,171
SliderTrackOverride : 20,31,27

[HitObjects]
244,71,555,6,0,L|354:51,1,104.779995843079,2|0,0:0|0:0,0:0:0:0:
333,40,1100,1,0,0:0:0:0:
390,130,1282,2,0,L|502:147,1,104.779995843079,0|0,0:0|0:0,0:0:0:0:
493,145,2009,5,2,0:0:0:0:
401,168,2191,1,0,0:0:0:0:
460,241,2373,1,0,0:0:0:0:
397,311,2555,6,0,L|407:367,2,52.3899979215394,0|2|0,0:0|0:0|0:0,0:0:0:0:
388,305,3271,1,0,0:0:0:0:
305,362,3452,6,0,P|251:350|191:339,1,104.779995843079,2|0,0:0|0:0,0:0:0:0:
225,327,3997,1,0,0:0:0:0:
128,277,4179,2,0,P|74:289|14:300,1,104.779995843079,2|0,0:0|0:0,0:0:0:0:
25,298,4906,5,0,0:0:0:0:
102,244,5088,1,0,0:0:0:0:
23,191,5270,1,0,0:0:0:0:
86,120,5452,6,0,L|96:65,2,52.3899979215394,0|2|0,0:0|0:0|0:0,0:0:0:0:
80,128,6361,6,0,P|141:95|198:112,1,126.75,2|0,0:3|0:0,0:0:0:0:
295,42,7088,2,0,L|267:175,1,126.75,2|0,0:3|0:0,0:0:0:0:
165,220,7815,2,0,B|231:191|231:191|293:211,1,126.75,2|0,0:3|0:0,0:0:0:0:
363,255,8542,2,0,B|394:207|347:189|384:128,1,126.75,2|0,0:3|0:0,0:0:0:0:
348,38,9270,6,0,P|388:47|432:53,1,84.5,4|0,1:2|3:0,0:0:0:0:
445,43,9997,5,0,3:0:0:0:
361,123,10179,1,0,3:0:0:0:
330,51,10361,1,0,3:0:0:0:
454,140,10542,1,0,3:0:0:0:
296,216,10724,5,8,3:0:0:0:
361,123,10906,1,0,3:0:0:0:
216,184,11088,1,8,3:0:0:0:
368,288,11270,1,0,3:0:0:0:
160,384,11452,5,4,0:0:0:0:
292,324,11633,1,8,3:0:0:0:
288,319,11724,1,0,0:0:0:0:
285,314,11815,2,0,L|234:328,1,34.6450005286408,8|8,0:0|0:0,0:0:0:0:
204,224,11997,2,0,L|153:213,1,34.6450005286408,8|8,0:0|0:0,0:0:0:0:
89,322,12179,6,0,B|180:307|156:380|249:363,1,172.380001052124,4|8,0:1|0:0,0:0:0:0:
347,264,12724,2,0,L|341:219,2,43.095000263031,0|0|2,0:0|0:0|0:0,0:0:0:0:
418,336,13088,1,4,0:3:0:0:
512,170,13270,6,0,P|501:212|494:264,1,86.190000526062,8|0,0:0|0:0,0:0:0:0:
373,67,13633,2,0,P|415:78|467:85,1,86.190000526062,2|0,0:0|0:0,0:0:0:0:
345,173,13997,2,0,B|285:186|285:186|250:223|250:223|188:237,1,172.380001052124,8|0,0:0|3:0,0:0:0:0:
332,270,14542,5,4,0:3:0:0:
201,135,14712,2,0,P|192:177|181:225,1,84.5,8|0,0:0|0:0,0:0:0:0:
281,67,15065,6,0,P|190:115|110:90,1,172.380001052124,4|8,0:0|0:0,0:0:0:0:
17,188,15610,1,0,0:0:0:0:
17,188,15807,2,0,P|57:193|101:214,1,84.5
185,292,16164,1,8,0:0:0:0:
55,346,16345,1,0,0:0:0:0:
55,346,16436,1,0,0:0:0:0:
55,346,16527,6,0,L|198:316,1,129.285000789093,6|8,0:0|0:0,0:0:0:0:
260,360,16891,2,0,L|279:297,2,43.095000263031,4|0|8,3:0|0:0|3:0,0:0:0:0:
86,198,17257,2,0,L|68:267,2,43.095000263031,2|8|8,3:2|3:0|0:0,0:0:0:0:
161,293,17620,5,10,0:0:0:0:
330,144,17802,1,0,3:0:0:0:
330,144,17893,1,8,0:0:0:0:
330,144,17971,2,0,L|304:232,1,86.190000526062,4|0,0:0|0:0,0:0:0:0:
431,373,18334,2,0,P|477:317|440:222,1,172.380001052124,8|2,0:0|3:2,0:0:0:0:
330,144,18880,5,4,0:3:0:0:
432,72,19061,1,8,0:0:0:0:
313,17,19243,1,0,0:0:0:0:
313,17,19334,1,0,0:0:0:0:
313,17,19442,5,2,0:0:0:0:
408,59,19623,1,4,0:3:0:0:
228,164,19805,1,8,0:0:0:0:
350,223,19987,5,2,0:0:0:0:
349,210,20078,1,0,0:0:0:0:
347,197,20169,1,4,3:2:0:0:
187,313,20351,1,8,0:0:0:0:
207,329,20442,1,8,0:0:0:0:
231,337,20532,1,0,3:0:0:0:
256,338,20623,1,8,0:0:0:0:
280,331,20714,1,8,0:0:0:0:
300,316,20805,1,0,0:0:0:0:
314,289,20896,6,0,L|178:314,1,129.285000789093,4|8,0:0|3:0,0:0:0:0:
124,362,21260,1,8,0:0:0:0:
30,253,21442,6,0,B|47:204|57:154|57:154|96:173,1,141.96000173291,4|0,0:0|0:0,0:0:0:0:
105,183,21805,1,8,3:0:0:0:
234,104,21987,1,8,3:0:0:0:
106,76,22169,6,0,B|162:69|162:69|196:88|196:88|255:79,1,154.634993629235,4|0,0:0|0:0,0:0:0:0:
311,25,22532,1,2,3:2:0:0:
418,198,22714,2,0,P|428:173|428:132,1,51.5449978764115,8|0,0:0|0:0,0:0:0:0:
412,120,22896,6,0,P|387:164|396:222,1,103.089995752823,6|0,0:0|0:0,0:0:0:0:
244,378,23260,2,0,P|219:334|228:276,1,103.089995752823,12|0,0:0|0:0,0:0:0:0:
246,279,23814,6,0,P|162:333|88:306,1,172.380001052124,4|8,0:1|0:0,0:0:0:0:
19,230,24359,1,4,0:3:0:0:
98,120,24541,1,0,3:0:0:0:
139,231,24723,5,4,0:3:0:0:
10,114,24904,2,0,P|53:108|111:91,1,86.190000526062,8|0,0:0|0:0,0:0:0:0:
245,19,25265,6,0,P|298:73|261:154,1,172.380001052124,4|8,0:0|0:0,0:0:0:0:
172,343,25810,2,0,P|136:269|190:209,1,172.380001052124,2|4,0:0|0:3,0:0:0:0:
376,305,26355,2,0,P|334:311|284:326,1,86.190000526062,10|0,0:0|0:0,0:0:0:0:
194,368,26719,5,0,3:0:0:0:
293,236,26901,1,0,0:0:0:0:
440,361,27083,2,0,P|461:321|449:271,1,86.190000526062,10|0,0:0|0:0,0:0:0:0:
386,193,27446,2,0,P|341:203|287:212,1,86.190000526062,0|4,3:0|0:3,0:0:0:0:
457,106,27810,1,10,0:0:0:0:
287,54,27992,6,0,B|385:54|352:116|444:119,1,172.380001052124,12|2,0:0|0:2,0:0:0:0:
294,184,28537,5,0,3:0:0:0:
385,214,28719,1,2,3:2:0:0:
284,96,28901,5,8,3:0:0:0:
401,50,29083,1,10,3:2:0:0:
212,149,29265,5,8,3:0:0:0:
396,232,29446,1,12,3:2:0:0:
287,322,29628,6,0,L|281:279,3,42.25,2|0|2|0,0:0|0:0|0:0|0:0,0:0:0:0:
299,353,30355,2,0,L|204:340,1,84.5,2|2,0:0|0:0,0:0:0:0:
165,282,30901,1,0,0:0:0:0:
43,355,31083,6,0,L|36:310,2,42.25,0|0|2,0:0|0:0|0:0,0:0:0:0:
68,326,31628,2,0,L|54:224,1,84.5,0|0,0:0|0:0,0:0:0:0:
111,184,32174,1,2,0:0:0:0:
21,140,32355,1,2,0:0:0:0:
73,81,32566,6,0,P|102:76|136:68,1,52.3899979215394
184,122,32929,2,0,P|213:127|247:135,1,52.3899979215394,2|0,0:0|0:0,0:0:0:0:
300,88,33293,2,0,P|328:84|368:72,1,52.3899979215394
436,20,33656,1,2,0:0:0:0:
448,12,33838,6,0,L|421:120,1,104.779995843079
512,188,34384,1,2,0:0:0:0:
447,232,34566,2,0,L|383:240,1,52.3899979215394
512,316,34929,1,0,0:0:0:0:
383,369,35111,1,2,0:0:0:0:
371,354,35475,6,0,B|316:364|271:375|271:375|247:353|273:319,1,157.169993764618,2|0,0:0|0:0,0:0:0:0:
372,250,36202,2,0,B|427:260|472:271|472:271|496:249|470:215,1,157.169993764618,2|0,0:0|0:0,0:0:0:0:
368,141,36929,2,0,L|295:157,1,52.3899979215394,2|0,0:0|0:0,0:0:0:0:
201,190,37293,2,0,L|212:138,1,52.3899979215394,2|0,0:0|0:0,0:0:0:0:
158,36,37656,2,0,B|220:25|220:25|255:69|308:54,1,157.169993764618,2|0,0:0|0:0,0:0:0:0:
316,42,38384,6,0,L|305:101,1,52.3899979215394,2|0,0:0|0:0,0:0:0:0:
375,131,38747,1,0,0:0:0:0:
270,191,38929,1,2,0:0:0:0:
337,250,39111,2,0,L|345:315,1,52.3899979215394
269,376,39475,1,2,0:0:0:0:
178,308,39656,1,0,0:0:0:0:
61,352,39819,5,2,0:0:0:0:
40,270,40182,1,2,0:0:0:0:
83,198,40546,1,0,0:0:0:0:
70,355,40728,5,0,0:0:0:0:
27,272,40909,1,4,0:3:0:0:
74,191,41091,1,2,0:0:0:0:
67,101,41265,6,0,P|100:110|134:115,1,69.2900010572815,4|0,3:2|0:0,0:0:0:0:
227,184,41628,2,0,P|192:189|159:198,1,69.2900010572815,0|0,3:0|0:0,0:0:0:0:
261,86,41992,2,0,B|332:105|321:60|396:80,1,138.580002114563,0|4,3:0|3:0,0:0:0:0:
327,31,42537,5,2,0:0:0:0:
465,135,42719,2,0,P|476:99|493:60,1,69.2900010572815,0|0,3:0|0:0,0:0:0:0:
364,159,43083,1,0,3:0:0:0:
457,239,43265,2,0,P|379:236|335:274,1,138.580002114563,2|0,0:0|0:0,0:0:0:0:
410,323,43810,6,0,P|441:329|484:345,1,69.2900010572815,0|0,3:0|0:0,0:0:0:0:
297,177,44174,2,0,P|328:170|371:155,1,69.2900010572815,0|0,3:0|0:0,0:0:0:0:
286,333,44537,2,0,P|211:368|154:343,1,138.580002114563,2|0,3:2|3:0,0:0:0:0:
110,273,45083,1,0,0:0:0:0:
6,367,45265,6,0,P|18:333|27:292,1,69.2900010572815,2|0,3:2|0:0,0:0:0:0:
186,199,45628,2,0,P|193:232|205:265,1,69.2900010572815,0|0,3:0|0:0,0:0:0:0:
85,185,45992,1,2,3:2:0:0:
152,91,46174,2,0,L|160:140,2,34.6450005286408,0|0|4,0:0|0:0|0:3,0:0:0:0:
73,48,46537,5,2,0:0:0:0:
244,147,46719,2,0,P|250:109|265:69,1,69.2900010572815,2|0,3:2|0:0,0:0:0:0:
105,204,47075,6,0,P|115:278|123:346,1,138.580002114563,4|2,3:2|3:2,0:0:0:0:
205,265,47620,1,0,0:0:0:0:
292,365,47802,2,0,L|212:349,1,69.2900010572815,0|0,3:0|0:0,0:0:0:0:
277,202,48165,2,0,L|345:189,1,69.2900010572815,2|0,3:2|0:0,0:0:0:0:
473,260,48529,6,0,B|393:257|412:298|325:296,1,138.580002114563,0|0,3:0|3:0,0:0:0:0:
277,202,49075,1,0,0:0:0:0:
451,117,49256,2,0,P|441:149|434:193,1,69.2900010572815,4|0,3:0|0:0,0:0:0:0:
281,36,49620,2,0,P|291:68|298:112,1,69.2900010572815,2|0,3:2|0:0,0:0:0:0:
445,32,49984,6,0,P|410:41|359:46,1,69.2900010572815,4|0,3:0|0:0,0:0:0:0:
309,188,50347,2,0,P|274:179|223:174,1,69.2900010572815,2|0,3:2|0:0,0:0:0:0:
141,96,50711,2,0,P|63:108|-16:120,1,138.580002114563,0|0,3:0|3:0,0:0:0:0:
60,28,51256,1,2,0:0:0:0:
95,207,51438,6,0,P|87:172|75:124,1,69.2900010572815,4|0,3:0|0:0,0:0:0:0:
256,26,51802,2,0,P|248:61|236:109,1,69.2900010572815,2|0,3:2|0:0,0:0:0:0:
303,203,52165,2,0,P|351:166|435:182,1,138.580002114563,0|2,3:0|3:2,0:0:0:0:
503,243,52711,5,0,0:0:0:0:
454,73,52893,1,4,3:2:0:0:
503,243,53256,5,0,3:0:0:0:
332,356,53620,5,0,3:0:0:0:
359,267,53802,1,4,3:0:0:0:
225,166,53984,5,0,3:0:0:0:
253,281,54165,1,8,3:0:0:0:
110,373,54347,5,8,3:0:0:0:
174,232,54529,1,8,0:0:0:0:
0,312,54711,6,0,L|119:292,1,121.257501850243,12|0,0:0|0:0,0:0:0:0:
128,300,55075,1,8,3:0:0:0:
265,251,55270,2,0,L|256:293,2,34.6450005286408,0|0|2,3:0|0:0|3:2,0:0:0:0:
200,194,55633,1,0,3:0:0:0:
338,165,55835,6,0,P|266:209|196:192,1,155.47999478064,4|0,0:0|3:0,0:0:0:0:
183,212,56562,2,0,B|158:152|217:128|183:57,1,155.47999478064,8|0,0:0|0:0,0:0:0:0:
64,176,57107,1,0,3:0:0:0:
58,158,57198,1,0,3:0:0:0:
51,140,57279,5,8,3:0:0:0:
169,197,57460,1,8,0:0:0:0:
36,279,57642,2,0,B|131:285|92:333|177:339,1,155.47999478064,4|8,3:0|0:0,0:0:0:0:
197,354,58369,2,0,P|213:317|216:266,1,77.7399973903199,0|8,0:0|0:0,0:0:0:0:
160,187,58733,5,2,3:2:0:0:
235,203,59097,1,4,3:0:0:0:
310,219,59460,1,8,0:0:0:0:
386,235,59824,1,0,0:0:0:0:
317,362,60006,1,0,3:0:0:0:
311,343,60097,1,0,3:0:0:0:
314,323,60187,5,2,3:2:0:0:
474,257,60369,1,10,0:0:0:0:
485,271,60460,2,0,L|459:363,1,77.7399973903199,2|0,0:0|0:0,0:0:0:0:
446,364,60733,1,8,3:0:0:0:
381,249,60915,6,0,P|391:196|404:127,1,116.60999608548,12|0,0:0|3:0,0:0:0:0:
377,117,61279,2,0,L|428:109,1,38.86999869516,8|0,3:0|3:0,0:0:0:0:
409,26,61452,1,8,0:0:0:0:
382,30,61542,1,8,0:0:0:0:
355,34,61633,1,4,0:0:0:0:
471,194,61989,6,0,B|405:186|405:186|365:217|365:217|302:209,1,169,12|0,0:0|3:0,0:0:0:0:
415,110,62534,1,0,3:0:0:0:
225,260,62716,2,0,B|206:224|206:224|223:176,1,84.5,8|0,0:0|0:0,0:0:0:0:
370,326,63079,6,0,P|327:332|269:345,1,84.5,0|0,3:0|0:0,0:0:0:0:
140,281,63443,1,10,0:0:0:0:
313,210,63625,1,0,0:0:0:0:
185,104,63844,6,0,L|199:187,1,84.5,8|0,3:0|3:0,0:0:0:0:
429,26,64177,2,0,L|415:109,1,84.5,8|0,0:0|0:0,0:0:0:0:
412,142,64449,1,0,3:0:0:0:
412,142,64540,1,12,0:0:0:0:
325,59,64722,1,0,3:0:0:0:
189,209,64904,5,12,0:0:0:0:
311,156,65086,1,0,3:0:0:0:
426,322,65267,5,14,0:0:0:0:
289,251,65449,1,8,3:0:0:0:
284,271,65540,1,0,0:0:0:0:
279,289,65631,1,10,0:0:0:0:
274,309,65722,1,2,1:2:0:0:
268,329,65813,1,10,0:0:0:0:
262,349,65904,1,10,0:0:0:0:
257,368,65989,6,0,P|192:337|142:355,1,126.750004835129,6|0,0:0|0:0,0:0:0:0:
116,362,67079,6,0,L|130:319,1,31.6875012087822,2|0,0:3|0:0,0:0:0:0:
52,269,67261,2,0,L|46:237,1,31.6875012087822,2|0,0:3|0:0,0:0:0:0:
120,163,67441,6,0,P|165:203|269:186,1,172.380001052124,2|8,0:1|0:0,0:0:0:0:
247,184,67986,1,0,0:0:0:0:
358,252,68168,2,0,P|367:210|382:169,1,86.190000526062,8|0,3:0|3:0,0:0:0:0:
231,31,68531,2,0,P|221:73|206:113,1,86.190000526062,8|0,0:0|0:0,0:0:0:0:
407,69,68885,6,0,L|311:90,1,86.190000526062,2|0,0:0|3:0,0:0:0:0:
194,246,69248,1,8,0:0:0:0:
120,163,69430,1,0,0:0:0:0:
119,141,69521,1,0,0:0:0:0:
127,121,69612,1,0,3:0:0:0:
216,157,69794,5,8,3:0:0:0:
15,56,69975,2,0,P|23:98|28:154,1,86.190000526062,8|0,0:0|0:0,0:0:0:0:
235,44,70339,6,0,P|192:39|149:31,1,86.190000526062,0|0,3:0|0:0,0:0:0:0:
249,182,70703,2,0,B|347:186|308:250|407:254,1,172.380001052124,8|0,0:0|3:0,0:0:0:0:
475,190,71248,1,8,3:0:0:0:
279,354,71430,2,0,P|273:310|261:260,1,86.190000526062,8|0,0:0|0:0,0:0:0:0:
216,180,71794,5,2,0:0:0:0:
355,262,71975,1,0,3:0:0:0:
183,372,72157,1,8,0:0:0:0:
263,269,72339,1,0,0:0:0:0:
313,340,72521,5,0,3:0:0:0:
166,245,72703,2,0,L|148:310,1,43.095000263031,12|0,0:0|0:0,0:0:0:0:
356,172,72885,2,0,B|319:145|319:145|227:172,1,129.285000789093,12|0,0:0|0:0,0:0:0:0:
215,179,73248,6,0,P|230:138|231:91,1,86.190000526062,4|0,0:1|0:0,0:0:0:0:
74,247,73612,1,8,0:0:0:0:
0,171,73794,2,0,P|72:116|162:137,1,172.380001052124,2|0,0:0|3:0,0:0:0:0:
296,36,74339,6,0,L|207:53,1,86.190000526062,8|0,0:0|0:0,0:0:0:0:
373,221,74703,2,0,L|284:204,1,86.190000526062,8|0,3:0|3:0,0:0:0:0:
504,86,75066,2,0,P|439:96|360:107,1,129.285000789093,8|0,0:0|0:0,0:0:0:0:
347,130,75430,6,0,P|420:132|462:185,1,141.96000173291,6|0,0:0|0:0,0:0:0:0:
496,208,75794,2,0,P|427:207|380:258,1,141.96000173291,14|0,0:0|0:0,0:0:0:0:
408,288,76177,6,0,B|325:279|330:349|235:336,1,172.380001052124,4|8,0:1|0:0,0:0:0:0:
160,260,76722,2,0,L|172:200,2,43.095000263031,2|0|0,0:0|0:0|3:0,0:0:0:0:
135,366,77086,5,0,3:0:0:0:
256,258,77268,1,8,0:0:0:0:
122,132,77450,1,2,0:0:0:0:
0,223,77632,6,0,P|41:217|97:206,1,86.190000526062,2|0,0:0|3:0,0:0:0:0:
277,53,77995,2,0,P|236:47|180:36,1,86.190000526062,8|0,0:0|0:0,0:0:0:0:
170,28,78268,1,8,0:0:0:0:
170,28,78359,2,0,L|181:85,1,43.095000263031,8|0,3:0|0:0,0:0:0:0:
96,184,78541,5,0,1:0:0:0:
130,166,78632,1,0,0:0:0:0:
168,165,78723,1,8,0:0:0:0:
202,182,78814,1,0,1:0:0:0:
233,204,78905,1,8,0:0:0:0:
271,207,78995,1,8,0:0:0:0:
305,190,79086,6,0,P|320:148|320:103,1,86.190000526062,6|0,3:2|0:0,0:0:0:0:
160,271,79449,2,0,P|231:337|316:312,2,172.380001052124,8|2|8,3:0|0:0|0:0,0:0:0:0:
81,327,80358,1,0,0:0:0:0:
252,215,80540,6,0,L|230:300,1,86.190000526062,2|0,3:2|0:0,0:0:0:0:
118,177,80904,1,8,0:0:0:0:
260,92,81085,2,0,L|354:83,1,86.190000526062,2|0,0:0|3:0,0:0:0:0:
193,42,81449,6,0,B|166:80|166:80|182:126,1,86.190000526062,2|8,0:0|0:0,0:0:0:0:
383,230,81813,2,0,B|410:192|410:192|394:146,1,86.190000526062,2|0,0:0|3:0,0:0:0:0:
275,245,82176,1,0,0:0:0:0:
488,292,82358,6,0,B|426:301|426:301|390:338|390:338|317:352,1,172.380001052124,8|2,0:0|0:0,0:0:0:0:
243,292,82904,2,0,L|254:244,2,43.095000263031,0|0|8,0:0|0:0|0:0,0:0:0:0:
352,244,83267,5,0,0:0:0:0:
202,372,83449,2,0,P|167:295|237:238,1,172.380001052124,2|8,0:0|0:0,0:0:0:0:
370,167,83994,1,0,0:0:0:0:
378,191,84085,1,8,0:0:0:0:
381,216,84176,5,8,3:0:0:0:
277,155,84358,1,2,3:2:0:0:
456,78,84540,2,0,P|418:73|372:59,1,74.3600022692872,0|0,3:0|3:0,0:0:0:0:
158,155,84904,6,0,P|233:115|301:132,1,155.47999478064,4|0,0:1|0:0,0:0:0:0:
179,52,85449,1,0,3:0:0:0:
90,216,85631,6,0,B|59:170|59:170|94:67,1,155.47999478064,10|0,0:0|0:0,0:0:0:0:
227,197,86177,2,0,L|214:253,1,38.86999869516,2|4,0:0|0:3,0:0:0:0:
149,146,86376,5,4,3:2:0:0:
295,267,86557,2,0,P|213:263|153:307,1,155.47999478064,8|0,0:0|3:0,0:0:0:0:
257,173,87103,2,0,P|339:169|399:213,1,155.47999478064,8|4,0:0|0:3,0:0:0:0:
478,274,87648,6,0,P|486:235|501:192,1,77.7399973903199,8|0,0:0|3:0,0:0:0:0:
271,63,88194,2,0,P|263:101|250:137,1,77.7399973903199,4|0,0:3|3:0,0:0:0:0:
358,59,88557,1,8,0:0:0:0:
168,132,88739,6,0,B|259:148|215:194|308:208,1,155.47999478064,8|0,3:0|3:0,0:0:0:0:
328,195,89194,1,0,0:0:0:0:
328,195,89285,1,2,3:2:0:0:
219,285,89466,2,0,L|227:364,1,77.7399973903199,8|0,0:0|0:0,0:0:0:0:
315,294,89830,5,0,3:0:0:0:
149,207,90012,2,0,P|160:168|168:127,1,77.7399973903199,12|2,0:0|0:0,0:0:0:0:
117,64,90376,5,8,3:0:0:0:
247,153,90557,1,8,3:0:0:0:
58,262,90739,5,12,0:0:0:0:
28,296,91092,6,0,P|63:280|111:277,1,77.7399973903199,0|0,3:0|0:0,0:0:0:0:
234,188,91455,2,0,P|269:204|317:207,1,77.7399973903199,0|0,3:0|3:0,0:0:0:0:
221,281,91819,5,0,3:0:0:0:
319,200,92001,1,0,3:0:0:0:
277,121,92183,1,8,3:0:0:0:
342,283,92365,1,8,3:0:0:0:
282,356,92546,5,8,3:0:0:0:
439,258,92728,1,8,3:0:0:0:
348,187,92910,1,12,3:0:0:0:
490,372,93092,1,12,3:0:0:0:
365,313,93274,5,8,3:0:0:0:
503,187,93455,1,8,3:0:0:0:
375,74,93637,6,0,B|350:122|350:122|371:170,1,103.089995752823,12|0,0:0|3:0,0:0:0:0:
468,26,94001,1,8,3:0:0:0:
262,149,94182,6,0,B|237:101|237:101|258:53,1,103.089995752823,12|0,0:0|3:0,0:0:0:0:
355,197,94546,1,8,3:0:0:0:
130,280,94728,2,0,B|183:253|183:253|285:287,1,154.634993629235,14|0,0:0|0:0,0:0:0:0:
352,357,95092,6,0,B|329:293|395:277|359:192,1,154.634993629235,4|0,0:0|0:0,0:0:0:0:
340,179,95455,2,0,L|392:187,1,51.5449978764115,8|0,0:0|0:0,0:0:0:0:
502,230,95637,6,0,P|496:191|509:145,1,77.7399973903199,4|0,0:0|0:0,0:0:0:0:
247,302,96001,2,0,P|253:341|240:387,1,77.7399973903199,4|0,0:0|0:0,0:0:0:0:
371,247,96364,2,0,L|361:183,1,38.86999869516,2|0,0:0|0:0,0:0:0:0:
347,109,96546,6,0,L|363:202,1,86.190000526062,4|0,0:1|0:0,0:0:0:0:
490,378,96915,2,0,P|405:329|329:350,1,172.380001052124,8|0,0:0|3:0,0:0:0:0:
238,284,97460,1,2,0:0:0:0:
361,193,97642,2,0,P|403:201|450:208,1,86.190000526062,8|0,0:0|0:0,0:0:0:0:
294,107,97996,6,0,P|377:97|474:80,1,172.380001052124,2|8,0:0|0:0,0:0:0:0:
333,226,98541,1,2,0:0:0:0:
460,172,98723,1,0,0:0:0:0:
294,107,98905,1,4,0:3:0:0:
444,9,99086,5,8,0:0:0:0:
377,116,99268,1,2,0:0:0:0:
232,24,99450,2,0,P|211:60|211:103,1,86.190000526062,0|0,3:0|0:0,0:0:0:0:
406,243,99814,2,0,B|316:249|344:302|243:312,1,172.380001052124,8|0,0:0|3:0,0:0:0:0:
125,209,100359,5,8,0:0:0:0:
137,197,100450,1,8,0:0:0:0:
149,185,100541,2,0,L|133:244,1,43.095000263031,10|8,0:0|0:0,0:0:0:0:
99,366,100722,1,4,0:0:0:0:
96,358,101100,5,2,0:0:0:0:
193,272,101281,1,0,3:0:0:0:
110,164,101463,1,8,3:0:0:0:
185,361,101645,5,12,0:0:0:0:
279,207,101827,2,0,L|340:220,1,42.25,2|0,3:2|3:0,0:0:0:0:
419,338,102009,5,12,0:0:0:0:
436,334,102100,1,8,3:0:0:0:
453,330,102190,1,2,3:2:0:0:
470,325,102281,1,0,3:2:0:0:
485,320,102358,6,0,P|424:268|364:280,1,138.580002114563,4|0,0:1|3:0,0:0:0:0:
492,169,102903,1,0,0:0:0:0:
492,169,103085,2,0,P|457:177|416:182,1,69.2900010572815,2|0,3:2|0:0,0:0:0:0:
355,84,103448,2,0,L|371:11,1,69.2900010572815,0|0,3:0|0:0,0:0:0:0:
251,152,103812,2,0,L|262:224,1,69.2900010572815,0|0,3:0|0:0,0:0:0:0:
347,167,104176,5,2,3:2:0:0:
259,64,104358,2,0,P|191:70|146:120,1,138.580002114563,0|4,0:0|0:3,0:0:0:0:
90,33,104903,6,0,L|160:45,1,69.2900010572815,0|0,3:0|0:0,0:0:0:0:
238,190,105267,2,0,L|169:201,1,69.2900010572815,2|0,3:2|0:0,0:0:0:0:
44,159,105630,5,0,3:0:0:0:
146,119,105812,1,2,0:0:0:0:
240,176,105994,1,0,3:0:0:0:
137,218,106176,1,2,0:0:0:0:
181,319,106358,1,0,3:0:0:0:
87,376,106539,1,2,0:0:0:0:
181,319,106713,6,0,L|191:391,1,69.2900010572815,4|0,3:0|0:0,0:0:0:0:
297,251,107076,1,2,3:2:0:0:
361,322,107258,2,0,P|395:264|376:196,1,138.580002114563,4|4,0:3|0:3,0:0:0:0:
382,195,107803,6,0,P|414:204|454:211,1,69.2900010572815,2|0,3:2|0:0,0:0:0:0:
288,352,108167,2,0,P|353:362|437:382,1,138.580002114563,4|0,0:1|3:0,0:0:0:0:
440,365,108713,1,0,0:0:0:0:
356,285,108894,2,0,P|334:241|384:171,1,138.580002114563,2|0,3:2|3:0,0:0:0:0:
364,154,109440,1,0,0:0:0:0:
511,73,109622,6,0,L|433:88,1,69.2900010572815,2|0,3:2|0:0,0:0:0:0:
325,15,109985,2,0,P|335:48|340:83,1,69.2900010572815,2|0,3:2|0:0,0:0:0:0:
203,152,110349,2,0,P|271:163|340:184,1,138.580002114563,2|2,3:2|3:2,0:0:0:0:
438,286,110894,1,4,0:3:0:0:
453,279,110985,1,0,0:0:0:0:
463,265,111076,6,0,B|395:262|398:319|328:310,1,138.580002114563,4|0,3:2|3:0,0:0:0:0:
243,365,111622,2,0,P|240:328|231:286,1,69.2900010572815,2|0,0:0|3:0,0:0:0:0:
354,170,111985,2,0,L|345:214,2,34.6450005286408,2|0|4,0:0|0:0|0:3,0:0:0:0:
281,120,112349,1,0,0:0:0:0:
424,31,112531,6,0,P|389:39|349:46,1,69.2900010572815,4|0,0:0|0:0,0:0:0:0:
252,202,112904,1,8,0:0:0:0:
199,85,113107,6,0,P|233:88|269:106,1,69.2900010572815,4|0,3:2|0:0,0:0:0:0:
473,234,113470,2,0,P|439:237|403:255,1,69.2900010572815,4|0,3:2|0:0,0:0:0:0:
330,165,113994,6,0,P|316:239|300:328,1,155.47999478064,4|8,0:1|0:0,0:0:0:0:
211,167,114539,1,0,0:0:0:0:
122,291,114721,2,0,L|210:274,1,77.7399973903199,0|0,3:0|0:0,0:0:0:0:
228,258,114994,1,4,0:3:0:0:
228,258,115084,1,8,0:0:0:0:
138,384,115266,1,0,0:0:0:0:
71,231,115436,6,0,P|47:261|43:300,1,77.7399973903199,2|0,0:0|0:0,0:0:0:0:
231,163,115799,2,0,P|201:139|162:135,1,77.7399973903199,8|0,0:0|0:0,0:0:0:0:
33,71,116163,2,0,L|50:157,1,77.7399973903199,0|0,3:0|0:0,0:0:0:0:
266,36,116531,2,0,L|246:125,1,77.7399973903199,10|0,0:0|0:0,0:0:0:0:
147,46,116894,5,0,3:0:0:0:
265,156,117075,1,2,0:0:0:0:
265,156,117166,1,0,0:0:0:0:
265,156,117257,2,0,B|320:173|320:173|339:205|339:205|400:225,1,155.47999478064,8|0,0:0|3:0,0:0:0:0:
512,64,117803,2,0,L|474:72,1,38.86999869516,2|0,0:0|0:0,0:0:0:0:
445,66,117984,6,0,P|454:103|459:142,1,77.7399973903199,8|0,0:0|0:0,0:0:0:0:
278,324,118348,2,0,P|268:286|263:247,1,77.7399973903199,0|2,3:0|0:0,0:0:0:0:
358,154,118712,1,10,0:0:0:0:
474,271,118894,6,0,L|484:225,2,38.86999869516,0|0|0,0:0|0:0|3:0,0:0:0:0:
385,363,119257,1,0,0:0:0:0:
385,363,119348,1,0,0:0:0:0:
385,363,119439,2,0,P|378:321|366:270,1,77.7399973903199,10|0,0:0|0:0,0:0:0:0:
284,218,119795,5,0,3:0:0:0:
175,384,119976,2,0,L|167:341,2,38.86999869516,0|0|8,0:0|0:0|0:0,0:0:0:0:
66,273,120340,1,0,0:0:0:0:
66,273,120431,1,0,0:0:0:0:
66,273,120522,2,0,P|103:266|154:254,1,77.7399973903199,0|0,3:0|0:0,0:0:0:0:
295,115,120893,6,0,B|227:99|227:99|195:114|200:154,1,129.285000789093,8|0,0:0|0:0,0:0:0:0:
210,163,121256,1,0,3:0:0:0:
345,53,121437,2,0,L|391:45,1,38.86999869516,4|0,0:3|0:0,0:0:0:0:
492,27,121615,6,0,P|484:67|473:125,1,86.190000526062,10|0,0:0|0:0,0:0:0:0:
338,228,121978,1,0,3:0:0:0:
473,290,122160,2,0,L|512:284,1,38.86999869516,4|0,0:3|0:0,0:0:0:0:
375,364,122347,6,0,B|305:352|313:395|243:383,1,129.285000789093,8|0,0:0|0:0,0:0:0:0:
225,366,122710,1,0,3:0:0:0:
362,242,122891,2,0,L|348:292,1,38.86999869516,0|0,0:0|0:0,0:0:0:0:
253,120,123073,6,0,L|273:262,1,129.285000789093,10|0,0:0|0:0,0:0:0:0:
259,262,123437,1,0,3:0:0:0:
390,141,123619,2,0,L|337:131,1,38.86999869516,4|0,0:3|0:0,0:0:0:0:
177,82,123800,6,0,P|254:85|301:47,1,129.285000789093,10|0,0:0|0:0,0:0:0:0:
306,41,124168,1,0,3:0:0:0:
165,174,124349,2,0,L|95:164,1,38.86999869516,4|0,0:3|0:0,0:0:0:0:
31,107,124531,6,0,B|-6:161|-6:161|23:224,1,129.285000789093,10|0,0:0|0:0,0:0:0:0:
36,229,124895,1,4,3:0:0:0:
177,82,125077,5,8,3:0:0:0:
167,89,125168,1,8,0:0:0:0:
158,97,125258,2,0,L|170:38,2,38.86999869516,10|8|4,0:0|3:0|0:3,0:0:0:0:
114,274,125631,5,4,0:1:0:0:
114,274,126000,1,0,3:0:0:0:
187,210,126363,5,0,3:0:0:0:
193,227,126545,1,8,3:0:0:0:
304,130,126726,5,0,3:0:0:0:
289,208,126908,1,8,3:0:0:0:
191,27,127090,5,8,3:0:0:0:
221,136,127272,1,8,3:0:0:0:
413,57,127454,5,8,0:0:0:0:
361,243,127636,1,8,3:0:0:0:
322,90,127818,6,0,L|437:76,1,116.60999608548,12|0,0:0|0:0,0:0:0:0:
462,59,128181,2,0,L|447:125,1,38.86999869516,8|8,0:0|3:0,0:0:0:0:
331,179,128363,2,0,L|343:248,1,38.86999869516,8|8,0:0|0:0,0:0:0:0:
418,299,128545,6,0,P|331:261|274:284,2,155.47999478064,4|8|0,0:1|0:0|3:0,0:0:0:0:
503,169,129454,2,0,P|464:179|420:184,1,77.7399973903199,8|8,3:0|0:0,0:0:0:0:
339,350,129817,1,0,0:0:0:0:
238,221,129999,6,0,L|253:298,1,77.7399973903199,2|0,0:0|3:0,0:0:0:0:
408,118,130363,2,0,L|392:195,1,77.7399973903199,8|0,0:0|0:0,0:0:0:0:
273,33,130727,2,0,P|310:29|358:18,1,77.7399973903199,2|0,0:0|3:0,0:0:0:0:
175,191,131090,2,0,P|212:195|260:206,1,77.7399973903199,8|0,0:0|0:0,0:0:0:0:
107,82,131435,6,0,P|36:141|45:201,1,155.47999478064,0|8,3:0|0:0,0:0:0:0:
185,274,131980,1,0,0:0:0:0:
92,364,132162,6,0,B|78:276,2,77.7399973903199,0|0|8,3:0|0:0|0:0,0:0:0:0:
201,268,132705,1,2,0:0:0:0:
76,198,132886,1,4,0:3:0:0:
233,129,133067,6,0,L|242:180,1,43.095000263031,2|0,0:0|0:0,0:0:0:0:
265,313,133259,1,12,0:0:0:0:
467,240,133440,5,0,3:0:0:0:
474,246,133531,1,8,3:0:0:0:
482,251,133622,2,0,P|442:268|396:276,1,84.5,8|0,0:0|3:0,0:0:0:0:
229,109,133986,6,0,B|323:112|288:170|380:176,1,167.30999948941,12|0,0:0|0:0,0:0:0:0:
394,162,134351,1,2,0:0:0:0:
58,258,135815,1,4,0:0:0:0:
469,359,137269,1,4,0:1:0:0:
369,214,137633,5,0,3:0:0:0:
387,290,137815,1,8,3:0:0:0:
422,142,137996,5,8,3:0:0:0:
288,195,138178,1,0,3:0:0:0:
451,234,138360,5,8,3:0:0:0:
284,102,138542,1,8,0:0:0:0:
347,315,138724,6,0,L|366:226,1,76.0499976791382,4|0,0:1|0:0,0:0:0:0:
375,224,139087,5,10,0:0:0:0:
344,210,139178,1,0,1:0:0:0:
310,216,139269,1,0,1:0:0:0:
284,237,139360,1,8,0:0:0:0:
255,273,139451,5,10,0:0:0:0:
214,295,139542,1,2,0:0:0:0:
167,290,139633,1,0,1:0:0:0:
128,263,139724,1,0,1:0:0:0:
134,242,139815,5,8,0:0:0:0:
154,235,139905,1,8,0:0:0:0:
173,242,139996,1,8,0:0:0:0:
179,262,140087,1,8,0:0:0:0:
167,290,140178,6,0,B|144:218|212:200|182:122,1,172.380001052124,6|8,0:1|0:0,0:0:0:0:
161,138,140724,1,0,0:0:0:0:
269,30,140905,2,0,P|309:42|354:43,1,86.190000526062,0|8,3:0|3:0,0:0:0:0:
485,169,141269,2,0,P|442:170|401:183,1,86.190000526062,8|0,0:0|0:0,0:0:0:0:
265,260,141633,6,0,P|277:217|288:159,1,86.190000526062,0|8,3:0|3:0,0:0:0:0:
413,382,141996,1,8,0:0:0:0:
477,293,142178,2,0,P|435:281|393:272,1,86.190000526062,2|0,0:0|0:0,0:0:0:0:
240,111,142542,2,0,B|278:91|278:91|319:102,1,86.190000526062,8|8,3:0|0:0,0:0:0:0:
160,201,142905,1,2,0:0:0:0:
275,333,143087,6,0,P|216:371|114:344,1,172.380001052124,0|8,3:0|0:0,0:0:0:0:
4,207,143633,1,2,0:0:0:0:
4,207,143815,2,0,P|14:256|21:303,1,86.190000526062,0|8,3:0|3:0,0:0:0:0:
214,204,144178,2,0,L|123:225,1,86.190000526062,8|0,0:0|0:0,0:0:0:0:
278,355,144542,6,0,P|318:374|365:369,1,86.190000526062,2|0,0:0|3:0,0:0:0:0:
481,226,144905,1,8,0:0:0:0:
340,167,145087,1,0,0:0:0:0:
436,35,145269,1,8,3:0:0:0:
193,70,145443,6,0,L|253:82,1,43.095000263031,12|0,0:0|0:0,0:0:0:0:
428,138,145624,2,0,P|357:135|313:169,1,129.285000789093,12|0,0:0|0:0,0:0:0:0:
281,205,146000,6,0,P|294:163|309:102,1,86.190000526062,4|0,0:1|0:0,0:0:0:0:
431,239,146363,1,10,0:0:0:0:
245,348,146545,2,0,B|303:336|303:336|344:366|344:366|410:353,1,172.380001052124,2|0,0:0|3:0,0:0:0:0:
512,237,147090,2,0,P|475:214|426:217,1,86.190000526062,8|0,0:0|0:0,0:0:0:0:
286,66,147454,6,0,L|351:80,3,43.095000263031,8|0|8|8,3:0|0:0|3:0|3:0,0:0:0:0:
348,110,147818,1,8,0:0:0:0:
321,132,147909,1,8,0:0:0:0:
287,144,148000,1,8,0:0:0:0:
252,139,148090,1,8,0:0:0:0:
218,125,148181,6,0,B|301:133|274:187|351:196,1,154.634993629235,6|0,0:0|0:0,0:0:0:0:
440,250,148545,2,0,B|357:258|384:312|307:321,1,154.634993629235,12|0,0:0|0:0,0:0:0:0:
285,335,148909,6,0,P|328:344|380:358,1,86.190000526062,4|0,0:1|0:0,0:0:0:0:
211,230,149272,2,0,B|154:242|154:242|115:283|115:283|48:300,1,172.380001052124,8|2,0:0|3:2,0:0:0:0:
177,369,149818,5,0,3:0:0:0:
59,297,150000,1,8,0:0:0:0:
227,206,150181,1,2,0:0:0:0:
71,124,150363,6,0,P|113:134|159:142,1,86.190000526062,4|0,0:0|3:0,0:0:0:0:
266,306,150727,1,8,0:0:0:0:
380,238,150909,1,0,3:0:0:0:
258,167,151090,1,12,0:0:0:0:
349,363,151272,5,8,3:0:0:0:
355,338,151363,1,8,0:0:0:0:
361,314,151454,1,8,0:0:0:0:
407,117,151636,2,0,L|396:168,1,43.095000263031,0|0,3:0|3:0,0:0:0:0:
282,215,151818,6,0,L|194:228,1,86.190000526062,4|0,3:2|0:0,0:0:0:0:
79,336,152181,2,0,B|95:274|95:274|73:233|73:233|86:172,2,172.380001052124,8|2|8,3:0|0:0|0:0,0:0:0:0:
9,288,153090,5,0,0:0:0:0:
162,218,153272,2,0,P|180:256|175:304,1,86.190000526062,0|0,3:0|0:0,0:0:0:0:
6,165,153636,6,0,L|107:145,1,86.190000526062,0|0,3:0|0:0,0:0:0:0:
294,41,154000,2,0,L|209:24,1,86.190000526062,0|0,3:0|0:0,0:0:0:0:
110,58,154363,1,8,0:0:0:0:
249,214,154545,2,0,L|265:161,1,43.095000263031,2|0,0:0|0:0,0:0:0:0:
242,135,154727,6,0,P|335:178|408:150,1,172.380001052124,2|8,3:2|0:0,0:0:0:0:
375,144,155272,1,0,0:0:0:0:
504,249,155454,2,0,B|429:230|414:309|328:284,1,172.380001052124,2|8,3:2|0:0,0:0:0:0:
253,145,156000,1,2,0:0:0:0:
253,145,156090,1,0,0:0:0:0:
253,145,156181,6,0,P|272:178|277:234,1,86.190000526062,0|0,0:0|0:0,0:0:0:0:
104,384,156545,2,0,P|123:351|128:295,1,86.190000526062,8|0,0:0|0:0,0:0:0:0:
139,266,156818,2,0,L|85:279,1,43.095000263031,8|8,0:0|3:0,0:0:0:0:
224,337,157090,5,10,0:0:0:0:
82,258,157272,1,8,0:0:0:0:
245,122,157454,1,8,0:0:0:0:
160,172,157636,6,0,P|228:218|306:190,1,155.47999478064,4|4,0:1|0:3,0:0:0:0:
394,121,158181,1,0,3:0:0:0:
471,241,158363,6,0,B|511:203|511:203|486:100,1,155.47999478064,14|4,0:0|0:3,0:0:0:0:
327,26,158909,2,0,L|319:75,1,38.86999869516,0|0,0:0|3:0,0:0:0:0:
423,25,159090,5,2,0:0:0:0:
236,109,159272,2,0,P|308:101|381:142,1,155.47999478064,8|0,0:0|3:0,0:0:0:0:
500,258,159818,2,0,P|428:250|355:291,1,155.47999478064,8|4,0:0|0:3,0:0:0:0:
369,377,160363,6,0,P|388:343|384:301,1,77.7399973903199,2|8,0:0|3:0,0:0:0:0:
139,173,160909,2,0,P|120:207|124:249,1,77.7399973903199,0|8,0:3|3:0,0:0:0:0:
235,297,161272,6,0,B|180:311|180:311|150:348|150:348|91:366,1,155.47999478064,8|4,0:0|0:3,0:0:0:0:
1,280,161818,1,8,3:0:0:0:
0,257,161909,1,8,3:0:0:0:
8,235,162000,1,2,3:2:0:0:
192,114,162181,6,0,P|114:162|37:136,1,155.47999478064,8|2,0:0|3:2,0:0:0:0:
210,223,162727,1,12,0:0:0:0:
300,22,162909,2,0,P|310:100|324:182,1,155.47999478064,8|0,3:0|3:0,0:0:0:0:
210,355,163454,5,12,0:0:0:0:
198,348,163818,2,0,P|184:308|198:257,1,86.190000526062,0|0,3:0|0:0,0:0:0:0:
412,129,164181,2,0,P|426:169|412:220,1,86.190000526062,0|0,3:0|3:0,0:0:0:0:
318,277,164545,5,0,3:0:0:0:
220,172,164727,1,0,3:0:0:0:
305,116,164909,5,8,3:0:0:0:
183,264,165090,1,8,3:0:0:0:
137,156,165272,1,8,3:0:0:0:
307,252,165454,1,8,3:0:0:0:
170,362,165636,5,8,3:0:0:0:
257,179,165818,1,8,3:0:0:0:
101,246,166000,1,8,0:0:0:0:
309,363,166181,1,0,3:0:0:0:
333,356,166272,1,0,0:0:0:0:
360,349,166363,5,12,0:0:0:0:
482,272,166545,2,0,P|435:264|390:248,1,94.6400011552735,2|0,0:0|3:0,0:0:0:0:
200,333,166909,5,12,0:0:0:0:
78,215,167090,2,0,P|124:207|169:191,1,94.6400011552735,2|0,0:0|3:0,0:0:0:0:
351,50,167454,6,0,P|293:103|304:160,1,141.96000173291,14|0,0:0|0:0,0:0:0:0:
325,177,167818,1,4,0:0:0:0:
216,60,168000,5,0,0:0:0:0:
400,131,168181,1,8,0:0:0:0:
222,328,168363,1,4,0:0:0:0:
235,313,168727,6,0,P|307:330|363:279,1,138.580002114563,2|0,0:0|0:0,0:0:0:0:
405,223,169181,1,0,0:0:0:0:
405,223,169286,6,0,P|385:258|381:308,1,84.5,4|0,1:1|0:0,0:0:0:0:
441,373,169646,1,0,3:0:0:0:
288,254,169827,5,12,0:0:0:0:
344,164,170009,1,0,3:0:0:0:
260,32,170191,1,8,3:0:0:0:
487,93,170373,6,0,L|397:107,1,84.5,12|0,0:0|3:0,0:0:0:0:
236,180,170736,1,8,3:0:0:0:
380,301,170918,5,12,0:0:0:0:
288,254,171100,1,0,3:0:0:0:
144,384,171282,1,8,3:0:0:0:
47,223,171463,6,0,B|22:257|22:257|37:297,1,84.5,12|0,0:0|0:0,0:0:0:0:
191,124,171827,2,0,P|182:80|174:31,1,84.5,12|0,0:0|3:0,0:0:0:0:
88,109,172191,5,12,0:0:0:0:
265,191,172372,1,8,3:0:0:0:
134,267,172554,1,0,3:0:0:0:
267,69,172736,5,12,0:0:0:0:
374,259,172918,1,8,3:0:0:0:
505,176,173100,1,0,3:0:0:0:
349,125,173281,5,12,0:0:0:0:
512,290,173463,1,8,3:0:0:0:
512,290,173645,1,0,3:0:0:0:
291,246,173819,6,0,P|332:240|376:230,1,84.5,12|0,0:0|0:0,0:0:0:0:
463,157,174182,1,0,3:0:0:0:
328,346,174364,1,12,0:0:0:0:
197,209,174546,1,0,0:0:0:0:
165,220,174637,1,0,3:0:0:0:
141,243,174728,1,8,3:0:0:0:
128,274,174819,1,8,3:0:0:0:
132,307,174909,1,8,0:0:0:0:
156,330,175000,1,8,0:0:0:0:
177,341,175079,6,0,P|118:354|53:373,1,121.680002970703,4|4,0:1|0:3,0:0:0:0:
197,209,175806,2,0,P|138:196|73:177,1,121.680002970703,2|4,0:0|0:3,0:0:0:0:
65,208,176533,6,0,P|59:178|61:139,1,60.8400014853516
197,33,176897,2,0,P|183:60|176:89,1,60.8400014853516,4|0,0:3|0:0,0:0:0:0:
306,170,177260,2,0,P|260:178|205:195,1,91.2600022280274,4|0,0:3|0:0,0:0:0:0:
197,209,177614,1,8,0:0:0:0:
262,85,177816,5,2,1:2:0:0:
432,178,177997,1,2,1:2:0:0:
264,276,178179,1,2,1:2:0:0:
387,279,178351,6,0,L|265:300,1,121.680002970703,4|4,0:0|0:3,0:0:0:0:
409,86,179078,2,0,L|287:65,1,121.680002970703,2|4,0:0|0:3,0:0:0:0:
261,36,179805,6,0,L|271:106,1,60.8400014853516,4|0,0:3|0:0,0:0:0:0:
288,241,180169,2,0,L|282:214,6,15.2100003713379,8|0|0|0|0|0|0,0:0|0:0|3:0|0:0|0:0|0:0|0:0,0:0:0:0:
363,190,180542,5,8,3:0:0:0:
273,123,180723,1,2,0:0:0:0:
200,244,180920,2,0,B|284:253|261:306|352:313,1,155.47999478064,4|4,0:1|0:3,0:0:0:0:
354,291,181465,5,8,3:0:0:0:
229,363,181647,2,0,P|152:377|89:253,1,233.21999217096,8|0,0:0|0:0,0:0:0:0:
151,180,182374,5,0,3:0:0:0:
77,251,182556,2,0,P|159:265|246:282,1,155.47999478064,8|8,0:0|3:0,0:0:0:0:
382,197,183101,2,0,P|442:262|414:327,1,155.47999478064,10|4,0:0|0:3,0:0:0:0:
305,384,183647,5,8,0:0:0:0:
261,288,183815,2,0,B|275:233|275:233|253:194|253:194|267:132,1,155.47999478064,0|4,3:0|0:3,0:0:0:0:
292,127,184360,5,8,3:0:0:0:
178,244,184542,1,8,0:0:0:0:
178,244,184724,2,0,B|149:202|149:202|180:96,1,155.47999478064,0|0,1:0|0:0,0:0:0:0:
81,136,185269,5,8,3:0:0:0:
121,33,185451,2,0,P|170:67|266:49,1,155.47999478064,10|2,0:0|3:2,0:0:0:0:
285,35,185905,1,0,0:0:0:0:
285,35,185988,2,0,P|290:73|296:113,1,77.7399973903199,8|2,0:0|3:2,0:0:0:0:
448,264,186351,2,0,P|480:209|452:162,1,116.60999608548,12|0,0:0|0:0,0:0:0:0:
435,147,186715,5,4,3:2:0:0:
335,195,187078,1,0,3:0:0:0:
228,164,187442,2,0,L|244:314,1,138.580002114563,8|4,0:0|0:3,0:0:0:0:
340,376,187987,5,0,3:0:0:0:
340,370,188078,1,0,0:0:0:0:
340,364,188169,2,0,L|264:378,1,69.2900010572815,8|8,3:0|0:0,0:0:0:0:
344,215,188533,2,0,L|268:229,1,69.2900010572815,4|0,0:3|3:0,0:0:0:0:
355,350,188896,5,10,0:0:0:0:
216,296,189078,1,0,0:0:0:0:
96,368,189260,1,4,0:3:0:0:
0,318,189442,1,8,0:0:0:0:
21,233,189634,1,4,0:0:0:0:
12,223,189997,6,0,P|52:218|100:207,1,77.7399973903199,0|0,3:0|0:0,0:0:0:0:
255,91,190361,2,0,P|216:86|178:76,1,77.7399973903199,8|0,0:0|3:0,0:0:0:0:
39,138,190725,1,12,0:0:0:0:
194,194,190906,1,0,3:0:0:0:
101,237,191088,6,0,B|78:297|121:302|95:355,1,121.680002970703,2|0,0:0|0:0,0:0:0:0:
205,284,191634,2,0,L|236:290,1,30.4200007426758,0|2,0:0|0:0,0:0:0:0:
257,311,191815,2,0,P|293:251|268:200,1,121.680002970703,2|0,0:0|0:0,0:0:0:0:
259,203,192537,6,0,P|329:195|400:188,1,138.580002114563,4|0,3:1|3:0,0:0:0:0:
512,359,193264,6,0,P|478:350|444:346,1,69.2900010572815,2|0,3:2|0:0,0:0:0:0:
493,200,193627,2,0,P|459:208|425:212,1,69.2900010572815,2|0,3:2|0:0,0:0:0:0:
278,313,193991,5,0,3:0:0:0:
213,270,194173,1,0,3:0:0:0:
136,253,194355,1,8,3:0:0:0:
62,278,194537,1,0,3:0:0:0:
124,344,194718,5,8,3:0:0:0:
195,300,194900,1,0,3:0:0:0:
278,290,195082,1,8,3:0:0:0:
356,321,195264,1,0,3:0:0:0:
274,382,195446,5,0,3:0:0:0:
203,310,195627,1,8,3:0:0:0:
237,214,195809,1,8,3:0:0:0:
336,194,195991,1,0,3:0:0:0:
406,268,196173,1,0,3:0:0:0:
334,339,196355,1,8,3:0:0:0:
238,305,196537,1,8,3:0:0:0:
218,206,196718,1,8,3:0:0:0:
292,125,196900,5,8,3:0:0:0:
320,231,197082,1,0,3:0:0:0:
238,305,197264,1,8,3:0:0:0:
133,271,197446,1,8,3:0:0:0:
121,161,197627,1,8,3:0:0:0:
227,133,197809,1,8,3:0:0:0:
301,215,197991,1,8,3:0:0:0:
267,320,198173,1,8,3:0:0:0:
159,242,198373,5,4,3:0:0:0:
282,328,198554,1,0,1:0:0:0:
150,384,198736,1,8,3:0:0:0:
297,222,198918,1,0,1:0:0:0:
216,145,199100,5,2,3:2:0:0:
416,80,199282,1,0,1:0:0:0:
285,25,199463,1,2,3:2:0:0:
361,230,199645,1,0,1:0:0:0:
438,165,199827,5,8,3:0:0:0:
215,250,200009,1,0,1:0:0:0:
371,347,200191,1,2,3:2:0:0:
303,121,200373,1,0,1:0:0:0:
406,54,200554,5,2,3:2:0:0:
192,167,200736,1,0,1:0:0:0:
453,284,200918,1,12,0:0:0:0:
282,31,201270,5,8,3:0:0:0:
249,23,201360,1,0,1:0:0:0:
216,32,201450,1,8,0:0:0:0:
192,56,201541,1,8,0:0:0:0:
159,83,201633,5,0,1:0:0:0:
117,88,201724,1,8,0:0:0:0:
77,73,201815,1,8,0:0:0:0:
56,35,201906,1,8,0:0:0:0:
75,27,202009,6,0,P|117:100|77:173,1,172.380001052124,4|8,0:1|0:0,0:0:0:0:
207,226,202554,2,0,L|256:215,2,43.095000263031,2|0|0,0:0|0:0|3:0,0:0:0:0:
79,358,202918,6,0,P|62:320|74:272,1,86.190000526062,2|8,3:2|0:0,0:0:0:0:
319,167,203281,2,0,P|336:205|324:253,1,86.190000526062,2|0,0:0|3:0,0:0:0:0:
163,111,203645,6,0,P|174:67|185:7,1,86.190000526062,2|8,0:0|0:0,0:0:0:0:
282,93,204009,1,0,0:0:0:0:
163,231,204190,1,2,3:2:0:0:
282,93,204372,1,0,3:0:0:0:
419,172,204554,2,0,L|323:189,1,86.190000526062,10|0,0:0|3:0,0:0:0:0:
306,196,204817,1,8,3:0:0:0:
306,196,204890,1,4,0:0:0:0:
477,335,205071,6,0,L|413:325,1,43.095000263031,0|2,0:0|0:0,0:0:0:0:
327,277,205253,1,10,0:0:0:0:
465,309,205435,6,0,B|391:294|379:368|301:352,1,172.380001052124,2|0,0:0|3:0,0:0:0:0:
177,260,205980,1,8,0:0:0:0:
276,157,206162,6,0,P|277:201|291:251,1,86.190000526062,2|0,0:0|3:0,0:0:0:0:
79,369,206526,2,0,P|78:325|66:273,1,86.190000526062,2|8,3:2|0:0,0:0:0:0:
204,349,206890,5,2,0:0:0:0:
57,276,207071,2,0,P|103:263|154:246,1,86.190000526062,4|2,0:3|3:2,0:0:0:0:
343,113,207435,2,0,P|277:128|226:87,1,129.285000789093,12|0,0:0|0:0,0:0:0:0:
216,80,207799,5,6,0:0:0:0:
250,62,207890,1,2,0:0:0:0:
288,65,207980,1,2,0:0:0:0:
321,82,208071,1,2,0:0:0:0:
343,113,208170,2,0,P|332:154|322:199,1,86.190000526062,8|0,0:0|0:0,0:0:0:0:
441,133,208552,5,0,3:0:0:0:
314,201,208733,1,8,3:0:0:0:
459,343,208915,2,0,P|416:331|355:321,1,86.190000526062,8|0,0:0|0:0,0:0:0:0:
289,379,209279,5,0,3:0:0:0:
443,252,209461,1,8,3:0:0:0:
306,189,209642,1,8,0:0:0:0:
374,337,209824,1,2,0:0:0:0:
129,290,210006,6,0,L|227:275,1,86.190000526062,2|0,3:2|3:0,0:0:0:0:
240,259,210279,2,0,L|230:312,1,43.095000263031,2|8,0:2|0:0,0:0:0:0:
70,229,210552,1,2,0:0:0:0:
241,140,210728,6,0,P|286:185|260:284,1,172.380001052124,6|8,0:0|0:0,0:0:0:0:
386,116,211273,2,0,L|444:129,1,43.095000263031,2|2,0:0|0:0,0:0:0:0:
512,218,211455,2,0,L|469:227,1,43.095000263031,2|0,3:2|0:0,0:0:0:0:
341,315,211637,2,0,L|383:324,1,43.095000263031,2|0,3:2|0:0,0:0:0:0:
500,380,211818,1,12,0:0:0:0:
390,198,212000,5,0,3:0:0:0:
385,223,212091,1,8,3:0:0:0:
379,243,212195,1,12,0:0:0:0:
278,153,212376,2,0,P|272:111|265:69,1,84.5,4|0,3:2|0:0,0:0:0:0:
0,285,212751,5,0,3:0:0:0:
5,310,212841,1,8,3:0:0:0:
11,330,212932,1,12,0:0:0:0:
150,218,213114,2,0,P|155:176|163:134,1,84.5,4|0,3:2|0:0,0:0:0:0:
87,369,213626,6,0,P|127:331|209:341,1,138.580002114563,6|0,0:0|3:0,0:0:0:0:
321,233,214171,2,0,L|302:309,1,69.2900010572815,2|8,0:0|0:0,0:0:0:0:
230,242,214535,1,2,0:0:0:0:
230,242,214716,2,0,L|249:166,1,69.2900010572815,2|0,0:0|0:0,0:0:0:0:
321,233,215080,5,2,0:0:0:0:
235,95,215262,1,8,0:0:0:0:
309,34,215444,2,0,P|342:40|377:46,1,69.2900010572815,2|2,3:2|0:0,0:0:0:0:
422,199,215807,2,0,P|387:204|353:211,1,69.2900010572815,8|0,0:0|0:0,0:0:0:0:
329,125,216171,5,2,0:0:0:0:
496,225,216353,1,8,0:0:0:0:
393,307,216535,2,0,P|360:237|391:187,1,138.580002114563,0|4,3:0|3:0,0:0:0:0:
388,189,217262,6,0,L|317:200,1,69.2900010572815,8|0,0:0|0:0,0:0:0:0:
229,373,217626,2,0,L|297:362,1,69.2900010572815,2|0,0:0|0:0,0:0:0:0:
402,299,217989,5,8,3:0:0:0:
208,239,218171,1,8,0:0:0:0:
319,163,218353,1,2,3:2:0:0:
319,163,218535,1,0,3:0:0:0:
297,362,218716,6,0,P|289:326|284:285,1,69.2900010572815,12|0,0:0|0:0,0:0:0:0:
78,175,219080,1,0,1:0:0:0:
73,198,219171,1,0,1:0:0:0:
67,221,219262,1,8,0:0:0:0:
63,245,219353,1,8,0:0:0:0:
60,269,219444,6,0,P|113:223|193:231,1,155.47999478064,4|8,0:1|0:0,0:0:0:0:
177,250,219989,1,0,0:0:0:0:
296,129,220171,2,0,P|300:167|308:209,1,77.7399973903199,2|0,3:2|3:0,0:0:0:0:
170,37,220535,2,0,P|165:75|158:117,1,77.7399973903199,8|0,0:0|0:0,0:0:0:0:
274,48,220898,5,2,3:2:0:0:
149,118,221080,1,0,3:0:0:0:
282,201,221262,1,8,0:0:0:0:
178,288,221444,5,0,0:0:0:0:
173,269,221535,1,0,0:0:0:0:
177,250,221626,1,2,3:2:0:0:
315,307,221807,1,0,3:0:0:0:
153,384,221989,2,0,L|58:369,1,77.7399973903199,8|0,0:0|0:0,0:0:0:0:
0,287,222353,5,4,0:0:0:0:
5,272,222716,5,8,0:0:0:0:
48,368,222898,1,2,0:0:0:0:
72,148,223080,5,8,0:0:0:0:
108,264,223262,1,0,3:0:0:0:
152,44,223444,5,8,0:0:0:0:
184,176,223626,1,0,3:0:0:0:
336,8,223807,5,8,0:0:0:0:
300,148,223989,1,2,0:0:0:0:
508,40,224171,5,8,0:0:0:0:
408,168,224353,1,0,3:0:0:0:
188,28,224535,5,8,0:0:0:0:
232,200,224716,1,0,3:0:0:0:
448,92,224898,5,8,0:0:0:0:
392,276,225080,1,0,3:0:0:0:
304,16,225262,5,12,0:0:0:0:
396,160,225444,1,0,3:0:0:0:
196,236,225626,1,8,3:0:0:0:
480,288,225807,6,0,B|384:292|416:356|320:360,1,172.380001052124,12|0,0:0|3:0,0:0:0:0:
252,104,226353,5,12,0:0:0:0:
364,244,226535,1,0,3:0:0:0:
140,364,226716,5,14,0:2:0:0:
276,284,226898,1,2,3:2:0:0:
112,204,227080,1,2,3:2:0:0:
280,76,227262,5,8,3:0:0:0:
156,124,227444,1,2,3:2:0:0:
348,220,227626,1,2,3:2:0:0:
132,288,227789,6,0,P|196:276|261:265,1,121.680002970703,10|4,0:0|0:3,0:0:0:0:
259,273,229274,5,2,0:0:0:0:
259,273,229455,2,0,P|178:349|90:319,1,211.25,0|2,0:0|0:0,0:0:0:0:
46,256,230728,1,2,0:0:0:0:
110,209,231092,6,0,B|235:214|178:284|298:294,1,211.25,2|0,0:0|0:0,0:0:0:0:
358,246,232183,2,0,L|349:192,1,42.25,2|0,0:0|0:0,0:0:0:0:
303,142,232546,2,0,P|417:195|481:102,1,253.5,0|0,0:0|0:0,0:0:0:0:
407,77,234001,6,0,B|297:51|286:168|164:125,1,253.5,2|2,0:0|0:0,0:0:0:0:
112,74,235274,2,0,P|215:29|285:91,1,211.25,0|2,0:0|0:0,0:0:0:0:
241,153,236546,1,2,0:0:0:0:
297,208,236910,6,0,B|197:188|197:188|130:228,1,169,2|2,0:0|0:0,0:0:0:0:
82,272,237819,2,0,L|31:280,2,42.25,0|2|0,0:0|0:0|0:0,0:0:0:0:
123,336,238364,2,0,B|256:365|234:274|367:298,1,253.5,0|0,0:0|0:0,0:0:0:0:
465,356,239799,6,0,L|451:243,1,104.779995843079,4|0,3:2|3:0,0:0:0:0:
374,165,240536,1,2,3:2:0:0:
480,120,240899,1,2,3:2:0:0:
385,70,241081,5,8,3:0:0:0:
383,76,241172,1,8,3:0:0:0:
379,81,241263,1,0,0:0:0:0:
288,24,241435,1,8,0:0:0:0:
284,31,241617,2,0,L|268:143,1,104.779995843079,0|8,3:0|0:0,0:0:0:0:
281,149,242162,5,8,3:0:0:0:
178,58,242344,1,2,3:2:0:0:
188,53,242526,2,0,L|176:112,1,52.3899979215394,8|4,0:0|0:3,0:0:0:0:
33,215,243071,6,0,P|9:178|28:118,1,104.779995843079,0|8,3:0|0:0,0:0:0:0:
37,93,243617,2,0,L|48:146,1,52.3899979215394,0|0,0:0|3:0,0:0:0:0:
124,219,243980,5,8,0:0:0:0:
123,225,244071,1,8,0:0:0:0:
122,231,244162,2,0,L|111:284,1,52.3899979215394,0|8,3:0|0:0,0:0:0:0:
212,182,244526,2,0,L|226:271,1,78.5849968823091,2|0,3:2|3:0,0:0:0:0:
211,287,244889,5,8,3:0:0:0:
324,191,245071,1,8,0:0:0:0:
315,185,245253,2,0,L|327:251,1,52.3899979215394,2|8,0:0|0:0,0:0:0:0:
355,361,245617,1,2,0:0:0:0:
364,352,245980,6,0,L|266:340,1,84.5,4|2,0:3|0:0,0:0:0:0:
211,287,246708,1,2,0:0:0:0:
398,170,247071,2,0,L|301:187,1,84.5,0|2,0:0|0:0,0:0:0:0:
242,135,247799,1,0,0:0:0:0:
337,72,248162,5,0,0:0:0:0:
348,85,248547,2,0,B|253:59|241:139|142:110,1,211.25,2|0,0:0|0:0,0:0:0:0:
121,90,249637,2,0,L|130:143,1,42.25,0|0,0:0|0:0,0:0:0:0:
38,303,250001,6,0,P|16:234|117:264,1,221.812508461476,4|0,0:3|0:0,0:0:0:0:
110,272,250728,5,8,3:2:0:0:
303,200,250910,1,8,3:0:0:0:
294,189,251441,6,0,P|281:260|269:332,1,138.580002114563,4|0,0:0|3:0,0:0:0:0:
286,343,251986,1,4,0:3:0:0:
362,273,252168,2,0,L|440:260,1,69.2900010572815,0|0,3:0|0:0,0:0:0:0:
217,174,252531,2,0,L|285:162,1,69.2900010572815,0|0,3:0|0:0,0:0:0:0:
415,146,252886,6,0,P|333:160|288:119,1,138.580002114563,2|0,3:2|3:0,0:0:0:0:
380,15,253431,2,0,P|370:48|363:82,1,69.2900010572815,4|0,0:3|3:0,0:0:0:0:
233,241,253795,2,0,P|223:207|216:173,1,69.2900010572815,4|0,0:3|3:0,0:0:0:0:
130,50,254158,1,8,0:0:0:0:
136,56,254249,1,8,0:0:0:0:
140,63,254340,6,0,P|127:132|111:208,1,138.580002114563,4|0,0:0|3:0,0:0:0:0:
95,181,254886,1,4,0:3:0:0:
25,291,255067,2,0,P|18:258|6:218,1,69.2900010572815,0|4,3:0|0:3,0:0:0:0:
195,325,255431,2,0,P|202:292|214:252,1,69.2900010572815,0|0,3:0|0:0,0:0:0:0:
44,368,255795,6,0,P|80:362|128:355,1,69.2900010572815,2|0,3:2|0:0,0:0:0:0:
226,248,256158,1,0,3:0:0:0:
211,257,256340,2,0,P|264:298|331:284,1,138.580002114563,2|8,0:0|0:0,0:0:0:0:
347,285,256795,5,8,0:0:0:0:
365,255,256886,1,8,3:0:0:0:
361,220,256976,1,0,3:0:0:0:
343,190,257067,1,8,3:0:0:0:
334,156,257158,1,8,3:0:0:0:
352,126,257249,2,0,B|401:103|401:103|496:124,1,138.580002114563,4|0,3:2|3:0,0:0:0:0:
295,66,257795,5,0,3:0:0:0:
292,63,257886,1,0,3:0:0:0:
289,60,257976,2,0,L|304:6,3,34.6450005286408,8|0|0|0,3:0|3:0|3:0|3:0,0:0:0:0:
210,118,258340,2,0,L|220:164,3,34.6450005286408,8|0|0|0,3:0|3:0|3:0|3:0,0:0:0:0:
134,65,258704,5,12,3:0:0:0:
104,83,258795,1,0,1:0:0:0:
89,114,258886,1,0,1:0:0:0:
94,147,258976,1,0,1:0:0:0:
114,175,259067,1,8,3:0:0:0:
131,204,259158,1,0,1:0:0:0:
139,237,259249,1,0,1:0:0:0:
123,268,259340,1,8,0:0:0:0:
98,292,259431,2,0,L|45:302,3,34.6450005286408,8|0|8|8,3:0|1:0|0:0|0:0,0:0:0:0:
100,373,259795,5,8,3:0:0:0:
135,351,259886,1,0,1:0:0:0:
175,344,259976,1,0,1:0:0:0:
215,353,260067,1,8,0:0:0:0:
245,381,260158,6,0,L|335:369,1,77.7399973903199,6|8,0:0|3:0,0:0:0:0:
418,302,260431,1,8,3:0:0:0:
429,313,260522,2,0,L|416:372,1,38.86999869516,8|0,0:0|0:0,0:0:0:0:
318,278,260704,6,0,P|305:239|325:189,1,86.190000526062,6|8,0:0|3:0,0:0:0:0:
390,147,260976,2,0,P|413:153|447:158,2,43.095000263031,8|0|0,3:0|1:0|0:0,0:0:0:0:
315,87,261249,2,0,P|289:92|258:94,2,43.095000263031,8|0|0,3:0|0:0|1:0,0:0:0:0:
390,25,261522,1,8,0:0:0:0:
405,33,261613,2,0,P|345:72|279:53,1,129.285000789093,2|8,0:0|0:0,0:0:0:0:
187,17,261976,6,0,L|198:70,1,43.095000263031,8|8,0:0|0:0,0:0:0:0:
80,144,262158,2,0,L|88:101,1,43.095000263031,8|8,0:0|0:0,0:0:0:0:
208,176,262340,5,10,0:0:0:0:
214,209,262431,1,8,0:0:0:0:
207,242,262522,1,10,0:0:0:0:
212,276,262613,1,10,0:0:0:0:
217,316,262704,6,0,L|287:301,1,51.5449978764115,8|10,3:0|0:0,0:0:0:0:
121,226,262886,2,0,L|51:241,1,51.5449978764115,10|10,0:0|0:0,0:0:0:0:
11,339,263067,6,0,P|48:376|136:364,1,138.580002114563,6|0,0:1|3:0,0:0:0:0:
124,358,264184,1,0,3:0:0:0:
227,115,264547,6,0,L|202:267,1,138.580002114563,2|0,0:0|3:0,0:0:0:0:
265,350,265092,2,0,P|311:372|398:334,1,138.580002114563,2|0,0:0|3:0,0:0:0:0:
512,274,265628,2,0,P|476:268|442:252,1,69.2900010572815,0|0,3:0|0:0,0:0:0:0:
354,143,265991,5,2,0:0:0:0:
367,155,266354,2,0,P|393:78|359:37,1,138.580002114563,0|0,3:0|0:0,0:0:0:0:
346,28,267081,6,0,L|276:38,1,69.2900010572815,0|0,3:0|0:0,0:0:0:0:
217,88,267445,2,0,L|147:78,1,69.2900010572815,2|0,0:0|0:0,0:0:0:0:
345,152,267809,1,0,3:0:0:0:
280,200,267991,2,0,B|202:210|228:246|153:254,1,138.580002114563,2|2,0:0|0:0,0:0:0:0:
78,213,268536,6,0,P|87:177|94:135,1,69.2900010572815,0|0,3:0|0:0,0:0:0:0:
232,257,268900,2,0,P|223:292|216:335,1,69.2900010572815,4|0,3:0|0:0,0:0:0:0:
117,374,269253,5,0,3:0:0:0:
340,308,269980,1,0,3:0:0:0:
340,308,270343,2,0,P|323:259|344:174,1,138.580002114563,0|0,0:0|3:0,0:0:0:0:
353,190,270888,1,0,0:0:0:0:
279,63,271070,6,0,B|376:47|358:130|458:108,1,189.280002310547,2|8,0:0|3:0,0:0:0:0:
467,99,271802,6,0,P|397:95|347:139,1,138.580002114563,4|0,0:0|3:0,0:0:0:0:
293,81,272347,1,0,0:0:0:0:
386,223,272529,2,0,P|334:266|266:261,1,138.580002114563,2|0,0:0|3:0,0:0:0:0:
281,246,273074,1,0,0:0:0:0:
384,348,273256,6,0,P|312:359|232:371,1,138.580002114563,6|0,0:0|3:0,0:0:0:0:
186,316,273802,1,0,0:0:0:0:
71,378,273983,2,0,B|47:340|47:340|78:250,1,138.580002114563,2|0,0:0|3:0,0:0:0:0:
147,171,274529,1,2,0:0:0:0:
0,192,274714,6,0,P|85:207|144:176,1,143.650002739906,4|0,0:0|3:0,0:0:0:0:
302,27,275804,2,0,P|266:35|215:42,1,71.8250013699532,0|0,3:0|0:0,0:0:0:0:
138,101,276168,6,0,B|217:109|189:155|275:165,1,143.650002739906,2|0,0:0|3:0,0:0:0:0:
352,223,276714,2,0,P|379:157|346:96,1,143.650002739906,2|2,0:0|0:0,0:0:0:0:
348,98,277259,2,0,L|421:110,1,71.8250013699532,0|0,3:0|0:0,0:0:0:0:
489,162,277623,5,0,0:0:0:0:
489,162,277986,1,0,3:0:0:0:
305,300,278714,2,0,P|311:335|316:370,1,71.8250013699532,0|0,3:0|0:0,0:0:0:0:
384,247,279077,6,0,P|329:203|260:215,1,143.650002739906,2|0,0:0|3:0,0:0:0:0:
154,147,279623,2,0,L|176:295,1,143.650002739906,2|2,0:0|0:0,0:0:0:0:
50,364,280168,2,0,P|61:328|68:281,1,71.8250013699532,0|0,3:0|0:0,0:0:0:0:
152,380,280532,5,0,0:0:0:0:
152,380,280895,1,0,3:0:0:0:
0,207,281623,2,0,P|36:201|81:188,1,71.8250013699532,0|0,3:0|0:0,0:0:0:0:
219,103,281986,6,0,P|131:111|84:75,1,143.650002739906,2|0,0:0|3:0,0:0:0:0:
186,200,282532,2,0,P|253:189|330:178,1,143.650002739906,2|2,0:0|0:0,0:0:0:0:
435,90,283077,2,0,L|421:165,1,71.8250013699532,0|0,3:0|0:0,0:0:0:0:
394,277,283441,5,4,0:3:0:0:
394,277,283804,1,0,3:0:0:0:
262,88,284532,2,0,P|296:96|337:102,1,71.8250013699532,0|0,3:0|0:0,0:0:0:0:
426,178,284895,6,0,B|370:188|370:188|346:215|346:215|285:230,1,143.650002739906,2|0,0:0|3:0,0:0:0:0:
203,169,285441,2,0,B|165:257|165:257|195:308,1,143.650002739906,2|0,0:0|3:0,0:0:0:0:
266,379,285986,5,8,3:0:0:0:
380,239,286168,1,0,0:0:0:0:
383,260,286259,1,0,0:0:0:0:
386,281,286360,1,12,0:0:0:0:
278,146,286723,6,0,L|198:131,1,69.2900010572815,0|0,3:0|0:0,0:0:0:0:
267,297,287087,2,0,L|187:312,1,69.2900010572815,0|0,3:0|3:0,0:0:0:0:
219,221,287450,1,0,3:0:0:0:
219,221,287632,1,0,3:0:0:0:
121,138,287814,5,0,3:0:0:0:
194,117,287996,1,8,3:0:0:0:
275,52,288178,5,0,3:0:0:0:
391,73,288360,1,8,3:0:0:0:
302,170,288541,5,8,3:0:0:0:
445,144,288723,1,8,3:0:0:0:
296,272,288905,5,0,3:0:0:0:
463,315,289087,1,8,3:0:0:0:
266,383,289269,5,4,0:1:0:0:
257,368,289632,2,0,L|331:380,1,69.2900010572815,0|0,3:0|0:0,0:0:0:0:
233,181,289996,2,0,L|307:169,1,69.2900010572815,0|0,3:0|3:0,0:0:0:0:
228,296,290360,5,8,3:0:0:0:
352,230,290541,1,8,3:0:0:0:
165,137,290723,1,2,3:2:0:0:
257,74,290905,1,0,3:0:0:0:
150,247,291087,1,8,3:0:0:0:
308,143,291269,5,2,3:2:0:0:
155,48,291450,1,0,3:0:0:0:
257,273,291632,1,8,3:0:0:0:
404,112,291814,5,0,3:0:0:0:
195,178,291996,1,8,0:0:0:0:
174,175,292087,1,8,0:0:0:0:
153,171,292178,1,4,0:1:0:0:
332,320,292541,6,0,P|366:311|412:306,1,69.2900010572815,0|0,3:0|0:0,0:0:0:0:
314,88,292905,2,0,P|348:96|394:102,1,69.2900010572815,0|0,3:0|3:0,0:0:0:0:
473,172,293269,5,8,3:0:0:0:
351,236,293450,1,8,3:0:0:0:
201,110,293632,1,2,3:2:0:0:
308,50,293814,1,8,3:0:0:0:
205,264,293996,1,0,3:0:0:0:
391,138,294178,5,2,3:2:0:0:
236,184,294360,1,0,3:0:0:0:
438,351,294541,1,8,3:0:0:0:
336,206,294723,1,0,3:0:0:0:
239,297,294905,5,0,3:0:0:0:
481,194,295087,1,12,0:0:0:0:
327,57,295269,5,0,3:0:0:0:
317,54,295360,1,0,3:0:0:0:
308,50,295450,2,0,L|320:110,1,43.095000263031,8|0,3:0|3:0,0:0:0:0:
337,239,295632,1,12,0:0:0:0:
170,153,295814,5,0,0:0:0:0:
154,121,295905,1,8,3:0:0:0:
151,86,295996,1,0,3:0:0:0:
162,53,296087,1,0,0:0:0:0:
183,26,296178,1,12,0:0:0:0:
346,123,296360,6,0,P|318:127|276:137,1,51.5449978764115,4|8,0:3|0:0,0:0:0:0:
169,244,296541,1,6,0:0:0:0:
107,179,296723,5,8,0:0:0:0:
145,154,296814,1,8,0:0:0:0:
191,154,296905,1,8,0:0:0:0:
232,174,296996,1,8,0:0:0:0:
253,214,297087,1,8,0:0:0:0:
413,296,297269,5,8,0:0:0:0:
367,271,297360,1,8,0:0:0:0:
315,266,297450,1,8,0:0:0:0:
268,288,297541,1,8,0:0:0:0:
230,322,297632,1,8,0:0:0:0:
184,345,297723,1,8,0:0:0:0:
133,341,297802,1,8,0:0:0:0:
89,313,297892,1,8,0:0:0:0:
229,43,298239,6,0,L|225:79,1,34.3633319176077,0|0,3:0|3:0,0:0:0:0:
223,99,298360,6,0,P|305:47|451:87,1,253.5,6|10,0:1|0:0,0:0:0:0:
512,244,299087,1,0,1:0:0:0:
480,264,299178,1,8,0:0:0:0:
439,264,299269,1,8,0:0:0:0:
403,250,299360,1,8,0:0:0:0:
378,220,299450,1,6,0:0:0:0:
471,120,299632,6,0,L|459:165,1,42.25,0|8,0:0|0:0,0:0:0:0:
315,67,299814,2,0,L|323:116,1,42.25,0|0,1:0|1:0,0:0:0:0:
413,62,299996,2,0,P|346:29|289:46,1,126.75,4|0,0:0|0:0,0:0:0:0:
226,93,300360,6,0,L|167:83,1,42.25,4|0,0:0|0:0,0:0:0:0:
44,32,300541,5,8,0:0:0:0:
51,69,300632,1,8,0:0:0:0:
58,106,300723,1,8,0:0:0:0:
66,142,300814,1,8,0:0:0:0:
48,176,300905,6,0,B|154:161|122:233|211:218,1,172.380001052124,6|8,0:1|0:0,0:0:0:0:
339,150,301450,2,0,L|346:90,2,43.095000263031,0|0|0,0:0|0:0|3:0,0:0:0:0:
251,83,301814,5,8,3:0:0:0:
430,229,301996,2,0,P|445:190|447:145,1,86.190000526062,8|0,0:0|0:0,0:0:0:0:
242,299,302360,2,0,L|253:393,1,86.190000526062,2|0,0:0|3:0,0:0:0:0:
152,228,302723,5,12,0:0:0:0:
337,328,302905,1,0,3:0:0:0:
348,304,302996,1,8,0:0:0:0:
348,278,303087,1,8,3:0:0:0:
184,205,303269,5,0,3:0:0:0:
173,229,303360,1,8,0:0:0:0:
173,255,303450,1,8,3:0:0:0:
354,131,303632,2,0,L|343:59,1,43.095000263031,0|0,3:0|3:0,0:0:0:0:
273,174,303814,6,0,B|330:156|330:156|383:182|383:182|449:159,1,172.380001052124,4|4,0:1|0:3,0:0:0:0:
261,89,304360,1,8,3:0:0:0:
488,36,304541,6,0,P|401:85|333:53,1,172.380001052124,12|0,0:0|0:0,0:0:0:0:
459,195,305087,2,0,L|513:208,1,43.095000263031,0|0,0:0|0:0,0:0:0:0:
432,108,305269,5,2,0:0:0:0:
347,268,305450,2,0,B|310:222|310:222|340:108,1,172.380001052124,8|0,0:0|3:0,0:0:0:0:
426,328,305996,2,0,B|380:365|380:365|266:335,1,172.380001052124,10|0,0:0|0:0,0:0:0:0:
191,276,306541,6,0,P|182:319|170:368,1,86.190000526062,2|0,0:0|3:0,0:0:0:0:
391,152,307087,2,0,P|399:194|409:236,1,86.190000526062,4|0,0:3|3:0,0:0:0:0:
350,326,307450,5,10,0:0:0:0:
463,89,307814,2,0,B|386:80|383:148|301:138,1,172.380001052124,12|2,0:0|3:2,0:0:0:0:
189,38,308360,6,0,B|231:33|231:33|274:53,1,86.190000526062,8|0,0:2|3:0,0:0:0:0:
399,145,308723,1,2,3:2:0:0:
212,256,308905,2,0,B|185:218|185:218|212:126,1,129.285000789093,8|8,0:0|3:0,0:0:0:0:
229,119,309269,5,4,3:0:0:0:
190,139,309360,1,0,0:0:0:0:
146,137,309450,1,0,1:0:0:0:
108,115,309541,1,8,0:0:0:0:
83,79,309647,6,0,P|125:70|179:59,1,86.190000526062,4|0,0:0|0:0,0:0:0:0:
199,39,309919,1,8,0:0:0:0:
199,39,310010,1,8,3:0:0:0:
275,201,310192,1,0,3:0:0:0:
472,121,310374,6,0,P|412:87|351:107,1,129.285000789093,2|8,0:0|0:0,0:0:0:0:
332,97,310737,1,8,3:0:0:0:
511,234,310919,1,8,0:0:0:0:
360,368,311101,6,0,P|351:306|366:232,1,129.285000789093,2|8,0:0|0:0,0:0:0:0:
350,220,311465,1,8,3:0:0:0:
142,358,311647,1,8,0:0:0:0:
215,146,311828,6,0,L|227:237,1,86.190000526062,2|0,0:0|0:0,0:0:0:0:
246,263,312101,1,8,0:0:0:0:
246,263,312192,1,0,3:0:0:0:
67,208,312374,1,8,0:0:0:0:
269,75,312529,6,0,P|185:124|109:107,1,172.380001052124,4|0,0:0|3:0,0:0:0:0:
32,32,313074,1,0,0:0:0:0:
152,91,313256,5,8,3:0:0:0:
11,213,313438,1,8,3:0:0:0:
262,108,313619,5,8,3:0:0:0:
98,210,313801,1,8,3:0:0:0:
296,335,313983,1,6,0:0:0:0:
302,343,315446,6,0,B|238:334|238:334|197:358|197:358|129:347,1,172.380001052124,4|8,0:1|0:0,0:0:0:0:
54,229,315991,2,0,L|46:273,2,43.095000263031
177,262,316355,5,0,0:0:0:0:
35,125,316536,2,0,P|77:134|128:144,1,86.190000526062,10|0,0:0|0:0,0:0:0:0:
350,188,316900,6,0,B|257:178|277:250|178:234,1,172.380001052124,4|8,0:0|0:0,0:0:0:0:
295,96,317446,2,0,P|382:76|442:131,1,172.380001052124,2|4,0:0|0:3,0:0:0:0:
339,345,317991,2,0,B|317:298|317:298|349:195,1,129.285000789093,10|0,0:0|0:0,0:0:0:0:
350,188,318355,1,4,0:0:0:0:
350,188,318718,6,0,L|264:200,1,86.190000526062,8|0,0:0|0:0,0:0:0:0:
347,357,319082,2,0,L|261:369,1,86.190000526062,0|4,3:0|0:3,0:0:0:0:
72,282,319446,6,0,L|158:270,1,86.190000526062,8|0,0:0|0:0,0:0:0:0:
79,113,319809,2,0,L|165:101,1,86.190000526062,2|0,0:2|0:0,0:0:0:0:
106,196,320173,5,8,0:0:0:0:
270,72,320355,2,0,L|263:114,2,43.095000263031,0|4|4,0:0|0:3|3:0,0:0:0:0:
423,183,320718,5,8,0:0:0:0:
386,168,320809,1,8,0:0:0:0:
348,176,320900,1,0,1:0:0:0:
319,202,320991,1,8,0:0:0:0:
287,225,321082,1,8,0:0:0:0:
248,228,321173,1,0,1:0:0:0:
212,211,321264,6,0,B|309:219|271:275|367:285,1,172.380001052124,4|8,0:0|0:0,0:0:0:0:
442,203,321809,1,4,0:3:0:0:
464,379,321991,6,0,L|452:281,1,86.190000526062,0|4,3:0|0:3,0:0:0:0:
380,138,322355,2,0,P|415:113|464:117,1,86.190000526062,8|0,0:0|0:0,0:0:0:0:
362,326,322718,6,0,P|272:345|218:283,1,172.380001052124,4|8,0:0|0:0,0:0:0:0:
48,200,323264,2,0,B|154:221|154:221|187:202|177:157,1,172.380001052124,2|4,0:0|0:3,0:0:0:0:
367,19,323809,2,0,L|345:150,1,129.285000789093,10|0,0:0|0:0,0:0:0:0:
357,169,324173,1,6,0:0:0:0:
220,336,324536,6,0,P|188:349|154:358,1,69.2900010572815,8|0,0:0|0:0,0:0:0:0:
304,256,324900,2,0,P|338:259|374:267,1,69.2900010572815,2|4,3:2|0:3,0:0:0:0:
196,220,325264,2,0,P|187:186|184:151,1,69.2900010572815,8|4,0:0|0:3,0:0:0:0:
220,336,325627,5,6,0:0:0:0:
304,256,325809,1,0,0:0:0:0:
196,220,325991,1,0,3:0:0:0:
319,357,326173,5,0,3:0:0:0:
281,152,326355,1,0,3:0:0:0:
125,288,326536,1,8,3:0:0:0:
364,200,326718,1,12,3:0:0:0:
204,16,326900,1,12,0:0:0:0:
25,184,327809,6,0,B|101:145|203:175|151:256|245:283|313:238|349:196|379:143|379:143|313:238|332:323|409:372|493:339|520:263|471:207|417:250,1,802.75,6|0,0:1|0:0,0:0:0:0:
256,192,334900,12,0,335894,0:0:0:0:
