osu file format v14

[General]
AudioFilename: audio.mp3
AudioLeadIn: 0
PreviewTime: 189868
Countdown: 0
SampleSet: Soft
StackLeniency: 0.4
Mode: 0
LetterboxInBreaks: 0
WidescreenStoryboard: 0

[Editor]
Bookmarks: 29628,55835,67006,79086,102358,128545,151818,175079,202009,228171,251441,273983,274714,298239
DistanceSpacing: 0.9
BeatDivisor: 4
GridSize: 32
TimelineZoom: 2.550002

[Metadata]
Title:Kimi no Shiranai Monogatari
TitleUnicode:君の知らない物語
Artist:ClariS
ArtistUnicode:ClariS
Creator:Sajinn
Version:Masterpiece
Source:化物語
Tags:クラリス クララ Clara カレン Karen yanaginagi やなぎなぎ ed ending bakemonogatari shaft nagi yanagi ryo araragi senjougahara hanekawa sengoku kanbaru hachikuji shinobu tsukihi oshino senjou gahara hitagi koyomi supercell iljaaz keqing luscent japanese rock pop jrock jpop j-rock j-pop
BeatmapID:3309084
BeatmapSetID:1620681

[Difficulty]
HPDrainRate:5.2
CircleSize:4
OverallDifficulty:8.5
ApproachRate:9
SliderMultiplier:1.72
SliderTickRate:1

[Events]
//Background and Video events
0,0,"BG.jpg",0,0
//Break Periods
//Storyboard Layer 0 (Background)
//Storyboard Layer 1 (Fail)
//Storyboard Layer 2 (Pass)
//Storyboard Layer 3 (Foreground)
//Storyboard Layer 4 (Overlay)
//Storyboard Sound Samples

[TimingPoints]
495,363.636363636364,4,2,22,32,1,8
1040,-161.290322580645,4,2,22,32,0,8
9585,-238.095238095238,4,2,22,62,0,8
11767,-98.0392156862745,4,2,22,62,0,8
13495,-98.0392156862745,4,2,22,5,0,8
13585,361.44578313253,4,2,22,62,1,8
13585,-98.0392156862745,4,2,22,62,0,8
14217,-98.0392156862745,4,2,22,5,0,8
14307,-98.0392156862745,4,2,22,62,0,8
16386,-98.0392156862745,4,2,22,5,0,8
16476,-98.0392156862745,4,2,22,62,0,8
17922,365.853658536585,4,2,22,62,1,8
17922,-98.0392156862745,4,2,22,62,0,8
21397,-81.9672131147541,4,2,22,62,0,8
21671,-98.0392156862745,4,2,22,5,0,8
21763,-81.9672131147541,4,2,22,62,0,8
22403,-98.0392156862745,4,2,22,5,0,8
22495,-98.0392156862745,4,2,22,62,0,8
22861,-192.307692307692,4,2,22,62,0,8
23135,-98.0392156862745,4,2,22,5,0,8
23226,-58.1395348837209,4,2,22,62,0,8
23318,-98.0392156862745,4,2,22,5,0,8
23767,363.636363636364,4,2,22,52,1,8
23767,-98.0392156862745,4,2,22,52,0,8
27857,-98.0392156862745,4,2,22,5,0,8
27948,-75.7575757575758,4,2,22,52,0,8
28221,-98.0392156862745,4,2,22,5,0,8
28312,-75.7575757575758,4,2,22,52,0,8
29585,-75.7575757575758,4,2,22,42,0,8
30312,-138.888888888889,4,2,22,42,0,8
35423,363.636363636364,4,2,22,42,1,8
35423,-138.888888888889,4,2,22,42,0,8
38332,361.228175797712,4,2,22,42,1,8
38332,-192.307692307693,4,2,22,42,0,8
39415,-138.888888888889,4,2,22,42,0,8
40860,-238.095238095239,4,2,22,42,0,8
41131,-98.0392156862745,4,2,22,5,0,8
41221,362.537764350453,4,2,22,52,1,8
41221,-108.695652173913,4,2,22,52,0,8
46930,-98.0392156862745,4,2,22,5,0,8
47021,364.741641337386,4,2,22,52,1,8
47021,-108.695652173913,4,2,22,52,0,8
51671,-98.0392156862745,4,2,22,5,0,8
51762,-108.695652173913,4,2,22,52,0,8
52400,-98.0392156862745,4,2,22,5,0,8
52492,-108.695652173913,4,2,22,52,0,8
52856,363.636363636364,4,2,22,52,1,8
52856,-108.695652173913,4,2,22,52,0,8
55765,-108.695652173913,4,2,22,62,0,8
56765,-98.0392156862745,4,2,22,5,0,8
56856,-108.695652173913,4,2,22,52,0,8
58219,-98.0392156862745,4,2,22,5,0,8
58310,-108.695652173913,4,2,22,52,0,8
61583,-89.2857142857143,4,2,22,62,0,8
61855,-98.0392156862745,4,2,22,5,0,8
61946,-98.0392156862745,4,2,22,62,0,8
65219,-81.9672131147541,4,2,22,62,0,8
67128,-98.0392156862745,4,2,22,5,0,8
67219,-81.9672131147541,4,2,22,62,0,8
67310,-98.0392156862745,4,2,22,5,0,8
67401,362.537764350453,4,2,22,72,1,8
67401,-81.9672131147541,4,2,22,72,0,8
68126,-89.2857142857143,4,2,22,72,0,8
71660,-98.0392156862745,4,2,22,5,0,8
71751,-89.2857142857143,4,2,22,72,0,8
73110,-98.0392156862745,4,2,22,5,0,8
73221,362.537764350453,4,2,22,72,1,8
73221,-89.2857142857143,4,2,22,72,0,8
75305,-98.0392156862745,4,2,22,5,0,8
75396,-89.2857142857143,4,2,22,72,0,8
76121,363.636363636364,4,2,22,72,1,8
76121,-89.2857142857143,4,2,22,72,0,8
79045,361.44578313253,4,2,22,62,1,8
80129,-108.695652173913,4,2,22,62,0,8
80400,-98.0392156862745,4,2,22,5,0,8
80490,-108.695652173913,4,2,22,62,0,8
81936,363.636363636364,4,2,22,62,1,8
81936,-108.695652173913,4,2,22,62,0,8
83390,-108.695652173913,4,2,22,62,0,8
84828,375,4,2,22,52,1,8
84828,-121.951219512195,4,2,22,52,0,8
86328,363.636363636364,4,2,22,52,1,8
86509,-98.0392156862744,4,2,22,52,0,8
87782,361.44578313253,4,2,22,52,1,8
87782,-98.0392156862744,4,2,22,52,0,8
90673,363.636363636364,4,2,22,62,1,8
90673,-121.951219512195,4,2,22,62,0,8
93763,-89.2857142857143,4,2,22,62,0,8
94943,-98.0392156862745,4,2,22,5,0,8
95036,370.37037037037,4,2,22,62,1,8
95036,-89.2857142857143,4,2,22,62,0,8
95591,-192.307692307692,4,2,22,62,0,8
95869,-98.0392156862745,4,2,22,5,0,8
95961,-65.7894736842105,4,2,22,62,0,8
96054,-98.0392156862745,4,2,22,5,0,8
96424,-65.7894736842105,4,2,22,62,0,8
96517,359.281437125748,4,2,22,62,1,8
96517,-98.0392156862745,4,2,22,62,0,8
99301,-98.0392156862745,4,2,22,5,0,8
99411,362.31884057971,4,2,22,62,1,8
99411,-98.0392156862745,4,2,22,62,0,8
101945,-119.047619047619,4,2,22,62,0,8
102309,362.537764350453,4,2,22,52,1,8
102309,-119.047619047619,4,2,22,52,0,8
108129,362.537764350453,4,2,22,52,1,8
108129,-119.047619047619,4,2,22,52,0,8
111029,365.853658536585,4,2,22,52,1,8
111029,-119.047619047619,4,2,22,52,0,8
113955,359.281437125748,4,2,22,62,1,8
114224,-98.0392156862745,4,2,22,5,0,8
114314,-100,4,2,22,62,0,8
116829,390.879478827362,4,2,22,62,1,8
116829,-96.1538461538461,4,2,22,62,0,8
117219,363.636363636364,4,2,22,62,1,8
118299,362.537764350453,4,2,22,62,1,8
119749,363.636363636364,4,2,22,62,1,8
119749,-100,4,2,22,62,0,8
121476,-98.0392156862745,4,2,22,5,0,8
121567,-100,4,2,22,62,0,8
124749,-98.0392156862745,4,2,22,5,0,8
124849,359.281437125748,4,2,22,62,1,8
124849,-100,4,2,22,62,0,8
125476,-98.0392156862745,4,2,22,5,0,8
125590,363.636363636364,4,2,22,62,1,8
125590,-100,4,2,22,62,0,8
128044,-98.0392156862745,4,2,22,5,0,8
128135,-100,4,2,22,62,0,8
128499,-108.695652173913,4,2,22,62,0,8
134317,-312.5,4,2,22,62,0,8
135771,-178.571428571429,4,2,22,62,0,8
138680,-81.9672131147541,4,2,22,62,0,8
138953,-98.0392156862745,4,2,22,5,0,8
139044,-81.9672131147541,4,2,22,62,0,8
140135,-81.9672131147541,4,2,22,72,0,8
140408,-98.0392156862745,4,2,22,5,0,8
140499,-89.2857142857143,4,2,22,72,0,8
148862,-81.9672131147541,4,2,22,72,0,8
149135,-98.0392156862745,4,2,22,5,0,8
149226,-89.2857142857143,4,2,22,72,0,8
151771,-133.333333333333,4,2,22,62,0,8
163408,-111.111111111111,4,2,22,62,0,8
169226,-111.111111111111,4,2,22,72,0,8
173590,359.281437125748,4,2,22,72,1,0
175027,363.636363636364,4,2,22,72,1,0
175390,-100,4,2,22,42,0,0
177597,363.636363636364,4,2,22,42,1,0
177778,-100,4,2,22,62,0,0
177960,363.636363636364,4,2,22,62,1,0
178323,-138.888888888889,4,2,22,42,0,0
180869,-161.290322580645,4,2,22,52,0,0
186667,365.853658536585,4,2,22,52,1,0
186667,-121.951219512195,4,2,22,52,0,0
186941,-98.0392156862745,4,2,22,5,0,8
187032,-121.951219512195,4,2,22,52,0,0
191057,363.636363636364,4,2,22,52,1,0
191057,-121.951219512195,4,2,22,52,0,0
192495,363.636363636364,4,2,22,52,1,0
192495,-121.951219512195,4,2,22,52,0,0
193950,-121.951219512195,4,2,22,62,0,0
196859,-121.951219512195,4,2,22,72,0,0
198313,-100,4,2,22,82,0,0
198404,-100,4,2,22,5,0,0
198495,-100,4,2,22,82,0,0
198586,-100,4,2,22,5,0,0
198677,-100,4,2,22,82,0,0
198768,-100,4,2,22,5,0,0
198859,-100,4,2,22,82,0,0
198950,-100,4,2,22,5,0,0
199041,-100,4,2,22,82,0,0
199131,-100,4,2,22,5,0,0
199222,-100,4,2,22,82,0,0
199313,-100,4,2,22,5,0,0
199404,-100,4,2,22,82,0,0
199495,-100,4,2,22,5,0,0
199586,-100,4,2,22,82,0,0
199677,-100,4,2,22,5,0,0
199768,-100,4,2,22,72,0,0
210950,-100,4,2,22,5,0,0
211041,-100,4,2,22,72,0,0
211131,-100,4,2,22,5,0,0
211222,-100,4,2,22,72,0,0
211313,-100,4,2,22,5,0,0
211404,-100,4,2,22,82,0,0
211495,-100,4,2,22,5,0,0
211586,-100,4,2,22,72,0,0
211677,-100,4,2,22,5,0,0
211768,-100,4,2,22,72,0,0
211859,-100,4,2,22,5,0,0
211950,-100,4,2,22,72,0,0
213586,-100,4,2,22,62,0,0
222677,-100,4,2,22,72,0,0
223040,361.44578313253,4,2,22,72,1,8
228123,363.636363636364,4,2,22,72,1,8
229213,-100,4,2,22,32,0,8
229395,-192.307692307692,4,2,22,32,0,8
239668,-100,4,2,22,5,0,0
239759,-192.307692307692,4,2,22,42,0,8
240486,-138.888888888889,4,2,22,42,0,8
245597,363.636363636364,4,2,22,32,1,8
245597,-138.888888888889,4,2,22,32,0,8
246687,-192.307692307692,4,2,22,32,0,8
248506,-833.333333333333,4,2,22,32,0,8
250687,363.636363636364,4,2,22,62,1,8
251395,363.636363636364,4,2,22,62,1,8
251395,-108.695652173913,4,2,22,62,0,8
257213,370.37037037037,4,2,22,62,1,8
257213,-108.695652173913,4,2,22,62,0,8
258694,363.636363636364,4,2,22,62,1,8
258694,-108.695652173913,4,2,22,62,0,8
260148,342.857142857143,4,2,22,62,1,8
260148,-192.307692307692,4,2,22,62,0,8
260680,355.029585798817,4,2,22,62,1,8
260680,-192.307692307692,4,2,22,62,0,8
261238,338.983050847458,4,2,22,62,1,8
261238,-75.7575757575758,4,2,22,62,0,8
261576,359.281437125748,4,2,22,62,1,8
261576,-98.0392156862745,4,2,22,62,0,8
263404,363.636363636364,4,2,22,42,1,8
263404,-161.290322580645,4,2,22,42,0,8
263767,363.636363636364,4,2,22,42,1,8
264130,-161.290322580645,4,2,22,42,0,8
264494,363.636363636364,4,2,22,42,1,8
264494,-161.290322580645,4,2,22,42,0,8
269948,368.098159509202,4,2,22,42,1,8
269948,-161.290322580645,4,2,22,42,0,8
270317,365.853658536585,4,2,22,42,1,8
270317,-161.290322580645,4,2,22,42,0,8
271048,-238.095238095238,4,2,22,42,0,8
271323,-100,4,2,22,5,0,0
271414,-89.2857142857143,4,2,22,42,0,8
271688,-100,4,2,22,5,0,0
271780,-121.951219512195,4,2,22,42,0,8
273976,361.44578313253,4,2,22,42,1,8
273976,-121.951219512195,4,2,22,42,0,8
274698,361.44578313253,4,2,22,42,1,8
274698,-121.951219512195,4,2,22,42,0,8
275060,-161.290322580645,4,2,22,42,0,8
279055,361.44578313253,4,2,22,42,1,8
279055,-161.290322580645,4,2,22,42,0,8
280481,-161.290322580645,4,2,22,42,0,8
281852,-100,4,2,22,5,0,0
281944,365.853658536585,4,2,22,42,1,8
281944,-161.290322580645,4,2,22,42,0,8
284779,-100,4,2,22,5,0,0
284871,363.30608537693,4,2,22,42,1,8
284871,-161.290322580645,4,2,22,42,0,8
285779,-100,4,2,22,62,0,8
286324,360.576923076923,4,2,22,62,1,8
289208,363.636363636364,4,2,22,62,1,8
290662,370.37037037037,4,2,22,62,1,8
292143,363.636363636364,4,2,22,62,1,8
296935,-98.0392156862744,4,2,22,62,0,8
297241,342.857142857143,4,2,22,62,1,8
297900,363.636363636364,4,2,22,62,1,8
298203,-66.6666666666667,4,2,22,62,0,8
298332,363.636363636364,4,2,22,62,1,8
298332,-89.2857142857143,4,2,22,62,0,8
298696,359.281437125748,4,2,22,62,1,8
299055,-89.2857142857143,4,2,22,62,0,8
299414,359.281437125748,4,2,22,62,1,8
299414,-89.2857142857143,4,2,22,62,0,8
299953,-70.4225352112676,4,2,22,62,0,8
300222,-100,4,2,22,5,0,0
300312,-70.4225352112676,4,2,22,62,0,8
300402,-100,4,2,22,5,0,0
300492,-70.4225352112676,4,2,22,62,0,8
300871,362.537764350453,4,2,22,72,1,8
300871,-89.2857142857143,4,2,22,72,0,8
303771,363.636363636364,4,2,22,62,1,8
303771,-108.695652173913,4,2,22,62,0,8
306700,363.636363636364,4,2,22,62,1,8
306700,-108.695652173913,4,2,22,62,0,8
308154,357.142857142857,4,2,22,62,1,8
308882,363.636363636364,4,2,22,62,1,8
308882,-108.695652173913,4,2,22,62,0,8
309609,359.281437125748,4,2,22,62,1,8
309609,-192.307692307692,4,2,22,62,0,8
312483,363.636363636364,4,2,22,62,1,8
313755,424.028268551237,4,2,22,62,1,8
313967,363.636363636364,4,2,22,62,1,8
315421,361.44578313253,4,2,22,62,1,8
318330,359.281437125748,4,2,22,62,1,8
321224,363.636363636364,4,2,22,62,1,8
327769,-322.58064516129,4,2,22,62,0,8
328496,-322.58064516129,4,2,22,52,0,8
329951,-322.58064516129,4,2,22,42,0,8
331405,-322.58064516129,4,2,22,32,0,8
332860,-322.58064516129,4,2,22,22,0,8
334314,-322.58064516129,4,2,22,5,0,8
334860,-161.290322580645,4,2,22,62,0,8
335587,342.857142857143,4,2,22,62,1,8

[Colours]
Combo1 : 195,121,46
Combo2 : 77,145,128
Combo3 : 149,9,8
Combo4 : 128,206,171
SliderBorder : 254,246,171
SliderTrackOverride : 20,31,27

[HitObjects]
66,141,495,5,2,2:0:0:0:
124,100,676,1,2,2:0:0:0:
183,142,858,1,2,2:0:0:0:
133,227,1040,2,0,P|143:170|154:103,1,106.64,2|2,2:0|2:0,2:0:0:0:
237,52,1585,2,0,P|265:61|305:66,1,53.3200000000001,2|2,2:0|2:0,2:0:0:0:
438,130,1949,5,2,2:0:0:0:
388,80,2131,1,2,2:0:0:0:
447,138,2313,1,2,2:0:0:0:
361,161,2495,2,0,P|343:211|334:263,1,106.64,2|2,2:0|2:0,2:0:0:0:
333,274,3222,5,2,2:0:0:0:
260,284,3404,1,2,2:0:0:0:
185,268,3585,1,2,2:0:0:0:
120,310,3767,2,0,P|163:295|183:287,1,53.3200000000001,2|2,2:0|2:0,2:0:0:0:
5,199,4131,2,0,P|55:213|108:222,1,106.64,2|2,2:0|2:0,2:0:0:0:
184,155,4676,5,2,2:0:0:0:
144,96,4858,1,2,2:0:0:0:
189,42,5040,1,2,2:0:0:0:
282,96,5222,1,2,2:0:0:0:
282,96,5404,2,0,P|232:88|169:73,1,106.64,2|2,2:0|2:0,2:0:0:0:
177,75,6313,6,0,B|256:53|244:133|326:126,1,159.96,2|0,2:0|2:0,2:0:0:0:
375,75,7040,1,2,2:0:0:0:
310,268,7767,2,0,B|235:293|235:293|211:347|276:370,1,159.96,2|0,2:0|2:0,2:0:0:0:
339,346,8495,1,2,2:0:0:0:
75,142,9222,5,6,1:2:0:0:
64,131,9585,2,0,P|38:126|23:123,3,36.12,0|0|2|0,1:2|1:2|1:2|1:2,2:0:0:0:
136,90,10313,1,0,1:2:0:0:
206,121,10495,1,0,1:2:0:0:
284,81,10676,1,0,3:2:0:0:
378,118,10858,1,0,3:0:0:0:
501,73,11040,1,0,3:2:0:0:
364,125,11222,1,0,3:0:0:0:
412,283,11404,1,6,3:2:0:0:
482,220,11585,5,8,3:0:0:0:
493,197,11676,1,8,3:0:0:0:
478,182,11767,2,0,P|454:179|434:174,1,43.86,12|8,3:0|2:0,2:0:0:0:
339,241,11949,2,0,P|317:246|295:248,1,43.86,8|8,2:0|2:0,2:0:0:0:
82,304,12131,6,0,B|184:277|152:373|269:361,1,175.44,6|8,1:2|2:0,2:0:0:0:
314,325,12676,1,0,2:0:0:0:
197,238,12858,2,0,P|186:187|180:133,1,87.72,2|0,1:2|2:0,2:0:0:0:
209,31,13222,1,8,2:0:0:0:
213,38,13313,2,0,P|251:58|314:50,1,87.72,8|0,2:0|2:0,2:0:0:0:
306,54,13585,6,0,P|355:63|421:66,1,87.72,2|0,1:2|2:0,2:0:0:0:
495,174,13946,2,0,B|446:188|446:188|427:213|427:213|357:234,1,131.58,10|0,2:0|2:0,2:0:0:0:
365,228,14307,2,0,P|335:193|351:145,1,87.72,2|0,1:2|2:0,2:0:0:0:
505,256,14669,2,0,P|511:298|479:330,1,87.72,10|0,2:0|2:0,2:0:0:0:
355,239,15030,6,0,B|253:212|285:308|168:296,1,175.44,2|8,1:2|2:0,2:0:0:0:
141,241,15572,1,0,2:0:0:0:
20,374,15753,2,0,P|33:322|39:263,1,87.72,0|0,1:2|2:0,2:0:0:0:
55,157,16115,1,8,2:0:0:0:
59,164,16205,2,0,P|101:170|139:132,1,87.72,8|0,2:0|2:0,2:0:0:0:
139,67,16476,5,2,1:2:0:0:
295,157,16747,1,8,2:0:0:0:
301,162,16838,1,2,1:2:0:0:
369,121,17018,1,8,3:0:0:0:
300,75,17199,2,0,P|273:70|248:59,2,43.86,2|8|8,1:2|2:0|2:0,2:0:0:0:
418,32,17560,5,10,1:2:0:0:
441,30,17651,1,8,2:0:0:0:
459,43,17741,2,0,P|446:76|444:104,1,43.86,8|8,2:0|2:0,2:0:0:0:
468,280,17922,6,0,P|410:251|347:346,1,175.44,6|8,1:2|2:0,2:0:0:0:
251,262,18470,1,0,2:0:0:0:
139,359,18653,2,0,P|135:306|123:254,1,87.72,0|0,1:2|2:0,2:0:0:0:
96,141,19019,2,0,P|133:155|182:166,1,87.72,8|0,2:0|2:0,2:0:0:0:
251,140,19293,5,2,2:0:0:0:
260,136,19385,2,0,P|281:106|256:54,1,87.72,2|0,1:2|2:0,2:0:0:0:
96,31,19751,1,10,2:0:0:0:
161,58,19934,1,0,2:0:0:0:
22,161,20117,1,2,1:2:0:0:
104,136,20300,5,8,2:0:0:0:
126,139,20391,1,8,2:0:0:0:
147,155,20482,2,0,P|136:187|129:222,1,43.86,10|8,0:2|2:0,2:0:0:0:
13,246,20665,2,0,P|24:278|31:313,1,43.86,8|8,2:0|2:0,2:0:0:0:
166,342,20848,5,6,1:2:0:0:
250,247,21031,1,10,2:0:0:0:
256,244,21123,1,8,2:0:0:0:
261,241,21214,1,10,2:0:0:0:
369,313,21397,6,0,P|295:298|207:273,1,157.38,6|0,1:2|2:0,2:0:0:0:
136,260,21763,1,4,3:0:0:0:
222,143,21946,1,4,3:0:0:0:
149,46,22129,6,0,B|213:86|213:86|175:130|155:179,1,157.38,6|0,1:2|2:0,2:0:0:0:
91,189,22495,1,2,1:2:0:0:
13,7,22678,1,10,2:0:0:0:
86,200,22861,6,0,P|57:220|16:212,1,67.0800000000001,2|0,1:2|2:0,2:0:0:0:
28,230,23226,6,0,P|60:231|97:207,1,73.96,8|0,2:0|2:0,2:0:0:0:
166,153,23767,6,0,B|260:118|241:209|340:192,1,175.44,6|8,1:2|2:0,2:0:0:0:
396,150,24312,1,0,2:0:0:0:
464,301,24494,2,0,P|474:258|487:212,1,87.72,0|0,1:2|2:0,2:0:0:0:
363,375,24857,2,0,P|352:332|340:286,1,87.72,8|0,2:0|2:0,2:0:0:0:
133,324,25221,6,0,P|176:343|251:258,1,175.44,2|8,1:2|2:0,2:0:0:0:
95,225,25767,2,0,B|15:201|15:201|0:137|74:123,1,175.44,2|0,2:0|2:0,2:0:0:0:
214,106,26312,2,0,B|232:148|232:148|206:194,1,87.72,10|0,2:0|2:0,2:0:0:0:
37,51,26676,6,0,B|131:16|112:107|206:89,1,175.44,2|8,1:2|2:0,2:0:0:0:
284,20,27221,1,0,2:0:0:0:
357,52,27403,1,0,1:2:0:0:
436,27,27585,1,0,2:0:0:0:
336,249,27767,6,0,P|344:218|360:185,1,43.86,10|0,2:0|2:0,2:0:0:0:
416,105,27948,2,0,B|360:164|360:164|394:193|422:227,1,170.28,14|0,2:0|2:0,2:0:0:0:
501,214,28312,1,0,1:0:0:0:
370,323,28494,5,0,1:2:0:0:
261,262,28676,1,0,1:2:0:0:
129,384,28857,5,8,0:2:0:0:
264,341,29039,1,8,0:2:0:0:
91,159,29221,5,8,0:2:0:0:
188,298,29403,1,8,0:2:0:0:
225,187,29585,5,2,2:0:0:0:
228,179,29767,1,2,2:0:0:0:
177,119,29948,1,2,2:0:0:0:
173,113,30130,1,2,2:0:0:0:
247,32,30312,2,0,P|230:84|212:173,1,123.84,2|2,2:0|2:0,2:0:0:0:
321,88,30857,1,2,2:0:0:0:
374,142,31039,6,0,P|421:157|466:92,1,123.84,2|2,2:0|2:0,2:0:0:0:
362,153,31585,2,0,P|353:191|346:227,1,61.92,2|0,2:0|2:0,2:0:0:0:
473,232,31948,2,0,P|481:270|488:306,1,61.92,2|0,2:0|2:0,2:0:0:0:
440,359,32312,1,2,2:0:0:0:
338,314,32494,5,2,2:0:0:0:
330,309,32676,1,2,2:0:0:0:
222,370,32857,2,0,P|280:359|355:343,1,123.84,2|2,2:0|2:0,2:0:0:0:
210,269,33403,1,2,2:0:0:0:
258,215,33585,1,2,2:0:0:0:
258,215,33767,2,0,P|244:177|241:141,1,61.92,2|0,2:0|2:0,2:0:0:0:
352,34,34130,5,2,2:0:0:0:
290,71,34312,1,2,2:0:0:0:
214,41,34494,2,0,P|249:50|290:53,1,61.92,2|0,2:0|2:0,2:0:0:0:
163,120,34857,2,0,P|129:88|42:110,1,123.84,2|0,2:0|2:0,2:0:0:0:
11,243,35423,6,0,P|69:231|147:204,1,123.84,2|0,2:0|2:0,2:0:0:0:
68,317,36150,2,0,P|126:329|204:356,1,123.84,2|0,2:0|2:0,2:0:0:0:
196,355,36695,1,0,2:0:0:0:
360,279,36877,6,0,P|294:291|260:234,1,123.84,2|0,2:0|2:0,2:0:0:0:
261,243,37423,1,0,2:0:0:0:
335,168,37604,2,0,P|370:159|399:143,2,61.92,2|0|0,2:0|2:0|2:0,2:0:0:0:
324,158,38332,6,0,B|228:161|271:78|171:83,1,178.879998908203,2|0,2:0|2:0,2:0:0:0:
91,162,39235,1,2,2:0:0:0:
91,162,39415,2,0,P|78:133|74:85,1,61.92,2|2,2:0|2:0,2:0:0:0:
189,225,39776,5,2,2:0:0:0:
137,278,39957,1,2,2:0:0:0:
236,320,40138,2,0,P|185:308|109:290,1,123.84,2|0,2:0|2:0,2:0:0:0:
7,347,40679,1,2,2:0:0:0:
36,279,40860,2,0,P|22:251|24:218,1,54.1799999999998,6|0,2:0|2:0,2:0:0:0:
91,162,41221,6,0,P|166:149|267:123,1,158.24,6|2,1:2|1:2,2:0:0:0:
269,9,41764,2,0,P|315:26|355:32,1,79.12,2|0,2:0|1:2,2:0:0:0:
447,95,42127,1,2,2:0:0:0:
357,207,42308,2,0,P|374:155|378:115,1,79.12,2|2,1:2|2:0,2:0:0:0:
512,262,42671,5,2,1:2:0:0:
450,213,42852,1,2,2:0:0:0:
428,297,43033,1,2,1:2:0:0:
428,297,43214,2,0,P|391:310|345:318,1,79.12,2|0,2:0|1:2,2:0:0:0:
239,192,43577,2,0,P|272:220|264:266,1,79.12,2|0,2:0|1:2,2:0:0:0:
179,335,43940,1,2,2:0:0:0:
21,269,44121,6,0,B|105:239|92:334|191:315,1,158.24,2|2,1:2|1:2,2:0:0:0:
224,269,44665,1,0,2:0:0:0:
153,175,44846,1,2,1:2:0:0:
201,120,45027,1,2,2:0:0:0:
110,98,45208,1,2,1:2:0:0:
110,98,45390,2,0,P|159:89|199:78,1,79.12,2|0,2:0|1:2,2:0:0:0:
298,18,45752,5,2,2:0:0:0:
330,150,45933,1,2,1:2:0:0:
330,150,46115,2,0,P|339:113|352:75,1,79.12,2|0,2:0|1:2,2:0:0:0:
449,162,46477,1,2,2:0:0:0:
411,226,46659,1,0,1:2:0:0:
406,234,46749,2,0,P|375:257|337:250,1,79.12,0|0,1:0|2:0,2:0:0:0:
328,245,47021,6,0,B|244:215|257:310|158:291,1,158.24,6|0,1:2|1:2,2:0:0:0:
130,349,47568,1,0,2:0:0:0:
53,201,47750,2,0,B|32:240|32:240|61:300,1,79.12,2|0,1:2|2:0,2:0:0:0:
208,180,48115,2,0,P|157:167|126:155,1,79.12,0|0,1:2|2:0,2:0:0:0:
0,79,48479,6,0,P|58:98|114:26,1,158.24,2|0,1:2|1:2,2:0:0:0:
110,23,49027,1,0,2:0:0:0:
224,89,49209,2,0,P|212:41|210:-15,1,79.12,2|0,1:2|2:0,2:0:0:0:
364,135,49574,2,0,P|325:136|295:161,1,79.12,0|0,1:2|2:0,2:0:0:0:
210,282,49938,6,0,P|305:259|384:236,1,158.24,2|0,1:2|1:2,2:0:0:0:
426,192,50486,1,0,2:0:0:0:
505,367,50668,2,0,P|472:323|372:338,1,158.24,2|0,1:2|1:2,2:0:0:0:
372,339,51215,1,0,2:0:0:0:
226,382,51397,6,0,P|184:371|106:348,1,118.68,2|0,1:2|2:0,2:0:0:0:
101,344,51762,2,0,P|89:302|120:266,1,79.12,0|0,1:2|2:0,2:0:0:0:
260,207,52127,2,0,P|203:222|163:152,1,118.68,2|0,1:2|2:0,2:0:0:0:
162,169,52492,2,0,P|156:122|144:83,1,79.12,0|0,1:2|2:0,2:0:0:0:
23,197,52856,5,6,1:2:0:0:
12,207,53219,1,0,3:2:0:0:
17,281,53401,1,0,3:2:0:0:
81,339,53583,1,0,3:2:0:0:
189,328,53765,1,0,3:2:0:0:
267,243,53946,1,0,3:2:0:0:
392,250,54128,1,0,3:2:0:0:
478,362,54310,1,0,3:2:0:0:
381,237,54492,1,0,3:2:0:0:
500,105,54674,5,12,2:0:0:0:
396,334,54946,1,8,2:0:0:0:
392,342,55037,1,8,2:0:0:0:
315,307,55219,5,8,3:0:0:0:
246,339,55401,5,2,1:2:0:0:
180,311,55583,5,8,3:0:0:0:
112,333,55765,6,0,P|74:346|48:378,1,79.12,4|0,1:2|2:0,2:0:0:0:
192,229,56128,2,0,P|215:198|216:153,1,79.12,2|0,1:2|2:0,2:0:0:0:
301,311,56492,6,0,P|360:323|421:341,1,118.68,10|0,2:0|2:0,2:0:0:0:
426,351,56855,1,2,2:0:0:0:
337,227,57037,1,0,3:2:0:0:
428,190,57219,1,0,1:2:0:0:
289,321,57401,2,0,P|247:333|207:352,1,79.12,8|2,2:0|1:2,2:0:0:0:
62,172,57946,6,0,P|75:112|89:38,1,118.68,10|0,2:0|2:0,2:0:0:0:
80,45,58310,1,2,2:0:0:0:
179,144,58492,1,8,2:0:0:0:
248,109,58674,2,0,B|266:145|266:145|254:194,1,79.12,2|0,1:2|2:0,2:0:0:0:
68,260,59037,2,0,B|58:222|58:222|76:186,1,79.12,2|0,1:2|2:0,2:0:0:0:
232,257,59401,1,10,2:0:0:0:
240,267,59765,6,0,P|234:310|226:350,1,79.12,2|0,2:0|3:2,2:0:0:0:
400,204,60128,1,0,1:2:0:0:
329,260,60310,2,0,P|314:222|309:173,1,79.12,8|2,2:0|2:0,2:0:0:0:
471,272,60674,1,0,1:2:0:0:
483,165,60855,2,0,P|443:170|403:193,1,79.12,10|8,2:0|2:0,2:0:0:0:
247,354,61219,1,8,0:2:0:0:
200,358,61310,1,8,2:0:0:0:
172,324,61401,1,8,2:0:0:0:
183,281,61492,1,8,2:0:0:0:
197,278,61583,6,0,P|265:304|344:326,1,144.48,6|0,1:2|2:0,2:0:0:0:
389,373,61946,2,0,P|413:339|416:277,1,87.72,8|0,2:0|2:0,2:0:0:0:
282,128,62310,1,0,1:2:0:0:
393,195,62492,1,0,1:2:0:0:
211,264,62674,2,0,P|198:222|202:168,1,87.72,8|0,2:0|2:0,2:0:0:0:
339,41,63037,6,0,P|323:119|309:217,1,175.44,2|8,1:2|2:0,2:0:0:0:
452,81,63583,1,0,2:0:0:0:
348,121,63765,1,2,1:2:0:0:
461,221,63946,1,0,1:2:0:0:
259,350,64128,2,0,P|242:311|243:255,1,87.72,8|0,2:0|2:0,2:0:0:0:
198,210,64401,1,0,1:2:0:0:
206,198,64492,5,14,2:0:0:0:
336,288,64674,1,0,1:2:0:0:
161,317,64855,5,8,2:0:0:0:
309,213,65037,1,0,1:2:0:0:
161,147,65219,6,0,P|170:171|183:215,1,52.46,8|8,2:0|2:0,2:0:0:0:
354,327,65401,2,0,P|358:302|369:265,1,52.46,8|8,2:0|2:0,2:0:0:0:
200,320,65583,5,10,0:2:0:0:
159,298,65674,1,8,2:0:0:0:
118,298,65765,1,10,2:0:0:0:
70,328,65855,1,8,2:0:0:0:
52,377,65946,1,2,1:2:0:0:
52,377,67037,6,0,P|61:352|72:303,1,52.46,2|0,2:0|2:0,2:0:0:0:
221,171,67219,2,0,P|229:201|234:234,1,52.46,2|0,2:0|2:0,2:0:0:0:
307,325,67401,6,0,P|265:269|122:282,1,209.84,4|8,1:2|2:0,2:0:0:0:
311,141,67944,1,0,2:0:0:0:
208,82,68126,2,0,P|257:102|298:114,1,96.32,0|0,1:2|1:2,2:0:0:0:
120,258,68488,2,0,B|140:213|140:213|128:162,1,96.32,10|0,2:0|2:0,2:0:0:0:
305,338,68851,6,0,P|259:347|196:363,1,96.32,2|0,1:2|1:2,2:0:0:0:
341,198,69213,1,10,2:0:0:0:
221,263,69394,1,2,2:0:0:0:
385,384,69576,1,0,1:2:0:0:
320,306,69757,1,2,1:2:0:0:
320,306,69848,1,0,1:0:0:0:
320,306,69938,1,8,2:0:0:0:
208,384,70120,1,2,2:0:0:0:
332,296,70301,6,0,B|439:273|436:353|518:341,1,192.64,0|8,1:2|2:0,2:0:0:0:
357,185,70845,1,0,2:0:0:0:
291,227,71026,2,0,P|273:185|267:122,1,96.32,0|0,1:2|1:2,2:0:0:0:
449,50,71388,2,0,P|490:88|481:180,1,144.48,10|0,2:0|2:0,2:0:0:0:
499,197,71751,6,0,P|460:176|411:159,1,96.32,2|0,1:2|1:2,2:0:0:0:
263,28,72113,1,10,2:0:0:0:
352,93,72295,2,0,P|369:48|378:-8,1,96.32,2|0,2:0|1:2,2:0:0:0:
199,166,72657,5,14,2:0:0:0:
68,79,72839,2,0,P|85:151|103:248,1,144.48,8|0,2:0|2:0,2:0:0:0:
112,236,73221,6,0,P|56:248|0:143,2,192.64,4|8|0,1:2|2:0|1:2,2:0:0:0:
260,101,74127,1,0,1:2:0:0:
140,162,74308,1,8,2:0:0:0:
314,302,74489,1,0,2:0:0:0:
235,205,74671,2,0,P|222:251|214:317,1,96.32,0|0,1:2|1:2,2:0:0:0:
16,382,75033,6,0,P|-3:330|52:253,1,144.48,8|0,2:0|2:0,2:0:0:0:
48,245,75396,2,0,P|96:263|145:291,1,96.32,6|0,1:2|2:0,2:0:0:0:
271,356,75668,1,0,1:0:0:0:
275,340,75758,2,0,P|229:350|173:370,1,96.32,14|0,2:0|2:0,2:0:0:0:
359,222,76121,6,0,P|401:161|377:31,1,192.64,6|8,1:2|2:0,2:0:0:0:
202,169,76666,1,2,2:0:0:0:
115,71,76848,2,0,P|91:116|87:179,1,96.32,2|0,1:2|1:2,2:0:0:0:
296,58,77211,1,8,2:0:0:0:
193,87,77393,1,2,2:0:0:0:
342,236,77575,2,0,B|354:191|354:191|320:136,1,96.32,2|0,1:2|1:2,2:0:0:0:
200,280,77939,1,8,2:0:0:0:
132,237,78121,1,2,2:0:0:0:
132,237,78211,1,8,2:0:0:0:
132,237,78302,2,0,B|105:278|105:278|120:333,1,96.32,2|8,1:2|2:0,2:0:0:0:
301,380,78575,5,8,2:0:0:0:
308,365,78666,2,0,L|291:298,1,48.16,2|8,1:2|2:0,2:0:0:0:
198,152,78848,2,0,L|213:89,1,48.16,10|8,2:0|2:0,2:0:0:0:
361,17,79045,5,4,1:2:0:0:
424,56,79406,1,8,2:0:0:0:
357,90,79767,1,0,1:2:0:0:
294,49,80129,6,0,P|246:16|175:29,1,118.68,10|0,2:0|2:0,2:0:0:0:
82,73,80490,2,0,B|180:53|130:143|249:142,1,158.24,2|10,1:2|2:0,2:0:0:0:
260,277,81032,2,0,P|221:269|182:259,1,79.12,2|0,2:0|1:2,2:0:0:0:
357,90,81394,2,0,B|379:128|379:128|363:176,1,79.12,2|8,2:0|2:0,2:0:0:0:
294,198,81755,1,2,2:0:0:0:
422,353,81936,5,0,1:2:0:0:
469,294,82299,1,8,2:0:0:0:
446,224,82663,1,0,1:2:0:0:
455,214,83026,5,10,2:0:0:0:
402,133,83208,1,2,2:0:0:0:
512,111,83390,6,0,P|422:96|342:74,1,158.24,2|10,1:2|2:0,2:0:0:0:
206,113,83936,1,10,2:0:0:0:
198,116,84026,1,8,2:0:0:0:
190,119,84117,1,0,1:2:0:0:
249,191,84299,5,8,3:0:0:0:
299,121,84481,5,4,3:0:0:0:
268,52,84663,5,4,3:0:0:0:
255,42,84828,6,0,P|206:85|124:67,1,141.04,4|0,1:2|2:0,2:0:0:0:
58,23,85390,1,0,1:2:0:0:
29,147,85578,2,0,P|21:113|11:80,1,70.5200000000001,8|0,2:0|2:0,2:0:0:0:
161,173,85953,1,2,2:0:0:0:
26,341,86234,5,0,1:2:0:0:
20,349,86328,1,2,1:2:0:0:
67,279,86509,2,0,B|155:243|133:344|243:317,1,176.300002690125,8|0,2:0|1:0,2:0:0:0:
321,238,87055,1,8,2:0:0:0:
331,229,87418,5,2,2:0:0:0:
270,174,87600,1,10,2:0:0:0:
348,64,87782,2,0,P|326:124|304:236,1,175.440001070801,0|0,1:2|2:0,2:0:0:0:
384,314,88324,1,0,1:2:0:0:
498,216,88504,2,0,P|448:206|398:190,1,87.7200005354004,8|0,2:0|1:2,2:0:0:0:
284,124,88866,1,2,2:0:0:0:
175,203,89047,5,8,2:0:0:0:
170,207,89137,1,8,2:0:0:0:
166,212,89227,1,2,1:2:0:0:
81,101,89408,2,0,P|112:158|217:144,1,175.440001070801,8|0,2:0|2:0,2:0:0:0:
268,0,89950,5,12,2:0:0:0:
180,72,90131,1,0,1:2:0:0:
287,154,90312,1,4,3:0:0:0:
331,74,90492,1,2,1:2:0:0:
257,80,90673,5,12,2:0:0:0:
245,84,91036,1,0,1:2:0:0:
223,98,91218,1,0,1:2:0:0:
198,148,91400,1,0,1:2:0:0:
210,228,91582,1,0,1:2:0:0:
281,285,91763,1,0,1:2:0:0:
375,265,91945,1,0,3:2:0:0:
382,260,92036,1,0,3:0:0:0:
390,257,92127,1,0,3:2:0:0:
271,296,92309,5,0,3:2:0:0:
190,229,92491,1,0,3:2:0:0:
69,342,92673,1,0,3:2:0:0:
183,318,92854,1,0,3:2:0:0:
79,212,93036,1,0,3:2:0:0:
53,337,93218,1,0,3:2:0:0:
178,213,93400,1,0,3:2:0:0:
1,143,93582,5,12,2:0:0:0:
99,0,93763,2,0,P|82:48|73:125,1,96.32,0|0,1:2|1:2,2:0:0:0:
189,225,94127,5,12,2:0:0:0:
338,183,94309,2,0,P|280:178|241:163,1,96.32,0|0,1:2|1:2,2:0:0:0:
301,23,94673,6,0,P|370:7|421:90,1,144.48,14|0,2:0|2:0,2:0:0:0:
406,125,95036,2,0,B|338:182|338:182|382:226|415:270,1,192.64,6|10,1:2|2:0,2:0:0:0:
497,370,95591,6,0,P|472:350|422:357,1,67.0800000000001,2|0,1:2|2:0,2:0:0:0:
441,338,95961,6,0,P|473:338|500:357,1,65.36,2|0,1:2|2:0,2:0:0:0:
248,252,96424,5,0,1:2:0:0:
238,243,96517,2,0,B|150:234|181:321|66:322,1,175.44,6|8,1:2|2:0,2:0:0:0:
30,261,97055,1,0,2:0:0:0:
64,151,97235,2,0,P|111:164|174:171,1,87.72,0|0,1:2|2:0,2:0:0:0:
234,21,97594,2,0,B|215:60|215:60|235:108,1,87.72,8|0,2:0|2:0,2:0:0:0:
448,156,97954,6,0,P|394:130|301:200,1,175.44,2|8,1:2|2:0,2:0:0:0:
355,319,98493,1,2,2:0:0:0:
466,311,98672,2,0,P|409:298|356:284,1,87.72,0|0,1:2|2:0,2:0:0:0:
234,318,99031,1,10,2:0:0:0:
232,329,99121,2,0,P|195:362|147:351,1,87.72,8|0,2:0|2:0,2:0:0:0:
58,319,99411,6,0,P|118:325|160:210,1,175.44,2|8,1:2|2:0,2:0:0:0:
71,153,99954,2,0,P|42:146|17:138,2,43.86,0|0|0,1:0|1:0|1:2,2:0:0:0:
134,91,100316,5,8,2:0:0:0:
177,83,100407,1,8,2:0:0:0:
220,75,100497,1,10,2:0:0:0:
263,66,100588,1,8,2:0:0:0:
271,59,100679,5,6,1:2:0:0:
282,45,101041,5,4,3:0:0:0:
370,82,101222,1,4,3:0:0:0:
271,201,101403,5,8,3:0:0:0:
409,148,101584,1,12,0:2:0:0:
352,267,101766,5,8,2:0:0:0:
342,286,101856,1,8,2:0:0:0:
323,294,101947,2,0,P|291:300|265:311,1,36.12,8|8,2:0|3:0,2:0:0:0:
196,179,102128,2,0,P|164:173|138:162,1,36.12,8|8,3:0|3:0,2:0:0:0:
26,305,102309,6,0,P|65:288|79:256,1,72.24,6|2,1:2|2:0,2:0:0:0:
179,154,102671,2,0,P|172:116|133:94,1,72.24,2|2,1:2|2:0,2:0:0:0:
242,246,103034,5,2,1:2:0:0:
312,270,103215,1,2,2:0:0:0:
146,339,103396,6,0,P|179:329|232:320,1,72.24,2|2,1:2|2:0,2:0:0:0:
439,239,103759,2,0,P|390:191|302:196,1,144.48,2|2,1:2|1:2,2:0:0:0:
255,240,104302,1,2,2:0:0:0:
407,384,104484,2,0,P|374:368|332:353,1,72.24,0|2,1:2|2:0,2:0:0:0:
269,384,104846,1,0,1:2:0:0:
377,272,105028,1,2,1:2:0:0:
377,272,105118,1,0,1:0:0:0:
377,272,105209,6,0,P|389:241|389:199,1,72.24,2|2,1:2|2:0,2:0:0:0:
512,346,105571,2,0,P|506:314|480:270,1,72.24,2|2,1:2|2:0,2:0:0:0:
327,152,105934,5,2,1:2:0:0:
255,175,106115,1,2,2:0:0:0:
205,112,106296,1,2,1:2:0:0:
276,87,106478,1,2,2:0:0:0:
150,214,106659,6,0,P|138:252|122:290,1,72.24,2|2,1:2|2:0,2:0:0:0:
236,376,107021,1,2,1:2:0:0:
311,262,107203,2,0,P|348:294|352:391,1,144.48,2|2,2:0|2:0,2:0:0:0:
239,209,107747,1,0,1:2:0:0:
131,296,107928,1,0,2:0:0:0:
82,199,108129,6,0,B|66:145|108:109|86:44,1,144.48,6|0,1:2|1:2,2:0:0:0:
175,132,108672,1,0,2:0:0:0:
0,193,108854,6,0,P|34:207|82:214,1,72.24,2|0,1:2|2:0,2:0:0:0:
261,98,109216,2,0,P|228:108|190:113,1,72.24,0|0,1:2|2:0,2:0:0:0:
295,230,109579,6,0,P|354:252|407:330,1,144.48,2|0,1:2|1:2,2:0:0:0:
470,353,110122,1,0,2:0:0:0:
284,309,110304,6,0,P|245:314|199:328,1,72.24,2|0,1:2|2:0,2:0:0:0:
402,175,110666,2,0,B|381:204|381:204|388:245,1,72.24,0|2,1:2|2:0,2:0:0:0:
185,135,111029,6,0,B|255:120|233:80|316:67,1,144.48,2|0,1:2|1:2,2:0:0:0:
376,22,111577,1,0,2:0:0:0:
224,67,111760,6,0,P|187:59|151:41,1,72.24,0|2,1:2|2:0,2:0:0:0:
96,0,112035,1,0,1:0:0:0:
96,0,112126,1,2,1:2:0:0:
235,84,112309,1,2,2:0:0:0:
66,224,112492,6,0,P|98:206|139:198,1,72.24,4|0,1:2|2:0,2:0:0:0:
319,68,112858,1,8,2:0:0:0:
471,202,113041,6,0,P|432:192|386:174,1,72.24,0|0,1:2|2:0,2:0:0:0:
216,0,113407,2,0,P|227:40|236:94,1,72.24,0|0,1:2|2:0,2:0:0:0:
88,335,113955,6,0,P|48:289|69:220,1,129,6|0,1:2|2:0,2:0:0:0:
68,198,114314,2,0,P|107:221|154:240,1,86,10|2,2:0|2:0,2:0:0:0:
294,324,114673,1,2,1:2:0:0:
220,353,114853,1,2,2:0:0:0:
326,241,115032,1,10,2:0:0:0:
391,384,115212,1,2,1:2:0:0:
391,384,115302,1,0,1:0:0:0:
391,384,115392,6,0,P|356:358|313:350,1,86,2|2,1:2|2:0,2:0:0:0:
164,254,115751,1,10,2:0:0:0:
210,190,115931,2,0,P|254:179|293:167,1,86,2|0,2:0|1:2,2:0:0:0:
140,279,116290,2,0,P|129:323|115:365,1,86,2|8,2:0|2:0,2:0:0:0:
0,209,116649,1,2,2:0:0:0:
62,252,116829,6,0,P|81:206|82:159,1,89.44,2|2,1:2|2:0,2:0:0:0:
225,42,117219,1,10,2:0:0:0:
159,79,117400,1,2,1:2:0:0:
159,79,117491,1,0,1:0:0:0:
159,79,117582,5,2,1:2:0:0:
301,160,117764,1,2,2:0:0:0:
341,1,117946,1,10,2:0:0:0:
261,68,118128,1,2,2:0:0:0:
261,68,118299,6,0,P|302:77|354:99,1,86,2|2,1:2|2:0,2:0:0:0:
476,220,118661,1,10,2:0:0:0:
472,146,118842,2,0,P|429:152|383:187,1,86,2|0,2:0|1:2,2:0:0:0:
268,284,119205,1,2,2:0:0:0:
378,362,119386,2,0,P|384:320|404:270,1,86,8|0,2:0|2:0,2:0:0:0:
234,177,119749,6,0,P|187:172|112:272,1,172,2|8,1:2|2:0,2:0:0:0:
56,313,120294,1,0,2:0:0:0:
240,195,120476,6,0,P|256:236|266:284,1,86,2|0,1:2|2:0,2:0:0:0:
82,78,120839,2,0,P|74:122|56:170,1,86,8|0,2:0|2:0,2:0:0:0:
244,58,121203,6,0,P|307:40|399:22,1,129,2|0,1:2|2:0,2:0:0:0:
385,34,121567,1,8,2:0:0:0:
512,132,121749,1,0,2:0:0:0:
453,81,121930,6,0,P|432:122|420:177,1,86,2|0,1:2|2:0,2:0:0:0:
293,251,122294,1,8,2:0:0:0:
450,350,122476,1,0,1:0:0:0:
450,350,122567,1,0,1:0:0:0:
450,350,122658,6,0,B|396:331|396:331|372:290|372:290|307:267,1,172,2|8,1:2|2:0,2:0:0:0:
171,151,123203,1,0,2:0:0:0:
271,193,123385,1,2,1:2:0:0:
128,293,123567,1,0,2:0:0:0:
194,231,123749,2,0,P|211:270|221:325,1,86,8|0,2:0|2:0,2:0:0:0:
90,179,124112,6,0,P|49:165|2:142,1,86,2|0,1:2|2:0,2:0:0:0:
219,312,124476,2,0,P|281:292|352:282,1,129,8|0,2:0|2:0,2:0:0:0:
362,272,124849,1,2,1:2:0:0:
512,148,125028,1,8,2:0:0:0:
489,110,125118,1,8,2:0:0:0:
441,96,125208,1,8,0:2:0:0:
395,117,125298,1,8,2:0:0:0:
373,156,125387,2,0,P|380:179|385:205,1,43,8|0,2:0|2:0,2:0:0:0:
512,320,125590,1,6,1:2:0:0:
512,320,125953,5,0,1:0:0:0:
448,278,126135,1,0,1:0:0:0:
507,227,126317,5,0,1:0:0:0:
357,294,126499,1,0,1:0:0:0:
388,376,126680,5,0,3:0:0:0:
448,164,126862,1,0,3:0:0:0:
263,241,127044,5,0,3:0:0:0:
505,335,127226,1,0,3:0:0:0:
435,255,127408,6,0,L|333:278,1,86,0|0,3:0|3:0,2:0:0:0:
128,96,127771,6,0,B|207:117|173:145|245:167,1,129,12|0,2:0|2:0,2:0:0:0:
264,186,128135,1,10,2:0:0:0:
221,174,128226,1,8,2:0:0:0:
172,190,128317,1,8,2:0:0:0:
148,235,128408,1,8,2:0:0:0:
161,247,128499,6,0,P|128:277|80:277,1,79.12,6|0,1:2|2:0,2:0:0:0:
0,145,128862,2,0,P|39:159|84:169,1,79.12,10|0,2:0|2:0,2:0:0:0:
224,81,129226,2,0,P|206:39|196:-1,1,79.12,2|0,1:2|1:2,2:0:0:0:
378,90,129590,2,0,B|294:80|323:161|223:171,1,158.24,10|0,2:0|1:2,2:0:0:0:
165,147,130135,1,0,1:2:0:0:
264,267,130317,6,0,P|284:216|286:175,1,79.12,10|0,2:0|2:0,2:0:0:0:
80,261,130680,1,2,1:2:0:0:
166,347,130862,1,0,1:2:0:0:
177,244,131044,2,0,P|125:268|87:272,1,79.12,10|0,2:0|2:0,2:0:0:0:
31,95,131408,6,0,B|11:132|11:132|32:179,1,79.12,2|0,1:2|2:0,2:0:0:0:
206,106,131771,2,0,P|161:92|121:78,1,79.12,10|0,2:0|2:0,2:0:0:0:
180,228,132135,2,0,P|217:213|256:203,1,79.12,2|0,1:2|1:2,2:0:0:0:
354,41,132499,2,0,P|319:67|338:125,1,79.12,10|0,2:0|1:2,2:0:0:0:
325,113,132771,1,0,1:2:0:0:
330,119,132862,5,0,1:2:0:0:
471,175,133044,1,0,1:2:0:0:
397,209,133226,5,10,2:0:0:0:
456,93,133408,1,8,2:0:0:0:
463,82,133499,1,8,2:0:0:0:
469,74,133590,1,10,2:0:0:0:
506,253,133771,5,0,1:2:0:0:
395,341,133953,1,8,2:0:0:0:
372,356,134317,6,0,B|289:334|289:334|257:268|323:244,1,192.64,2|0,2:0|2:0,2:0:0:0:
246,290,135771,6,0,B|140:244|166:361|71:344,1,192.64,6|0,2:0|2:0,2:0:0:0:
66,341,137226,5,4,1:2:0:0:
37,275,137408,1,0,1:0:0:0:
95,196,137590,5,0,1:2:0:0:
128,101,137771,1,0,1:2:0:0:
14,18,137953,5,0,3:2:0:0:
49,125,138135,1,0,3:2:0:0:
181,210,138317,5,2,3:2:0:0:
247,70,138499,1,2,3:2:0:0:
406,185,138680,6,0,B|316:148|329:250|225:221,1,157.38,6|8,3:2|2:0,2:0:0:0:
205,168,139044,5,10,2:0:0:0:
192,179,139135,1,8,2:0:0:0:
182,194,139226,1,10,2:0:0:0:
181,210,139317,1,8,2:0:0:0:
194,224,139408,5,8,2:0:0:0:
231,258,139499,1,8,2:0:0:0:
233,309,139590,1,10,2:0:0:0:
198,346,139680,1,8,2:0:0:0:
186,362,139771,6,0,P|157:351|114:349,1,52.46,8|8,2:0|2:0,2:0:0:0:
0,224,139953,2,0,P|25:219|50:210,1,52.46,10|8,2:0|2:0,2:0:0:0:
177,3,140135,6,0,P|108:44|151:140,1,157.38,4|0,1:2|2:0,2:0:0:0:
112,130,140499,2,0,P|166:113|227:98,1,96.32,8|0,2:0|2:0,2:0:0:0:
320,252,140862,2,0,P|282:214|300:160,1,96.32,0|0,1:2|1:2,2:0:0:0:
452,24,141226,2,0,P|436:76|425:128,1,96.32,10|0,2:0|2:0,2:0:0:0:
462,295,141590,5,2,1:2:0:0:
364,167,141771,1,0,1:2:0:0:
488,212,141953,1,10,2:0:0:0:
344,311,142135,2,0,P|396:300|451:282,1,96.32,2|0,2:0|1:2,2:0:0:0:
266,218,142499,2,0,P|258:194|252:158,2,48.16,2|0|8,1:2|1:0|2:0,2:0:0:0:
167,326,142862,5,2,2:0:0:0:
162,331,142953,1,0,1:0:0:0:
156,338,143044,2,0,P|97:332|86:207,1,192.64,0|8,1:2|2:0,2:0:0:0:
185,119,143590,1,0,2:0:0:0:
81,77,143771,2,0,P|136:93|198:96,1,96.32,0|0,1:2|1:2,2:0:0:0:
327,0,144135,2,0,B|298:44|298:44|318:100,1,96.32,10|0,2:0|2:0,2:0:0:0:
422,240,144499,5,2,1:2:0:0:
462,115,144680,1,0,1:2:0:0:
300,173,144862,1,10,2:0:0:0:
343,303,145044,1,2,2:0:0:0:
415,220,145226,1,0,1:2:0:0:
207,261,145408,5,14,2:0:0:0:
421,366,145590,1,8,2:0:0:0:
362,316,145771,5,2,1:2:0:0:
354,309,145862,1,0,1:0:0:0:
343,303,145953,2,0,B|229:270|269:391|147:373,1,192.64,4|8,1:2|2:0,2:0:0:0:
64,272,146499,1,0,2:0:0:0:
87,176,146680,2,0,B|113:221|113:221|91:267,1,96.32,0|0,1:2|1:2,2:0:0:0:
264,107,147044,2,0,P|201:92|152:76,1,96.32,8|0,2:0|2:0,2:0:0:0:
298,218,147408,1,0,1:2:0:0:
381,94,147590,5,8,2:0:0:0:
392,84,147680,1,8,2:0:0:0:
409,74,147771,2,0,P|445:86|496:92,1,48.16,8|8,2:0|2:0,2:0:0:0:
317,220,147953,2,0,P|353:208|404:202,1,48.16,8|8,2:0|2:0,2:0:0:0:
480,362,148135,5,6,1:2:0:0:
49,53,148499,1,14,2:0:0:0:
486,113,148862,6,0,P|427:45|345:67,1,157.38,6|0,1:2|2:0,2:0:0:0:
349,49,149226,2,0,P|373:104|381:152,1,96.32,8|0,2:0|2:0,2:0:0:0:
357,345,149590,1,2,1:2:0:0:
255,258,149771,1,0,1:2:0:0:
440,237,149953,2,0,P|394:256|341:264,1,96.32,8|2,2:0|2:0,2:0:0:0:
152,142,150317,5,2,1:2:0:0:
103,283,150499,1,0,1:2:0:0:
261,275,150680,5,8,2:0:0:0:
228,183,150862,1,0,1:2:0:0:
177,346,151044,6,0,P|136:329|85:319,1,96.32,10|8,2:0|2:0,2:0:0:0:
67,326,151317,1,8,2:0:0:0:
57,334,151408,1,2,1:2:0:0:
40,182,151590,1,8,3:0:0:0:
50,165,151680,1,8,3:0:0:0:
63,151,151771,6,0,P|133:155|200:181,1,129,4|8,1:2|2:0,2:0:0:0:
325,93,152317,1,0,2:0:0:0:
227,27,152499,2,0,P|233:77|238:104,1,64.5000000000002,0|0,1:2|2:0,2:0:0:0:
320,236,152862,2,0,P|331:193|345:155,1,64.5000000000002,10|0,2:0|2:0,2:0:0:0:
246,266,153226,2,0,P|333:281|402:307,1,129,2|10,1:2|2:0,2:0:0:0:
506,146,153771,1,2,2:0:0:0:
506,146,153953,2,0,P|430:181|401:242,1,129,0|8,1:2|2:0,2:0:0:0:
216,307,154499,5,2,1:2:0:0:
216,307,154590,1,0,1:0:0:0:
216,307,154680,2,0,P|172:301|130:301,1,64.5000000000002,0|0,1:2|2:0,2:0:0:0:
80,352,155044,2,0,P|48:302|47:215,1,129,8|0,2:0|1:2,2:0:0:0:
195,161,155771,1,10,2:0:0:0:
43,66,156135,6,0,P|90:94|119:117,1,64.5000000000002,2|0,1:2|2:0,2:0:0:0:
259,70,156499,1,10,2:0:0:0:
159,12,156680,1,10,2:0:0:0:
159,12,156771,1,8,2:0:0:0:
159,12,156862,2,0,P|169:49|177:90,1,64.5000000000002,0|10,1:2|2:0,2:0:0:0:
137,217,157226,1,8,2:0:0:0:
276,165,157408,1,10,2:0:0:0:
355,222,157590,6,0,P|369:285|352:369,1,129,4|0,1:2|2:0,2:0:0:0:
278,252,158135,1,0,1:2:0:0:
208,201,158317,2,0,P|202:170|200:138,1,64.5000000000002,8|0,2:0|2:0,2:0:0:0:
333,81,158680,2,0,P|302:102|271:114,1,64.5000000000002,2|0,2:0|1:2,2:0:0:0:
128,210,159044,5,2,1:2:0:0:
128,210,159226,2,0,P|199:241|250:284,1,129,8|0,2:0|1:2,2:0:0:0:
297,219,159771,1,8,2:0:0:0:
364,363,159953,1,0,1:2:0:0:
447,244,160135,1,2,2:0:0:0:
437,327,160317,1,10,2:0:0:0:
285,339,160499,6,0,P|225:351|155:386,1,129,0|0,1:2|2:0,2:0:0:0:
59,286,161044,1,0,1:2:0:0:
59,286,161226,2,0,P|88:299|120:304,1,64.5000000000002,8|0,2:0|1:2,2:0:0:0:
112,157,161590,2,0,P|113:189|118:221,1,64.5000000000002,2|8,2:0|2:0,2:0:0:0:
164,87,161953,6,0,P|277:87|317:168,1,193.500000000001,2|0,1:2|1:2,2:0:0:0:
290,231,162680,1,12,2:0:0:0:
215,161,162862,1,2,1:2:0:0:
410,122,163044,1,2,1:2:0:0:
374,314,163226,5,2,1:2:0:0:
374,314,163317,1,0,1:0:0:0:
374,314,163408,2,0,P|277:302|197:297,1,154.8,12|0,2:0|1:2,2:0:0:0:
41,275,163953,1,0,1:2:0:0:
156,373,164135,1,0,1:2:0:0:
26,291,164317,1,0,1:2:0:0:
134,214,164499,1,0,1:2:0:0:
80,348,164680,1,0,1:2:0:0:
55,177,164862,5,0,3:2:0:0:
213,240,165044,1,0,3:2:0:0:
38,185,165226,1,0,3:2:0:0:
200,103,165408,1,0,3:2:0:0:
108,260,165590,5,0,3:2:0:0:
123,81,165771,1,0,3:2:0:0:
304,187,165953,1,0,3:2:0:0:
301,41,166135,5,0,3:2:0:0:
301,41,166226,1,0,3:0:0:0:
301,41,166317,2,0,P|279:88|274:148,1,77.4000000000001,12|0,2:0|1:2,2:0:0:0:
447,197,166680,1,0,1:2:0:0:
211,248,166862,2,0,P|248:255|284:271,1,77.4000000000001,12|0,2:0|1:2,2:0:0:0:
501,139,167226,1,0,1:2:0:0:
370,214,167408,2,0,P|359:287|362:383,1,154.8,14|6,2:0|1:2,2:0:0:0:
81,321,168135,1,10,2:0:0:0:
58,241,168317,1,2,1:2:0:0:
230,105,168680,1,2,1:2:0:0:
487,255,169226,6,0,P|450:267|411:267,1,77.4000000000001,14|0,2:0|1:2,2:0:0:0:
352,210,169590,1,0,1:2:0:0:
317,57,169771,2,0,P|345:83|365:116,1,77.4000000000001,14|0,2:0|1:2,2:0:0:0:
345,196,170135,1,0,1:2:0:0:
230,303,170317,2,0,P|238:264|257:231,1,77.4000000000001,14|0,2:0|1:2,2:0:0:0:
336,209,170680,1,0,1:2:0:0:
497,161,170862,2,0,P|457:183|408:188,1,77.4000000000001,14|0,2:0|1:2,2:0:0:0:
338,198,171226,1,0,1:2:0:0:
258,153,171408,2,0,P|211:159|158:167,2,77.4000000000001,14|0|12,2:0|1:2|2:0,2:0:0:0:
3,52,172135,6,0,P|17:93|24:136,1,77.4000000000001,14|0,2:0|1:2,2:0:0:0:
151,318,172499,1,0,1:2:0:0:
67,280,172680,2,0,P|82:221|106:176,1,77.4000000000001,14|0,2:0|1:2,2:0:0:0:
252,76,173044,1,0,1:2:0:0:
181,131,173226,2,0,P|195:193|202:230,1,77.4000000000001,14|0,2:0|1:2,2:0:0:0:
304,352,173590,1,0,1:2:0:0:
373,290,173769,2,0,P|366:236|353:190,1,86,14|0,2:0|1:2,2:0:0:0:
292,86,174128,5,0,1:2:0:0:
431,21,174308,1,14,2:0:0:0:
435,36,174398,1,8,2:0:0:0:
438,52,174488,1,8,2:0:0:0:
440,68,174578,1,8,2:0:0:0:
440,84,174667,1,8,0:2:0:0:
439,100,174757,1,8,2:0:0:0:
437,116,174847,1,8,2:0:0:0:
433,132,174937,1,8,2:0:0:0:
428,147,175027,1,12,0:2:0:0:
416,164,175390,5,2,2:0:0:0:
401,164,175572,1,2,2:0:0:0:
337,199,175754,5,2,2:0:0:0:
324,202,175936,1,2,2:0:0:0:
257,162,176117,5,2,2:0:0:0:
247,157,176299,1,2,2:0:0:0:
235,151,176481,1,2,2:0:0:0:
224,145,176663,1,2,2:0:0:0:
162,195,176845,5,2,2:0:0:0:
156,207,177027,1,2,2:0:0:0:
106,134,177208,5,2,2:0:0:0:
97,121,177390,1,2,2:0:0:0:
35,229,177597,5,8,2:0:0:0:
136,324,177778,5,4,1:2:0:0:
162,195,177960,1,4,1:2:0:0:
131,342,178141,1,4,1:2:0:0:
26,250,178323,6,0,P|69:230|149:218,1,123.84,2|2,2:0|2:0,2:0:0:0:
143,217,178869,1,2,2:0:0:0:
211,287,179050,5,2,2:0:0:0:
221,294,179232,1,2,2:0:0:0:
296,260,179414,5,2,2:0:0:0:
306,254,179596,1,2,2:0:0:0:
377,297,179778,5,2,2:0:0:0:
386,303,179960,1,2,2:0:0:0:
473,209,180141,5,10,0:2:0:0:
420,149,180323,5,2,1:2:0:0:
346,157,180505,5,8,3:0:0:0:
333,172,180869,6,0,B|242:142|266:232|181:216,1,159.96,6|0,1:2|1:0,2:0:0:0:
37,148,181596,2,0,P|76:160|131:114,1,106.64,8|0,2:0|2:0,2:0:0:0:
112,51,182141,2,0,L|83:40,2,26.66,0|0|2,1:0|1:0|1:2,2:0:0:0:
211,107,182505,2,0,P|252:100|331:74,1,106.64,8|0,2:0|1:0,2:0:0:0:
394,5,183050,2,0,P|353:27|360:96,1,106.64,8|0,2:0|2:0,2:0:0:0:
440,179,183596,1,10,2:0:0:0:
366,99,183778,2,0,B|424:141|424:141|398:178|374:220,1,159.96,2|0,1:2|1:0,2:0:0:0:
243,215,184505,1,8,2:0:0:0:
268,298,184687,2,0,P|274:247|294:187,1,106.64,8|0,2:0|2:0,2:0:0:0:
177,97,185232,1,0,1:0:0:0:
116,176,185414,2,0,P|137:145|202:136,1,106.64,8|0,2:0|1:0,2:0:0:0:
322,235,185960,5,8,2:0:0:0:
243,215,186141,1,0,1:0:0:0:
181,275,186323,1,12,2:0:0:0:
170,288,186667,6,0,P|115:305|71:270,1,105.78,4|0,1:2|2:0,2:0:0:0:
56,275,187032,2,0,P|76:229|81:192,1,70.5200000000001,2|2,1:2|2:0,2:0:0:0:
158,82,187398,1,10,2:0:0:0:
191,148,187581,1,2,2:0:0:0:
85,110,187764,2,0,P|123:121|161:126,1,70.5200000000001,2|0,2:0|1:2,2:0:0:0:
313,47,188130,5,2,1:2:0:0:
285,114,188313,1,10,2:0:0:0:
315,192,188496,1,2,2:0:0:0:
291,271,188679,1,2,1:2:0:0:
303,188,188862,2,0,P|265:199|227:204,1,70.5200000000001,10|2,2:0|2:0,2:0:0:0:
358,342,189227,2,0,P|367:303|382:268,1,70.5200000000001,2|8,2:0|2:0,2:0:0:0:
448,180,189593,1,0,1:2:0:0:
466,170,189959,6,0,P|410:164|320:139,1,141.04,2|10,1:2|2:0,2:0:0:0:
237,77,190508,1,0,1:2:0:0:
288,207,190691,1,10,2:0:0:0:
288,207,192495,5,6,1:2:0:0:
294,212,192676,1,0,1:0:0:0:
283,216,192858,1,0,1:0:0:0:
290,201,193040,1,0,1:0:0:0:
305,218,193222,1,0,1:0:0:0:
277,228,193404,1,0,1:0:0:0:
269,204,193585,1,0,1:0:0:0:
302,200,193767,1,0,1:0:0:0:
366,272,193949,5,2,1:2:0:0:
321,326,194131,1,0,1:0:0:0:
242,334,194313,1,0,1:0:0:0:
185,285,194495,1,0,1:0:0:0:
244,345,194676,5,2,1:2:0:0:
182,210,194858,1,0,1:0:0:0:
177,296,195040,5,2,1:2:0:0:
238,161,195222,1,0,1:0:0:0:
106,246,195404,5,2,1:2:0:0:
177,218,195585,1,0,1:0:0:0:
254,246,195767,1,0,1:0:0:0:
336,221,195949,1,0,1:0:0:0:
247,261,196131,5,0,1:0:0:0:
347,233,196313,1,0,1:0:0:0:
400,155,196495,1,0,1:0:0:0:
360,57,196676,1,0,1:0:0:0:
415,162,196858,5,0,1:0:0:0:
311,124,197040,1,0,1:0:0:0:
215,169,197222,1,0,1:0:0:0:
114,122,197404,1,0,1:0:0:0:
230,178,197585,5,0,1:0:0:0:
88,230,197767,1,0,1:0:0:0:
188,90,197949,5,2,1:2:0:0:
250,259,198131,1,0,1:0:0:0:
61,114,198313,6,0,P|80:123|101:127,1,43,2|0,1:2|2:0,2:0:0:0:
198,74,198495,2,0,P|217:64|238:60,1,43,0|0,1:0|2:0,2:0:0:0:
309,180,198676,2,0,P|328:189|349:193,1,43,0|0,1:0|2:0,2:0:0:0:
447,95,198858,2,0,P|466:85|487:81,1,43,0|0,1:0|2:0,2:0:0:0:
495,94,199040,6,0,P|473:97|454:107,1,43,0|0,1:0|2:0,2:0:0:0:
358,199,199222,2,0,P|341:226|339:253,1,43,0|0,1:0|2:0,2:0:0:0:
460,321,199404,2,0,P|477:348|479:375,1,43,0|0,1:0|2:0,2:0:0:0:
345,188,199585,2,0,P|328:215|326:242,1,43,0|0,1:0|2:0,2:0:0:0:
257,366,199767,5,8,0:0:0:0:
138,347,199949,5,8,0:0:0:0:
52,257,200131,5,8,0:0:0:0:
78,98,200313,5,8,0:0:0:0:
207,9,200495,5,8,0:0:0:0:
370,28,200676,5,8,0:0:0:0:
429,174,200858,5,12,0:2:0:0:
405,168,201222,5,8,2:0:0:0:
359,144,201313,1,8,2:0:0:0:
309,151,201404,1,8,2:0:0:0:
271,185,201495,1,8,2:0:0:0:
266,202,201585,5,8,2:0:0:0:
228,236,201676,1,8,2:0:0:0:
178,243,201767,1,8,2:0:0:0:
132,219,201858,1,8,2:0:0:0:
117,208,201949,6,0,P|111:145|116:86,1,86,6|2,1:2|2:0,2:0:0:0:
168,77,202222,1,2,2:0:0:0:
168,77,202313,1,10,2:0:0:0:
214,339,202495,1,2,2:0:0:0:
194,160,202676,1,2,1:2:0:0:
90,300,202858,1,2,1:2:0:0:
283,242,203040,1,10,2:0:0:0:
84,265,203222,1,2,2:0:0:0:
84,265,203585,5,2,1:2:0:0:
0,159,203767,2,0,P|38:178|81:184,1,86,8|0,2:0|2:0,2:0:0:0:
147,6,204131,2,0,P|187:66|172:170,1,172,2|10,1:2|2:0,2:0:0:0:
380,358,204858,5,6,1:2:0:0:
289,301,205040,1,2,2:0:0:0:
289,301,205131,1,2,2:0:0:0:
289,301,205222,2,0,P|280:247|282:204,1,86,10|2,2:0|2:0,2:0:0:0:
378,143,205585,1,2,1:2:0:0:
494,202,205767,1,2,1:2:0:0:
400,278,205949,1,8,2:0:0:0:
286,133,206131,5,2,2:0:0:0:
298,37,206313,1,0,1:2:0:0:
393,46,206495,1,2,1:2:0:0:
280,215,206676,2,0,P|232:209|166:208,1,86,8|2,2:0|2:0,2:0:0:0:
427,122,207040,2,0,P|475:128|541:129,1,86,0|0,1:2|1:2,2:0:0:0:
218,36,207404,1,12,2:0:0:0:
218,36,207767,5,2,1:2:0:0:
192,58,207858,1,2,2:0:0:0:
159,60,207949,1,2,2:0:0:0:
130,44,208040,1,2,2:0:0:0:
124,34,208131,5,10,2:0:0:0:
95,18,208222,1,2,2:0:0:0:
62,21,208313,1,2,2:0:0:0:
36,43,208404,1,2,2:0:0:0:
22,49,208495,6,0,P|23:84|26:111,3,43,2|2|2|2,1:2|2:0|1:2|2:0,2:0:0:0:
58,118,208858,2,0,P|59:139|59:160,3,43,10|2|2|2,2:0|2:0|2:0|2:0,2:0:0:0:
30,203,209222,5,2,1:2:0:0:
93,303,209404,1,2,1:2:0:0:
204,248,209585,1,10,2:0:0:0:
139,149,209767,1,2,2:0:0:0:
21,320,209949,2,0,P|98:336|161:367,2,129,2|2|2,1:2|2:0|2:0,2:0:0:0:
294,151,210676,6,0,P|289:219|295:294,1,129,6|0,1:2|2:0,2:0:0:0:
317,319,211040,2,0,P|337:325|358:330,1,43,10|2,2:0|2:0,2:0:0:0:
403,244,211222,2,0,P|423:249|444:255,1,43,2|2,2:0|2:0,2:0:0:0:
321,327,211404,2,0,P|341:333|362:338,1,43,2|2,1:2|2:0,2:0:0:0:
407,252,211585,2,0,P|427:257|448:263,1,43,2|2,1:2|2:0,2:0:0:0:
325,335,211767,2,0,P|345:341|366:346,1,43,14|0,2:0|2:0,2:0:0:0:
463,355,211949,5,8,2:0:0:0:
463,355,212040,1,8,2:0:0:0:
463,355,212131,1,10,2:0:0:0:
212,277,212313,1,6,1:2:0:0:
212,277,212676,5,8,2:0:0:0:
212,277,212767,1,8,2:0:0:0:
212,277,212858,1,10,2:0:0:0:
416,198,213040,1,6,1:2:0:0:
416,198,213585,6,0,P|353:192|303:192,2,86,6|0|0,1:2|2:0|1:2,2:0:0:0:
494,145,214131,2,0,P|474:67|382:43,1,172,2|2,2:0|2:0,2:0:0:0:
328,92,214676,1,2,2:0:0:0:
50,103,215040,5,2,1:2:0:0:
166,132,215222,1,10,2:0:0:0:
45,124,215404,1,2,1:2:0:0:
168,99,215585,1,2,2:0:0:0:
87,215,215767,2,0,P|40:208|-20:206,1,86,8|2,2:0|2:0,2:0:0:0:
200,263,216131,1,2,2:0:0:0:
100,292,216313,1,10,2:0:0:0:
252,198,216495,6,0,P|231:291|233:376,2,172,2|0|8,1:2|1:2|2:0,2:0:0:0:
348,96,217585,1,0,2:0:0:0:
186,12,217767,1,0,1:2:0:0:
186,12,217858,1,0,1:2:0:0:
186,12,217949,1,2,1:2:0:0:
95,75,218131,1,10,2:0:0:0:
177,148,218313,1,2,1:2:0:0:
269,88,218495,1,2,1:2:0:0:
74,93,218676,6,0,P|87:177|87:231,1,86,8|8,2:0|2:0,2:0:0:0:
86,195,218949,1,8,2:0:0:0:
84,212,219040,1,8,2:0:0:0:
81,229,219131,1,8,2:0:0:0:
78,246,219222,1,8,2:0:0:0:
243,330,219404,6,0,P|200:333|157:341,1,86,6|0,1:2|2:0,2:0:0:0:
364,263,219767,2,0,P|414:278|461:297,1,86,10|0,2:0|2:0,2:0:0:0:
292,155,220131,5,2,1:2:0:0:
359,21,220313,2,0,P|398:39|428:160,1,172,2|0,1:2|0:0,0:0:0:0:
271,240,220858,5,2,1:2:0:0:
411,174,221040,1,2,1:2:0:0:
231,98,221222,1,10,0:0:0:0:
305,169,221404,2,0,P|316:121|315:85,1,86,2|0,0:0|1:0,0:0:0:0:
130,22,221767,5,2,1:2:0:0:
224,89,221949,2,0,P|213:41|214:5,1,86,10|0,0:0|0:0,0:0:0:0:
187,184,222313,5,6,1:2:0:0:
198,195,222495,1,0,1:0:0:0:
172,179,222676,1,8,2:0:0:0:
200,168,222858,1,0,1:2:0:0:
182,199,223040,1,8,2:0:0:0:
180,155,223220,1,0,1:2:0:0:
219,198,223401,1,8,2:0:0:0:
143,182,223582,1,0,1:2:0:0:
195,119,223762,5,8,2:0:0:0:
193,239,223943,1,0,1:2:0:0:
109,151,224124,1,8,2:0:0:0:
264,176,224305,1,0,1:2:0:0:
90,193,224485,1,8,2:0:0:0:
212,79,224666,1,0,1:2:0:0:
228,276,224847,1,8,2:0:0:0:
88,88,225027,1,0,1:2:0:0:
278,172,225208,5,14,2:0:0:0:
444,14,225389,1,0,1:2:0:0:
455,4,225570,1,0,1:2:0:0:
491,222,225750,5,12,2:0:0:0:
358,39,225931,1,0,1:2:0:0:
347,28,226112,1,0,1:2:0:0:
433,294,226293,5,12,2:0:0:0:
433,294,226473,1,0,1:2:0:0:
508,209,226654,5,14,2:0:0:0:
406,161,226835,1,0,1:2:0:0:
305,183,227015,1,0,1:2:0:0:
227,226,227196,1,8,3:0:0:0:
146,233,227377,1,2,1:2:0:0:
73,220,227558,1,2,1:2:0:0:
38,203,227738,1,10,2:0:0:0:
25,186,227919,1,2,2:0:0:0:
29,177,228123,5,2,2:0:0:0:
142,49,229213,1,2,2:0:0:0:
150,56,229395,2,0,B|272:30|234:133|360:129,1,223.6,2|0,2:0|2:0,2:0:0:0:
354,140,230668,2,0,P|339:169|335:192,1,44.7200000000001,2|0,2:0|2:0,2:0:0:0:
420,270,231032,2,0,P|386:224|273:239,1,178.88,2|0,2:0|2:0,2:0:0:0:
204,290,231941,1,2,2:0:0:0:
195,296,232123,1,2,2:0:0:0:
185,303,232304,2,0,B|50:267|50:267|97:298|97:343,1,223.6,2|0,2:0|2:0,2:0:0:0:
348,375,233941,6,0,B|312:281|427:303|388:204,1,178.88,2|0,2:0|2:0,2:0:0:0:
431,98,235032,1,2,2:0:0:0:
423,91,235213,2,0,B|370:27|285:77|285:77|329:85|339:125,1,223.6,2|0,2:0|2:0,2:0:0:0:
334,134,236486,2,0,P|309:145|282:151,1,44.7200000000001,2|0,2:0|2:0,2:0:0:0:
248,214,236850,2,0,P|187:177|63:163,1,178.88,2|2,2:0|2:0,2:0:0:0:
13,246,237759,1,2,2:0:0:0:
6,256,237941,1,2,2:0:0:0:
1,265,238123,2,0,B|135:246|86:341|203:357,1,223.6,2|0,2:0|2:0,2:0:0:0:
494,334,239395,6,0,P|460:330|410:312,1,67.0800000000001,0|0,2:0|2:0,2:0:0:0:
376,260,239759,5,0,1:2:0:0:
411,194,240123,1,0,1:2:0:0:
359,141,240486,6,0,P|400:157|429:161,1,61.92,8|0,2:0|2:0,2:0:0:0:
478,109,240850,1,2,1:2:0:0:
415,36,241032,1,10,2:0:0:0:
406,27,241123,1,8,2:0:0:0:
397,18,241213,1,0,1:2:0:0:
344,138,241395,5,8,2:0:0:0:
285,89,241577,2,0,P|224:83|151:60,1,123.84,0|8,1:2|2:0,2:0:0:0:
63,18,242123,5,8,2:0:0:0:
10,81,242304,1,2,1:2:0:0:
36,165,242486,1,8,2:0:0:0:
46,172,242668,6,0,P|71:145|158:145,1,123.84,2|0,1:2|1:2,2:0:0:0:
242,304,243395,2,0,P|209:300|174:284,1,61.92,8|2,2:0|2:0,2:0:0:0:
163,161,243759,1,2,1:2:0:0:
264,220,243941,1,10,2:0:0:0:
275,227,244032,1,8,2:0:0:0:
284,233,244123,1,0,1:2:0:0:
373,107,244304,5,8,2:0:0:0:
358,191,244486,2,0,P|339:151|335:62,1,123.84,0|8,1:2|2:0,2:0:0:0:
436,17,245032,5,8,2:0:0:0:
496,100,245213,5,0,1:0:0:0:
487,196,245395,5,8,2:0:0:0:
451,267,245597,5,2,2:0:0:0:
436,276,246687,6,0,P|405:263|380:259,1,44.7200000000001,2|0,2:0|2:0,2:0:0:0:
333,307,246960,1,2,2:0:0:0:
326,312,247051,2,0,B|230:286|259:376|146:370,1,178.88,2|0,2:0|2:0,2:0:0:0:
34,356,248142,2,0,P|51:330|55:311,1,44.7200000000001,2|0,2:0|2:0,2:0:0:0:
130,281,248506,6,0,P|110:246|105:181,1,103.2,2|0,2:0|2:0,2:0:0:0:
282,76,250687,5,8,3:0:0:0:
282,76,250868,1,0,3:0:0:0:
420,11,251395,6,0,B|332:8|364:75|266:93,1,158.24,4|0,1:2|1:2,2:0:0:0:
214,188,251940,1,0,2:0:0:0:
251,260,252122,2,0,B|266:220|266:220|240:172,1,79.12,0|0,1:2|2:0,2:0:0:0:
143,73,252485,2,0,P|107:90|69:95,1,79.12,2|0,1:2|2:0,2:0:0:0:
10,268,252849,6,0,P|42:210|138:215,1,158.24,2|2,1:2|1:2,2:0:0:0:
228,351,253395,2,0,P|192:334|153:328,1,79.12,2|0,2:0|1:2,2:0:0:0:
272,231,253758,1,2,2:0:0:0:
405,328,253940,1,0,1:2:0:0:
326,317,254122,5,10,2:0:0:0:
316,313,254213,1,8,2:0:0:0:
305,307,254304,1,4,1:2:0:0:
502,98,254667,2,0,B|410:72|443:160|339:145,1,158.24,0|0,1:2|1:2,2:0:0:0:
235,86,255213,1,0,2:0:0:0:
287,12,255395,2,0,P|269:54|261:115,1,79.12,2|0,1:2|2:0,2:0:0:0:
177,200,255758,6,0,P|135:199|108:148,1,79.12,2|0,1:2|2:0,2:0:0:0:
85,47,256122,1,2,1:2:0:0:
0,96,256304,2,0,P|45:83|93:73,1,79.12,2|0,2:0|1:0,2:0:0:0:
229,129,256667,5,10,2:0:0:0:
243,142,256758,1,8,2:0:0:0:
251,158,256849,2,0,P|261:194|267:231,3,39.56,8|8|8|8,2:0|3:0|3:0|3:0,2:0:0:0:
115,334,257213,5,4,1:2:0:0:
223,271,257490,1,0,1:0:0:0:
229,277,257583,2,0,P|250:287|273:288,1,39.56,0|0,1:0|1:0,2:0:0:0:
299,375,257768,1,0,1:0:0:0:
303,366,257861,1,0,1:0:0:0:
309,360,257953,2,0,P|330:350|353:349,1,39.56,0|0,1:0|1:0,2:0:0:0:
448,301,258138,1,0,1:0:0:0:
457,294,258231,1,0,1:0:0:0:
466,288,258324,5,0,1:0:0:0:
459,252,258416,1,0,1:0:0:0:
449,216,258509,1,0,1:0:0:0:
435,176,258601,1,0,1:0:0:0:
444,162,258694,6,0,P|416:155|391:142,1,39.56,2|0,3:2|3:0,2:0:0:0:
387,56,258875,2,0,P|368:63|349:67,1,39.56,0|0,3:0|3:0,2:0:0:0:
304,157,259057,5,0,3:0:0:0:
265,178,259148,1,0,3:0:0:0:
222,176,259239,1,0,3:0:0:0:
186,150,259330,1,0,3:0:0:0:
181,131,259421,5,8,2:0:0:0:
145,105,259512,1,8,2:0:0:0:
101,103,259603,1,8,2:0:0:0:
63,124,259694,1,8,2:0:0:0:
45,117,259784,6,0,P|36:134|30:172,1,39.56,10|8,2:0|2:0,2:0:0:0:
131,223,259966,2,0,P|140:240|146:278,1,39.56,10|8,2:0|2:0,2:0:0:0:
70,384,260148,6,0,P|97:381|127:364,1,44.7199997270508,4|8,1:2|2:0,2:0:0:0:
234,297,260405,1,8,2:0:0:0:
245,288,260490,1,8,2:0:0:0:
452,359,260680,6,0,P|425:356|395:341,1,44.7199997270508,4|8,1:2|2:0,2:0:0:0:
292,224,260946,1,8,2:0:0:0:
280,217,261035,1,8,2:0:0:0:
432,142,261238,6,0,B|340:110|365:198|253:184,1,170.28,6|8,1:2|2:0,2:0:0:0:
146,118,261576,6,0,P|136:102|137:59,2,43.8600002677002,6|8|8,1:2|2:0|2:0,2:0:0:0:
176,210,261845,1,8,2:0:0:0:
169,221,261935,6,0,P|139:236|101:232,1,43.86,0|8,1:2|2:0,2:0:0:0:
225,80,262114,2,0,P|246:84|264:96,1,43.86,8|8,2:0|2:0,2:0:0:0:
311,219,262294,5,4,1:2:0:0:
302,249,262384,1,8,2:0:0:0:
292,280,262474,1,8,2:0:0:0:
282,310,262564,1,8,2:0:0:0:
273,321,262653,5,10,2:0:0:0:
278,338,262743,1,8,2:0:0:0:
284,356,262833,1,10,2:0:0:0:
289,374,262923,1,8,2:0:0:0:
300,384,263013,5,4,1:2:0:0:
493,333,263404,2,0,P|444:351|375:264,1,159.959993653931,0|0,1:2|2:0,2:0:0:0:
311,232,264130,2,0,P|332:192|337:167,1,53.3200000000001,2|0,1:2|2:0,2:0:0:0:
495,89,264494,6,0,P|452:108|371:117,1,106.64,2|2,2:0|1:2,2:0:0:0:
341,40,265039,2,0,P|315:70|236:61,1,106.64,2|2,2:0|2:0,2:0:0:0:
198,8,265585,1,0,1:2:0:0:
115,53,265767,5,2,0:0:0:0:
107,60,265857,1,2,0:0:0:0:
99,67,265948,1,2,0:0:0:0:
33,153,266312,2,0,B|128:126|100:209|194:208,1,159.96,0|0,1:2|2:0,2:0:0:0:
280,170,267039,2,0,P|267:203|261:238,1,53.3200000000001,2|0,1:2|2:0,2:0:0:0:
219,314,267312,1,2,2:0:0:0:
214,325,267403,6,0,P|256:299|335:299,1,106.64,2|2,2:0|1:2,2:0:0:0:
402,331,267948,2,0,P|361:311|367:238,1,106.64,2|2,2:0|2:0,2:0:0:0:
420,200,268494,1,0,1:2:0:0:
363,124,268676,5,2,2:0:0:0:
355,116,268767,1,2,2:0:0:0:
345,106,268857,1,4,2:0:0:0:
475,86,269221,2,0,P|407:80|312:28,1,159.668510987264,0|0,1:2|2:0,2:0:0:0:
260,97,269948,2,0,B|165:70|193:153|99:152,1,159.96,0|0,1:2|2:0,2:0:0:0:
50,94,270682,1,0,1:2:0:0:
34,299,271048,6,0,P|67:296|91:285,1,54.18,2|0,2:0|2:0,2:0:0:0:
165,235,271414,6,0,B|118:289|118:289|152:312|185:352,1,144.48,2|0,1:2|2:0,2:0:0:0:
172,355,271780,6,0,B|245:359|207:284|316:286,1,141.04,6|0,2:0|1:2,2:0:0:0:
427,268,272329,1,0,2:0:0:0:
355,368,272512,2,0,P|379:316|385:230,1,141.04,2|0,2:0|1:2,2:0:0:0:
335,125,273060,1,2,2:0:0:0:
442,174,273243,6,0,P|380:191|328:132,1,141.04,6|0,2:0|1:2,2:0:0:0:
242,63,273792,1,2,2:0:0:0:
125,81,273976,2,0,P|187:64|239:123,1,141.04,2|2,2:0|1:2,2:0:0:0:
236,213,274518,5,2,2:0:0:0:
235,222,274608,1,2,2:0:0:0:
235,230,274698,1,4,2:0:0:0:
79,247,275060,2,0,B|170:235|140:308|230:317,1,159.96,0|0,1:2|2:0,2:0:0:0:
279,384,275783,2,0,P|311:367|331:364,1,53.3200000000001,2|0,1:2|2:0,2:0:0:0:
411,333,276144,6,0,P|379:339|325:272,1,106.64,2|0,2:0|1:2,2:0:0:0:
256,245,276686,2,0,P|266:191|294:138,1,106.64,2|2,2:0|2:0,2:0:0:0:
367,101,277229,1,0,1:2:0:0:
291,32,277409,5,2,2:0:0:0:
283,27,277500,1,2,2:0:0:0:
274,22,277590,1,4,2:0:0:0:
27,129,277951,2,0,P|61:84|168:96,1,159.96,0|0,1:2|2:0,2:0:0:0:
227,144,278674,2,0,P|211:169|205:205,1,53.3200000000001,2|0,1:2|2:0,2:0:0:0:
159,264,278945,1,2,2:0:0:0:
153,275,279055,6,0,P|201:274|269:249,1,106.64,2|2,2:0|1:2,2:0:0:0:
256,353,279597,2,0,P|304:354|372:379,1,106.64,2|2,2:0|2:0,2:0:0:0:
433,322,280139,1,0,1:2:0:0:
387,236,280320,5,2,2:0:0:0:
379,227,280410,1,2,2:0:0:0:
372,218,280500,1,4,2:0:0:0:
486,90,280862,2,0,B|396:60|418:150|320:130,1,159.96,0|0,1:2|2:0,2:0:0:0:
233,70,281585,2,0,P|273:73|309:36,1,79.9800000000001,2|0,1:2|2:0,2:0:0:0:
215,80,281944,6,0,P|193:119|186:201,1,106.64,2|2,2:0|1:2,2:0:0:0:
95,219,282493,2,0,P|117:258|124:340,1,106.64,2|2,2:0|2:0,2:0:0:0:
187,377,283041,1,0,1:2:0:0:
42,345,283224,5,2,1:2:0:0:
29,341,283316,1,0,1:2:0:0:
19,338,283407,1,4,2:0:0:0:
198,370,283774,2,0,B|274:365|249:293|336:292,1,159.96,0|0,1:2|2:0,2:0:0:0:
439,320,284505,2,0,P|407:338|402:385,1,79.9800000000001,2|0,1:2|2:0,2:0:0:0:
451,309,284871,6,0,P|439:260|418:199,1,106.64,2|2,2:0|1:2,2:0:0:0:
475,131,285415,1,2,2:0:0:0:
484,115,285779,5,2,1:2:0:0:
406,72,285960,5,4,3:0:0:0:
319,103,286142,5,0,1:2:0:0:
299,116,286233,1,0,1:2:0:0:
273,125,286324,1,14,2:0:0:0:
213,180,286684,1,0,3:2:0:0:
150,137,287045,1,0,3:2:0:0:
86,175,287405,1,2,3:2:0:0:
147,219,287766,5,10,2:0:0:0:
231,188,287946,1,8,2:0:0:0:
112,291,288126,5,10,2:0:0:0:
272,350,288307,1,10,2:0:0:0:
76,360,288487,5,8,2:0:0:0:
253,268,288667,1,10,2:0:0:0:
26,233,288848,5,8,2:0:0:0:
287,359,289028,1,10,2:0:0:0:
11,224,289208,5,12,2:0:0:0:
56,165,289571,1,0,3:2:0:0:
33,96,289935,1,0,3:2:0:0:
71,34,290298,1,2,3:2:0:0:
147,53,290662,5,10,2:0:0:0:
65,22,290847,1,8,2:0:0:0:
220,125,291032,5,10,2:0:0:0:
62,176,291217,1,10,2:0:0:0:
295,322,291402,5,8,2:0:0:0:
101,251,291587,1,10,2:0:0:0:
306,128,291773,1,8,2:0:0:0:
157,331,291958,5,10,2:0:0:0:
145,347,292050,1,8,2:0:0:0:
135,361,292143,1,12,2:0:0:0:
66,330,292506,1,0,3:2:0:0:
27,265,292870,1,0,3:2:0:0:
43,192,293233,1,2,3:2:0:0:
104,147,293597,5,10,2:0:0:0:
187,171,293779,1,8,2:0:0:0:
264,120,293961,5,10,2:0:0:0:
382,82,294143,1,10,2:0:0:0:
511,246,294324,5,8,2:0:0:0:
350,156,294506,1,10,2:0:0:0:
497,61,294688,5,8,2:0:0:0:
382,284,294870,1,10,2:0:0:0:
512,44,295052,5,12,2:0:0:0:
501,168,295233,1,4,3:0:0:0:
465,169,295324,1,4,3:0:0:0:
430,148,295415,1,4,3:0:0:0:
322,4,295597,5,8,2:0:0:0:
401,53,295779,1,8,3:0:0:0:
382,82,295870,1,8,3:0:0:0:
348,98,295961,1,8,3:0:0:0:
96,22,296143,5,12,2:0:0:0:
245,230,296415,1,8,2:0:0:0:
245,242,296506,1,6,1:2:0:0:
178,320,296688,5,8,2:0:0:0:
151,296,296779,1,8,2:0:0:0:
131,265,296870,1,8,2:0:0:0:
136,258,296961,2,0,P|151:214|152:179,1,43.86,8|0,2:0|1:2,2:0:0:0:
155,198,297241,5,10,2:0:0:0:
190,159,297326,1,8,2:0:0:0:
239,144,297412,1,8,2:0:0:0:
290,156,297498,1,8,2:0:0:0:
297,171,297583,5,8,2:0:0:0:
347,183,297669,1,8,2:0:0:0:
397,168,297755,1,8,2:0:0:0:
432,129,297841,1,8,2:0:0:0:
429,110,298203,6,0,P|421:94|416:58,1,43.0000016403199,8|8,2:0|2:0,2:0:0:0:
484,10,298332,6,0,B|372:-9|410:89|287:90,1,193.169762351563,4|0,1:2|1:2,2:0:0:0:
175,70,298875,1,8,2:0:0:0:
163,59,298965,1,8,2:0:0:0:
155,46,299055,2,0,P|151:21|157:-2,3,48.16,10|8|8|8,2:0|2:0|2:0|2:0,2:0:0:0:
239,143,299414,5,6,1:2:0:0:
222,156,299504,1,8,2:0:0:0:
198,162,299594,2,0,P|163:173|130:171,1,48.16,8|8,2:0|2:0,2:0:0:0:
29,291,299773,2,0,P|52:294|75:303,1,48.16,10|0,2:0|2:0,2:0:0:0:
274,367,299953,6,0,B|165:383|165:383|191:340|174:292,1,183.18,2|0,1:2|2:0,2:0:0:0:
155,307,300312,2,0,P|178:263|175:220,1,61.06,2|0,1:2|2:0,2:0:0:0:
79,103,300492,5,8,2:0:0:0:
36,121,300582,1,8,2:0:0:0:
16,159,300672,1,8,2:0:0:0:
19,202,300761,1,8,2:0:0:0:
37,218,300871,6,0,B|134:222|98:140|221:141,1,192.64,6|8,1:2|2:0,2:0:0:0:
323,224,301414,1,0,2:0:0:0:
289,311,301596,2,0,B|268:263|268:263|302:209,1,96.32,0|0,1:2|1:2,2:0:0:0:
486,168,301958,2,0,P|435:164|370:120,1,96.32,10|0,2:0|2:0,2:0:0:0:
311,33,302321,5,2,1:2:0:0:
414,201,302502,1,0,1:2:0:0:
286,130,302683,1,10,2:0:0:0:
395,71,302864,5,10,2:0:0:0:
423,56,302955,1,8,2:0:0:0:
459,52,303046,1,0,1:2:0:0:
486,168,303227,5,10,2:0:0:0:
454,196,303318,1,8,2:0:0:0:
414,201,303408,1,8,2:0:0:0:
264,128,303590,6,0,P|281:160|286:189,1,48.16,4|4,3:0|3:0,2:0:0:0:
335,264,303771,6,0,P|295:216|189:228,1,158.24,6|0,1:2|2:0,2:0:0:0:
59,280,304316,1,0,1:2:0:0:
124,357,304498,2,0,B|156:271|72:290|102:203,1,158.24,8|0,2:0|2:0,2:0:0:0:
142,79,305043,1,0,1:2:0:0:
153,66,305134,1,0,1:2:0:0:
163,56,305225,1,2,1:2:0:0:
43,138,305407,6,0,P|103:113|213:104,1,158.24,8|0,2:0|1:2,2:0:0:0:
313,176,305952,1,8,2:0:0:0:
257,255,306134,2,0,P|275:213|277:171,1,79.12,0|2,1:2|2:0,2:0:0:0:
354,64,306498,5,10,2:0:0:0:
361,56,306589,1,8,2:0:0:0:
372,49,306700,2,0,P|415:40|497:141,1,158.24,0|0,1:2|2:0,2:0:0:0:
394,211,307245,1,0,1:2:0:0:
313,176,307427,2,0,B|355:164|355:164|403:186,1,79.12,8|0,2:0|2:0,2:0:0:0:
460,318,307790,1,14,2:0:0:0:
472,331,308154,5,6,1:2:0:0:
361,316,308332,1,8,2:0:0:0:
284,348,308511,1,0,1:2:0:0:
210,329,308689,1,0,1:2:0:0:
41,364,308882,5,12,2:0:0:0:
117,371,309154,1,8,2:0:0:0:
122,364,309245,2,0,P|131:336|128:305,1,39.56,2|0,1:2|2:0,2:0:0:0:
62,216,309427,5,10,2:0:0:0:
46,192,309518,1,8,2:0:0:0:
30,171,309609,2,0,P|44:132|46:113,1,44.7200000000001,4|0,1:2|2:0,2:0:0:0:
148,18,309878,5,8,2:0:0:0:
154,3,309968,1,0,1:2:0:0:
331,245,310147,5,8,2:0:0:0:
331,245,310327,2,0,P|317:206|315:187,1,44.7200000000001,0|0,1:2|2:0,2:0:0:0:
228,58,310597,5,8,2:0:0:0:
222,43,310686,1,0,1:2:0:0:
191,290,310866,5,8,2:0:0:0:
191,290,311046,2,0,P|205:251|207:232,1,44.7200000000001,0|0,1:2|2:0,2:0:0:0:
294,103,311315,5,8,2:0:0:0:
300,88,311405,1,0,1:2:0:0:
481,342,311585,5,8,2:0:0:0:
481,342,311764,2,0,P|467:303|465:284,1,44.7200000000001,0|0,1:2|2:0,2:0:0:0:
378,155,312034,5,8,2:0:0:0:
372,140,312123,1,0,1:2:0:0:
287,356,312303,5,8,2:0:0:0:
100,248,312483,1,4,1:2:0:0:
84,238,312846,5,0,1:0:0:0:
35,163,313028,5,0,1:0:0:0:
72,76,313210,5,0,1:0:0:0:
204,32,313392,5,0,1:0:0:0:
347,98,313573,5,10,0:0:0:0:
382,275,313755,5,8,0:0:0:0:
225,384,313967,5,12,0:2:0:0:
489,40,315330,5,2,2:0:0:0:
497,31,315421,2,0,B|389:9|435:98|325:99,1,172,6|8,1:2|2:0,2:0:0:0:
251,177,315963,1,0,2:0:0:0:
136,63,316143,2,0,P|177:80|227:83,1,86,0|0,1:2|2:0,2:0:0:0:
59,242,316505,2,0,B|78:199|78:199|45:143,1,86,8|0,2:0|2:0,2:0:0:0:
175,286,316866,6,0,P|206:234|313:237,1,172,2|8,1:2|2:0,2:0:0:0:
399,353,317408,1,2,2:0:0:0:
293,360,317589,2,0,P|346:347|394:327,1,86,0|0,1:2|2:0,2:0:0:0:
486,239,317951,2,0,P|437:232|418:187,1,86,10|0,2:0|2:0,2:0:0:0:
285,69,318330,6,0,P|369:91|456:97,1,172,2|8,1:2|2:0,2:0:0:0:
311,235,318868,2,0,P|306:211|299:185,2,43,0|0|0,1:0|1:0|1:2,2:0:0:0:
182,97,319228,1,0,2:0:0:0:
72,191,319407,2,0,P|118:176|170:172,1,86,8|0,2:0|2:0,2:0:0:0:
322,250,319767,6,0,B|214:228|260:317|150:318,1,172,2|8,1:2|2:0,2:0:0:0:
44,197,320306,2,0,B|25:239|25:239|50:291,1,86,2|0,2:0|1:2,2:0:0:0:
179,191,320665,1,8,2:0:0:0:
191,176,320755,1,8,2:0:0:0:
201,157,320844,2,0,P|208:128|206:102,1,43,10|8,2:0|2:0,2:0:0:0:
79,89,321024,2,0,P|72:60|74:34,1,43,8|8,2:0|2:0,2:0:0:0:
214,0,321224,6,0,P|248:49|355:45,1,172,6|8,1:2|2:0,2:0:0:0:
453,136,321769,1,0,2:0:0:0:
387,229,321951,2,0,P|380:173|356:122,1,86,0|0,1:2|2:0,2:0:0:0:
263,92,322314,1,8,2:0:0:0:
66,365,322678,6,0,B|156:356|118:278|233:266,1,172,2|8,1:2|2:0,2:0:0:0:
324,381,323224,2,0,B|302:341|302:341|324:290,1,86,2|0,2:0|1:2,2:0:0:0:
401,217,323587,1,0,1:0:0:0:
410,210,323678,1,0,1:0:0:0:
419,199,323769,2,0,P|367:190|314:167,1,86,10|0,2:0|2:0,2:0:0:0:
197,47,324133,5,6,1:2:0:0:
123,92,324496,5,8,2:0:0:0:
102,102,324678,1,0,1:2:0:0:
155,187,324860,5,0,1:2:0:0:
221,217,325042,1,0,1:2:0:0:
368,78,325224,5,8,2:0:0:0:
275,120,325405,1,0,1:2:0:0:
355,303,325587,5,6,1:2:0:0:
405,187,325769,1,0,1:2:0:0:
258,111,325951,5,2,1:2:0:0:
293,250,326133,1,2,1:2:0:0:
379,66,326314,5,10,0:2:0:0:
168,32,326496,1,10,0:2:0:0:
65,224,326678,1,10,0:2:0:0:
276,258,326860,1,10,0:0:0:0:
398,148,327769,6,0,B|379:177|363:330|460:378|556:308|561:169|420:172|276:257|276:257|316:191|323:80|304:31|258:-11|186:-11|128:35|160:114|207:134|262:127,1,959.759961923585,6|0,1:2|0:0,2:0:0:0:
253,127,334860,6,0,L|248:152,12,13.3299994711609
184,185,335587,2,0,L|194:228,3,43,8|8|4|4,0:0|3:0|3:0|3:0,0:0:0:0:
