osu file format v14

[General]
AudioFilename: audio.mp3
AudioLeadIn: 0
PreviewTime: -1
Countdown: 0
SampleSet: None
StackLeniency: 0.7
Mode: 0
LetterboxInBreaks: 0
WidescreenStoryboard: 0

[Editor]
DistanceSpacing: 1
BeatDivisor: 4
GridSize: 8
TimelineZoom: 1.7

[Metadata]
Title:Kimi no Shiranai Monogatari
TitleUnicode:君の知らない物語
Artist:ClariS
ArtistUnicode:ClariS
Creator:Maffe
Version:The Attributes of Wonder
Source:
Tags:
BeatmapID:1414362
BeatmapSetID:668567

[Difficulty]
HPDrainRate:6
CircleSize:4
OverallDifficulty:8
ApproachRate:9
SliderMultiplier:1.4
SliderTickRate:1

[Events]
//Background and Video events
0,0,"805575.jpg",0,0
//Break Periods
//Storyboard Layer 0 (Background)
//Storyboard Layer 1 (Fail)
//Storyboard Layer 2 (Pass)
//Storyboard Layer 3 (Foreground)
//Storyboard Sound Samples

[TimingPoints]
491,731.707317073171,4,1,0,100,1,0
6893,-90.9090909090909,4,1,0,100,0,0
7625,-83.3333333333333,4,1,0,100,0,0
8356,-76.9230769230769,4,1,0,100,0,0
9128,-66.6666666666667,4,1,0,100,0,0
9219,363.636363636364,4,1,0,100,1,0
12037,-83.3333333333333,4,1,0,100,0,0
20219,-200,4,1,0,100,0,0
20764,-100,4,1,0,100,0,0
23673,-125,4,1,0,100,0,0
40673,-166.666666666667,4,1,0,100,0,0
41128,-100,4,1,0,100,0,0

[Colours]
Combo1 : 0,128,255
Combo2 : 192,192,192
Combo3 : 179,109,255

[HitObjects]
80,120,491,5,0,0:0:0:0:
144,72,673,1,0,0:0:0:0:
208,120,856,1,0,0:0:0:0:
112,192,1039,2,0,L|104:264,1,70
96,336,1588,1,0,0:0:0:0:
168,304,1771,1,0,0:0:0:0:
184,224,1954,6,0,L|192:160,2,35
240,280,2503,2,0,L|280:296,1,35
344,320,2869,1,0,0:0:0:0:
488,360,3234,1,0,0:0:0:0:
432,280,3417,6,0,L|424:216,1,35
480,144,3783,2,0,L|432:187,1,35
376,184,4149,2,0,P|336:176|296:160,1,70
308,165,4698,1,0,0:0:0:0:
232,176,4881,5,0,0:0:0:0:
277,243,5064,1,0,0:0:0:0:
248,317,5247,1,0,0:0:0:0:
176,344,5430,2,0,L|128:336,1,35
64,320,5795,1,0,0:0:0:0:
16,200,6344,6,0,L|128:184,1,105
152,112,7076,2,0,L|272:128,1,115.50000352478
312,192,7808,2,0,L|440:176,1,125.999996154785
472,248,8539,2,0,B|408:256|408:256|352:304,1,136.499993751526
304,360,9219,6,0,B|208:376|144:336|144:336|176:328|208:296,1,210
128,256,9946,1,0,0:0:0:0:
256,288,10128,1,0,0:0:0:0:
72,304,10309,1,0,0:0:0:0:
312,240,10491,1,0,0:0:0:0:
128,144,10673,5,0,0:0:0:0:
183,316,10855,1,0,0:0:0:0:
232,104,11037,1,0,0:0:0:0:
56,232,11219,1,0,0:0:0:0:
328,168,11400,2,0,B|256:160|288:200|208:184,1,105
184,176,11764,1,0,0:0:0:0:
205,202,11854,1,0,0:0:0:0:
212,236,11945,1,0,0:0:0:0:
202,270,12036,1,0,0:0:0:0:
178,294,12128,6,0,B|264:264|264:264|368:304,1,167.999994873047
416,328,12673,1,0,0:0:0:0:
360,184,12855,1,0,0:0:0:0:
296,360,13037,1,0,0:0:0:0:
248,136,13219,2,0,L|256:192,1,41.9999987182618
264,264,13400,1,0,0:0:0:0:
72,272,13582,5,0,0:0:0:0:
184,224,13764,1,0,0:0:0:0:
96,320,13946,1,0,0:0:0:0:
154,171,14128,1,0,0:0:0:0:
232,328,14309,1,0,0:0:0:0:
72,272,14491,1,0,0:0:0:0:
304,200,14673,2,0,L|256:216,1,41.9999987182618
184,240,14855,1,0,0:0:0:0:
288,40,15037,5,0,0:0:0:0:
128,104,15219,1,0,0:0:0:0:
360,128,15400,2,0,L|280:120,1,41.9999987182618
240,112,15582,1,0,0:0:0:0:
176,200,15764,1,0,0:0:0:0:
336,264,15946,1,0,0:0:0:0:
104,288,16127,2,0,L|184:280,1,41.9999987182618
224,272,16309,1,0,0:0:0:0:
80,88,16491,6,0,P|72:136|112:232,1,125.999996154785
93,208,16855,1,0,0:0:0:0:
208,112,17037,1,0,0:0:0:0:
200,110,17128,1,0,0:0:0:0:
192,109,17219,2,0,L|161:144,2,41.9999987182618
368,40,17582,1,0,0:0:0:0:
358,80,17672,1,0,0:0:0:0:
366,121,17763,1,0,0:0:0:0:
373,162,17854,1,0,0:0:0:0:
365,203,17946,6,0,B|312:192|312:192|208:224,1,125.999996154785
160,272,18309,2,0,L|168:224,1,41.9999987182618
176,144,18491,1,0,0:0:0:0:
288,352,18673,1,0,0:0:0:0:
312,272,18855,1,0,0:0:0:0:
104,360,19037,2,0,L|144:344,1,41.9999987182618
232,296,19219,1,0,0:0:0:0:
96,184,19400,5,0,0:0:0:0:
152,256,19582,1,0,0:0:0:0:
184,48,19764,2,0,L|168:88,1,41.9999987182618
232,200,19946,2,0,L|216:160,1,41.9999987182618
328,32,20128,1,0,0:0:0:0:
496,224,20309,1,0,0:0:0:0:
480,216,20399,1,0,0:0:0:0:
464,208,20490,1,0,0:0:0:0:
449,200,20581,1,0,0:0:0:0:
433,192,20672,1,0,0:0:0:0:
417,184,20763,1,0,0:0:0:0:
400,176,20855,6,0,L|352:192,1,35
280,208,21037,2,0,L|320:238,1,35
376,296,21219,2,0,L|377:245,1,35
376,104,21400,2,0,B|328:120|328:120|248:88,1,105
248,80,21764,2,0,L|256:120,1,35
176,144,21946,2,0,L|168:184,1,35
256,328,22128,6,0,P|216:320|136:336,1,105
88,368,22491,1,0,0:0:0:0:
152,248,22673,1,0,0:0:0:0:
328,368,22855,1,0,0:0:0:0:
312,264,23219,1,0,0:0:0:0:
304,280,23764,6,0,B|272:288|240:288|240:288|256:264,1,84
272,200,24128,1,0,0:0:0:0:
280,120,24309,1,0,0:0:0:0:
184,216,24491,2,0,L|128:232,1,56
64,184,24855,1,0,0:0:0:0:
48,104,25037,1,0,0:0:0:0:
56,24,25219,2,0,P|96:16|168:32,1,112
171,126,25764,2,0,P|211:134|283:118,1,112
376,48,26309,2,0,P|368:80|368:152,1,84
400,200,26673,2,0,B|368:216|336:216|336:216|336:208,1,56
440,136,27037,1,0,0:0:0:0:
440,264,27219,1,0,0:0:0:0:
352,344,27400,2,0,P|320:352|296:352,1,56
216,328,27764,1,0,0:0:0:0:
480,200,27946,1,0,0:0:0:0:
360,264,28309,1,0,0:0:0:0:
352,240,28491,1,0,0:0:0:0:
336,208,28673,1,0,0:0:0:0:
312,168,28855,1,0,0:0:0:0:
256,112,29037,1,0,0:0:0:0:
240,184,29219,1,0,0:0:0:0:
168,64,29400,1,0,0:0:0:0:
184,136,29582,2,0,L|120:152,1,56
72,224,29946,2,0,L|136:240,1,56
216,344,30309,2,0,P|208:312|208:256,1,84
240,184,30673,1,0,0:0:0:0:
288,288,30855,1,0,0:0:0:0:
432,176,31037,2,0,L|344:192,1,84
349,191,31400,1,0,0:0:0:0:
304,96,31582,2,0,L|224:80,1,56
157,199,31946,2,0,L|245:183,1,84
296,232,32309,1,0,0:0:0:0:
424,24,32491,1,0,0:0:0:0:
376,112,32673,1,0,0:0:0:0:
480,160,32855,2,0,P|488:192|488:216,1,56
344,304,33219,1,0,0:0:0:0:
440,272,33400,1,0,0:0:0:0:
344,304,33582,1,0,0:0:0:0:
384,200,33764,2,0,P|384:160|376:120,1,56
352,64,34128,1,0,0:0:0:0:
304,176,34309,1,0,0:0:0:0:
176,64,34491,2,0,L|240:80,1,56
224,152,34855,2,0,P|192:152|136:216,1,112
243,315,35400,2,0,B|371:331|371:331|339:299,1,168
243,315,36128,2,0,P|216:328|88:272,1,168
160,96,36855,2,0,B|128:176|184:232|184:232|192:208,1,168
240,136,37582,2,0,B|288:128|288:128|352:144,1,112
344,336,38309,2,0,P|320:312|432:280,1,224
344,336,39219,1,0,0:0:0:0:
264,368,39400,1,0,0:0:0:0:
200,312,39582,2,0,B|208:256|208:256|168:216|192:144|192:144|144:104|144:104|176:56|160:8,1,336
24,32,40855,2,0,P|56:40|88:40,1,62.9999980773926
256,16,41219,1,0,0:0:0:0:
240,80,41400,1,0,0:0:0:0:
408,16,41582,1,0,0:0:0:0:
392,80,41764,1,0,0:0:0:0:
376,144,41946,1,0,0:0:0:0:
360,208,42128,1,0,0:0:0:0:
240,80,42309,1,0,0:0:0:0:
224,144,42491,1,0,0:0:0:0:
208,208,42673,2,0,L|184:288,1,70
160,352,43037,1,0,0:0:0:0:
32,296,43219,2,0,P|72:288|112:288,1,70
240,336,43582,2,0,P|288:336|328:328,1,70
408,288,43946,1,0,0:0:0:0:
408,288,44128,2,0,L|416:208,1,70
424,128,44491,2,0,P|384:144|312:120,1,105
320,128,44855,1,0,0:0:0:0:
336,216,45037,1,0,0:0:0:0:
373,68,45219,1,0,0:0:0:0:
260,187,45400,2,0,P|224:200|128:184,1,105
104,144,45764,1,0,0:0:0:0:
136,288,45946,1,0,0:0:0:0:
200,120,46128,2,0,L|224:48,1,70
336,0,46491,2,0,P|304:24|296:56,1,70
