osu file format v14

[General]
AudioFilename: audio.mp3
AudioLeadIn: 0
PreviewTime: 65676
Countdown: 0
SampleSet: Soft
StackLeniency: 0.7
Mode: 0
LetterboxInBreaks: 0
EpilepsyWarning: 1
WidescreenStoryboard: 1

[Editor]
DistanceSpacing: 1.2
BeatDivisor: 2
GridSize: 16
TimelineZoom: 3.899998

[Metadata]
Title:Kimi no Shiranai Monogatari (Cut Ver.)
TitleUnicode:君の知らない物語 (Cut Ver.)
Artist:ClariS
ArtistUnicode:ClariS
Creator:Full Combo
Version:nyu's Normal
Source:化物語
Tags:クラリス supercell shaft bakemonogatari ed ending japanese pop turwik nyu_- oneshotfox nyu anime jpop j-pop venerablenyanta kuki1537
BeatmapID:2634763
BeatmapSetID:1191205

[Difficulty]
HPDrainRate:4
CircleSize:2.6
OverallDifficulty:4
ApproachRate:5
SliderMultiplier:0.85
SliderTickRate:1

[Events]
//Background and Video events
0,0,"new.jpg",0,0
//Break Periods
//Storyboard Layer 0 (Background)
//Storyboard Layer 1 (Fail)
//Storyboard Layer 2 (Pass)
//Storyboard Layer 3 (Foreground)
Sprite,Foreground,Centre,"sb\white.png",320,240 V,19,12658,13179,0,0.01,1,0.01 F,0,12658,17361,1 V,19,13179,16634,1,0.01,1.1,0.01 R,19,16997,17197,0,-0.7853982 V,19,16997,17197,1.1,0.01,0.33,0.01
Sprite,Foreground,Centre,"sb\q.png",320,240 F,0,17361,,1 R,0,17361,,-0.7853982 V,19,17361,17561,0.5650685,0,0.5650685,0.5650685 V,19,17725,17925,0.5650685,0.5650685,1.130137,1.130137 R,19,18088,18288,-0.7853982,0 V,19,18088,18288,1.130137,1.130137,0,1.284247 F,0,18452,18652,1,0
Sprite,Foreground,Centre,"sb\s.png",0,0 C,0,17725,,255,255,255 S,19,17725,17845,0,0.15 M,22,17725,18270,320,240,295.7527,86.90831 R,22,17725,18270,-0.1,1.26 S,0,17845,18270,0.15,0.19 F,0,18070,18270,1,0
Sprite,Foreground,Centre,"sb\q.png",0,0 C,0,17725,,255,255,255 S,19,17725,17845,0,0.15 M,22,17725,18270,320,240,368.8084,130.3745 R,22,17725,18270,-0.1,0.26 S,0,17845,18270,0.15,0.19 F,0,18070,18270,1,0
Sprite,Foreground,Centre,"sb\t.png",0,0 C,0,17725,,255,255,255 S,19,17725,17845,0,0.15 M,22,17725,18270,320,240,336.2019,85.84911 R,22,17725,18270,-0.1,1.36 S,0,17845,18270,0.15,0.19 F,0,18070,18270,1,0
Sprite,Foreground,Centre,"sb\t.png",0,0 C,0,17725,,255,255,255 S,19,17725,17845,0,0.15 M,22,17725,18270,320,240,380.5618,350.5746 R,22,17725,18270,-0.1,0.36 S,0,17845,18270,0.15,0.19 F,0,18070,18270,1,0
Sprite,Foreground,Centre,"sb\o.png",0,0 C,0,17725,,255,255,255 S,19,17725,17845,0,0.15 M,22,17725,18270,320,240,255.18,326.3831 R,22,17725,18270,-0.1,1.16 S,0,17845,18270,0.15,0.19 F,0,18070,18270,1,0
Sprite,Foreground,Centre,"sb\t.png",0,0 C,0,17725,,255,255,255 S,19,17725,17845,0,0.15 M,22,17725,18270,320,240,141.2284,271.4303 R,22,17725,18270,-0.1,1.06 S,0,17845,18270,0.15,0.19 F,0,18070,18270,1,0
Sprite,Foreground,Centre,"sb\q.png",0,0 C,0,17725,,255,255,255 S,19,17725,17845,0,0.15 M,22,17725,18270,320,240,250.9934,108.3641 R,22,17725,18270,-0.1,1.26 S,0,17845,18270,0.15,0.19 F,0,18070,18270,1,0
Sprite,Foreground,Centre,"sb\s.png",0,0 C,0,17725,,255,255,255 S,19,17725,17845,0,0.15 M,22,17725,18270,320,240,369.869,148.2968 R,22,17725,18270,-0.1,0.36 S,0,17845,18270,0.15,0.19 F,0,18070,18270,1,0
Sprite,Foreground,Centre,"sb\q.png",0,0 C,0,17725,,255,255,255 S,19,17725,17845,0,0.15 M,22,17725,18270,320,240,495.7588,227.7229 R,22,17725,18270,-0.1,-0.54 S,0,17845,18270,0.15,0.19 F,0,18070,18270,1,0
Sprite,Foreground,Centre,"sb\o.png",0,0 C,0,17725,,255,255,255 S,19,17725,17845,0,0.15 M,22,17725,18270,320,240,412.3492,362.8728 R,22,17725,18270,-0.1,0.86 S,0,17845,18270,0.15,0.19 F,0,18070,18270,1,0
Sprite,Foreground,Centre,"sb\o.png",0,0 C,0,17725,,255,255,255 S,19,17725,17845,0,0.15 M,22,17725,18270,320,240,233.2191,405.9659 R,22,17725,18270,-0.1,0.06 S,0,17845,18270,0.15,0.19 F,0,18070,18270,1,0
Sprite,Foreground,BottomCentre,"sb\white.png",0,0 M,19,18088,18288,320,355.5,320,333.75 R,19,18088,18288,-0.7853982,0 V,19,18088,18288,0.01,0.66,0.01,0.75
Sprite,Foreground,TopCentre,"sb\white.png",0,0 M,19,18088,18288,320,124.5,320,146.25 R,19,18088,18288,-0.7853982,0 V,19,18088,18288,0.01,0.66,0.01,0.75
Sprite,Foreground,Centre,"sb\white.png",320,240 V,0,18270,21381,0.01,0.75,0.01,0.66 F,0,18270,21562,1 V,0,21381,21481,0.01,0.66,0.01,0.01
Sprite,Foreground,Centre,"sb\credits\bm.png",0,0 S,0,12997,,0.5 M,19,12997,13197,200,215,280,215 F,0,12997,13197,0,1 M,0,13197,16634,280,215,320,215 M,22,16634,16834,320,215,360,215 F,0,16634,16834,1,0
Sprite,Foreground,Centre,"sb\credits\nu.png",0,0 S,0,13361,,0.5 M,19,13361,13561,480,265,400,265 F,0,13361,13561,0,1 M,0,13561,16634,400,265,320,265 M,22,16634,16834,320,265,280,265 F,0,16634,16834,1,0
Sprite,Foreground,TopLeft,"sb\credits\sb.png",0,0 S,0,18452,,0.5 M,19,18452,18652,335,120,335,150 F,0,18452,18652,0,1 M,0,18652,21017,335,150,335,240 M,22,21017,21217,335,240,335,265 F,0,21017,21217,1,0
Sprite,Foreground,BottomRight,"sb\credits\ny.png",0,0 S,0,18816,,0.5 M,19,18816,19016,305,350,305,330 F,0,18816,19016,0,1 M,0,19016,21199,305,330,305,240 M,22,21199,21399,305,240,305,215 F,0,21199,21399,1,0
Sprite,Foreground,Centre,"sb\q2.png",320,240 C,0,9385,,0,0,0 S,19,9385,9505,0,0.52 S,0,9505,10113,0.52,0.62 F,0,9913,10113,1,0
Sprite,Foreground,Centre,"sb\s.png",0,0 C,0,9385,,0,0,0 S,19,9385,9505,0,0.15 M,22,9385,10113,320,240,350.7202,398.042 R,22,9385,10113,-0.1,1.16 S,0,9505,10113,0.15,0.19 F,0,9913,10113,1,0
Sprite,Foreground,Centre,"sb\q.png",0,0 C,0,9385,,0,0,0 S,19,9385,9505,0,0.15 M,22,9385,10113,320,240,195.8768,320.6066 R,22,9385,10113,-0.1,1.06 S,0,9505,10113,0.15,0.19 F,0,9913,10113,1,0
Sprite,Foreground,Centre,"sb\t.png",0,0 C,0,9385,,0,0,0 S,19,9385,9505,0,0.15 M,22,9385,10113,320,240,295.2585,123.6004 R,22,9385,10113,-0.1,0.86 S,0,9505,10113,0.15,0.19 F,0,9913,10113,1,0
Sprite,Foreground,Centre,"sb\o.png",0,0 C,0,9385,,0,0,0 S,19,9385,9505,0,0.15 M,22,9385,10113,320,240,418.1601,393.7243 R,22,9385,10113,-0.1,0.66 S,0,9505,10113,0.15,0.19 F,0,9913,10113,1,0
Sprite,Foreground,Centre,"sb\o.png",0,0 C,0,9385,,0,0,0 S,19,9385,9505,0,0.15 M,22,9385,10113,320,240,277.801,331.5892 R,22,9385,10113,-0.1,1.06 S,0,9505,10113,0.15,0.19 F,0,9913,10113,1,0
Sprite,Foreground,Centre,"sb\o.png",0,0 C,0,9385,,0,0,0 S,19,9385,9505,0,0.15 M,22,9385,10113,320,240,199.0184,233.6673 R,22,9385,10113,-0.1,1.36 S,0,9505,10113,0.15,0.19 F,0,9913,10113,1,0
Sprite,Foreground,Centre,"sb\q.png",0,0 C,0,9385,,0,0,0 S,19,9385,9505,0,0.15 M,22,9385,10113,320,240,241.0932,78.21707 R,22,9385,10113,-0.1,-0.34 S,0,9505,10113,0.15,0.19 F,0,9913,10113,1,0
Sprite,Foreground,Centre,"sb\s.png",0,0 C,0,9385,,0,0,0 S,19,9385,9505,0,0.15 M,22,9385,10113,320,240,412.1138,75.45517 R,22,9385,10113,-0.1,-0.24 S,0,9505,10113,0.15,0.19 F,0,9913,10113,1,0
Sprite,Foreground,Centre,"sb\t.png",0,0 C,0,9385,,0,0,0 S,19,9385,9505,0,0.15 M,22,9385,10113,320,240,486.0851,257.4563 R,22,9385,10113,-0.1,0.36 S,0,9505,10113,0.15,0.19 F,0,9913,10113,1,0
Sprite,Foreground,Centre,"sb\o.png",0,0 C,0,9385,,0,0,0 S,19,9385,9505,0,0.15 M,22,9385,10113,320,240,420.9495,392.4205 R,22,9385,10113,-0.1,1.26 S,0,9505,10113,0.15,0.19 F,0,9913,10113,1,0
Sprite,Foreground,Centre,"sb\q.png",0,0 C,0,9385,,0,0,0 S,19,9385,9505,0,0.15 M,22,9385,10113,320,240,241.8246,361.5016 R,22,9385,10113,-0.1,-0.04 S,0,9505,10113,0.15,0.19 F,0,9913,10113,1,0
Sprite,Foreground,Centre,"sb\s.png",0,0 C,0,21562,,255,255,255 S,19,21562,21682,0,0.15 M,22,21562,22199,320,240,386.0336,395.5653 R,22,21562,22199,-0.1,-0.14 S,0,21682,22199,0.15,0.19 F,0,21999,22199,1,0
Sprite,Foreground,Centre,"sb\q.png",0,0 C,0,21562,,255,255,255 S,19,21562,21682,0,0.15 M,22,21562,22199,320,240,468.9079,306.2981 R,22,21562,22199,-0.1,1.26 S,0,21682,22199,0.15,0.19 F,0,21999,22199,1,0
Sprite,Foreground,Centre,"sb\t.png",0,0 C,0,21562,,255,255,255 S,19,21562,21682,0,0.15 M,22,21562,22199,320,240,181.8868,106.6256 R,22,21562,22199,-0.1,-0.44 S,0,21682,22199,0.15,0.19 F,0,21999,22199,1,0
Sprite,Foreground,Centre,"sb\o.png",0,0 C,0,21562,,255,255,255 S,19,21562,21682,0,0.15 M,22,21562,22199,320,240,422.8155,371.5978 R,22,21562,22199,-0.1,-0.44 S,0,21682,22199,0.15,0.19 F,0,21999,22199,1,0
Sprite,Foreground,Centre,"sb\q.png",0,0 C,0,21562,,255,255,255 S,19,21562,21682,0,0.15 M,22,21562,22199,320,240,246.9517,403.5408 R,22,21562,22199,-0.1,0.36 S,0,21682,22199,0.15,0.19 F,0,21999,22199,1,0
Sprite,Foreground,Centre,"sb\q.png",0,0 C,0,21562,,255,255,255 S,19,21562,21682,0,0.15 M,22,21562,22199,320,240,199.8535,246.385 R,22,21562,22199,-0.1,0.66 S,0,21682,22199,0.15,0.19 F,0,21999,22199,1,0
Sprite,Foreground,Centre,"sb\o.png",0,0 C,0,21562,,255,255,255 S,19,21562,21682,0,0.15 M,22,21562,22199,320,240,273.5327,141.0405 R,22,21562,22199,-0.1,-0.04 S,0,21682,22199,0.15,0.19 F,0,21999,22199,1,0
Sprite,Foreground,Centre,"sb\o.png",0,0 C,0,21562,,255,255,255 S,19,21562,21682,0,0.15 M,22,21562,22199,320,240,378.3213,120.4885 R,22,21562,22199,-0.1,0.46 S,0,21682,22199,0.15,0.19 F,0,21999,22199,1,0
Sprite,Foreground,Centre,"sb\q.png",0,0 C,0,21562,,255,255,255 S,19,21562,21682,0,0.15 M,22,21562,22199,320,240,424.984,250.9755 R,22,21562,22199,-0.1,-0.04 S,0,21682,22199,0.15,0.19 F,0,21999,22199,1,0
Sprite,Foreground,Centre,"sb\q.png",0,0 C,0,21562,,255,255,255 S,19,21562,21682,0,0.15 M,22,21562,22199,320,240,378.2911,341.9902 R,22,21562,22199,-0.1,0.86 S,0,21682,22199,0.15,0.19 F,0,21999,22199,1,0
Sprite,Foreground,Centre,"sb\s.png",0,0 C,0,21562,,255,255,255 S,19,21562,21682,0,0.15 M,22,21562,22199,320,240,220.6643,381.7353 R,22,21562,22199,-0.1,0.66 S,0,21682,22199,0.15,0.19 F,0,21999,22199,1,0
Sprite,Foreground,Centre,"sb\s.png",0,0 C,0,22290,,255,255,255 S,19,22290,22410,0,0.15 M,22,22290,22835,320,240,174.9908,172.3811 R,22,22290,22835,-0.1,0.56 S,0,22410,22835,0.15,0.19 F,0,22635,22835,1,0
Sprite,Foreground,Centre,"sb\q.png",0,0 C,0,22290,,255,255,255 S,19,22290,22410,0,0.15 M,22,22290,22835,320,240,378.684,350.3684 R,22,22290,22835,-0.1,-0.44 S,0,22410,22835,0.15,0.19 F,0,22635,22835,1,0
Sprite,Foreground,Centre,"sb\t.png",0,0 C,0,22290,,255,255,255 S,19,22290,22410,0,0.15 M,22,22290,22835,320,240,400.9406,421.7955 R,22,22290,22835,-0.1,-0.04 S,0,22410,22835,0.15,0.19 F,0,22635,22835,1,0
Sprite,Foreground,Centre,"sb\o.png",0,0 C,0,22290,,255,255,255 S,19,22290,22410,0,0.15 M,22,22290,22835,320,240,398,385.6385 R,22,22290,22835,-0.1,0.66 S,0,22410,22835,0.15,0.19 F,0,22635,22835,1,0
Sprite,Foreground,Centre,"sb\s.png",0,0 C,0,22290,,255,255,255 S,19,22290,22410,0,0.15 M,22,22290,22835,320,240,231.2444,368.0553 R,22,22290,22835,-0.1,-0.24 S,0,22410,22835,0.15,0.19 F,0,22635,22835,1,0
Sprite,Foreground,Centre,"sb\q.png",0,0 C,0,22290,,255,255,255 S,19,22290,22410,0,0.15 M,22,22290,22835,320,240,166.9083,250.8123 R,22,22290,22835,-0.1,0.76 S,0,22410,22835,0.15,0.19 F,0,22635,22835,1,0
Sprite,Foreground,Centre,"sb\s.png",0,0 C,0,22290,,255,255,255 S,19,22290,22410,0,0.15 M,22,22290,22835,320,240,234.1833,126.5367 R,22,22290,22835,-0.1,0.36 S,0,22410,22835,0.15,0.19 F,0,22635,22835,1,0
Sprite,Foreground,Centre,"sb\s.png",0,0 C,0,22290,,255,255,255 S,19,22290,22410,0,0.15 M,22,22290,22835,320,240,375.7531,131.9353 R,22,22290,22835,-0.1,0.26 S,0,22410,22835,0.15,0.19 F,0,22635,22835,1,0
Sprite,Foreground,Centre,"sb\t.png",0,0 C,0,22290,,255,255,255 S,19,22290,22410,0,0.15 M,22,22290,22835,320,240,499.2385,208.5697 R,22,22290,22835,-0.1,-0.14 S,0,22410,22835,0.15,0.19 F,0,22635,22835,1,0
Sprite,Foreground,Centre,"sb\q.png",0,0 C,0,22290,,255,255,255 S,19,22290,22410,0,0.15 M,22,22290,22835,320,240,445.9864,414.6373 R,22,22290,22835,-0.1,1.36 S,0,22410,22835,0.15,0.19 F,0,22635,22835,1,0
Sprite,Foreground,Centre,"sb\t.png",0,0 C,0,22290,,255,255,255 S,19,22290,22410,0,0.15 M,22,22290,22835,320,240,207.579,416.1636 R,22,22290,22835,-0.1,0.56 S,0,22410,22835,0.15,0.19 F,0,22635,22835,1,0
Sprite,Foreground,Centre,"sb\o.png",320,240 S,19,21562,21962,0,0.33 F,0,21562,22635,1 S,19,22290,22690,0.33,0.54 F,0,22635,22835,1,0
Sprite,Foreground,Centre,"sb\pog.png",0,0 S,0,27925,,0.15 M,19,27925,28289,0,500,0,340 R,0,27925,28562,-0.5,0.5 S,22,28107,28197,0.15,0.23 S,0,28197,28707,0.23,0.15 M,15,28289,28562,0,340,0,520
Sprite,Foreground,Centre,"sb\t.png",0,0 C,0,28107,,255,255,255 S,19,28107,28227,0,0.15 M,22,28107,28507,0,340,70.59849,501.373 R,22,28107,28507,-0.1,1.16 S,0,28227,28507,0.15,0.19 F,0,28307,28507,1,0
Sprite,Foreground,Centre,"sb\s.png",0,0 C,0,28107,,255,255,255 S,19,28107,28227,0,0.15 M,22,28107,28507,0,340,-113.743,503.6788 R,22,28107,28507,-0.1,-0.24 S,0,28227,28507,0.15,0.19 F,0,28307,28507,1,0
Sprite,Foreground,Centre,"sb\o.png",0,0 C,0,28107,,255,255,255 S,19,28107,28227,0,0.15 M,22,28107,28507,0,340,-149.1409,366.2209 R,22,28107,28507,-0.1,0.16 S,0,28227,28507,0.15,0.19 F,0,28307,28507,1,0
Sprite,Foreground,Centre,"sb\q.png",0,0 C,0,28107,,255,255,255 S,19,28107,28227,0,0.15 M,22,28107,28507,0,340,-57.68427,242.0426 R,22,28107,28507,-0.1,-0.24 S,0,28227,28507,0.15,0.19 F,0,28307,28507,1,0
Sprite,Foreground,Centre,"sb\t.png",0,0 C,0,28107,,255,255,255 S,19,28107,28227,0,0.15 M,22,28107,28507,0,340,75.13851,218.5389 R,22,28107,28507,-0.1,-0.14 S,0,28227,28507,0.15,0.19 F,0,28307,28507,1,0
Sprite,Foreground,Centre,"sb\q.png",0,0 C,0,28107,,255,255,255 S,19,28107,28227,0,0.15 M,22,28107,28507,0,340,154.6224,313.0845 R,22,28107,28507,-0.1,0.76 S,0,28227,28507,0.15,0.19 F,0,28307,28507,1,0
Sprite,Foreground,Centre,"sb\s.png",0,0 C,0,28107,,255,255,255 S,19,28107,28227,0,0.15 M,22,28107,28507,0,340,73.06672,506.6182 R,22,28107,28507,-0.1,0.86 S,0,28227,28507,0.15,0.19 F,0,28307,28507,1,0
Sprite,Foreground,Centre,"sb\t.png",0,0 C,0,28107,,255,255,255 S,19,28107,28227,0,0.15 M,22,28107,28507,0,340,-49.23212,440.6281 R,22,28107,28507,-0.1,0.36 S,0,28227,28507,0.15,0.19 F,0,28307,28507,1,0
Sprite,Foreground,Centre,"sb\t.png",0,0 C,0,28107,,255,255,255 S,19,28107,28227,0,0.15 M,22,28107,28507,0,340,-162.7766,357.0381 R,22,28107,28507,-0.1,0.06 S,0,28227,28507,0.15,0.19 F,0,28307,28507,1,0
Sprite,Foreground,Centre,"sb\o.png",0,0 C,0,28107,,255,255,255 S,19,28107,28227,0,0.15 M,22,28107,28507,0,340,-57.69724,189.6936 R,22,28107,28507,-0.1,-0.54 S,0,28227,28507,0.15,0.19 F,0,28307,28507,1,0
Sprite,Foreground,Centre,"sb\s.png",0,0 C,0,28107,,255,255,255 S,19,28107,28227,0,0.15 M,22,28107,28507,0,340,69.15941,174.7563 R,22,28107,28507,-0.1,-0.44 S,0,28227,28507,0.15,0.19 F,0,28307,28507,1,0
Sprite,Foreground,Centre,"sb\s.png",0,0 C,0,28107,,255,255,255 S,19,28107,28227,0,0.15 M,22,28107,28507,0,340,172.0523,346.0376 R,22,28107,28507,-0.1,-0.34 S,0,28227,28507,0.15,0.19 F,0,28307,28507,1,0
Sprite,Foreground,Centre,"sb\white.png",308,337 C,0,54091,,255,101,115 F,0,54091,54841,1,0 R,0,54091,54841,0.02122698,0 V,19,54091,54841,0.04,932,0,932
Sprite,Foreground,Centre,"sb\so.png",0,0 C,0,54091,,255,101,115 M,19,54091,54758,308,337,309.5773,323.1307 F,0,54091,54758,1,0 S,0,54091,54758,0.1406027,0
Sprite,Foreground,Centre,"sb\so.png",0,0 C,0,54091,,255,101,115 M,19,54091,54807,308,337,200.8692,377.7293 F,0,54091,54807,1,0 S,0,54091,54807,0.09673147,0
Sprite,Foreground,Centre,"sb\so.png",0,0 C,0,54091,,255,101,115 M,19,54091,54848,308,337,312.9191,342.4169 F,0,54091,54848,1,0 S,0,54091,54848,0.136237,0
Sprite,Foreground,Centre,"sb\so.png",0,0 C,0,54091,,255,101,115 M,19,54091,54765,308,337,350.5053,335.757 F,0,54091,54765,1,0 S,0,54091,54765,0.1348052,0
Sprite,Foreground,Centre,"sb\so.png",0,0 C,0,54091,,255,101,115 M,19,54091,54893,308,337,195.9752,342.7048 F,0,54091,54893,1,0 S,0,54091,54893,0.1434019,0
Sprite,Foreground,Centre,"sb\o.png",308,337 C,0,54091,,255,101,115 F,19,54091,54841,1,0 S,19,54091,54841,0.01,1
Sprite,Foreground,Centre,"sb\white.png",227,399 C,0,54455,,255,101,115 F,0,54455,55205,1,0 R,0,54455,55205,0.03079993,0 V,19,54455,55205,0.04,932,0,932
Sprite,Foreground,Centre,"sb\so.png",0,0 C,0,54455,,255,101,115 M,19,54455,55198,227,399,161.4519,362.367 F,0,54455,55198,1,0 S,0,54455,55198,0.1488544,0
Sprite,Foreground,Centre,"sb\so.png",0,0 C,0,54455,,255,101,115 M,19,54455,55115,227,399,187.6013,349.6971 F,0,54455,55115,1,0 S,0,54455,55115,0.08431418,0
Sprite,Foreground,Centre,"sb\so.png",0,0 C,0,54455,,255,101,115 M,19,54455,55217,227,399,228.1873,398.6748 F,0,54455,55217,1,0 S,0,54455,55217,0.07734515,0
Sprite,Foreground,Centre,"sb\so.png",0,0 C,0,54455,,255,101,115 M,19,54455,55167,227,399,286.0298,360.0108 F,0,54455,55167,1,0 S,0,54455,55167,0.06468251,0
Sprite,Foreground,Centre,"sb\so.png",0,0 C,0,54455,,255,101,115 M,19,54455,55272,227,399,223.1311,377.7672 F,0,54455,55272,1,0 S,0,54455,55272,0.09879681,0
Sprite,Foreground,Centre,"sb\o.png",227,399 C,0,54455,,255,101,115 F,19,54455,55205,1,0 S,19,54455,55205,0.01,1
Sprite,Foreground,Centre,"sb\white.png",128,372 C,0,54818,,255,101,115 F,0,54818,55568,1,0 R,0,54818,55568,-0.01975844,0 V,19,54818,55568,0.04,932,0,932
Sprite,Foreground,Centre,"sb\so.png",0,0 C,0,54818,,255,101,115 M,19,54818,55689,128,372,153.7821,321.7306 F,0,54818,55689,1,0 S,0,54818,55689,0.1124866,0
Sprite,Foreground,Centre,"sb\so.png",0,0 C,0,54818,,255,101,115 M,19,54818,55585,128,372,146.7122,465.0236 F,0,54818,55585,1,0 S,0,54818,55585,0.1338579,0
Sprite,Foreground,Centre,"sb\so.png",0,0 C,0,54818,,255,101,115 M,19,54818,55603,128,372,144.6355,402.3243 F,0,54818,55603,1,0 S,0,54818,55603,0.1499973,0
Sprite,Foreground,Centre,"sb\so.png",0,0 C,0,54818,,255,101,115 M,19,54818,55656,128,372,91.72084,376.2672 F,0,54818,55656,1,0 S,0,54818,55656,0.06009354,0
Sprite,Foreground,Centre,"sb\so.png",0,0 C,0,54818,,255,101,115 M,19,54818,55398,128,372,121.133,320.0235 F,0,54818,55398,1,0 S,0,54818,55398,0.06891238,0
Sprite,Foreground,Centre,"sb\o.png",128,372 C,0,54818,,255,101,115 F,19,54818,55568,1,0 S,19,54818,55568,0.01,1
Sprite,Foreground,Centre,"sb\white.png",83,281 C,0,55182,,255,101,115 F,0,55182,55932,1,0 R,0,55182,55932,0 V,19,55182,55932,0.04,932,0,932
Sprite,Foreground,Centre,"sb\so.png",0,0 C,0,55182,,255,101,115 M,19,55182,55918,83,281,64.24927,317.5159 F,0,55182,55918,1,0 S,0,55182,55918,0.1309204,0
Sprite,Foreground,Centre,"sb\so.png",0,0 C,0,55182,,255,101,115 M,19,55182,55996,83,281,100.1855,219.889 F,0,55182,55996,1,0 S,0,55182,55996,0.1022785,0
Sprite,Foreground,Centre,"sb\so.png",0,0 C,0,55182,,255,101,115 M,19,55182,55844,83,281,103.8008,315.3752 F,0,55182,55844,1,0 S,0,55182,55844,0.07225179,0
Sprite,Foreground,Centre,"sb\so.png",0,0 C,0,55182,,255,101,115 M,19,55182,55975,83,281,42.9936,185.4844 F,0,55182,55975,1,0 S,0,55182,55975,0.1130394,0
Sprite,Foreground,Centre,"sb\so.png",0,0 C,0,55182,,255,101,115 M,19,55182,55946,83,281,22.91642,310.3704 F,0,55182,55946,1,0 S,0,55182,55946,0.1400104,0
Sprite,Foreground,Centre,"sb\o.png",83,281 C,0,55182,,255,101,115 F,19,55182,55932,1,0 S,19,55182,55932,0.01,1
Sprite,Foreground,Centre,"sb\white.png",117,203 C,0,55552,,255,101,115 F,0,55552,56302,1,0 R,0,55552,56302,0.1256637,0 V,19,55552,56302,0.04,932,0,932
Sprite,Foreground,Centre,"sb\so.png",0,0 C,0,55552,,255,101,115 M,19,55552,56354,117,203,61.12434,127.0038 F,0,55552,56354,1,0 S,0,55552,56354,0.09906252,0
Sprite,Foreground,Centre,"sb\so.png",0,0 C,0,55552,,255,101,115 M,19,55552,56309,117,203,142.4747,237.1772 F,0,55552,56309,1,0 S,0,55552,56309,0.1118182,0
Sprite,Foreground,Centre,"sb\so.png",0,0 C,0,55552,,255,101,115 M,19,55552,56312,117,203,83.64238,201.9344 F,0,55552,56312,1,0 S,0,55552,56312,0.07816473,0
Sprite,Foreground,Centre,"sb\so.png",0,0 C,0,55552,,255,101,115 M,19,55552,56396,117,203,86.27843,97.31541 F,0,55552,56396,1,0 S,0,55552,56396,0.102274,0
Sprite,Foreground,Centre,"sb\so.png",0,0 C,0,55552,,255,101,115 M,19,55552,56302,117,203,116.7011,204.5497 F,0,55552,56302,1,0 S,0,55552,56302,0.07805536,0
Sprite,Foreground,Centre,"sb\o.png",117,203 C,0,55552,,255,101,115 F,19,55552,56302,1,0 S,19,55552,56302,0.01,1
Sprite,Foreground,Centre,"sb\white.png",132,111 F,0,93727,94477,1,0 R,0,93727,94477,0.02122698,0 V,19,93727,94477,0.04,932,0,932
Sprite,Foreground,Centre,"sb\so.png",0,0 M,19,93727,94394,132,111,133.5773,97.13071 F,0,93727,94394,1,0 S,0,93727,94394,0.1406027,0
Sprite,Foreground,Centre,"sb\so.png",0,0 M,19,93727,94443,132,111,24.86916,151.7294 F,0,93727,94443,1,0 S,0,93727,94443,0.09673147,0
Sprite,Foreground,Centre,"sb\so.png",0,0 M,19,93727,94484,132,111,136.9191,116.4169 F,0,93727,94484,1,0 S,0,93727,94484,0.136237,0
Sprite,Foreground,Centre,"sb\so.png",0,0 M,19,93727,94401,132,111,174.5053,109.757 F,0,93727,94401,1,0 S,0,93727,94401,0.1348052,0
Sprite,Foreground,Centre,"sb\so.png",0,0 M,19,93727,94529,132,111,19.97521,116.7048 F,0,93727,94529,1,0 S,0,93727,94529,0.1434019,0
Sprite,Foreground,Centre,"sb\o.png",132,111 F,19,93727,94477,1,0 S,19,93727,94477,0.01,1
Sprite,Foreground,Centre,"sb\white.png",266,133 F,0,94273,95023,1,0 R,0,94273,95023,0.03079993,0 V,19,94273,95023,0.04,932,0,932
Sprite,Foreground,Centre,"sb\so.png",0,0 M,19,94273,95016,266,133,200.4519,96.36705 F,0,94273,95016,1,0 S,0,94273,95016,0.1488544,0
Sprite,Foreground,Centre,"sb\so.png",0,0 M,19,94273,94933,266,133,226.6013,83.69713 F,0,94273,94933,1,0 S,0,94273,94933,0.08431418,0
Sprite,Foreground,Centre,"sb\so.png",0,0 M,19,94273,95035,266,133,267.1873,132.6748 F,0,94273,95035,1,0 S,0,94273,95035,0.07734515,0
Sprite,Foreground,Centre,"sb\so.png",0,0 M,19,94273,94985,266,133,325.0298,94.01083 F,0,94273,94985,1,0 S,0,94273,94985,0.06468251,0
Sprite,Foreground,Centre,"sb\so.png",0,0 M,19,94273,95090,266,133,262.1311,111.7672 F,0,94273,95090,1,0 S,0,94273,95090,0.09879681,0
Sprite,Foreground,Centre,"sb\o.png",266,133 F,19,94273,95023,1,0 S,19,94273,95023,0.01,1
Sprite,Foreground,Centre,"sb\white.png",345,212 F,0,94636,95386,1,0 R,0,94636,95386,-0.01975844,0 V,19,94636,95386,0.04,932,0,932
Sprite,Foreground,Centre,"sb\so.png",0,0 M,19,94636,95507,345,212,370.7821,161.7306 F,0,94636,95507,1,0 S,0,94636,95507,0.1124866,0
Sprite,Foreground,Centre,"sb\so.png",0,0 M,19,94636,95403,345,212,363.7122,305.0236 F,0,94636,95403,1,0 S,0,94636,95403,0.1338579,0
Sprite,Foreground,Centre,"sb\so.png",0,0 M,19,94636,95421,345,212,361.6355,242.3244 F,0,94636,95421,1,0 S,0,94636,95421,0.1499973,0
Sprite,Foreground,Centre,"sb\so.png",0,0 M,19,94636,95474,345,212,308.7208,216.2672 F,0,94636,95474,1,0 S,0,94636,95474,0.06009354,0
Sprite,Foreground,Centre,"sb\so.png",0,0 M,19,94636,95216,345,212,338.133,160.0235 F,0,94636,95216,1,0 S,0,94636,95216,0.06891238,0
Sprite,Foreground,Centre,"sb\o.png",345,212 F,19,94636,95386,1,0 S,19,94636,95386,0.01,1
Sprite,Foreground,Centre,"sb\white.png",398,194 F,0,94818,95568,1,0 R,0,94818,95568,0 V,19,94818,95568,0.04,932,0,932
Sprite,Foreground,Centre,"sb\so.png",0,0 M,19,94818,95554,398,194,379.2493,230.5159 F,0,94818,95554,1,0 S,0,94818,95554,0.1309204,0
Sprite,Foreground,Centre,"sb\so.png",0,0 M,19,94818,95632,398,194,415.1855,132.889 F,0,94818,95632,1,0 S,0,94818,95632,0.1022785,0
Sprite,Foreground,Centre,"sb\so.png",0,0 M,19,94818,95480,398,194,418.8008,228.3752 F,0,94818,95480,1,0 S,0,94818,95480,0.07225179,0
Sprite,Foreground,Centre,"sb\so.png",0,0 M,19,94818,95611,398,194,357.9936,98.48443 F,0,94818,95611,1,0 S,0,94818,95611,0.1130394,0
Sprite,Foreground,Centre,"sb\so.png",0,0 M,19,94818,95582,398,194,337.9164,223.3704 F,0,94818,95582,1,0 S,0,94818,95582,0.1400104,0
Sprite,Foreground,Centre,"sb\o.png",398,194 F,19,94818,95568,1,0 S,19,94818,95568,0.01,1
Sprite,Foreground,Centre,"sb\white.png",492,221 F,0,95183,95933,1,0 R,0,95183,95933,0.1256637,0 V,19,95183,95933,0.04,932,0,932
Sprite,Foreground,Centre,"sb\so.png",0,0 M,19,95183,95985,492,221,436.1244,145.0038 F,0,95183,95985,1,0 S,0,95183,95985,0.09906252,0
Sprite,Foreground,Centre,"sb\so.png",0,0 M,19,95183,95940,492,221,517.4747,255.1772 F,0,95183,95940,1,0 S,0,95183,95940,0.1118182,0
Sprite,Foreground,Centre,"sb\so.png",0,0 M,19,95183,95943,492,221,458.6424,219.9344 F,0,95183,95943,1,0 S,0,95183,95943,0.07816473,0
Sprite,Foreground,Centre,"sb\so.png",0,0 M,19,95183,96027,492,221,461.2784,115.3154 F,0,95183,96027,1,0 S,0,95183,96027,0.102274,0
Sprite,Foreground,Centre,"sb\so.png",0,0 M,19,95183,95933,492,221,491.7011,222.5497 F,0,95183,95933,1,0 S,0,95183,95933,0.07805536,0
Sprite,Foreground,Centre,"sb\o.png",492,221 F,19,95183,95933,1,0 S,19,95183,95933,0.01,1
Sprite,Foreground,Centre,"sb\white.png",267,138 F,0,107553,108303,1,0 R,0,107553,108303,0.02122698,0 V,19,107553,108303,0.04,932,0,932
Sprite,Foreground,Centre,"sb\so.png",0,0 M,19,107553,108220,267,138,268.5773,124.1307 F,0,107553,108220,1,0 S,0,107553,108220,0.1406027,0
Sprite,Foreground,Centre,"sb\so.png",0,0 M,19,107553,108269,267,138,159.8692,178.7294 F,0,107553,108269,1,0 S,0,107553,108269,0.09673147,0
Sprite,Foreground,Centre,"sb\so.png",0,0 M,19,107553,108310,267,138,271.9191,143.4169 F,0,107553,108310,1,0 S,0,107553,108310,0.136237,0
Sprite,Foreground,Centre,"sb\so.png",0,0 M,19,107553,108227,267,138,309.5053,136.757 F,0,107553,108227,1,0 S,0,107553,108227,0.1348052,0
Sprite,Foreground,Centre,"sb\so.png",0,0 M,19,107553,108355,267,138,154.9752,143.7048 F,0,107553,108355,1,0 S,0,107553,108355,0.1434019,0
Sprite,Foreground,Centre,"sb\o.png",267,138 F,19,107553,108303,1,0 S,19,107553,108303,0.01,1
Sprite,Foreground,Centre,"sb\white.png",180,107 F,0,107917,108667,1,0 R,0,107917,108667,0.03079993,0 V,19,107917,108667,0.04,932,0,932
Sprite,Foreground,Centre,"sb\so.png",0,0 M,19,107917,108660,180,107,114.4519,70.36705 F,0,107917,108660,1,0 S,0,107917,108660,0.1488544,0
Sprite,Foreground,Centre,"sb\so.png",0,0 M,19,107917,108577,180,107,140.6013,57.69713 F,0,107917,108577,1,0 S,0,107917,108577,0.08431418,0
Sprite,Foreground,Centre,"sb\so.png",0,0 M,19,107917,108679,180,107,181.1873,106.6748 F,0,107917,108679,1,0 S,0,107917,108679,0.07734515,0
Sprite,Foreground,Centre,"sb\so.png",0,0 M,19,107917,108629,180,107,239.0298,68.01083 F,0,107917,108629,1,0 S,0,107917,108629,0.06468251,0
Sprite,Foreground,Centre,"sb\so.png",0,0 M,19,107917,108734,180,107,176.1311,85.76719 F,0,107917,108734,1,0 S,0,107917,108734,0.09879681,0
Sprite,Foreground,Centre,"sb\o.png",180,107 F,19,107917,108667,1,0 S,19,107917,108667,0.01,1
Sprite,Foreground,Centre,"sb\white.png",102,350 F,0,64644,65394,0.75,0 R,0,64644,65394,0.02122698,0 V,19,64644,65394,0.04,932,0,932
Sprite,Foreground,Centre,"sb\so.png",0,0 M,19,64644,65311,102,350,103.5773,336.1307 F,0,64644,65311,1,0 S,0,64644,65311,0.1859041,0
Sprite,Foreground,Centre,"sb\so.png",0,0 M,19,64644,65360,102,350,-5.13084,390.7293 F,0,64644,65360,1,0 S,0,64644,65360,0.1200972,0
Sprite,Foreground,Centre,"sb\so.png",0,0 M,19,64644,65401,102,350,106.9191,355.4169 F,0,64644,65401,1,0 S,0,64644,65401,0.1793555,0
Sprite,Foreground,Centre,"sb\so.png",0,0 M,19,64644,65318,102,350,144.5053,348.757 F,0,64644,65318,1,0 S,0,64644,65318,0.1772078,0
Sprite,Foreground,Centre,"sb\so.png",0,0 M,19,64644,65446,102,350,-10.02479,355.7048 F,0,64644,65446,1,0 S,0,64644,65446,0.1901028,0
Sprite,Foreground,Centre,"sb\o.png",102,350 F,19,64644,65394,1,0 S,19,64644,65394,0.01,1
Sprite,Foreground,Centre,"sb\white.png",188,191 F,0,65371,66121,0.75,0 R,0,65371,66121,0.03079993,0 V,19,65371,66121,0.04,932,0,932
Sprite,Foreground,Centre,"sb\so.png",0,0 M,19,65371,66114,188,191,122.4519,154.3671 F,0,65371,66114,1,0 S,0,65371,66114,0.1982816,0
Sprite,Foreground,Centre,"sb\so.png",0,0 M,19,65371,66031,188,191,148.6013,141.6971 F,0,65371,66031,1,0 S,0,65371,66031,0.1014713,0
Sprite,Foreground,Centre,"sb\so.png",0,0 M,19,65371,66133,188,191,189.1873,190.6748 F,0,65371,66133,1,0 S,0,65371,66133,0.09101772,0
Sprite,Foreground,Centre,"sb\so.png",0,0 M,19,65371,66083,188,191,247.0298,152.0108 F,0,65371,66083,1,0 S,0,65371,66083,0.07202376,0
Sprite,Foreground,Centre,"sb\so.png",0,0 M,19,65371,66188,188,191,184.1311,169.7672 F,0,65371,66188,1,0 S,0,65371,66188,0.1231952,0
Sprite,Foreground,Centre,"sb\o.png",188,191 F,19,65371,66121,1,0 S,19,65371,66121,0.01,1
Sprite,Foreground,Centre,"sb\white.png",287,213 F,0,65734,66484,0.75,0 R,0,65734,66484,-0.01975844,0 V,19,65734,66484,0.04,932,0,932
Sprite,Foreground,Centre,"sb\so.png",0,0 M,19,65734,66605,287,213,312.7821,162.7306 F,0,65734,66605,1,0 S,0,65734,66605,0.1437299,0
Sprite,Foreground,Centre,"sb\so.png",0,0 M,19,65734,66501,287,213,305.7122,306.0236 F,0,65734,66501,1,0 S,0,65734,66501,0.1757869,0
Sprite,Foreground,Centre,"sb\so.png",0,0 M,19,65734,66519,287,213,303.6355,243.3244 F,0,65734,66519,1,0 S,0,65734,66519,0.1999959,0
Sprite,Foreground,Centre,"sb\so.png",0,0 M,19,65734,66572,287,213,250.7208,217.2672 F,0,65734,66572,1,0 S,0,65734,66572,0.06514031,0
Sprite,Foreground,Centre,"sb\so.png",0,0 M,19,65734,66314,287,213,280.133,161.0235 F,0,65734,66314,1,0 S,0,65734,66314,0.07836857,0
Sprite,Foreground,Centre,"sb\o.png",287,213 F,19,65734,66484,1,0 S,19,65734,66484,0.01,1
Sprite,Foreground,Centre,"sb\glow.png",553,368 C,0,67561,,220,166,126 F,2,67561,68124,1,0 S,2,67561,68124,1,0.2
Sprite,Foreground,Centre,"sb\glow.png",553,368 C,0,67461,,220,166,126 F,0,67461,67561,0,0.6 F,0,67561,67861,0.6,0 S,19,67561,67861,1.4,0
Sprite,Foreground,Centre,"sb\glow.png",555,363 C,0,67486,,220,166,126 F,0,67486,67586,0,0.6 F,0,67586,67886,0.6,0 S,19,67586,67886,1.4,0
Sprite,Foreground,Centre,"sb\glow.png",557,357 C,0,67511,,220,166,126 F,0,67511,67611,0,0.6 F,0,67611,67911,0.6,0 S,19,67611,67911,1.4,0
Sprite,Foreground,Centre,"sb\glow.png",559,352 C,0,67536,,220,166,126 F,0,67536,67636,0,0.6 F,0,67636,67936,0.6,0 S,19,67636,67936,1.4,0
Sprite,Foreground,Centre,"sb\glow.png",561,346 C,0,67561,,220,166,126 F,0,67561,67661,0,0.6 F,0,67661,67961,0.6,0 S,19,67661,67961,1.4,0
Sprite,Foreground,Centre,"sb\glow.png",562,340 C,0,67586,,220,166,126 F,0,67586,67686,0,0.6 F,0,67686,67986,0.6,0 S,19,67686,67986,1.4,0
Sprite,Foreground,Centre,"sb\glow.png",563,335 C,0,67611,,220,166,126 F,0,67611,67711,0,0.6 F,0,67711,68011,0.6,0 S,19,67711,68011,1.4,0
Sprite,Foreground,Centre,"sb\glow.png",564,329 C,0,67636,,220,166,126 F,0,67636,67736,0,0.6 F,0,67736,68036,0.6,0 S,19,67736,68036,1.4,0
Sprite,Foreground,Centre,"sb\glow.png",563,323 C,0,67661,,220,166,126 F,0,67661,67761,0,0.6 F,0,67761,68061,0.6,0 S,19,67761,68061,1.4,0
Sprite,Foreground,Centre,"sb\glow.png",563,317 C,0,67686,,220,166,126 F,0,67686,67786,0,0.6 F,0,67786,68086,0.6,0 S,19,67786,68086,1.4,0
Sprite,Foreground,Centre,"sb\glow.png",563,311 C,0,67711,,220,166,126 F,0,67711,67811,0,0.6 F,0,67811,68111,0.6,0 S,19,67811,68111,1.4,0
Sprite,Foreground,Centre,"sb\glow.png",562,305 C,0,67736,,220,166,126 F,0,67736,67836,0,0.6 F,0,67836,68136,0.6,0 S,19,67836,68136,1.4,0
Sprite,Foreground,Centre,"sb\glow.png",561,300 C,0,67761,,220,166,126 F,0,67761,67861,0,0.6 F,0,67861,68161,0.6,0 S,19,67861,68161,1.4,0
Sprite,Foreground,Centre,"sb\glow.png",560,294 C,0,67786,,220,166,126 F,0,67786,67886,0,0.6 F,0,67886,68186,0.6,0 S,19,67886,68186,1.4,0
Sprite,Foreground,Centre,"sb\glow.png",558,288 C,0,67811,,220,166,126 F,0,67811,67911,0,0.6 F,0,67911,68211,0.6,0 S,19,67911,68211,1.4,0
Sprite,Foreground,Centre,"sb\glow.png",484,213 C,0,68288,,220,166,126 F,2,68288,68669,1,0 S,2,68288,68669,1,0.2
Sprite,Foreground,Centre,"sb\glow.png",484,213 C,0,68188,,220,166,126 F,0,68188,68288,0,0.6 F,0,68288,68588,0.6,0 S,19,68288,68588,1.4,0
Sprite,Foreground,Centre,"sb\glow.png",486,207 C,0,68213,,220,166,126 F,0,68213,68313,0,0.6 F,0,68313,68613,0.6,0 S,19,68313,68613,1.4,0
Sprite,Foreground,Centre,"sb\glow.png",488,202 C,0,68238,,220,166,126 F,0,68238,68338,0,0.6 F,0,68338,68638,0.6,0 S,19,68338,68638,1.4,0
Sprite,Foreground,Centre,"sb\glow.png",490,196 C,0,68263,,220,166,126 F,0,68263,68363,0,0.6 F,0,68363,68663,0.6,0 S,19,68363,68663,1.4,0
Sprite,Foreground,Centre,"sb\glow.png",491,191 C,0,68288,,220,166,126 F,0,68288,68388,0,0.6 F,0,68388,68688,0.6,0 S,19,68388,68688,1.4,0
Sprite,Foreground,Centre,"sb\glow.png",493,185 C,0,68313,,220,166,126 F,0,68313,68413,0,0.6 F,0,68413,68713,0.6,0 S,19,68413,68713,1.4,0
Sprite,Foreground,Centre,"sb\glow.png",495,180 C,0,68338,,220,166,126 F,0,68338,68438,0,0.6 F,0,68438,68738,0.6,0 S,19,68438,68738,1.4,0
Sprite,Foreground,Centre,"sb\glow.png",497,174 C,0,68363,,220,166,126 F,0,68363,68463,0,0.6 F,0,68463,68763,0.6,0 S,19,68463,68763,1.4,0
Sprite,Foreground,Centre,"sb\glow.png",534,137 C,0,68651,,220,166,126 F,2,68651,68851,1,0 S,2,68651,68851,1,0.2
Sprite,Foreground,Centre,"sb\glow.png",442,66 C,0,69015,,220,166,126 F,2,69015,69567,1,0 S,2,69015,69567,1,0.2
Sprite,Foreground,Centre,"sb\glow.png",442,66 C,0,68915,,220,166,126 F,0,68915,69015,0,0.6 F,0,69015,69315,0.6,0 S,19,69015,69315,1.4,0
Sprite,Foreground,Centre,"sb\glow.png",435,66 C,0,68940,,220,166,126 F,0,68940,69040,0,0.6 F,0,69040,69340,0.6,0 S,19,69040,69340,1.4,0
Sprite,Foreground,Centre,"sb\glow.png",429,66 C,0,68965,,220,166,126 F,0,68965,69065,0,0.6 F,0,69065,69365,0.6,0 S,19,69065,69365,1.4,0
Sprite,Foreground,Centre,"sb\glow.png",422,66 C,0,68990,,220,166,126 F,0,68990,69090,0,0.6 F,0,69090,69390,0.6,0 S,19,69090,69390,1.4,0
Sprite,Foreground,Centre,"sb\glow.png",416,67 C,0,69015,,220,166,126 F,0,69015,69115,0,0.6 F,0,69115,69415,0.6,0 S,19,69115,69415,1.4,0
Sprite,Foreground,Centre,"sb\glow.png",409,68 C,0,69040,,220,166,126 F,0,69040,69140,0,0.6 F,0,69140,69440,0.6,0 S,19,69140,69440,1.4,0
Sprite,Foreground,Centre,"sb\glow.png",402,69 C,0,69065,,220,166,126 F,0,69065,69165,0,0.6 F,0,69165,69465,0.6,0 S,19,69165,69465,1.4,0
Sprite,Foreground,Centre,"sb\glow.png",396,70 C,0,69090,,220,166,126 F,0,69090,69190,0,0.6 F,0,69190,69490,0.6,0 S,19,69190,69490,1.4,0
Sprite,Foreground,Centre,"sb\glow.png",389,71 C,0,69115,,220,166,126 F,0,69115,69215,0,0.6 F,0,69215,69515,0.6,0 S,19,69215,69515,1.4,0
Sprite,Foreground,Centre,"sb\glow.png",383,72 C,0,69140,,220,166,126 F,0,69140,69240,0,0.6 F,0,69240,69540,0.6,0 S,19,69240,69540,1.4,0
Sprite,Foreground,Centre,"sb\glow.png",377,74 C,0,69165,,220,166,126 F,0,69165,69265,0,0.6 F,0,69265,69565,0.6,0 S,19,69265,69565,1.4,0
Sprite,Foreground,Centre,"sb\glow.png",370,76 C,0,69190,,220,166,126 F,0,69190,69290,0,0.6 F,0,69290,69590,0.6,0 S,19,69290,69590,1.4,0
Sprite,Foreground,Centre,"sb\glow.png",364,78 C,0,69215,,220,166,126 F,0,69215,69315,0,0.6 F,0,69315,69615,0.6,0 S,19,69315,69615,1.4,0
Sprite,Foreground,Centre,"sb\glow.png",358,80 C,0,69240,,220,166,126 F,0,69240,69340,0,0.6 F,0,69340,69640,0.6,0 S,19,69340,69640,1.4,0
Sprite,Foreground,Centre,"sb\glow.png",351,82 C,0,69265,,220,166,126 F,0,69265,69365,0,0.6 F,0,69365,69665,0.6,0 S,19,69365,69665,1.4,0
Sprite,Foreground,Centre,"sb\glow.png",325,132 C,0,69544,,220,166,126 F,2,69544,70097,1,0 S,2,69544,70097,1,0.2
Sprite,Foreground,Centre,"sb\glow.png",325,132 C,0,69444,,220,166,126 F,0,69444,69544,0,0.6 F,0,69544,69844,0.6,0 S,19,69544,69844,1.4,0
Sprite,Foreground,Centre,"sb\glow.png",319,134 C,0,69469,,220,166,126 F,0,69469,69569,0,0.6 F,0,69569,69869,0.6,0 S,19,69569,69869,1.4,0
Sprite,Foreground,Centre,"sb\glow.png",312,136 C,0,69494,,220,166,126 F,0,69494,69594,0,0.6 F,0,69594,69894,0.6,0 S,19,69594,69894,1.4,0
Sprite,Foreground,Centre,"sb\glow.png",306,138 C,0,69519,,220,166,126 F,0,69519,69619,0,0.6 F,0,69619,69919,0.6,0 S,19,69619,69919,1.4,0
Sprite,Foreground,Centre,"sb\glow.png",300,139 C,0,69544,,220,166,126 F,0,69544,69644,0,0.6 F,0,69644,69944,0.6,0 S,19,69644,69944,1.4,0
Sprite,Foreground,Centre,"sb\glow.png",293,141 C,0,69569,,220,166,126 F,0,69569,69669,0,0.6 F,0,69669,69969,0.6,0 S,19,69669,69969,1.4,0
Sprite,Foreground,Centre,"sb\glow.png",287,141 C,0,69594,,220,166,126 F,0,69594,69694,0,0.6 F,0,69694,69994,0.6,0 S,19,69694,69994,1.4,0
Sprite,Foreground,Centre,"sb\glow.png",280,142 C,0,69619,,220,166,126 F,0,69619,69719,0,0.6 F,0,69719,70019,0.6,0 S,19,69719,70019,1.4,0
Sprite,Foreground,Centre,"sb\glow.png",273,142 C,0,69644,,220,166,126 F,0,69644,69744,0,0.6 F,0,69744,70044,0.6,0 S,19,69744,70044,1.4,0
Sprite,Foreground,Centre,"sb\glow.png",267,143 C,0,69669,,220,166,126 F,0,69669,69769,0,0.6 F,0,69769,70069,0.6,0 S,19,69769,70069,1.4,0
Sprite,Foreground,Centre,"sb\glow.png",260,142 C,0,69694,,220,166,126 F,0,69694,69794,0,0.6 F,0,69794,70094,0.6,0 S,19,69794,70094,1.4,0
Sprite,Foreground,Centre,"sb\glow.png",254,142 C,0,69719,,220,166,126 F,0,69719,69819,0,0.6 F,0,69819,70119,0.6,0 S,19,69819,70119,1.4,0
Sprite,Foreground,Centre,"sb\glow.png",247,141 C,0,69744,,220,166,126 F,0,69744,69844,0,0.6 F,0,69844,70144,0.6,0 S,19,69844,70144,1.4,0
Sprite,Foreground,Centre,"sb\glow.png",240,140 C,0,69769,,220,166,126 F,0,69769,69869,0,0.6 F,0,69869,70169,0.6,0 S,19,69869,70169,1.4,0
Sprite,Foreground,Centre,"sb\glow.png",234,138 C,0,69794,,220,166,126 F,0,69794,69894,0,0.6 F,0,69894,70194,0.6,0 S,19,69894,70194,1.4,0
Sprite,Foreground,Centre,"sb\glow.png",183,125 C,0,70078,,220,166,126 F,2,70078,70278,1,0 S,2,70078,70278,1,0.2
Sprite,Foreground,Centre,"sb\glow.png",78,87 C,0,70442,,222,203,124 F,2,70442,71005,1,0 S,2,70442,71005,1,0.2
Sprite,Foreground,Centre,"sb\glow.png",78,87 C,0,70342,,222,203,124 F,0,70342,70442,0,0.6 F,0,70442,70742,0.6,0 S,19,70442,70742,1.4,0
Sprite,Foreground,Centre,"sb\glow.png",76,93 C,0,70367,,222,203,124 F,0,70367,70467,0,0.6 F,0,70467,70767,0.6,0 S,19,70467,70767,1.4,0
Sprite,Foreground,Centre,"sb\glow.png",74,99 C,0,70392,,222,203,124 F,0,70392,70492,0,0.6 F,0,70492,70792,0.6,0 S,19,70492,70792,1.4,0
Sprite,Foreground,Centre,"sb\glow.png",73,105 C,0,70417,,222,203,124 F,0,70417,70517,0,0.6 F,0,70517,70817,0.6,0 S,19,70517,70817,1.4,0
Sprite,Foreground,Centre,"sb\glow.png",72,112 C,0,70442,,222,203,124 F,0,70442,70542,0,0.6 F,0,70542,70842,0.6,0 S,19,70542,70842,1.4,0
Sprite,Foreground,Centre,"sb\glow.png",71,118 C,0,70467,,222,203,124 F,0,70467,70567,0,0.6 F,0,70567,70867,0.6,0 S,19,70567,70867,1.4,0
Sprite,Foreground,Centre,"sb\glow.png",71,125 C,0,70492,,222,203,124 F,0,70492,70592,0,0.6 F,0,70592,70892,0.6,0 S,19,70592,70892,1.4,0
Sprite,Foreground,Centre,"sb\glow.png",71,131 C,0,70517,,222,203,124 F,0,70517,70617,0,0.6 F,0,70617,70917,0.6,0 S,19,70617,70917,1.4,0
Sprite,Foreground,Centre,"sb\glow.png",71,137 C,0,70542,,222,203,124 F,0,70542,70642,0,0.6 F,0,70642,70942,0.6,0 S,19,70642,70942,1.4,0
Sprite,Foreground,Centre,"sb\glow.png",72,144 C,0,70567,,222,203,124 F,0,70567,70667,0,0.6 F,0,70667,70967,0.6,0 S,19,70667,70967,1.4,0
Sprite,Foreground,Centre,"sb\glow.png",73,150 C,0,70592,,222,203,124 F,0,70592,70692,0,0.6 F,0,70692,70992,0.6,0 S,19,70692,70992,1.4,0
Sprite,Foreground,Centre,"sb\glow.png",75,156 C,0,70617,,222,203,124 F,0,70617,70717,0,0.6 F,0,70717,71017,0.6,0 S,19,70717,71017,1.4,0
Sprite,Foreground,Centre,"sb\glow.png",77,162 C,0,70642,,222,203,124 F,0,70642,70742,0,0.6 F,0,70742,71042,0.6,0 S,19,70742,71042,1.4,0
Sprite,Foreground,Centre,"sb\glow.png",79,168 C,0,70667,,222,203,124 F,0,70667,70767,0,0.6 F,0,70767,71067,0.6,0 S,19,70767,71067,1.4,0
Sprite,Foreground,Centre,"sb\glow.png",82,174 C,0,70692,,222,203,124 F,0,70692,70792,0,0.6 F,0,70792,71092,0.6,0 S,19,70792,71092,1.4,0
Sprite,Foreground,Centre,"sb\glow.png",152,261 C,0,71169,,222,203,124 F,2,71169,71550,1,0 S,2,71169,71550,1,0.2
Sprite,Foreground,Centre,"sb\glow.png",152,261 C,0,71069,,222,203,124 F,0,71069,71169,0,0.6 F,0,71169,71469,0.6,0 S,19,71169,71469,1.4,0
Sprite,Foreground,Centre,"sb\glow.png",150,267 C,0,71094,,222,203,124 F,0,71094,71194,0,0.6 F,0,71194,71494,0.6,0 S,19,71194,71494,1.4,0
Sprite,Foreground,Centre,"sb\glow.png",149,273 C,0,71119,,222,203,124 F,0,71119,71219,0,0.6 F,0,71219,71519,0.6,0 S,19,71219,71519,1.4,0
Sprite,Foreground,Centre,"sb\glow.png",147,280 C,0,71144,,222,203,124 F,0,71144,71244,0,0.6 F,0,71244,71544,0.6,0 S,19,71244,71544,1.4,0
Sprite,Foreground,Centre,"sb\glow.png",145,286 C,0,71169,,222,203,124 F,0,71169,71269,0,0.6 F,0,71269,71569,0.6,0 S,19,71269,71569,1.4,0
Sprite,Foreground,Centre,"sb\glow.png",144,292 C,0,71194,,222,203,124 F,0,71194,71294,0,0.6 F,0,71294,71594,0.6,0 S,19,71294,71594,1.4,0
Sprite,Foreground,Centre,"sb\glow.png",142,298 C,0,71219,,222,203,124 F,0,71219,71319,0,0.6 F,0,71319,71619,0.6,0 S,19,71319,71619,1.4,0
Sprite,Foreground,Centre,"sb\glow.png",141,305 C,0,71244,,222,203,124 F,0,71244,71344,0,0.6 F,0,71344,71644,0.6,0 S,19,71344,71644,1.4,0
Sprite,Foreground,Centre,"sb\glow.png",98,343 C,0,71532,,222,203,124 F,2,71532,71732,1,0 S,2,71532,71732,1,0.2
Sprite,Foreground,Centre,"sb\glow.png",185,413 C,0,71896,,222,203,124 F,2,71896,72459,1,0 S,2,71896,72459,1,0.2
Sprite,Foreground,Centre,"sb\glow.png",185,413 C,0,71796,,222,203,124 F,0,71796,71896,0,0.6 F,0,71896,72196,0.6,0 S,19,71896,72196,1.4,0
Sprite,Foreground,Centre,"sb\glow.png",190,410 C,0,71821,,222,203,124 F,0,71821,71921,0,0.6 F,0,71921,72221,0.6,0 S,19,71921,72221,1.4,0
Sprite,Foreground,Centre,"sb\glow.png",196,406 C,0,71846,,222,203,124 F,0,71846,71946,0,0.6 F,0,71946,72246,0.6,0 S,19,71946,72246,1.4,0
Sprite,Foreground,Centre,"sb\glow.png",202,403 C,0,71871,,222,203,124 F,0,71871,71971,0,0.6 F,0,71971,72271,0.6,0 S,19,71971,72271,1.4,0
Sprite,Foreground,Centre,"sb\glow.png",208,401 C,0,71896,,222,203,124 F,0,71896,71996,0,0.6 F,0,71996,72296,0.6,0 S,19,71996,72296,1.4,0
Sprite,Foreground,Centre,"sb\glow.png",214,399 C,0,71921,,222,203,124 F,0,71921,72021,0,0.6 F,0,72021,72321,0.6,0 S,19,72021,72321,1.4,0
Sprite,Foreground,Centre,"sb\glow.png",220,397 C,0,71946,,222,203,124 F,0,71946,72046,0,0.6 F,0,72046,72346,0.6,0 S,19,72046,72346,1.4,0
Sprite,Foreground,Centre,"sb\glow.png",226,396 C,0,71971,,222,203,124 F,0,71971,72071,0,0.6 F,0,72071,72371,0.6,0 S,19,72071,72371,1.4,0
Sprite,Foreground,Centre,"sb\glow.png",233,395 C,0,71996,,222,203,124 F,0,71996,72096,0,0.6 F,0,72096,72396,0.6,0 S,19,72096,72396,1.4,0
Sprite,Foreground,Centre,"sb\glow.png",239,395 C,0,72021,,222,203,124 F,0,72021,72121,0,0.6 F,0,72121,72421,0.6,0 S,19,72121,72421,1.4,0
Sprite,Foreground,Centre,"sb\glow.png",245,395 C,0,72046,,222,203,124 F,0,72046,72146,0,0.6 F,0,72146,72446,0.6,0 S,19,72146,72446,1.4,0
Sprite,Foreground,Centre,"sb\glow.png",252,396 C,0,72071,,222,203,124 F,0,72071,72171,0,0.6 F,0,72171,72471,0.6,0 S,19,72171,72471,1.4,0
Sprite,Foreground,Centre,"sb\glow.png",258,396 C,0,72096,,222,203,124 F,0,72096,72196,0,0.6 F,0,72196,72496,0.6,0 S,19,72196,72496,1.4,0
Sprite,Foreground,Centre,"sb\glow.png",264,398 C,0,72121,,222,203,124 F,0,72121,72221,0,0.6 F,0,72221,72521,0.6,0 S,19,72221,72521,1.4,0
Sprite,Foreground,Centre,"sb\glow.png",270,400 C,0,72146,,222,203,124 F,0,72146,72246,0,0.6 F,0,72246,72546,0.6,0 S,19,72246,72546,1.4,0
Sprite,Foreground,Centre,"sb\glow.png",328,415 C,0,72442,,222,203,124 F,2,72442,73005,1,0 S,2,72442,73005,1,0.2
Sprite,Foreground,Centre,"sb\glow.png",328,415 C,0,72342,,222,203,124 F,0,72342,72442,0,0.6 F,0,72442,72742,0.6,0 S,19,72442,72742,1.4,0
Sprite,Foreground,Centre,"sb\glow.png",333,418 C,0,72367,,222,203,124 F,0,72367,72467,0,0.6 F,0,72467,72767,0.6,0 S,19,72467,72767,1.4,0
Sprite,Foreground,Centre,"sb\glow.png",339,422 C,0,72392,,222,203,124 F,0,72392,72492,0,0.6 F,0,72492,72792,0.6,0 S,19,72492,72792,1.4,0
Sprite,Foreground,Centre,"sb\glow.png",345,425 C,0,72417,,222,203,124 F,0,72417,72517,0,0.6 F,0,72517,72817,0.6,0 S,19,72517,72817,1.4,0
Sprite,Foreground,Centre,"sb\glow.png",351,427 C,0,72442,,222,203,124 F,0,72442,72542,0,0.6 F,0,72542,72842,0.6,0 S,19,72542,72842,1.4,0
Sprite,Foreground,Centre,"sb\glow.png",357,429 C,0,72467,,222,203,124 F,0,72467,72567,0,0.6 F,0,72567,72867,0.6,0 S,19,72567,72867,1.4,0
Sprite,Foreground,Centre,"sb\glow.png",363,431 C,0,72492,,222,203,124 F,0,72492,72592,0,0.6 F,0,72592,72892,0.6,0 S,19,72592,72892,1.4,0
Sprite,Foreground,Centre,"sb\glow.png",369,432 C,0,72517,,222,203,124 F,0,72517,72617,0,0.6 F,0,72617,72917,0.6,0 S,19,72617,72917,1.4,0
Sprite,Foreground,Centre,"sb\glow.png",376,433 C,0,72542,,222,203,124 F,0,72542,72642,0,0.6 F,0,72642,72942,0.6,0 S,19,72642,72942,1.4,0
Sprite,Foreground,Centre,"sb\glow.png",382,433 C,0,72567,,222,203,124 F,0,72567,72667,0,0.6 F,0,72667,72967,0.6,0 S,19,72667,72967,1.4,0
Sprite,Foreground,Centre,"sb\glow.png",388,433 C,0,72592,,222,203,124 F,0,72592,72692,0,0.6 F,0,72692,72992,0.6,0 S,19,72692,72992,1.4,0
Sprite,Foreground,Centre,"sb\glow.png",395,432 C,0,72617,,222,203,124 F,0,72617,72717,0,0.6 F,0,72717,73017,0.6,0 S,19,72717,73017,1.4,0
Sprite,Foreground,Centre,"sb\glow.png",401,432 C,0,72642,,222,203,124 F,0,72642,72742,0,0.6 F,0,72742,73042,0.6,0 S,19,72742,73042,1.4,0
Sprite,Foreground,Centre,"sb\glow.png",407,430 C,0,72667,,222,203,124 F,0,72667,72767,0,0.6 F,0,72767,73067,0.6,0 S,19,72767,73067,1.4,0
Sprite,Foreground,Centre,"sb\glow.png",413,428 C,0,72692,,222,203,124 F,0,72692,72792,0,0.6 F,0,72792,73092,0.6,0 S,19,72792,73092,1.4,0
Sprite,Foreground,Centre,"sb\glow.png",461,393 C,0,72987,,222,203,124 F,2,72987,73187,1,0 S,2,72987,73187,1,0.2
Sprite,Foreground,Centre,"sb\glow.png",438,290 C,0,73351,,196,162,223 F,2,73351,73940,1,0 S,2,73351,73940,1,0.2
Sprite,Foreground,Centre,"sb\glow.png",438,290 C,0,73251,,196,162,223 F,0,73251,73351,0,0.6 F,0,73351,73651,0.6,0 S,19,73351,73651,1.4,0
Sprite,Foreground,Centre,"sb\glow.png",433,286 C,0,73276,,196,162,223 F,0,73276,73376,0,0.6 F,0,73376,73676,0.6,0 S,19,73376,73676,1.4,0
Sprite,Foreground,Centre,"sb\glow.png",428,283 C,0,73301,,196,162,223 F,0,73301,73401,0,0.6 F,0,73401,73701,0.6,0 S,19,73401,73701,1.4,0
Sprite,Foreground,Centre,"sb\glow.png",423,280 C,0,73326,,196,162,223 F,0,73326,73426,0,0.6 F,0,73426,73726,0.6,0 S,19,73426,73726,1.4,0
Sprite,Foreground,Centre,"sb\glow.png",418,277 C,0,73351,,196,162,223 F,0,73351,73451,0,0.6 F,0,73451,73751,0.6,0 S,19,73451,73751,1.4,0
Sprite,Foreground,Centre,"sb\glow.png",412,275 C,0,73376,,196,162,223 F,0,73376,73476,0,0.6 F,0,73476,73776,0.6,0 S,19,73476,73776,1.4,0
Sprite,Foreground,Centre,"sb\glow.png",407,273 C,0,73401,,196,162,223 F,0,73401,73501,0,0.6 F,0,73501,73801,0.6,0 S,19,73501,73801,1.4,0
Sprite,Foreground,Centre,"sb\glow.png",401,272 C,0,73426,,196,162,223 F,0,73426,73526,0,0.6 F,0,73526,73826,0.6,0 S,19,73526,73826,1.4,0
Sprite,Foreground,Centre,"sb\glow.png",395,271 C,0,73451,,196,162,223 F,0,73451,73551,0,0.6 F,0,73551,73851,0.6,0 S,19,73551,73851,1.4,0
Sprite,Foreground,Centre,"sb\glow.png",389,271 C,0,73476,,196,162,223 F,0,73476,73576,0,0.6 F,0,73576,73876,0.6,0 S,19,73576,73876,1.4,0
Sprite,Foreground,Centre,"sb\glow.png",383,271 C,0,73501,,196,162,223 F,0,73501,73601,0,0.6 F,0,73601,73901,0.6,0 S,19,73601,73901,1.4,0
Sprite,Foreground,Centre,"sb\glow.png",377,271 C,0,73526,,196,162,223 F,0,73526,73626,0,0.6 F,0,73626,73926,0.6,0 S,19,73626,73926,1.4,0
Sprite,Foreground,Centre,"sb\glow.png",371,272 C,0,73551,,196,162,223 F,0,73551,73651,0,0.6 F,0,73651,73951,0.6,0 S,19,73651,73951,1.4,0
Sprite,Foreground,Centre,"sb\glow.png",365,273 C,0,73576,,196,162,223 F,0,73576,73676,0,0.6 F,0,73676,73976,0.6,0 S,19,73676,73976,1.4,0
Sprite,Foreground,Centre,"sb\glow.png",359,274 C,0,73601,,196,162,223 F,0,73601,73701,0,0.6 F,0,73701,74001,0.6,0 S,19,73701,74001,1.4,0
Sprite,Foreground,Centre,"sb\glow.png",353,275 C,0,73626,,196,162,223 F,0,73626,73726,0,0.6 F,0,73726,74026,0.6,0 S,19,73726,74026,1.4,0
Sprite,Foreground,Centre,"sb\glow.png",254,206 C,0,74103,,196,162,223 F,2,74103,74484,1,0 S,2,74103,74484,1,0.2
Sprite,Foreground,Centre,"sb\glow.png",254,206 C,0,74003,,196,162,223 F,0,74003,74103,0,0.6 F,0,74103,74403,0.6,0 S,19,74103,74403,1.4,0
Sprite,Foreground,Centre,"sb\glow.png",252,200 C,0,74028,,196,162,223 F,0,74028,74128,0,0.6 F,0,74128,74428,0.6,0 S,19,74128,74428,1.4,0
Sprite,Foreground,Centre,"sb\glow.png",250,194 C,0,74053,,196,162,223 F,0,74053,74153,0,0.6 F,0,74153,74453,0.6,0 S,19,74153,74453,1.4,0
Sprite,Foreground,Centre,"sb\glow.png",249,188 C,0,74078,,196,162,223 F,0,74078,74178,0,0.6 F,0,74178,74478,0.6,0 S,19,74178,74478,1.4,0
Sprite,Foreground,Centre,"sb\glow.png",247,181 C,0,74103,,196,162,223 F,0,74103,74203,0,0.6 F,0,74203,74503,0.6,0 S,19,74203,74503,1.4,0
Sprite,Foreground,Centre,"sb\glow.png",245,175 C,0,74128,,196,162,223 F,0,74128,74228,0,0.6 F,0,74228,74528,0.6,0 S,19,74228,74528,1.4,0
Sprite,Foreground,Centre,"sb\glow.png",243,169 C,0,74153,,196,162,223 F,0,74153,74253,0,0.6 F,0,74253,74553,0.6,0 S,19,74253,74553,1.4,0
Sprite,Foreground,Centre,"sb\glow.png",241,163 C,0,74178,,196,162,223 F,0,74178,74278,0,0.6 F,0,74278,74578,0.6,0 S,19,74278,74578,1.4,0
Sprite,Foreground,Centre,"sb\glow.png",228,111 C,0,74460,,196,162,223 F,2,74460,74660,1,0 S,2,74460,74660,1,0.2
Sprite,Foreground,Centre,"sb\glow.png",329,65 C,0,74811,,196,162,223 F,2,74811,75192,1,0 S,2,74811,75192,1,0.2
Sprite,Foreground,Centre,"sb\glow.png",329,65 C,0,74711,,196,162,223 F,0,74711,74811,0,0.6 F,0,74811,75111,0.6,0 S,19,74811,75111,1.4,0
Sprite,Foreground,Centre,"sb\glow.png",331,71 C,0,74736,,196,162,223 F,0,74736,74836,0,0.6 F,0,74836,75136,0.6,0 S,19,74836,75136,1.4,0
Sprite,Foreground,Centre,"sb\glow.png",333,77 C,0,74761,,196,162,223 F,0,74761,74861,0,0.6 F,0,74861,75161,0.6,0 S,19,74861,75161,1.4,0
Sprite,Foreground,Centre,"sb\glow.png",334,83 C,0,74786,,196,162,223 F,0,74786,74886,0,0.6 F,0,74886,75186,0.6,0 S,19,74886,75186,1.4,0
Sprite,Foreground,Centre,"sb\glow.png",336,90 C,0,74811,,196,162,223 F,0,74811,74911,0,0.6 F,0,74911,75211,0.6,0 S,19,74911,75211,1.4,0
Sprite,Foreground,Centre,"sb\glow.png",338,96 C,0,74836,,196,162,223 F,0,74836,74936,0,0.6 F,0,74936,75236,0.6,0 S,19,74936,75236,1.4,0
Sprite,Foreground,Centre,"sb\glow.png",340,102 C,0,74861,,196,162,223 F,0,74861,74961,0,0.6 F,0,74961,75261,0.6,0 S,19,74961,75261,1.4,0
Sprite,Foreground,Centre,"sb\glow.png",342,108 C,0,74886,,196,162,223 F,0,74886,74986,0,0.6 F,0,74986,75286,0.6,0 S,19,74986,75286,1.4,0
Sprite,Foreground,Centre,"sb\glow.png",357,162 C,0,75174,,196,162,223 F,2,75174,75374,1,0 S,2,75174,75374,1,0.2
Sprite,Foreground,Centre,"sb\glow.png",426,252 C,0,75538,,199,109,166 F,2,75538,75738,1,0 S,2,75538,75738,1,0.2
Sprite,Foreground,Centre,"sb\glow.png",323,276 C,0,75901,,199,109,166 F,2,75901,76101,1,0 S,2,75901,76101,1,0.2
Sprite,Foreground,Centre,"sb\glow.png",263,379 C,0,76281,,199,109,166 F,2,76281,76844,1,0 S,2,76281,76844,1,0.2
Sprite,Foreground,Centre,"sb\glow.png",263,379 C,0,76181,,199,109,166 F,0,76181,76281,0,0.6 F,0,76281,76581,0.6,0 S,19,76281,76581,1.4,0
Sprite,Foreground,Centre,"sb\glow.png",269,377 C,0,76206,,199,109,166 F,0,76206,76306,0,0.6 F,0,76306,76606,0.6,0 S,19,76306,76606,1.4,0
Sprite,Foreground,Centre,"sb\glow.png",275,375 C,0,76231,,199,109,166 F,0,76231,76331,0,0.6 F,0,76331,76631,0.6,0 S,19,76331,76631,1.4,0
Sprite,Foreground,Centre,"sb\glow.png",281,373 C,0,76256,,199,109,166 F,0,76256,76356,0,0.6 F,0,76356,76656,0.6,0 S,19,76356,76656,1.4,0
Sprite,Foreground,Centre,"sb\glow.png",287,371 C,0,76281,,199,109,166 F,0,76281,76381,0,0.6 F,0,76381,76681,0.6,0 S,19,76381,76681,1.4,0
Sprite,Foreground,Centre,"sb\glow.png",294,371 C,0,76306,,199,109,166 F,0,76306,76406,0,0.6 F,0,76406,76706,0.6,0 S,19,76406,76706,1.4,0
Sprite,Foreground,Centre,"sb\glow.png",300,371 C,0,76331,,199,109,166 F,0,76331,76431,0,0.6 F,0,76431,76731,0.6,0 S,19,76431,76731,1.4,0
Sprite,Foreground,Centre,"sb\glow.png",307,371 C,0,76356,,199,109,166 F,0,76356,76456,0,0.6 F,0,76456,76756,0.6,0 S,19,76456,76756,1.4,0
Sprite,Foreground,Centre,"sb\glow.png",313,372 C,0,76381,,199,109,166 F,0,76381,76481,0,0.6 F,0,76481,76781,0.6,0 S,19,76481,76781,1.4,0
Sprite,Foreground,Centre,"sb\glow.png",319,373 C,0,76406,,199,109,166 F,0,76406,76506,0,0.6 F,0,76506,76806,0.6,0 S,19,76506,76806,1.4,0
Sprite,Foreground,Centre,"sb\glow.png",325,375 C,0,76431,,199,109,166 F,0,76431,76531,0,0.6 F,0,76531,76831,0.6,0 S,19,76531,76831,1.4,0
Sprite,Foreground,Centre,"sb\glow.png",331,377 C,0,76456,,199,109,166 F,0,76456,76556,0,0.6 F,0,76556,76856,0.6,0 S,19,76556,76856,1.4,0
Sprite,Foreground,Centre,"sb\glow.png",337,380 C,0,76481,,199,109,166 F,0,76481,76581,0,0.6 F,0,76581,76881,0.6,0 S,19,76581,76881,1.4,0
Sprite,Foreground,Centre,"sb\glow.png",343,383 C,0,76506,,199,109,166 F,0,76506,76606,0,0.6 F,0,76606,76906,0.6,0 S,19,76606,76906,1.4,0
Sprite,Foreground,Centre,"sb\glow.png",348,387 C,0,76531,,199,109,166 F,0,76531,76631,0,0.6 F,0,76631,76931,0.6,0 S,19,76631,76931,1.4,0
Sprite,Foreground,Centre,"sb\glow.png",398,428 C,0,76826,,199,109,166 F,2,76826,77026,1,0 S,2,76826,77026,1,0.2
Sprite,Foreground,Centre,"sb\glow.png",398,428 C,0,77008,,199,109,166 F,2,77008,77753,1,0 S,2,77008,77753,1,0.2
Sprite,Foreground,Centre,"sb\glow.png",398,428 C,0,76908,,199,109,166 F,0,76908,77008,0,0.6 F,0,77008,77308,0.6,0 S,19,77008,77308,1.4,0
Sprite,Foreground,Centre,"sb\glow.png",404,430 C,0,76933,,199,109,166 F,0,76933,77033,0,0.6 F,0,77033,77333,0.6,0 S,19,77033,77333,1.4,0
Sprite,Foreground,Centre,"sb\glow.png",410,432 C,0,76958,,199,109,166 F,0,76958,77058,0,0.6 F,0,77058,77358,0.6,0 S,19,77058,77358,1.4,0
Sprite,Foreground,Centre,"sb\glow.png",417,433 C,0,76983,,199,109,166 F,0,76983,77083,0,0.6 F,0,77083,77383,0.6,0 S,19,77083,77383,1.4,0
Sprite,Foreground,Centre,"sb\glow.png",423,434 C,0,77008,,199,109,166 F,0,77008,77108,0,0.6 F,0,77108,77408,0.6,0 S,19,77108,77408,1.4,0
Sprite,Foreground,Centre,"sb\glow.png",429,435 C,0,77033,,199,109,166 F,0,77033,77133,0,0.6 F,0,77133,77433,0.6,0 S,19,77133,77433,1.4,0
Sprite,Foreground,Centre,"sb\glow.png",436,435 C,0,77058,,199,109,166 F,0,77058,77158,0,0.6 F,0,77158,77458,0.6,0 S,19,77158,77458,1.4,0
Sprite,Foreground,Centre,"sb\glow.png",442,435 C,0,77083,,199,109,166 F,0,77083,77183,0,0.6 F,0,77183,77483,0.6,0 S,19,77183,77483,1.4,0
Sprite,Foreground,Centre,"sb\glow.png",448,435 C,0,77108,,199,109,166 F,0,77108,77208,0,0.6 F,0,77208,77508,0.6,0 S,19,77208,77508,1.4,0
Sprite,Foreground,Centre,"sb\glow.png",455,434 C,0,77133,,199,109,166 F,0,77133,77233,0,0.6 F,0,77233,77533,0.6,0 S,19,77233,77533,1.4,0
Sprite,Foreground,Centre,"sb\glow.png",461,433 C,0,77158,,199,109,166 F,0,77158,77258,0,0.6 F,0,77258,77558,0.6,0 S,19,77258,77558,1.4,0
Sprite,Foreground,Centre,"sb\glow.png",467,431 C,0,77183,,199,109,166 F,0,77183,77283,0,0.6 F,0,77283,77583,0.6,0 S,19,77283,77583,1.4,0
Sprite,Foreground,Centre,"sb\glow.png",473,430 C,0,77208,,199,109,166 F,0,77208,77308,0,0.6 F,0,77308,77608,0.6,0 S,19,77308,77608,1.4,0
Sprite,Foreground,Centre,"sb\glow.png",480,427 C,0,77233,,199,109,166 F,0,77233,77333,0,0.6 F,0,77333,77633,0.6,0 S,19,77333,77633,1.4,0
Sprite,Foreground,Centre,"sb\glow.png",485,425 C,0,77258,,199,109,166 F,0,77258,77358,0,0.6 F,0,77358,77658,0.6,0 S,19,77358,77658,1.4,0
Sprite,Foreground,Centre,"sb\glow.png",491,422 C,0,77283,,199,109,166 F,0,77283,77383,0,0.6 F,0,77383,77683,0.6,0 S,19,77383,77683,1.4,0
Sprite,Foreground,Centre,"sb\glow.png",497,419 C,0,77308,,199,109,166 F,0,77308,77408,0,0.6 F,0,77408,77708,0.6,0 S,19,77408,77708,1.4,0
Sprite,Foreground,Centre,"sb\glow.png",502,415 C,0,77333,,199,109,166 F,0,77333,77433,0,0.6 F,0,77433,77733,0.6,0 S,19,77433,77733,1.4,0
Sprite,Foreground,Centre,"sb\glow.png",507,411 C,0,77358,,199,109,166 F,0,77358,77458,0,0.6 F,0,77458,77758,0.6,0 S,19,77458,77758,1.4,0
Sprite,Foreground,Centre,"sb\glow.png",512,407 C,0,77383,,199,109,166 F,0,77383,77483,0,0.6 F,0,77483,77783,0.6,0 S,19,77483,77783,1.4,0
Sprite,Foreground,Centre,"sb\glow.png",516,402 C,0,77408,,199,109,166 F,0,77408,77508,0,0.6 F,0,77508,77808,0.6,0 S,19,77508,77808,1.4,0
Sprite,Foreground,Centre,"sb\glow.png",521,398 C,0,77433,,199,109,166 F,0,77433,77533,0,0.6 F,0,77533,77833,0.6,0 S,19,77533,77833,1.4,0
Sprite,Foreground,Centre,"sb\glow.png",554,346 C,0,77735,,199,109,166 F,2,77735,77935,1,0 S,2,77735,77935,1,0.2
Sprite,Foreground,Centre,"sb\glow.png",506,244 C,0,78099,,199,109,166 F,2,78099,78480,1,0 S,2,78099,78480,1,0.2
Sprite,Foreground,Centre,"sb\glow.png",506,244 C,0,77999,,199,109,166 F,0,77999,78099,0,0.6 F,0,78099,78399,0.6,0 S,19,78099,78399,1.4,0
Sprite,Foreground,Centre,"sb\glow.png",500,243 C,0,78024,,199,109,166 F,0,78024,78124,0,0.6 F,0,78124,78424,0.6,0 S,19,78124,78424,1.4,0
Sprite,Foreground,Centre,"sb\glow.png",493,243 C,0,78049,,199,109,166 F,0,78049,78149,0,0.6 F,0,78149,78449,0.6,0 S,19,78149,78449,1.4,0
Sprite,Foreground,Centre,"sb\glow.png",487,242 C,0,78074,,199,109,166 F,0,78074,78174,0,0.6 F,0,78174,78474,0.6,0 S,19,78174,78474,1.4,0
Sprite,Foreground,Centre,"sb\glow.png",480,241 C,0,78099,,199,109,166 F,0,78099,78199,0,0.6 F,0,78199,78499,0.6,0 S,19,78199,78499,1.4,0
Sprite,Foreground,Centre,"sb\glow.png",474,241 C,0,78124,,199,109,166 F,0,78124,78224,0,0.6 F,0,78224,78524,0.6,0 S,19,78224,78524,1.4,0
Sprite,Foreground,Centre,"sb\glow.png",468,240 C,0,78149,,199,109,166 F,0,78149,78249,0,0.6 F,0,78249,78549,0.6,0 S,19,78249,78549,1.4,0
Sprite,Foreground,Centre,"sb\glow.png",461,239 C,0,78174,,199,109,166 F,0,78174,78274,0,0.6 F,0,78274,78574,0.6,0 S,19,78274,78574,1.4,0
Sprite,Foreground,Centre,"sb\glow.png",407,236 C,0,78464,,199,109,166 F,2,78464,78664,1,0 S,2,78464,78664,1,0.2
Sprite,Foreground,Centre,"sb\glow.png",337,148 C,0,78827,,199,109,166 F,2,78827,79208,1,0 S,2,78827,79208,1,0.2
Sprite,Foreground,Centre,"sb\glow.png",337,148 C,0,78727,,199,109,166 F,0,78727,78827,0,0.6 F,0,78827,79127,0.6,0 S,19,78827,79127,1.4,0
Sprite,Foreground,Centre,"sb\glow.png",331,147 C,0,78752,,199,109,166 F,0,78752,78852,0,0.6 F,0,78852,79152,0.6,0 S,19,78852,79152,1.4,0
Sprite,Foreground,Centre,"sb\glow.png",324,146 C,0,78777,,199,109,166 F,0,78777,78877,0,0.6 F,0,78877,79177,0.6,0 S,19,78877,79177,1.4,0
Sprite,Foreground,Centre,"sb\glow.png",318,145 C,0,78802,,199,109,166 F,0,78802,78902,0,0.6 F,0,78902,79202,0.6,0 S,19,78902,79202,1.4,0
Sprite,Foreground,Centre,"sb\glow.png",312,144 C,0,78827,,199,109,166 F,0,78827,78927,0,0.6 F,0,78927,79227,0.6,0 S,19,78927,79227,1.4,0
Sprite,Foreground,Centre,"sb\glow.png",305,143 C,0,78852,,199,109,166 F,0,78852,78952,0,0.6 F,0,78952,79252,0.6,0 S,19,78952,79252,1.4,0
Sprite,Foreground,Centre,"sb\glow.png",299,142 C,0,78877,,199,109,166 F,0,78877,78977,0,0.6 F,0,78977,79277,0.6,0 S,19,78977,79277,1.4,0
Sprite,Foreground,Centre,"sb\glow.png",293,140 C,0,78902,,199,109,166 F,0,78902,79002,0,0.6 F,0,79002,79302,0.6,0 S,19,79002,79302,1.4,0
Sprite,Foreground,Centre,"sb\glow.png",235,130 C,0,79190,,224,130,124 F,2,79190,79753,1,0 S,2,79190,79753,1,0.2
Sprite,Foreground,Centre,"sb\glow.png",235,130 C,0,79090,,224,130,124 F,0,79090,79190,0,0.6 F,0,79190,79490,0.6,0 S,19,79190,79490,1.4,0
Sprite,Foreground,Centre,"sb\glow.png",233,136 C,0,79115,,224,130,124 F,0,79115,79215,0,0.6 F,0,79215,79515,0.6,0 S,19,79215,79515,1.4,0
Sprite,Foreground,Centre,"sb\glow.png",231,142 C,0,79140,,224,130,124 F,0,79140,79240,0,0.6 F,0,79240,79540,0.6,0 S,19,79240,79540,1.4,0
Sprite,Foreground,Centre,"sb\glow.png",229,148 C,0,79165,,224,130,124 F,0,79165,79265,0,0.6 F,0,79265,79565,0.6,0 S,19,79265,79565,1.4,0
Sprite,Foreground,Centre,"sb\glow.png",227,154 C,0,79190,,224,130,124 F,0,79190,79290,0,0.6 F,0,79290,79590,0.6,0 S,19,79290,79590,1.4,0
Sprite,Foreground,Centre,"sb\glow.png",224,160 C,0,79215,,224,130,124 F,0,79215,79315,0,0.6 F,0,79315,79615,0.6,0 S,19,79315,79615,1.4,0
Sprite,Foreground,Centre,"sb\glow.png",222,166 C,0,79240,,224,130,124 F,0,79240,79340,0,0.6 F,0,79340,79640,0.6,0 S,19,79340,79640,1.4,0
Sprite,Foreground,Centre,"sb\glow.png",219,172 C,0,79265,,224,130,124 F,0,79265,79365,0,0.6 F,0,79365,79665,0.6,0 S,19,79365,79665,1.4,0
Sprite,Foreground,Centre,"sb\glow.png",217,178 C,0,79290,,224,130,124 F,0,79290,79390,0,0.6 F,0,79390,79690,0.6,0 S,19,79390,79690,1.4,0
Sprite,Foreground,Centre,"sb\glow.png",214,184 C,0,79315,,224,130,124 F,0,79315,79415,0,0.6 F,0,79415,79715,0.6,0 S,19,79415,79715,1.4,0
Sprite,Foreground,Centre,"sb\glow.png",211,190 C,0,79340,,224,130,124 F,0,79340,79440,0,0.6 F,0,79440,79740,0.6,0 S,19,79440,79740,1.4,0
Sprite,Foreground,Centre,"sb\glow.png",209,196 C,0,79365,,224,130,124 F,0,79365,79465,0,0.6 F,0,79465,79765,0.6,0 S,19,79465,79765,1.4,0
Sprite,Foreground,Centre,"sb\glow.png",206,201 C,0,79390,,224,130,124 F,0,79390,79490,0,0.6 F,0,79490,79790,0.6,0 S,19,79490,79790,1.4,0
Sprite,Foreground,Centre,"sb\glow.png",203,207 C,0,79415,,224,130,124 F,0,79415,79515,0,0.6 F,0,79515,79815,0.6,0 S,19,79515,79815,1.4,0
Sprite,Foreground,Centre,"sb\glow.png",200,213 C,0,79440,,224,130,124 F,0,79440,79540,0,0.6 F,0,79540,79840,0.6,0 S,19,79540,79840,1.4,0
Sprite,Foreground,Centre,"sb\glow.png",123,299 C,0,79917,,224,130,124 F,2,79917,80298,1,0 S,2,79917,80298,1,0.2
Sprite,Foreground,Centre,"sb\glow.png",123,299 C,0,79817,,224,130,124 F,0,79817,79917,0,0.6 F,0,79917,80217,0.6,0 S,19,79917,80217,1.4,0
Sprite,Foreground,Centre,"sb\glow.png",124,305 C,0,79842,,224,130,124 F,0,79842,79942,0,0.6 F,0,79942,80242,0.6,0 S,19,79942,80242,1.4,0
Sprite,Foreground,Centre,"sb\glow.png",125,312 C,0,79867,,224,130,124 F,0,79867,79967,0,0.6 F,0,79967,80267,0.6,0 S,19,79967,80267,1.4,0
Sprite,Foreground,Centre,"sb\glow.png",126,318 C,0,79892,,224,130,124 F,0,79892,79992,0,0.6 F,0,79992,80292,0.6,0 S,19,79992,80292,1.4,0
Sprite,Foreground,Centre,"sb\glow.png",126,324 C,0,79917,,224,130,124 F,0,79917,80017,0,0.6 F,0,80017,80317,0.6,0 S,19,80017,80317,1.4,0
Sprite,Foreground,Centre,"sb\glow.png",127,331 C,0,79942,,224,130,124 F,0,79942,80042,0,0.6 F,0,80042,80342,0.6,0 S,19,80042,80342,1.4,0
Sprite,Foreground,Centre,"sb\glow.png",128,337 C,0,79967,,224,130,124 F,0,79967,80067,0,0.6 F,0,80067,80367,0.6,0 S,19,80067,80367,1.4,0
Sprite,Foreground,Centre,"sb\glow.png",129,344 C,0,79992,,224,130,124 F,0,79992,80092,0,0.6 F,0,80092,80392,0.6,0 S,19,80092,80392,1.4,0
Sprite,Foreground,Centre,"sb\glow.png",138,400 C,0,80280,,224,130,124 F,2,80280,80480,1,0 S,2,80280,80480,1,0.2
Sprite,Foreground,Centre,"sb\glow.png",251,428 C,0,80644,,224,130,124 F,2,80644,81207,1,0 S,2,80644,81207,1,0.2
Sprite,Foreground,Centre,"sb\glow.png",251,428 C,0,80544,,224,130,124 F,0,80544,80644,0,0.6 F,0,80644,80944,0.6,0 S,19,80644,80944,1.4,0
Sprite,Foreground,Centre,"sb\glow.png",251,422 C,0,80569,,224,130,124 F,0,80569,80669,0,0.6 F,0,80669,80969,0.6,0 S,19,80669,80969,1.4,0
Sprite,Foreground,Centre,"sb\glow.png",252,415 C,0,80594,,224,130,124 F,0,80594,80694,0,0.6 F,0,80694,80994,0.6,0 S,19,80694,80994,1.4,0
Sprite,Foreground,Centre,"sb\glow.png",253,409 C,0,80619,,224,130,124 F,0,80619,80719,0,0.6 F,0,80719,81019,0.6,0 S,19,80719,81019,1.4,0
Sprite,Foreground,Centre,"sb\glow.png",254,402 C,0,80644,,224,130,124 F,0,80644,80744,0,0.6 F,0,80744,81044,0.6,0 S,19,80744,81044,1.4,0
Sprite,Foreground,Centre,"sb\glow.png",256,396 C,0,80669,,224,130,124 F,0,80669,80769,0,0.6 F,0,80769,81069,0.6,0 S,19,80769,81069,1.4,0
Sprite,Foreground,Centre,"sb\glow.png",257,390 C,0,80694,,224,130,124 F,0,80694,80794,0,0.6 F,0,80794,81094,0.6,0 S,19,80794,81094,1.4,0
Sprite,Foreground,Centre,"sb\glow.png",259,384 C,0,80719,,224,130,124 F,0,80719,80819,0,0.6 F,0,80819,81119,0.6,0 S,19,80819,81119,1.4,0
Sprite,Foreground,Centre,"sb\glow.png",262,378 C,0,80744,,224,130,124 F,0,80744,80844,0,0.6 F,0,80844,81144,0.6,0 S,19,80844,81144,1.4,0
Sprite,Foreground,Centre,"sb\glow.png",265,373 C,0,80769,,224,130,124 F,0,80769,80869,0,0.6 F,0,80869,81169,0.6,0 S,19,80869,81169,1.4,0
Sprite,Foreground,Centre,"sb\glow.png",268,367 C,0,80794,,224,130,124 F,0,80794,80894,0,0.6 F,0,80894,81194,0.6,0 S,19,80894,81194,1.4,0
Sprite,Foreground,Centre,"sb\glow.png",271,361 C,0,80819,,224,130,124 F,0,80819,80919,0,0.6 F,0,80919,81219,0.6,0 S,19,80919,81219,1.4,0
Sprite,Foreground,Centre,"sb\glow.png",275,356 C,0,80844,,224,130,124 F,0,80844,80944,0,0.6 F,0,80944,81244,0.6,0 S,19,80944,81244,1.4,0
Sprite,Foreground,Centre,"sb\glow.png",279,351 C,0,80869,,224,130,124 F,0,80869,80969,0,0.6 F,0,80969,81269,0.6,0 S,19,80969,81269,1.4,0
Sprite,Foreground,Centre,"sb\glow.png",284,347 C,0,80894,,224,130,124 F,0,80894,80994,0,0.6 F,0,80994,81294,0.6,0 S,19,80994,81294,1.4,0
Sprite,Foreground,Centre,"sb\glow.png",325,304 C,0,81190,,224,130,124 F,2,81190,81753,1,0 S,2,81190,81753,1,0.2
Sprite,Foreground,Centre,"sb\glow.png",325,304 C,0,81090,,224,130,124 F,0,81090,81190,0,0.6 F,0,81190,81490,0.6,0 S,19,81190,81490,1.4,0
Sprite,Foreground,Centre,"sb\glow.png",325,298 C,0,81115,,224,130,124 F,0,81115,81215,0,0.6 F,0,81215,81515,0.6,0 S,19,81215,81515,1.4,0
Sprite,Foreground,Centre,"sb\glow.png",324,291 C,0,81140,,224,130,124 F,0,81140,81240,0,0.6 F,0,81240,81540,0.6,0 S,19,81240,81540,1.4,0
Sprite,Foreground,Centre,"sb\glow.png",323,285 C,0,81165,,224,130,124 F,0,81165,81265,0,0.6 F,0,81265,81565,0.6,0 S,19,81265,81565,1.4,0
Sprite,Foreground,Centre,"sb\glow.png",322,278 C,0,81190,,224,130,124 F,0,81190,81290,0,0.6 F,0,81290,81590,0.6,0 S,19,81290,81590,1.4,0
Sprite,Foreground,Centre,"sb\glow.png",320,272 C,0,81215,,224,130,124 F,0,81215,81315,0,0.6 F,0,81315,81615,0.6,0 S,19,81315,81615,1.4,0
Sprite,Foreground,Centre,"sb\glow.png",319,266 C,0,81240,,224,130,124 F,0,81240,81340,0,0.6 F,0,81340,81640,0.6,0 S,19,81340,81640,1.4,0
Sprite,Foreground,Centre,"sb\glow.png",317,260 C,0,81265,,224,130,124 F,0,81265,81365,0,0.6 F,0,81365,81665,0.6,0 S,19,81365,81665,1.4,0
Sprite,Foreground,Centre,"sb\glow.png",314,254 C,0,81290,,224,130,124 F,0,81290,81390,0,0.6 F,0,81390,81690,0.6,0 S,19,81390,81690,1.4,0
Sprite,Foreground,Centre,"sb\glow.png",311,249 C,0,81315,,224,130,124 F,0,81315,81415,0,0.6 F,0,81415,81715,0.6,0 S,19,81415,81715,1.4,0
Sprite,Foreground,Centre,"sb\glow.png",308,243 C,0,81340,,224,130,124 F,0,81340,81440,0,0.6 F,0,81440,81740,0.6,0 S,19,81440,81740,1.4,0
Sprite,Foreground,Centre,"sb\glow.png",305,237 C,0,81365,,224,130,124 F,0,81365,81465,0,0.6 F,0,81465,81765,0.6,0 S,19,81465,81765,1.4,0
Sprite,Foreground,Centre,"sb\glow.png",301,232 C,0,81390,,224,130,124 F,0,81390,81490,0,0.6 F,0,81490,81790,0.6,0 S,19,81490,81790,1.4,0
Sprite,Foreground,Centre,"sb\glow.png",297,227 C,0,81415,,224,130,124 F,0,81415,81515,0,0.6 F,0,81515,81815,0.6,0 S,19,81515,81815,1.4,0
Sprite,Foreground,Centre,"sb\glow.png",292,223 C,0,81440,,224,130,124 F,0,81440,81540,0,0.6 F,0,81540,81840,0.6,0 S,19,81540,81840,1.4,0
Sprite,Foreground,Centre,"sb\glow.png",250,180 C,0,81735,,224,130,124 F,2,81735,81935,1,0 S,2,81735,81935,1,0.2
Sprite,Foreground,Centre,"sb\glow.png",329,100 C,0,82099,,220,166,126 F,2,82099,82662,1,0 S,2,82099,82662,1,0.2
Sprite,Foreground,Centre,"sb\glow.png",329,100 C,0,81999,,220,166,126 F,0,81999,82099,0,0.6 F,0,82099,82399,0.6,0 S,19,82099,82399,1.4,0
Sprite,Foreground,Centre,"sb\glow.png",335,99 C,0,82024,,220,166,126 F,0,82024,82124,0,0.6 F,0,82124,82424,0.6,0 S,19,82124,82424,1.4,0
Sprite,Foreground,Centre,"sb\glow.png",342,98 C,0,82049,,220,166,126 F,0,82049,82149,0,0.6 F,0,82149,82449,0.6,0 S,19,82149,82449,1.4,0
Sprite,Foreground,Centre,"sb\glow.png",348,97 C,0,82074,,220,166,126 F,0,82074,82174,0,0.6 F,0,82174,82474,0.6,0 S,19,82174,82474,1.4,0
Sprite,Foreground,Centre,"sb\glow.png",354,97 C,0,82099,,220,166,126 F,0,82099,82199,0,0.6 F,0,82199,82499,0.6,0 S,19,82199,82499,1.4,0
Sprite,Foreground,Centre,"sb\glow.png",361,96 C,0,82124,,220,166,126 F,0,82124,82224,0,0.6 F,0,82224,82524,0.6,0 S,19,82224,82524,1.4,0
Sprite,Foreground,Centre,"sb\glow.png",367,95 C,0,82149,,220,166,126 F,0,82149,82249,0,0.6 F,0,82249,82549,0.6,0 S,19,82249,82549,1.4,0
Sprite,Foreground,Centre,"sb\glow.png",374,94 C,0,82174,,220,166,126 F,0,82174,82274,0,0.6 F,0,82274,82574,0.6,0 S,19,82274,82574,1.4,0
Sprite,Foreground,Centre,"sb\glow.png",380,93 C,0,82199,,220,166,126 F,0,82199,82299,0,0.6 F,0,82299,82599,0.6,0 S,19,82299,82599,1.4,0
Sprite,Foreground,Centre,"sb\glow.png",386,92 C,0,82224,,220,166,126 F,0,82224,82324,0,0.6 F,0,82324,82624,0.6,0 S,19,82324,82624,1.4,0
Sprite,Foreground,Centre,"sb\glow.png",393,92 C,0,82249,,220,166,126 F,0,82249,82349,0,0.6 F,0,82349,82649,0.6,0 S,19,82349,82649,1.4,0
Sprite,Foreground,Centre,"sb\glow.png",399,91 C,0,82274,,220,166,126 F,0,82274,82374,0,0.6 F,0,82374,82674,0.6,0 S,19,82374,82674,1.4,0
Sprite,Foreground,Centre,"sb\glow.png",405,90 C,0,82299,,220,166,126 F,0,82299,82399,0,0.6 F,0,82399,82699,0.6,0 S,19,82399,82699,1.4,0
Sprite,Foreground,Centre,"sb\glow.png",412,89 C,0,82324,,220,166,126 F,0,82324,82424,0,0.6 F,0,82424,82724,0.6,0 S,19,82424,82724,1.4,0
Sprite,Foreground,Centre,"sb\glow.png",418,88 C,0,82349,,220,166,126 F,0,82349,82449,0,0.6 F,0,82449,82749,0.6,0 S,19,82449,82749,1.4,0
Sprite,Foreground,Centre,"sb\glow.png",528,124 C,0,82826,,220,166,126 F,2,82826,83207,1,0 S,2,82826,83207,1,0.2
Sprite,Foreground,Centre,"sb\glow.png",528,124 C,0,82726,,220,166,126 F,0,82726,82826,0,0.6 F,0,82826,83126,0.6,0 S,19,82826,83126,1.4,0
Sprite,Foreground,Centre,"sb\glow.png",528,130 C,0,82751,,220,166,126 F,0,82751,82851,0,0.6 F,0,82851,83151,0.6,0 S,19,82851,83151,1.4,0
Sprite,Foreground,Centre,"sb\glow.png",529,137 C,0,82776,,220,166,126 F,0,82776,82876,0,0.6 F,0,82876,83176,0.6,0 S,19,82876,83176,1.4,0
Sprite,Foreground,Centre,"sb\glow.png",529,143 C,0,82801,,220,166,126 F,0,82801,82901,0,0.6 F,0,82901,83201,0.6,0 S,19,82901,83201,1.4,0
Sprite,Foreground,Centre,"sb\glow.png",529,150 C,0,82826,,220,166,126 F,0,82826,82926,0,0.6 F,0,82926,83226,0.6,0 S,19,82926,83226,1.4,0
Sprite,Foreground,Centre,"sb\glow.png",530,156 C,0,82851,,220,166,126 F,0,82851,82951,0,0.6 F,0,82951,83251,0.6,0 S,19,82951,83251,1.4,0
Sprite,Foreground,Centre,"sb\glow.png",530,163 C,0,82876,,220,166,126 F,0,82876,82976,0,0.6 F,0,82976,83276,0.6,0 S,19,82976,83276,1.4,0
Sprite,Foreground,Centre,"sb\glow.png",530,169 C,0,82901,,220,166,126 F,0,82901,83001,0,0.6 F,0,83001,83301,0.6,0 S,19,83001,83301,1.4,0
Sprite,Foreground,Centre,"sb\glow.png",534,225 C,0,83190,,220,166,126 F,2,83190,83390,1,0 S,2,83190,83390,1,0.2
Sprite,Foreground,Centre,"sb\glow.png",509,333 C,0,83553,,220,166,126 F,2,83553,84116,1,0 S,2,83553,84116,1,0.2
Sprite,Foreground,Centre,"sb\glow.png",509,333 C,0,83453,,220,166,126 F,0,83453,83553,0,0.6 F,0,83553,83853,0.6,0 S,19,83553,83853,1.4,0
Sprite,Foreground,Centre,"sb\glow.png",503,334 C,0,83478,,220,166,126 F,0,83478,83578,0,0.6 F,0,83578,83878,0.6,0 S,19,83578,83878,1.4,0
Sprite,Foreground,Centre,"sb\glow.png",496,335 C,0,83503,,220,166,126 F,0,83503,83603,0,0.6 F,0,83603,83903,0.6,0 S,19,83603,83903,1.4,0
Sprite,Foreground,Centre,"sb\glow.png",490,336 C,0,83528,,220,166,126 F,0,83528,83628,0,0.6 F,0,83628,83928,0.6,0 S,19,83628,83928,1.4,0
Sprite,Foreground,Centre,"sb\glow.png",484,337 C,0,83553,,220,166,126 F,0,83553,83653,0,0.6 F,0,83653,83953,0.6,0 S,19,83653,83953,1.4,0
Sprite,Foreground,Centre,"sb\glow.png",478,339 C,0,83578,,220,166,126 F,0,83578,83678,0,0.6 F,0,83678,83978,0.6,0 S,19,83678,83978,1.4,0
Sprite,Foreground,Centre,"sb\glow.png",472,342 C,0,83603,,220,166,126 F,0,83603,83703,0,0.6 F,0,83703,84003,0.6,0 S,19,83703,84003,1.4,0
Sprite,Foreground,Centre,"sb\glow.png",466,344 C,0,83628,,220,166,126 F,0,83628,83728,0,0.6 F,0,83728,84028,0.6,0 S,19,83728,84028,1.4,0
Sprite,Foreground,Centre,"sb\glow.png",460,347 C,0,83653,,220,166,126 F,0,83653,83753,0,0.6 F,0,83753,84053,0.6,0 S,19,83753,84053,1.4,0
Sprite,Foreground,Centre,"sb\glow.png",454,350 C,0,83678,,220,166,126 F,0,83678,83778,0,0.6 F,0,83778,84078,0.6,0 S,19,83778,84078,1.4,0
Sprite,Foreground,Centre,"sb\glow.png",449,353 C,0,83703,,220,166,126 F,0,83703,83803,0,0.6 F,0,83803,84103,0.6,0 S,19,83803,84103,1.4,0
Sprite,Foreground,Centre,"sb\glow.png",443,357 C,0,83728,,220,166,126 F,0,83728,83828,0,0.6 F,0,83828,84128,0.6,0 S,19,83828,84128,1.4,0
Sprite,Foreground,Centre,"sb\glow.png",438,361 C,0,83753,,220,166,126 F,0,83753,83853,0,0.6 F,0,83853,84153,0.6,0 S,19,83853,84153,1.4,0
Sprite,Foreground,Centre,"sb\glow.png",433,365 C,0,83778,,220,166,126 F,0,83778,83878,0,0.6 F,0,83878,84178,0.6,0 S,19,83878,84178,1.4,0
Sprite,Foreground,Centre,"sb\glow.png",429,369 C,0,83803,,220,166,126 F,0,83803,83903,0,0.6 F,0,83903,84203,0.6,0 S,19,83903,84203,1.4,0
Sprite,Foreground,Centre,"sb\glow.png",383,408 C,0,84099,,220,166,126 F,2,84099,84662,1,0 S,2,84099,84662,1,0.2
Sprite,Foreground,Centre,"sb\glow.png",383,408 C,0,83999,,220,166,126 F,0,83999,84099,0,0.6 F,0,84099,84399,0.6,0 S,19,84099,84399,1.4,0
Sprite,Foreground,Centre,"sb\glow.png",378,404 C,0,84024,,220,166,126 F,0,84024,84124,0,0.6 F,0,84124,84424,0.6,0 S,19,84124,84424,1.4,0
Sprite,Foreground,Centre,"sb\glow.png",372,401 C,0,84049,,220,166,126 F,0,84049,84149,0,0.6 F,0,84149,84449,0.6,0 S,19,84149,84449,1.4,0
Sprite,Foreground,Centre,"sb\glow.png",367,398 C,0,84074,,220,166,126 F,0,84074,84174,0,0.6 F,0,84174,84474,0.6,0 S,19,84174,84474,1.4,0
Sprite,Foreground,Centre,"sb\glow.png",361,395 C,0,84099,,220,166,126 F,0,84099,84199,0,0.6 F,0,84199,84499,0.6,0 S,19,84199,84499,1.4,0
Sprite,Foreground,Centre,"sb\glow.png",355,392 C,0,84124,,220,166,126 F,0,84124,84224,0,0.6 F,0,84224,84524,0.6,0 S,19,84224,84524,1.4,0
Sprite,Foreground,Centre,"sb\glow.png",349,390 C,0,84149,,220,166,126 F,0,84149,84249,0,0.6 F,0,84249,84549,0.6,0 S,19,84249,84549,1.4,0
Sprite,Foreground,Centre,"sb\glow.png",343,388 C,0,84174,,220,166,126 F,0,84174,84274,0,0.6 F,0,84274,84574,0.6,0 S,19,84274,84574,1.4,0
Sprite,Foreground,Centre,"sb\glow.png",337,387 C,0,84199,,220,166,126 F,0,84199,84299,0,0.6 F,0,84299,84599,0.6,0 S,19,84299,84599,1.4,0
Sprite,Foreground,Centre,"sb\glow.png",330,386 C,0,84224,,220,166,126 F,0,84224,84324,0,0.6 F,0,84324,84624,0.6,0 S,19,84324,84624,1.4,0
Sprite,Foreground,Centre,"sb\glow.png",324,386 C,0,84249,,220,166,126 F,0,84249,84349,0,0.6 F,0,84349,84649,0.6,0 S,19,84349,84649,1.4,0
Sprite,Foreground,Centre,"sb\glow.png",318,385 C,0,84274,,220,166,126 F,0,84274,84374,0,0.6 F,0,84374,84674,0.6,0 S,19,84374,84674,1.4,0
Sprite,Foreground,Centre,"sb\glow.png",311,385 C,0,84299,,220,166,126 F,0,84299,84399,0,0.6 F,0,84399,84699,0.6,0 S,19,84399,84699,1.4,0
Sprite,Foreground,Centre,"sb\glow.png",305,386 C,0,84324,,220,166,126 F,0,84324,84424,0,0.6 F,0,84424,84724,0.6,0 S,19,84424,84724,1.4,0
Sprite,Foreground,Centre,"sb\glow.png",298,387 C,0,84349,,220,166,126 F,0,84349,84449,0,0.6 F,0,84449,84749,0.6,0 S,19,84449,84749,1.4,0
Sprite,Foreground,Centre,"sb\glow.png",253,425 C,0,84644,,220,166,126 F,2,84644,85025,1,0 S,2,84644,85025,1,0.2
Sprite,Foreground,Centre,"sb\glow.png",253,425 C,0,84544,,220,166,126 F,0,84544,84644,0,0.6 F,0,84644,84944,0.6,0 S,19,84644,84944,1.4,0
Sprite,Foreground,Centre,"sb\glow.png",247,426 C,0,84569,,220,166,126 F,0,84569,84669,0,0.6 F,0,84669,84969,0.6,0 S,19,84669,84969,1.4,0
Sprite,Foreground,Centre,"sb\glow.png",240,426 C,0,84594,,220,166,126 F,0,84594,84694,0,0.6 F,0,84694,84994,0.6,0 S,19,84694,84994,1.4,0
Sprite,Foreground,Centre,"sb\glow.png",234,427 C,0,84619,,220,166,126 F,0,84619,84719,0,0.6 F,0,84719,85019,0.6,0 S,19,84719,85019,1.4,0
Sprite,Foreground,Centre,"sb\glow.png",227,428 C,0,84644,,220,166,126 F,0,84644,84744,0,0.6 F,0,84744,85044,0.6,0 S,19,84744,85044,1.4,0
Sprite,Foreground,Centre,"sb\glow.png",221,429 C,0,84669,,220,166,126 F,0,84669,84769,0,0.6 F,0,84769,85069,0.6,0 S,19,84769,85069,1.4,0
Sprite,Foreground,Centre,"sb\glow.png",215,429 C,0,84694,,220,166,126 F,0,84694,84794,0,0.6 F,0,84794,85094,0.6,0 S,19,84794,85094,1.4,0
Sprite,Foreground,Centre,"sb\glow.png",208,430 C,0,84719,,220,166,126 F,0,84719,84819,0,0.6 F,0,84819,85119,0.6,0 S,19,84819,85119,1.4,0
Sprite,Foreground,Centre,"sb\glow.png",162,404 C,0,85008,,222,203,124 F,2,85008,85753,1,0 S,2,85008,85753,1,0.2
Sprite,Foreground,Centre,"sb\glow.png",162,404 C,0,84908,,222,203,124 F,0,84908,85008,0,0.6 F,0,85008,85308,0.6,0 S,19,85008,85308,1.4,0
Sprite,Foreground,Centre,"sb\glow.png",160,398 C,0,84933,,222,203,124 F,0,84933,85033,0,0.6 F,0,85033,85333,0.6,0 S,19,85033,85333,1.4,0
Sprite,Foreground,Centre,"sb\glow.png",158,393 C,0,84958,,222,203,124 F,0,84958,85058,0,0.6 F,0,85058,85358,0.6,0 S,19,85058,85358,1.4,0
Sprite,Foreground,Centre,"sb\glow.png",157,387 C,0,84983,,222,203,124 F,0,84983,85083,0,0.6 F,0,85083,85383,0.6,0 S,19,85083,85383,1.4,0
Sprite,Foreground,Centre,"sb\glow.png",155,382 C,0,85008,,222,203,124 F,0,85008,85108,0,0.6 F,0,85108,85408,0.6,0 S,19,85108,85408,1.4,0
Sprite,Foreground,Centre,"sb\glow.png",154,376 C,0,85033,,222,203,124 F,0,85033,85133,0,0.6 F,0,85133,85433,0.6,0 S,19,85133,85433,1.4,0
Sprite,Foreground,Centre,"sb\glow.png",154,370 C,0,85058,,222,203,124 F,0,85058,85158,0,0.6 F,0,85158,85458,0.6,0 S,19,85158,85458,1.4,0
Sprite,Foreground,Centre,"sb\glow.png",153,364 C,0,85083,,222,203,124 F,0,85083,85183,0,0.6 F,0,85183,85483,0.6,0 S,19,85183,85483,1.4,0
Sprite,Foreground,Centre,"sb\glow.png",153,358 C,0,85108,,222,203,124 F,0,85108,85208,0,0.6 F,0,85208,85508,0.6,0 S,19,85208,85508,1.4,0
Sprite,Foreground,Centre,"sb\glow.png",154,353 C,0,85133,,222,203,124 F,0,85133,85233,0,0.6 F,0,85233,85533,0.6,0 S,19,85233,85533,1.4,0
Sprite,Foreground,Centre,"sb\glow.png",155,347 C,0,85158,,222,203,124 F,0,85158,85258,0,0.6 F,0,85258,85558,0.6,0 S,19,85258,85558,1.4,0
Sprite,Foreground,Centre,"sb\glow.png",156,341 C,0,85183,,222,203,124 F,0,85183,85283,0,0.6 F,0,85283,85583,0.6,0 S,19,85283,85583,1.4,0
Sprite,Foreground,Centre,"sb\glow.png",158,335 C,0,85208,,222,203,124 F,0,85208,85308,0,0.6 F,0,85308,85608,0.6,0 S,19,85308,85608,1.4,0
Sprite,Foreground,Centre,"sb\glow.png",159,330 C,0,85233,,222,203,124 F,0,85233,85333,0,0.6 F,0,85333,85633,0.6,0 S,19,85333,85633,1.4,0
Sprite,Foreground,Centre,"sb\glow.png",160,324 C,0,85258,,222,203,124 F,0,85258,85358,0,0.6 F,0,85358,85658,0.6,0 S,19,85358,85658,1.4,0
Sprite,Foreground,Centre,"sb\glow.png",161,318 C,0,85283,,222,203,124 F,0,85283,85383,0,0.6 F,0,85383,85683,0.6,0 S,19,85383,85683,1.4,0
Sprite,Foreground,Centre,"sb\glow.png",162,313 C,0,85308,,222,203,124 F,0,85308,85408,0,0.6 F,0,85408,85708,0.6,0 S,19,85408,85708,1.4,0
Sprite,Foreground,Centre,"sb\glow.png",162,307 C,0,85333,,222,203,124 F,0,85333,85433,0,0.6 F,0,85433,85733,0.6,0 S,19,85433,85733,1.4,0
Sprite,Foreground,Centre,"sb\glow.png",163,301 C,0,85358,,222,203,124 F,0,85358,85458,0,0.6 F,0,85458,85758,0.6,0 S,19,85458,85758,1.4,0
Sprite,Foreground,Centre,"sb\glow.png",162,295 C,0,85383,,222,203,124 F,0,85383,85483,0,0.6 F,0,85483,85783,0.6,0 S,19,85483,85783,1.4,0
Sprite,Foreground,Centre,"sb\glow.png",162,289 C,0,85408,,222,203,124 F,0,85408,85508,0,0.6 F,0,85508,85808,0.6,0 S,19,85508,85808,1.4,0
Sprite,Foreground,Centre,"sb\glow.png",161,283 C,0,85433,,222,203,124 F,0,85433,85533,0,0.6 F,0,85533,85833,0.6,0 S,19,85533,85833,1.4,0
Sprite,Foreground,Centre,"sb\glow.png",153,228 C,0,85735,,222,203,124 F,2,85735,85935,1,0 S,2,85735,85935,1,0.2
Sprite,Foreground,Centre,"sb\glow.png",239,174 C,0,86099,,222,203,124 F,2,86099,86299,1,0 S,2,86099,86299,1,0.2
Sprite,Foreground,Centre,"sb\glow.png",306,255 C,0,86481,,222,203,124 F,2,86481,87217,1,0 S,2,86481,87217,1,0.2
Sprite,Foreground,Centre,"sb\glow.png",306,255 C,0,86381,,222,203,124 F,0,86381,86481,0,0.6 F,0,86481,86781,0.6,0 S,19,86481,86781,1.4,0
Sprite,Foreground,Centre,"sb\glow.png",311,259 C,0,86406,,222,203,124 F,0,86406,86506,0,0.6 F,0,86506,86806,0.6,0 S,19,86506,86806,1.4,0
Sprite,Foreground,Centre,"sb\glow.png",315,262 C,0,86431,,222,203,124 F,0,86431,86531,0,0.6 F,0,86531,86831,0.6,0 S,19,86531,86831,1.4,0
Sprite,Foreground,Centre,"sb\glow.png",320,266 C,0,86456,,222,203,124 F,0,86456,86556,0,0.6 F,0,86556,86856,0.6,0 S,19,86556,86856,1.4,0
Sprite,Foreground,Centre,"sb\glow.png",325,269 C,0,86481,,222,203,124 F,0,86481,86581,0,0.6 F,0,86581,86881,0.6,0 S,19,86581,86881,1.4,0
Sprite,Foreground,Centre,"sb\glow.png",331,271 C,0,86506,,222,203,124 F,0,86506,86606,0,0.6 F,0,86606,86906,0.6,0 S,19,86606,86906,1.4,0
Sprite,Foreground,Centre,"sb\glow.png",336,274 C,0,86531,,222,203,124 F,0,86531,86631,0,0.6 F,0,86631,86931,0.6,0 S,19,86631,86931,1.4,0
Sprite,Foreground,Centre,"sb\glow.png",342,276 C,0,86556,,222,203,124 F,0,86556,86656,0,0.6 F,0,86656,86956,0.6,0 S,19,86656,86956,1.4,0
Sprite,Foreground,Centre,"sb\glow.png",348,277 C,0,86581,,222,203,124 F,0,86581,86681,0,0.6 F,0,86681,86981,0.6,0 S,19,86681,86981,1.4,0
Sprite,Foreground,Centre,"sb\glow.png",353,278 C,0,86606,,222,203,124 F,0,86606,86706,0,0.6 F,0,86706,87006,0.6,0 S,19,86706,87006,1.4,0
Sprite,Foreground,Centre,"sb\glow.png",359,279 C,0,86631,,222,203,124 F,0,86631,86731,0,0.6 F,0,86731,87031,0.6,0 S,19,86731,87031,1.4,0
Sprite,Foreground,Centre,"sb\glow.png",365,280 C,0,86656,,222,203,124 F,0,86656,86756,0,0.6 F,0,86756,87056,0.6,0 S,19,86756,87056,1.4,0
Sprite,Foreground,Centre,"sb\glow.png",371,279 C,0,86681,,222,203,124 F,0,86681,86781,0,0.6 F,0,86781,87081,0.6,0 S,19,86781,87081,1.4,0
Sprite,Foreground,Centre,"sb\glow.png",377,279 C,0,86706,,222,203,124 F,0,86706,86806,0,0.6 F,0,86806,87106,0.6,0 S,19,86806,87106,1.4,0
Sprite,Foreground,Centre,"sb\glow.png",383,278 C,0,86731,,222,203,124 F,0,86731,86831,0,0.6 F,0,86831,87131,0.6,0 S,19,86831,87131,1.4,0
Sprite,Foreground,Centre,"sb\glow.png",389,277 C,0,86756,,222,203,124 F,0,86756,86856,0,0.6 F,0,86856,87156,0.6,0 S,19,86856,87156,1.4,0
Sprite,Foreground,Centre,"sb\glow.png",394,276 C,0,86781,,222,203,124 F,0,86781,86881,0,0.6 F,0,86881,87181,0.6,0 S,19,86881,87181,1.4,0
Sprite,Foreground,Centre,"sb\glow.png",400,274 C,0,86806,,222,203,124 F,0,86806,86906,0,0.6 F,0,86906,87206,0.6,0 S,19,86906,87206,1.4,0
Sprite,Foreground,Centre,"sb\glow.png",406,272 C,0,86831,,222,203,124 F,0,86831,86931,0,0.6 F,0,86931,87231,0.6,0 S,19,86931,87231,1.4,0
Sprite,Foreground,Centre,"sb\glow.png",411,269 C,0,86856,,222,203,124 F,0,86856,86956,0,0.6 F,0,86956,87256,0.6,0 S,19,86956,87256,1.4,0
Sprite,Foreground,Centre,"sb\glow.png",416,266 C,0,86881,,222,203,124 F,0,86881,86981,0,0.6 F,0,86981,87281,0.6,0 S,19,86981,87281,1.4,0
Sprite,Foreground,Centre,"sb\glow.png",421,263 C,0,86906,,222,203,124 F,0,86906,87006,0,0.6 F,0,87006,87306,0.6,0 S,19,87006,87306,1.4,0
Sprite,Foreground,Centre,"sb\glow.png",442,214 C,0,87198,,222,203,124 F,2,87198,87398,1,0 S,2,87198,87398,1,0.2
Sprite,Foreground,Centre,"sb\glow.png",364,143 C,0,87561,,222,203,124 F,2,87561,87942,1,0 S,2,87561,87942,1,0.2
Sprite,Foreground,Centre,"sb\glow.png",364,143 C,0,87461,,222,203,124 F,0,87461,87561,0,0.6 F,0,87561,87861,0.6,0 S,19,87561,87861,1.4,0
Sprite,Foreground,Centre,"sb\glow.png",363,137 C,0,87486,,222,203,124 F,0,87486,87586,0,0.6 F,0,87586,87886,0.6,0 S,19,87586,87886,1.4,0
Sprite,Foreground,Centre,"sb\glow.png",362,132 C,0,87511,,222,203,124 F,0,87511,87611,0,0.6 F,0,87611,87911,0.6,0 S,19,87611,87911,1.4,0
Sprite,Foreground,Centre,"sb\glow.png",360,126 C,0,87536,,222,203,124 F,0,87536,87636,0,0.6 F,0,87636,87936,0.6,0 S,19,87636,87936,1.4,0
Sprite,Foreground,Centre,"sb\glow.png",359,120 C,0,87561,,222,203,124 F,0,87561,87661,0,0.6 F,0,87661,87961,0.6,0 S,19,87661,87961,1.4,0
Sprite,Foreground,Centre,"sb\glow.png",358,114 C,0,87586,,222,203,124 F,0,87586,87686,0,0.6 F,0,87686,87986,0.6,0 S,19,87686,87986,1.4,0
Sprite,Foreground,Centre,"sb\glow.png",357,109 C,0,87611,,222,203,124 F,0,87611,87711,0,0.6 F,0,87711,88011,0.6,0 S,19,87711,88011,1.4,0
Sprite,Foreground,Centre,"sb\glow.png",355,103 C,0,87636,,222,203,124 F,0,87636,87736,0,0.6 F,0,87736,88036,0.6,0 S,19,87736,88036,1.4,0
Sprite,Foreground,Centre,"sb\glow.png",299,101 C,0,87924,,196,162,223 F,2,87924,88669,1,0 S,2,87924,88669,1,0.2
Sprite,Foreground,Centre,"sb\glow.png",299,101 C,0,87824,,196,162,223 F,0,87824,87924,0,0.6 F,0,87924,88224,0.6,0 S,19,87924,88224,1.4,0
Sprite,Foreground,Centre,"sb\glow.png",295,105 C,0,87849,,196,162,223 F,0,87849,87949,0,0.6 F,0,87949,88249,0.6,0 S,19,87949,88249,1.4,0
Sprite,Foreground,Centre,"sb\glow.png",291,110 C,0,87874,,196,162,223 F,0,87874,87974,0,0.6 F,0,87974,88274,0.6,0 S,19,87974,88274,1.4,0
Sprite,Foreground,Centre,"sb\glow.png",287,114 C,0,87899,,196,162,223 F,0,87899,87999,0,0.6 F,0,87999,88299,0.6,0 S,19,87999,88299,1.4,0
Sprite,Foreground,Centre,"sb\glow.png",282,117 C,0,87924,,196,162,223 F,0,87924,88024,0,0.6 F,0,88024,88324,0.6,0 S,19,88024,88324,1.4,0
Sprite,Foreground,Centre,"sb\glow.png",278,121 C,0,87949,,196,162,223 F,0,87949,88049,0,0.6 F,0,88049,88349,0.6,0 S,19,88049,88349,1.4,0
Sprite,Foreground,Centre,"sb\glow.png",273,124 C,0,87974,,196,162,223 F,0,87974,88074,0,0.6 F,0,88074,88374,0.6,0 S,19,88074,88374,1.4,0
Sprite,Foreground,Centre,"sb\glow.png",268,127 C,0,87999,,196,162,223 F,0,87999,88099,0,0.6 F,0,88099,88399,0.6,0 S,19,88099,88399,1.4,0
Sprite,Foreground,Centre,"sb\glow.png",262,129 C,0,88024,,196,162,223 F,0,88024,88124,0,0.6 F,0,88124,88424,0.6,0 S,19,88124,88424,1.4,0
Sprite,Foreground,Centre,"sb\glow.png",257,132 C,0,88049,,196,162,223 F,0,88049,88149,0,0.6 F,0,88149,88449,0.6,0 S,19,88149,88449,1.4,0
Sprite,Foreground,Centre,"sb\glow.png",252,133 C,0,88074,,196,162,223 F,0,88074,88174,0,0.6 F,0,88174,88474,0.6,0 S,19,88174,88474,1.4,0
Sprite,Foreground,Centre,"sb\glow.png",246,135 C,0,88099,,196,162,223 F,0,88099,88199,0,0.6 F,0,88199,88499,0.6,0 S,19,88199,88499,1.4,0
Sprite,Foreground,Centre,"sb\glow.png",240,137 C,0,88124,,196,162,223 F,0,88124,88224,0,0.6 F,0,88224,88524,0.6,0 S,19,88224,88524,1.4,0
Sprite,Foreground,Centre,"sb\glow.png",235,138 C,0,88149,,196,162,223 F,0,88149,88249,0,0.6 F,0,88249,88549,0.6,0 S,19,88249,88549,1.4,0
Sprite,Foreground,Centre,"sb\glow.png",229,138 C,0,88174,,196,162,223 F,0,88174,88274,0,0.6 F,0,88274,88574,0.6,0 S,19,88274,88574,1.4,0
Sprite,Foreground,Centre,"sb\glow.png",223,139 C,0,88199,,196,162,223 F,0,88199,88299,0,0.6 F,0,88299,88599,0.6,0 S,19,88299,88599,1.4,0
Sprite,Foreground,Centre,"sb\glow.png",217,139 C,0,88224,,196,162,223 F,0,88224,88324,0,0.6 F,0,88324,88624,0.6,0 S,19,88324,88624,1.4,0
Sprite,Foreground,Centre,"sb\glow.png",211,138 C,0,88249,,196,162,223 F,0,88249,88349,0,0.6 F,0,88349,88649,0.6,0 S,19,88349,88649,1.4,0
Sprite,Foreground,Centre,"sb\glow.png",206,138 C,0,88274,,196,162,223 F,0,88274,88374,0,0.6 F,0,88374,88674,0.6,0 S,19,88374,88674,1.4,0
Sprite,Foreground,Centre,"sb\glow.png",200,137 C,0,88299,,196,162,223 F,0,88299,88399,0,0.6 F,0,88399,88699,0.6,0 S,19,88399,88699,1.4,0
Sprite,Foreground,Centre,"sb\glow.png",194,135 C,0,88324,,196,162,223 F,0,88324,88424,0,0.6 F,0,88424,88724,0.6,0 S,19,88424,88724,1.4,0
Sprite,Foreground,Centre,"sb\glow.png",188,134 C,0,88349,,196,162,223 F,0,88349,88449,0,0.6 F,0,88449,88749,0.6,0 S,19,88449,88749,1.4,0
Sprite,Foreground,Centre,"sb\glow.png",137,111 C,0,88651,,196,162,223 F,2,88651,88851,1,0 S,2,88651,88851,1,0.2
Sprite,Foreground,Centre,"sb\glow.png",85,198 C,0,89014,,196,162,223 F,2,89014,89214,1,0 S,2,89014,89214,1,0.2
Sprite,Foreground,Centre,"sb\glow.png",150,275 C,0,89378,,196,162,223 F,2,89378,90123,1,0 S,2,89378,90123,1,0.2
Sprite,Foreground,Centre,"sb\glow.png",150,275 C,0,89278,,196,162,223 F,0,89278,89378,0,0.6 F,0,89378,89678,0.6,0 S,19,89378,89678,1.4,0
Sprite,Foreground,Centre,"sb\glow.png",156,273 C,0,89303,,196,162,223 F,0,89303,89403,0,0.6 F,0,89403,89703,0.6,0 S,19,89403,89703,1.4,0
Sprite,Foreground,Centre,"sb\glow.png",161,272 C,0,89328,,196,162,223 F,0,89328,89428,0,0.6 F,0,89428,89728,0.6,0 S,19,89428,89728,1.4,0
Sprite,Foreground,Centre,"sb\glow.png",167,270 C,0,89353,,196,162,223 F,0,89353,89453,0,0.6 F,0,89453,89753,0.6,0 S,19,89453,89753,1.4,0
Sprite,Foreground,Centre,"sb\glow.png",173,269 C,0,89378,,196,162,223 F,0,89378,89478,0,0.6 F,0,89478,89778,0.6,0 S,19,89478,89778,1.4,0
Sprite,Foreground,Centre,"sb\glow.png",178,268 C,0,89403,,196,162,223 F,0,89403,89503,0,0.6 F,0,89503,89803,0.6,0 S,19,89503,89803,1.4,0
Sprite,Foreground,Centre,"sb\glow.png",184,268 C,0,89428,,196,162,223 F,0,89428,89528,0,0.6 F,0,89528,89828,0.6,0 S,19,89528,89828,1.4,0
Sprite,Foreground,Centre,"sb\glow.png",190,268 C,0,89453,,196,162,223 F,0,89453,89553,0,0.6 F,0,89553,89853,0.6,0 S,19,89553,89853,1.4,0
Sprite,Foreground,Centre,"sb\glow.png",196,268 C,0,89478,,196,162,223 F,0,89478,89578,0,0.6 F,0,89578,89878,0.6,0 S,19,89578,89878,1.4,0
Sprite,Foreground,Centre,"sb\glow.png",202,269 C,0,89503,,196,162,223 F,0,89503,89603,0,0.6 F,0,89603,89903,0.6,0 S,19,89603,89903,1.4,0
Sprite,Foreground,Centre,"sb\glow.png",207,270 C,0,89528,,196,162,223 F,0,89528,89628,0,0.6 F,0,89628,89928,0.6,0 S,19,89628,89928,1.4,0
Sprite,Foreground,Centre,"sb\glow.png",213,272 C,0,89553,,196,162,223 F,0,89553,89653,0,0.6 F,0,89653,89953,0.6,0 S,19,89653,89953,1.4,0
Sprite,Foreground,Centre,"sb\glow.png",218,274 C,0,89578,,196,162,223 F,0,89578,89678,0,0.6 F,0,89678,89978,0.6,0 S,19,89678,89978,1.4,0
Sprite,Foreground,Centre,"sb\glow.png",224,276 C,0,89603,,196,162,223 F,0,89603,89703,0,0.6 F,0,89703,90003,0.6,0 S,19,89703,90003,1.4,0
Sprite,Foreground,Centre,"sb\glow.png",230,278 C,0,89628,,196,162,223 F,0,89628,89728,0,0.6 F,0,89728,90028,0.6,0 S,19,89728,90028,1.4,0
Sprite,Foreground,Centre,"sb\glow.png",235,279 C,0,89653,,196,162,223 F,0,89653,89753,0,0.6 F,0,89753,90053,0.6,0 S,19,89753,90053,1.4,0
Sprite,Foreground,Centre,"sb\glow.png",241,280 C,0,89678,,196,162,223 F,0,89678,89778,0,0.6 F,0,89778,90078,0.6,0 S,19,89778,90078,1.4,0
Sprite,Foreground,Centre,"sb\glow.png",247,280 C,0,89703,,196,162,223 F,0,89703,89803,0,0.6 F,0,89803,90103,0.6,0 S,19,89803,90103,1.4,0
Sprite,Foreground,Centre,"sb\glow.png",253,280 C,0,89728,,196,162,223 F,0,89728,89828,0,0.6 F,0,89828,90128,0.6,0 S,19,89828,90128,1.4,0
Sprite,Foreground,Centre,"sb\glow.png",259,279 C,0,89753,,196,162,223 F,0,89753,89853,0,0.6 F,0,89853,90153,0.6,0 S,19,89853,90153,1.4,0
Sprite,Foreground,Centre,"sb\glow.png",264,278 C,0,89778,,196,162,223 F,0,89778,89878,0,0.6 F,0,89878,90178,0.6,0 S,19,89878,90178,1.4,0
Sprite,Foreground,Centre,"sb\glow.png",270,277 C,0,89803,,196,162,223 F,0,89803,89903,0,0.6 F,0,89903,90203,0.6,0 S,19,89903,90203,1.4,0
Sprite,Foreground,Centre,"sb\glow.png",324,265 C,0,90105,,196,162,223 F,2,90105,90305,1,0 S,2,90105,90305,1,0.2
Sprite,Foreground,Centre,"sb\glow.png",417,220 C,0,90469,,196,162,223 F,2,90469,90850,1,0 S,2,90469,90850,1,0.2
Sprite,Foreground,Centre,"sb\glow.png",417,220 C,0,90369,,196,162,223 F,0,90369,90469,0,0.6 F,0,90469,90769,0.6,0 S,19,90469,90769,1.4,0
Sprite,Foreground,Centre,"sb\glow.png",418,226 C,0,90394,,196,162,223 F,0,90394,90494,0,0.6 F,0,90494,90794,0.6,0 S,19,90494,90794,1.4,0
Sprite,Foreground,Centre,"sb\glow.png",419,232 C,0,90419,,196,162,223 F,0,90419,90519,0,0.6 F,0,90519,90819,0.6,0 S,19,90519,90819,1.4,0
Sprite,Foreground,Centre,"sb\glow.png",420,237 C,0,90444,,196,162,223 F,0,90444,90544,0,0.6 F,0,90544,90844,0.6,0 S,19,90544,90844,1.4,0
Sprite,Foreground,Centre,"sb\glow.png",421,243 C,0,90469,,196,162,223 F,0,90469,90569,0,0.6 F,0,90569,90869,0.6,0 S,19,90569,90869,1.4,0
Sprite,Foreground,Centre,"sb\glow.png",421,249 C,0,90494,,196,162,223 F,0,90494,90594,0,0.6 F,0,90594,90894,0.6,0 S,19,90594,90894,1.4,0
Sprite,Foreground,Centre,"sb\glow.png",422,255 C,0,90519,,196,162,223 F,0,90519,90619,0,0.6 F,0,90619,90919,0.6,0 S,19,90619,90919,1.4,0
Sprite,Foreground,Centre,"sb\glow.png",423,260 C,0,90544,,196,162,223 F,0,90544,90644,0,0.6 F,0,90644,90944,0.6,0 S,19,90644,90944,1.4,0
Sprite,Foreground,Centre,"sb\glow.png",461,304 C,0,90833,,199,109,166 F,2,90833,91396,1,0 S,2,90833,91396,1,0.2
Sprite,Foreground,Centre,"sb\glow.png",461,304 C,0,90733,,199,109,166 F,0,90733,90833,0,0.6 F,0,90833,91133,0.6,0 S,19,90833,91133,1.4,0
Sprite,Foreground,Centre,"sb\glow.png",461,310 C,0,90758,,199,109,166 F,0,90758,90858,0,0.6 F,0,90858,91158,0.6,0 S,19,90858,91158,1.4,0
Sprite,Foreground,Centre,"sb\glow.png",462,317 C,0,90783,,199,109,166 F,0,90783,90883,0,0.6 F,0,90883,91183,0.6,0 S,19,90883,91183,1.4,0
Sprite,Foreground,Centre,"sb\glow.png",462,323 C,0,90808,,199,109,166 F,0,90808,90908,0,0.6 F,0,90908,91208,0.6,0 S,19,90908,91208,1.4,0
Sprite,Foreground,Centre,"sb\glow.png",461,330 C,0,90833,,199,109,166 F,0,90833,90933,0,0.6 F,0,90933,91233,0.6,0 S,19,90933,91233,1.4,0
Sprite,Foreground,Centre,"sb\glow.png",460,336 C,0,90858,,199,109,166 F,0,90858,90958,0,0.6 F,0,90958,91258,0.6,0 S,19,90958,91258,1.4,0
Sprite,Foreground,Centre,"sb\glow.png",458,342 C,0,90883,,199,109,166 F,0,90883,90983,0,0.6 F,0,90983,91283,0.6,0 S,19,90983,91283,1.4,0
Sprite,Foreground,Centre,"sb\glow.png",457,348 C,0,90908,,199,109,166 F,0,90908,91008,0,0.6 F,0,91008,91308,0.6,0 S,19,91008,91308,1.4,0
Sprite,Foreground,Centre,"sb\glow.png",454,354 C,0,90933,,199,109,166 F,0,90933,91033,0,0.6 F,0,91033,91333,0.6,0 S,19,91033,91333,1.4,0
Sprite,Foreground,Centre,"sb\glow.png",451,360 C,0,90958,,199,109,166 F,0,90958,91058,0,0.6 F,0,91058,91358,0.6,0 S,19,91058,91358,1.4,0
Sprite,Foreground,Centre,"sb\glow.png",448,365 C,0,90983,,199,109,166 F,0,90983,91083,0,0.6 F,0,91083,91383,0.6,0 S,19,91083,91383,1.4,0
Sprite,Foreground,Centre,"sb\glow.png",444,371 C,0,91008,,199,109,166 F,0,91008,91108,0,0.6 F,0,91108,91408,0.6,0 S,19,91108,91408,1.4,0
Sprite,Foreground,Centre,"sb\glow.png",441,376 C,0,91033,,199,109,166 F,0,91033,91133,0,0.6 F,0,91133,91433,0.6,0 S,19,91133,91433,1.4,0
Sprite,Foreground,Centre,"sb\glow.png",436,380 C,0,91058,,199,109,166 F,0,91058,91158,0,0.6 F,0,91158,91458,0.6,0 S,19,91158,91458,1.4,0
Sprite,Foreground,Centre,"sb\glow.png",431,385 C,0,91083,,199,109,166 F,0,91083,91183,0,0.6 F,0,91183,91483,0.6,0 S,19,91183,91483,1.4,0
Sprite,Foreground,Centre,"sb\glow.png",372,385 C,0,91378,,199,109,166 F,2,91378,91578,1,0 S,2,91378,91578,1,0.2
Sprite,Foreground,Centre,"sb\glow.png",315,381 C,0,91560,,199,109,166 F,2,91560,92123,1,0 S,2,91560,92123,1,0.2
Sprite,Foreground,Centre,"sb\glow.png",315,381 C,0,91460,,199,109,166 F,0,91460,91560,0,0.6 F,0,91560,91860,0.6,0 S,19,91560,91860,1.4,0
Sprite,Foreground,Centre,"sb\glow.png",310,377 C,0,91485,,199,109,166 F,0,91485,91585,0,0.6 F,0,91585,91885,0.6,0 S,19,91585,91885,1.4,0
Sprite,Foreground,Centre,"sb\glow.png",305,372 C,0,91510,,199,109,166 F,0,91510,91610,0,0.6 F,0,91610,91910,0.6,0 S,19,91610,91910,1.4,0
Sprite,Foreground,Centre,"sb\glow.png",301,368 C,0,91535,,199,109,166 F,0,91535,91635,0,0.6 F,0,91635,91935,0.6,0 S,19,91635,91935,1.4,0
Sprite,Foreground,Centre,"sb\glow.png",297,363 C,0,91560,,199,109,166 F,0,91560,91660,0,0.6 F,0,91660,91960,0.6,0 S,19,91660,91960,1.4,0
Sprite,Foreground,Centre,"sb\glow.png",293,358 C,0,91585,,199,109,166 F,0,91585,91685,0,0.6 F,0,91685,91985,0.6,0 S,19,91685,91985,1.4,0
Sprite,Foreground,Centre,"sb\glow.png",290,352 C,0,91610,,199,109,166 F,0,91610,91710,0,0.6 F,0,91710,92010,0.6,0 S,19,91710,92010,1.4,0
Sprite,Foreground,Centre,"sb\glow.png",287,346 C,0,91635,,199,109,166 F,0,91635,91735,0,0.6 F,0,91735,92035,0.6,0 S,19,91735,92035,1.4,0
Sprite,Foreground,Centre,"sb\glow.png",285,340 C,0,91660,,199,109,166 F,0,91660,91760,0,0.6 F,0,91760,92060,0.6,0 S,19,91760,92060,1.4,0
Sprite,Foreground,Centre,"sb\glow.png",283,334 C,0,91685,,199,109,166 F,0,91685,91785,0,0.6 F,0,91785,92085,0.6,0 S,19,91785,92085,1.4,0
Sprite,Foreground,Centre,"sb\glow.png",282,328 C,0,91710,,199,109,166 F,0,91710,91810,0,0.6 F,0,91810,92110,0.6,0 S,19,91810,92110,1.4,0
Sprite,Foreground,Centre,"sb\glow.png",281,322 C,0,91735,,199,109,166 F,0,91735,91835,0,0.6 F,0,91835,92135,0.6,0 S,19,91835,92135,1.4,0
Sprite,Foreground,Centre,"sb\glow.png",280,315 C,0,91760,,199,109,166 F,0,91760,91860,0,0.6 F,0,91860,92160,0.6,0 S,19,91860,92160,1.4,0
Sprite,Foreground,Centre,"sb\glow.png",280,309 C,0,91785,,199,109,166 F,0,91785,91885,0,0.6 F,0,91885,92185,0.6,0 S,19,91885,92185,1.4,0
Sprite,Foreground,Centre,"sb\glow.png",280,302 C,0,91810,,199,109,166 F,0,91810,91910,0,0.6 F,0,91910,92210,0.6,0 S,19,91910,92210,1.4,0
Sprite,Foreground,Centre,"sb\glow.png",228,297 C,0,92105,,199,109,166 F,2,92105,92305,1,0 S,2,92105,92305,1,0.2
Sprite,Foreground,Centre,"sb\glow.png",180,297 C,0,92273,,199,109,166 F,2,92273,92836,1,0 S,2,92273,92836,1,0.2
Sprite,Foreground,Centre,"sb\glow.png",180,297 C,0,92173,,199,109,166 F,0,92173,92273,0,0.6 F,0,92273,92573,0.6,0 S,19,92273,92573,1.4,0
Sprite,Foreground,Centre,"sb\glow.png",180,303 C,0,92198,,199,109,166 F,0,92198,92298,0,0.6 F,0,92298,92598,0.6,0 S,19,92298,92598,1.4,0
Sprite,Foreground,Centre,"sb\glow.png",180,309 C,0,92223,,199,109,166 F,0,92223,92323,0,0.6 F,0,92323,92623,0.6,0 S,19,92323,92623,1.4,0
Sprite,Foreground,Centre,"sb\glow.png",180,315 C,0,92248,,199,109,166 F,0,92248,92348,0,0.6 F,0,92348,92648,0.6,0 S,19,92348,92648,1.4,0
Sprite,Foreground,Centre,"sb\glow.png",179,320 C,0,92273,,199,109,166 F,0,92273,92373,0,0.6 F,0,92373,92673,0.6,0 S,19,92373,92673,1.4,0
Sprite,Foreground,Centre,"sb\glow.png",178,326 C,0,92298,,199,109,166 F,0,92298,92398,0,0.6 F,0,92398,92698,0.6,0 S,19,92398,92698,1.4,0
Sprite,Foreground,Centre,"sb\glow.png",177,332 C,0,92323,,199,109,166 F,0,92323,92423,0,0.6 F,0,92423,92723,0.6,0 S,19,92423,92723,1.4,0
Sprite,Foreground,Centre,"sb\glow.png",175,337 C,0,92348,,199,109,166 F,0,92348,92448,0,0.6 F,0,92448,92748,0.6,0 S,19,92448,92748,1.4,0
Sprite,Foreground,Centre,"sb\glow.png",173,343 C,0,92373,,199,109,166 F,0,92373,92473,0,0.6 F,0,92473,92773,0.6,0 S,19,92473,92773,1.4,0
Sprite,Foreground,Centre,"sb\glow.png",171,348 C,0,92398,,199,109,166 F,0,92398,92498,0,0.6 F,0,92498,92798,0.6,0 S,19,92498,92798,1.4,0
Sprite,Foreground,Centre,"sb\glow.png",169,354 C,0,92423,,199,109,166 F,0,92423,92523,0,0.6 F,0,92523,92823,0.6,0 S,19,92523,92823,1.4,0
Sprite,Foreground,Centre,"sb\glow.png",166,359 C,0,92448,,199,109,166 F,0,92448,92548,0,0.6 F,0,92548,92848,0.6,0 S,19,92548,92848,1.4,0
Sprite,Foreground,Centre,"sb\glow.png",163,364 C,0,92473,,199,109,166 F,0,92473,92573,0,0.6 F,0,92573,92873,0.6,0 S,19,92573,92873,1.4,0
Sprite,Foreground,Centre,"sb\glow.png",160,369 C,0,92498,,199,109,166 F,0,92498,92598,0,0.6 F,0,92598,92898,0.6,0 S,19,92598,92898,1.4,0
Sprite,Foreground,Centre,"sb\glow.png",157,374 C,0,92523,,199,109,166 F,0,92523,92623,0,0.6 F,0,92623,92923,0.6,0 S,19,92623,92923,1.4,0
Sprite,Foreground,Centre,"sb\glow.png",71,297 C,0,93000,,199,109,166 F,2,93000,93381,1,0 S,2,93000,93381,1,0.2
Sprite,Foreground,Centre,"sb\glow.png",71,297 C,0,92900,,199,109,166 F,0,92900,93000,0,0.6 F,0,93000,93300,0.6,0 S,19,93000,93300,1.4,0
Sprite,Foreground,Centre,"sb\glow.png",70,291 C,0,92925,,199,109,166 F,0,92925,93025,0,0.6 F,0,93025,93325,0.6,0 S,19,93025,93325,1.4,0
Sprite,Foreground,Centre,"sb\glow.png",69,284 C,0,92950,,199,109,166 F,0,92950,93050,0,0.6 F,0,93050,93350,0.6,0 S,19,93050,93350,1.4,0
Sprite,Foreground,Centre,"sb\glow.png",68,278 C,0,92975,,199,109,166 F,0,92975,93075,0,0.6 F,0,93075,93375,0.6,0 S,19,93075,93375,1.4,0
Sprite,Foreground,Centre,"sb\glow.png",67,272 C,0,93000,,199,109,166 F,0,93000,93100,0,0.6 F,0,93100,93400,0.6,0 S,19,93100,93400,1.4,0
Sprite,Foreground,Centre,"sb\glow.png",66,265 C,0,93025,,199,109,166 F,0,93025,93125,0,0.6 F,0,93125,93425,0.6,0 S,19,93125,93425,1.4,0
Sprite,Foreground,Centre,"sb\glow.png",64,259 C,0,93050,,199,109,166 F,0,93050,93150,0,0.6 F,0,93150,93450,0.6,0 S,19,93150,93450,1.4,0
Sprite,Foreground,Centre,"sb\glow.png",63,253 C,0,93075,,199,109,166 F,0,93075,93175,0,0.6 F,0,93175,93475,0.6,0 S,19,93175,93475,1.4,0
Sprite,Foreground,Centre,"sb\glow.png",87,200 C,0,93363,,199,109,166 F,2,93363,93744,1,0 S,2,93363,93744,1,0.2
Sprite,Foreground,Centre,"sb\glow.png",87,200 C,0,93263,,199,109,166 F,0,93263,93363,0,0.6 F,0,93363,93663,0.6,0 S,19,93363,93663,1.4,0
Sprite,Foreground,Centre,"sb\glow.png",88,194 C,0,93288,,199,109,166 F,0,93288,93388,0,0.6 F,0,93388,93688,0.6,0 S,19,93388,93688,1.4,0
Sprite,Foreground,Centre,"sb\glow.png",89,187 C,0,93313,,199,109,166 F,0,93313,93413,0,0.6 F,0,93413,93713,0.6,0 S,19,93413,93713,1.4,0
Sprite,Foreground,Centre,"sb\glow.png",90,181 C,0,93338,,199,109,166 F,0,93338,93438,0,0.6 F,0,93438,93738,0.6,0 S,19,93438,93738,1.4,0
Sprite,Foreground,Centre,"sb\glow.png",91,175 C,0,93363,,199,109,166 F,0,93363,93463,0,0.6 F,0,93463,93763,0.6,0 S,19,93463,93763,1.4,0
Sprite,Foreground,Centre,"sb\glow.png",92,168 C,0,93388,,199,109,166 F,0,93388,93488,0,0.6 F,0,93488,93788,0.6,0 S,19,93488,93788,1.4,0
Sprite,Foreground,Centre,"sb\glow.png",94,162 C,0,93413,,199,109,166 F,0,93413,93513,0,0.6 F,0,93513,93813,0.6,0 S,19,93513,93813,1.4,0
Sprite,Foreground,Centre,"sb\glow.png",95,156 C,0,93438,,199,109,166 F,0,93438,93538,0,0.6 F,0,93538,93838,0.6,0 S,19,93538,93838,1.4,0
Sprite,Foreground,Centre,"sb\glow.png",132,111 C,0,93727,,224,130,124 F,2,93727,94290,1,0 S,2,93727,94290,1,0.2
Sprite,Foreground,Centre,"sb\glow.png",132,111 C,0,93627,,224,130,124 F,0,93627,93727,0,0.6 F,0,93727,94027,0.6,0 S,19,93727,94027,1.4,0
Sprite,Foreground,Centre,"sb\glow.png",137,108 C,0,93652,,224,130,124 F,0,93652,93752,0,0.6 F,0,93752,94052,0.6,0 S,19,93752,94052,1.4,0
Sprite,Foreground,Centre,"sb\glow.png",143,104 C,0,93677,,224,130,124 F,0,93677,93777,0,0.6 F,0,93777,94077,0.6,0 S,19,93777,94077,1.4,0
Sprite,Foreground,Centre,"sb\glow.png",148,101 C,0,93702,,224,130,124 F,0,93702,93802,0,0.6 F,0,93802,94102,0.6,0 S,19,93802,94102,1.4,0
Sprite,Foreground,Centre,"sb\glow.png",154,98 C,0,93727,,224,130,124 F,0,93727,93827,0,0.6 F,0,93827,94127,0.6,0 S,19,93827,94127,1.4,0
Sprite,Foreground,Centre,"sb\glow.png",160,97 C,0,93752,,224,130,124 F,0,93752,93852,0,0.6 F,0,93852,94152,0.6,0 S,19,93852,94152,1.4,0
Sprite,Foreground,Centre,"sb\glow.png",167,95 C,0,93777,,224,130,124 F,0,93777,93877,0,0.6 F,0,93877,94177,0.6,0 S,19,93877,94177,1.4,0
Sprite,Foreground,Centre,"sb\glow.png",173,94 C,0,93802,,224,130,124 F,0,93802,93902,0,0.6 F,0,93902,94202,0.6,0 S,19,93902,94202,1.4,0
Sprite,Foreground,Centre,"sb\glow.png",179,93 C,0,93827,,224,130,124 F,0,93827,93927,0,0.6 F,0,93927,94227,0.6,0 S,19,93927,94227,1.4,0
Sprite,Foreground,Centre,"sb\glow.png",186,94 C,0,93852,,224,130,124 F,0,93852,93952,0,0.6 F,0,93952,94252,0.6,0 S,19,93952,94252,1.4,0
Sprite,Foreground,Centre,"sb\glow.png",192,94 C,0,93877,,224,130,124 F,0,93877,93977,0,0.6 F,0,93977,94277,0.6,0 S,19,93977,94277,1.4,0
Sprite,Foreground,Centre,"sb\glow.png",198,95 C,0,93902,,224,130,124 F,0,93902,94002,0,0.6 F,0,94002,94302,0.6,0 S,19,94002,94302,1.4,0
Sprite,Foreground,Centre,"sb\glow.png",205,96 C,0,93927,,224,130,124 F,0,93927,94027,0,0.6 F,0,94027,94327,0.6,0 S,19,94027,94327,1.4,0
Sprite,Foreground,Centre,"sb\glow.png",211,99 C,0,93952,,224,130,124 F,0,93952,94052,0,0.6 F,0,94052,94352,0.6,0 S,19,94052,94352,1.4,0
Sprite,Foreground,Centre,"sb\glow.png",217,101 C,0,93977,,224,130,124 F,0,93977,94077,0,0.6 F,0,94077,94377,0.6,0 S,19,94077,94377,1.4,0
Sprite,Foreground,Centre,"sb\glow.png",266,133 C,0,94273,,224,130,124 F,2,94273,94473,1,0 S,2,94273,94473,1,0.2
Sprite,Foreground,Centre,"sb\glow.png",345,212 C,0,94636,,224,130,124 F,2,94636,94836,1,0 S,2,94636,94836,1,0.2
Sprite,Foreground,Centre,"sb\glow.png",398,194 C,0,94818,,224,130,124 F,2,94818,95199,1,0 S,2,94818,95199,1,0.2
Sprite,Foreground,Centre,"sb\glow.png",398,194 C,0,94718,,224,130,124 F,0,94718,94818,0,0.6 F,0,94818,95118,0.6,0 S,19,94818,95118,1.4,0
Sprite,Foreground,Centre,"sb\glow.png",404,193 C,0,94743,,224,130,124 F,0,94743,94843,0,0.6 F,0,94843,95143,0.6,0 S,19,94843,95143,1.4,0
Sprite,Foreground,Centre,"sb\glow.png",411,193 C,0,94768,,224,130,124 F,0,94768,94868,0,0.6 F,0,94868,95168,0.6,0 S,19,94868,95168,1.4,0
Sprite,Foreground,Centre,"sb\glow.png",417,192 C,0,94793,,224,130,124 F,0,94793,94893,0,0.6 F,0,94893,95193,0.6,0 S,19,94893,95193,1.4,0
Sprite,Foreground,Centre,"sb\glow.png",424,192 C,0,94818,,224,130,124 F,0,94818,94918,0,0.6 F,0,94918,95218,0.6,0 S,19,94918,95218,1.4,0
Sprite,Foreground,Centre,"sb\glow.png",430,191 C,0,94843,,224,130,124 F,0,94843,94943,0,0.6 F,0,94943,95243,0.6,0 S,19,94943,95243,1.4,0
Sprite,Foreground,Centre,"sb\glow.png",436,191 C,0,94868,,224,130,124 F,0,94868,94968,0,0.6 F,0,94968,95268,0.6,0 S,19,94968,95268,1.4,0
Sprite,Foreground,Centre,"sb\glow.png",443,190 C,0,94893,,224,130,124 F,0,94893,94993,0,0.6 F,0,94993,95293,0.6,0 S,19,94993,95293,1.4,0
Sprite,Foreground,Centre,"sb\glow.png",492,221 C,0,95183,,220,166,126 F,2,95183,95753,1,0 S,2,95183,95753,1,0.2
Sprite,Foreground,Centre,"sb\glow.png",492,221 C,0,95083,,220,166,126 F,0,95083,95183,0,0.6 F,0,95183,95483,0.6,0 S,19,95183,95483,1.4,0
Sprite,Foreground,Centre,"sb\glow.png",495,227 C,0,95108,,220,166,126 F,0,95108,95208,0,0.6 F,0,95208,95508,0.6,0 S,19,95208,95508,1.4,0
Sprite,Foreground,Centre,"sb\glow.png",498,232 C,0,95133,,220,166,126 F,0,95133,95233,0,0.6 F,0,95233,95533,0.6,0 S,19,95233,95533,1.4,0
Sprite,Foreground,Centre,"sb\glow.png",501,238 C,0,95158,,220,166,126 F,0,95158,95258,0,0.6 F,0,95258,95558,0.6,0 S,19,95258,95558,1.4,0
Sprite,Foreground,Centre,"sb\glow.png",503,244 C,0,95183,,220,166,126 F,0,95183,95283,0,0.6 F,0,95283,95583,0.6,0 S,19,95283,95583,1.4,0
Sprite,Foreground,Centre,"sb\glow.png",506,249 C,0,95208,,220,166,126 F,0,95208,95308,0,0.6 F,0,95308,95608,0.6,0 S,19,95308,95608,1.4,0
Sprite,Foreground,Centre,"sb\glow.png",508,255 C,0,95233,,220,166,126 F,0,95233,95333,0,0.6 F,0,95333,95633,0.6,0 S,19,95333,95633,1.4,0
Sprite,Foreground,Centre,"sb\glow.png",510,261 C,0,95258,,220,166,126 F,0,95258,95358,0,0.6 F,0,95358,95658,0.6,0 S,19,95358,95658,1.4,0
Sprite,Foreground,Centre,"sb\glow.png",511,267 C,0,95283,,220,166,126 F,0,95283,95383,0,0.6 F,0,95383,95683,0.6,0 S,19,95383,95683,1.4,0
Sprite,Foreground,Centre,"sb\glow.png",513,274 C,0,95308,,220,166,126 F,0,95308,95408,0,0.6 F,0,95408,95708,0.6,0 S,19,95408,95708,1.4,0
Sprite,Foreground,Centre,"sb\glow.png",514,280 C,0,95333,,220,166,126 F,0,95333,95433,0,0.6 F,0,95433,95733,0.6,0 S,19,95433,95733,1.4,0
Sprite,Foreground,Centre,"sb\glow.png",515,286 C,0,95358,,220,166,126 F,0,95358,95458,0,0.6 F,0,95458,95758,0.6,0 S,19,95458,95758,1.4,0
Sprite,Foreground,Centre,"sb\glow.png",516,292 C,0,95383,,220,166,126 F,0,95383,95483,0,0.6 F,0,95483,95783,0.6,0 S,19,95483,95783,1.4,0
Sprite,Foreground,Centre,"sb\glow.png",516,299 C,0,95408,,220,166,126 F,0,95408,95508,0,0.6 F,0,95508,95808,0.6,0 S,19,95508,95808,1.4,0
Sprite,Foreground,Centre,"sb\glow.png",516,305 C,0,95433,,220,166,126 F,0,95433,95533,0,0.6 F,0,95533,95833,0.6,0 S,19,95533,95833,1.4,0
Sprite,Foreground,Centre,"sb\glow.png",510,365 C,0,95738,,220,166,126 F,2,95738,95938,1,0 S,2,95738,95938,1,0.2
Sprite,Foreground,Centre,"sb\glow.png",425,439 C,0,96108,,220,166,126 F,2,96108,96308,1,0 S,2,96108,96308,1,0.2
Sprite,Foreground,Centre,"sb\glow.png",284,362 C,0,96672,,222,203,124 F,2,96672,97231,1,0 S,2,96672,97231,1,0.2
Sprite,Foreground,Centre,"sb\glow.png",284,362 C,0,96572,,222,203,124 F,0,96572,96672,0,0.6 F,0,96672,96972,0.6,0 S,19,96672,96972,1.4,0
Sprite,Foreground,Centre,"sb\glow.png",282,356 C,0,96597,,222,203,124 F,0,96597,96697,0,0.6 F,0,96697,96997,0.6,0 S,19,96697,96997,1.4,0
Sprite,Foreground,Centre,"sb\glow.png",280,351 C,0,96622,,222,203,124 F,0,96622,96722,0,0.6 F,0,96722,97022,0.6,0 S,19,96722,97022,1.4,0
Sprite,Foreground,Centre,"sb\glow.png",278,345 C,0,96647,,222,203,124 F,0,96647,96747,0,0.6 F,0,96747,97047,0.6,0 S,19,96747,97047,1.4,0
Sprite,Foreground,Centre,"sb\glow.png",277,339 C,0,96672,,222,203,124 F,0,96672,96772,0,0.6 F,0,96772,97072,0.6,0 S,19,96772,97072,1.4,0
Sprite,Foreground,Centre,"sb\glow.png",276,334 C,0,96697,,222,203,124 F,0,96697,96797,0,0.6 F,0,96797,97097,0.6,0 S,19,96797,97097,1.4,0
Sprite,Foreground,Centre,"sb\glow.png",275,328 C,0,96722,,222,203,124 F,0,96722,96822,0,0.6 F,0,96822,97122,0.6,0 S,19,96822,97122,1.4,0
Sprite,Foreground,Centre,"sb\glow.png",275,322 C,0,96747,,222,203,124 F,0,96747,96847,0,0.6 F,0,96847,97147,0.6,0 S,19,96847,97147,1.4,0
Sprite,Foreground,Centre,"sb\glow.png",275,316 C,0,96772,,222,203,124 F,0,96772,96872,0,0.6 F,0,96872,97172,0.6,0 S,19,96872,97172,1.4,0
Sprite,Foreground,Centre,"sb\glow.png",275,310 C,0,96797,,222,203,124 F,0,96797,96897,0,0.6 F,0,96897,97197,0.6,0 S,19,96897,97197,1.4,0
Sprite,Foreground,Centre,"sb\glow.png",276,304 C,0,96822,,222,203,124 F,0,96822,96922,0,0.6 F,0,96922,97222,0.6,0 S,19,96922,97222,1.4,0
Sprite,Foreground,Centre,"sb\glow.png",276,298 C,0,96847,,222,203,124 F,0,96847,96947,0,0.6 F,0,96947,97247,0.6,0 S,19,96947,97247,1.4,0
Sprite,Foreground,Centre,"sb\glow.png",278,293 C,0,96872,,222,203,124 F,0,96872,96972,0,0.6 F,0,96972,97272,0.6,0 S,19,96972,97272,1.4,0
Sprite,Foreground,Centre,"sb\glow.png",279,287 C,0,96897,,222,203,124 F,0,96897,96997,0,0.6 F,0,96997,97297,0.6,0 S,19,96997,97297,1.4,0
Sprite,Foreground,Centre,"sb\glow.png",281,281 C,0,96922,,222,203,124 F,0,96922,97022,0,0.6 F,0,97022,97322,0.6,0 S,19,97022,97322,1.4,0
Sprite,Foreground,Centre,"sb\glow.png",317,184 C,0,97390,,222,203,124 F,2,97390,97769,1,0 S,2,97390,97769,1,0.2
Sprite,Foreground,Centre,"sb\glow.png",317,184 C,0,97290,,222,203,124 F,0,97290,97390,0,0.6 F,0,97390,97690,0.6,0 S,19,97390,97690,1.4,0
Sprite,Foreground,Centre,"sb\glow.png",316,178 C,0,97315,,222,203,124 F,0,97315,97415,0,0.6 F,0,97415,97715,0.6,0 S,19,97415,97715,1.4,0
Sprite,Foreground,Centre,"sb\glow.png",314,172 C,0,97340,,222,203,124 F,0,97340,97440,0,0.6 F,0,97440,97740,0.6,0 S,19,97440,97740,1.4,0
Sprite,Foreground,Centre,"sb\glow.png",313,167 C,0,97365,,222,203,124 F,0,97365,97465,0,0.6 F,0,97465,97765,0.6,0 S,19,97465,97765,1.4,0
Sprite,Foreground,Centre,"sb\glow.png",312,161 C,0,97390,,222,203,124 F,0,97390,97490,0,0.6 F,0,97490,97790,0.6,0 S,19,97490,97790,1.4,0
Sprite,Foreground,Centre,"sb\glow.png",310,155 C,0,97415,,222,203,124 F,0,97415,97515,0,0.6 F,0,97515,97815,0.6,0 S,19,97515,97815,1.4,0
Sprite,Foreground,Centre,"sb\glow.png",309,149 C,0,97440,,222,203,124 F,0,97440,97540,0,0.6 F,0,97540,97840,0.6,0 S,19,97540,97840,1.4,0
Sprite,Foreground,Centre,"sb\glow.png",308,144 C,0,97465,,222,203,124 F,0,97465,97565,0,0.6 F,0,97565,97865,0.6,0 S,19,97565,97865,1.4,0
Sprite,Foreground,Centre,"sb\glow.png",274,103 C,0,97749,,222,203,124 F,2,97749,97949,1,0 S,2,97749,97949,1,0.2
Sprite,Foreground,Centre,"sb\glow.png",195,170 C,0,98109,,222,203,124 F,2,98109,98672,1,0 S,2,98109,98672,1,0.2
Sprite,Foreground,Centre,"sb\glow.png",195,170 C,0,98009,,222,203,124 F,0,98009,98109,0,0.6 F,0,98109,98409,0.6,0 S,19,98109,98409,1.4,0
Sprite,Foreground,Centre,"sb\glow.png",194,176 C,0,98034,,222,203,124 F,0,98034,98134,0,0.6 F,0,98134,98434,0.6,0 S,19,98134,98434,1.4,0
Sprite,Foreground,Centre,"sb\glow.png",194,182 C,0,98059,,222,203,124 F,0,98059,98159,0,0.6 F,0,98159,98459,0.6,0 S,19,98159,98459,1.4,0
Sprite,Foreground,Centre,"sb\glow.png",193,187 C,0,98084,,222,203,124 F,0,98084,98184,0,0.6 F,0,98184,98484,0.6,0 S,19,98184,98484,1.4,0
Sprite,Foreground,Centre,"sb\glow.png",193,193 C,0,98109,,222,203,124 F,0,98109,98209,0,0.6 F,0,98209,98509,0.6,0 S,19,98209,98509,1.4,0
Sprite,Foreground,Centre,"sb\glow.png",192,199 C,0,98134,,222,203,124 F,0,98134,98234,0,0.6 F,0,98234,98534,0.6,0 S,19,98234,98534,1.4,0
Sprite,Foreground,Centre,"sb\glow.png",192,205 C,0,98159,,222,203,124 F,0,98159,98259,0,0.6 F,0,98259,98559,0.6,0 S,19,98259,98559,1.4,0
Sprite,Foreground,Centre,"sb\glow.png",191,211 C,0,98184,,222,203,124 F,0,98184,98284,0,0.6 F,0,98284,98584,0.6,0 S,19,98284,98584,1.4,0
Sprite,Foreground,Centre,"sb\glow.png",190,217 C,0,98209,,222,203,124 F,0,98209,98309,0,0.6 F,0,98309,98609,0.6,0 S,19,98309,98609,1.4,0
Sprite,Foreground,Centre,"sb\glow.png",190,222 C,0,98234,,222,203,124 F,0,98234,98334,0,0.6 F,0,98334,98634,0.6,0 S,19,98334,98634,1.4,0
Sprite,Foreground,Centre,"sb\glow.png",189,228 C,0,98259,,222,203,124 F,0,98259,98359,0,0.6 F,0,98359,98659,0.6,0 S,19,98359,98659,1.4,0
Sprite,Foreground,Centre,"sb\glow.png",189,234 C,0,98284,,222,203,124 F,0,98284,98384,0,0.6 F,0,98384,98684,0.6,0 S,19,98384,98684,1.4,0
Sprite,Foreground,Centre,"sb\glow.png",188,240 C,0,98309,,222,203,124 F,0,98309,98409,0,0.6 F,0,98409,98709,0.6,0 S,19,98409,98709,1.4,0
Sprite,Foreground,Centre,"sb\glow.png",188,246 C,0,98334,,222,203,124 F,0,98334,98434,0,0.6 F,0,98434,98734,0.6,0 S,19,98434,98734,1.4,0
Sprite,Foreground,Centre,"sb\glow.png",187,251 C,0,98359,,222,203,124 F,0,98359,98459,0,0.6 F,0,98459,98759,0.6,0 S,19,98459,98759,1.4,0
Sprite,Foreground,Centre,"sb\glow.png",150,290 C,0,98654,,222,203,124 F,2,98654,99217,1,0 S,2,98654,99217,1,0.2
Sprite,Foreground,Centre,"sb\glow.png",150,290 C,0,98554,,222,203,124 F,0,98554,98654,0,0.6 F,0,98654,98954,0.6,0 S,19,98654,98954,1.4,0
Sprite,Foreground,Centre,"sb\glow.png",151,296 C,0,98579,,222,203,124 F,0,98579,98679,0,0.6 F,0,98679,98979,0.6,0 S,19,98679,98979,1.4,0
Sprite,Foreground,Centre,"sb\glow.png",151,302 C,0,98604,,222,203,124 F,0,98604,98704,0,0.6 F,0,98704,99004,0.6,0 S,19,98704,99004,1.4,0
Sprite,Foreground,Centre,"sb\glow.png",152,307 C,0,98629,,222,203,124 F,0,98629,98729,0,0.6 F,0,98729,99029,0.6,0 S,19,98729,99029,1.4,0
Sprite,Foreground,Centre,"sb\glow.png",152,313 C,0,98654,,222,203,124 F,0,98654,98754,0,0.6 F,0,98754,99054,0.6,0 S,19,98754,99054,1.4,0
Sprite,Foreground,Centre,"sb\glow.png",153,319 C,0,98679,,222,203,124 F,0,98679,98779,0,0.6 F,0,98779,99079,0.6,0 S,19,98779,99079,1.4,0
Sprite,Foreground,Centre,"sb\glow.png",153,325 C,0,98704,,222,203,124 F,0,98704,98804,0,0.6 F,0,98804,99104,0.6,0 S,19,98804,99104,1.4,0
Sprite,Foreground,Centre,"sb\glow.png",154,331 C,0,98729,,222,203,124 F,0,98729,98829,0,0.6 F,0,98829,99129,0.6,0 S,19,98829,99129,1.4,0
Sprite,Foreground,Centre,"sb\glow.png",155,337 C,0,98754,,222,203,124 F,0,98754,98854,0,0.6 F,0,98854,99154,0.6,0 S,19,98854,99154,1.4,0
Sprite,Foreground,Centre,"sb\glow.png",155,342 C,0,98779,,222,203,124 F,0,98779,98879,0,0.6 F,0,98879,99179,0.6,0 S,19,98879,99179,1.4,0
Sprite,Foreground,Centre,"sb\glow.png",156,348 C,0,98804,,222,203,124 F,0,98804,98904,0,0.6 F,0,98904,99204,0.6,0 S,19,98904,99204,1.4,0
Sprite,Foreground,Centre,"sb\glow.png",156,354 C,0,98829,,222,203,124 F,0,98829,98929,0,0.6 F,0,98929,99229,0.6,0 S,19,98929,99229,1.4,0
Sprite,Foreground,Centre,"sb\glow.png",157,360 C,0,98854,,222,203,124 F,0,98854,98954,0,0.6 F,0,98954,99254,0.6,0 S,19,98954,99254,1.4,0
Sprite,Foreground,Centre,"sb\glow.png",157,366 C,0,98879,,222,203,124 F,0,98879,98979,0,0.6 F,0,98979,99279,0.6,0 S,19,98979,99279,1.4,0
Sprite,Foreground,Centre,"sb\glow.png",158,371 C,0,98904,,222,203,124 F,0,98904,99004,0,0.6 F,0,99004,99304,0.6,0 S,19,99004,99304,1.4,0
Sprite,Foreground,Centre,"sb\glow.png",186,417 C,0,99199,,222,203,124 F,2,99199,99399,1,0 S,2,99199,99399,1,0.2
Sprite,Foreground,Centre,"sb\glow.png",261,344 C,0,99563,,196,162,223 F,2,99563,100126,1,0 S,2,99563,100126,1,0.2
Sprite,Foreground,Centre,"sb\glow.png",261,344 C,0,99463,,196,162,223 F,0,99463,99563,0,0.6 F,0,99563,99863,0.6,0 S,19,99563,99863,1.4,0
Sprite,Foreground,Centre,"sb\glow.png",266,341 C,0,99488,,196,162,223 F,0,99488,99588,0,0.6 F,0,99588,99888,0.6,0 S,19,99588,99888,1.4,0
Sprite,Foreground,Centre,"sb\glow.png",271,338 C,0,99513,,196,162,223 F,0,99513,99613,0,0.6 F,0,99613,99913,0.6,0 S,19,99613,99913,1.4,0
Sprite,Foreground,Centre,"sb\glow.png",276,336 C,0,99538,,196,162,223 F,0,99538,99638,0,0.6 F,0,99638,99938,0.6,0 S,19,99638,99938,1.4,0
Sprite,Foreground,Centre,"sb\glow.png",282,334 C,0,99563,,196,162,223 F,0,99563,99663,0,0.6 F,0,99663,99963,0.6,0 S,19,99663,99963,1.4,0
Sprite,Foreground,Centre,"sb\glow.png",288,332 C,0,99588,,196,162,223 F,0,99588,99688,0,0.6 F,0,99688,99988,0.6,0 S,19,99688,99988,1.4,0
Sprite,Foreground,Centre,"sb\glow.png",293,330 C,0,99613,,196,162,223 F,0,99613,99713,0,0.6 F,0,99713,100013,0.6,0 S,19,99713,100013,1.4,0
Sprite,Foreground,Centre,"sb\glow.png",299,329 C,0,99638,,196,162,223 F,0,99638,99738,0,0.6 F,0,99738,100038,0.6,0 S,19,99738,100038,1.4,0
Sprite,Foreground,Centre,"sb\glow.png",305,329 C,0,99663,,196,162,223 F,0,99663,99763,0,0.6 F,0,99763,100063,0.6,0 S,19,99763,100063,1.4,0
Sprite,Foreground,Centre,"sb\glow.png",310,328 C,0,99688,,196,162,223 F,0,99688,99788,0,0.6 F,0,99788,100088,0.6,0 S,19,99788,100088,1.4,0
Sprite,Foreground,Centre,"sb\glow.png",316,328 C,0,99713,,196,162,223 F,0,99713,99813,0,0.6 F,0,99813,100113,0.6,0 S,19,99813,100113,1.4,0
Sprite,Foreground,Centre,"sb\glow.png",322,328 C,0,99738,,196,162,223 F,0,99738,99838,0,0.6 F,0,99838,100138,0.6,0 S,19,99838,100138,1.4,0
Sprite,Foreground,Centre,"sb\glow.png",328,329 C,0,99763,,196,162,223 F,0,99763,99863,0,0.6 F,0,99863,100163,0.6,0 S,19,99863,100163,1.4,0
Sprite,Foreground,Centre,"sb\glow.png",334,330 C,0,99788,,196,162,223 F,0,99788,99888,0,0.6 F,0,99888,100188,0.6,0 S,19,99888,100188,1.4,0
Sprite,Foreground,Centre,"sb\glow.png",339,331 C,0,99813,,196,162,223 F,0,99813,99913,0,0.6 F,0,99913,100213,0.6,0 S,19,99913,100213,1.4,0
Sprite,Foreground,Centre,"sb\glow.png",422,395 C,0,100290,,196,162,223 F,2,100290,100671,1,0 S,2,100290,100671,1,0.2
Sprite,Foreground,Centre,"sb\glow.png",422,395 C,0,100190,,196,162,223 F,0,100190,100290,0,0.6 F,0,100290,100590,0.6,0 S,19,100290,100590,1.4,0
Sprite,Foreground,Centre,"sb\glow.png",428,396 C,0,100215,,196,162,223 F,0,100215,100315,0,0.6 F,0,100315,100615,0.6,0 S,19,100315,100615,1.4,0
Sprite,Foreground,Centre,"sb\glow.png",434,397 C,0,100240,,196,162,223 F,0,100240,100340,0,0.6 F,0,100340,100640,0.6,0 S,19,100340,100640,1.4,0
Sprite,Foreground,Centre,"sb\glow.png",439,398 C,0,100265,,196,162,223 F,0,100265,100365,0,0.6 F,0,100365,100665,0.6,0 S,19,100365,100665,1.4,0
Sprite,Foreground,Centre,"sb\glow.png",445,399 C,0,100290,,196,162,223 F,0,100290,100390,0,0.6 F,0,100390,100690,0.6,0 S,19,100390,100690,1.4,0
Sprite,Foreground,Centre,"sb\glow.png",451,400 C,0,100315,,196,162,223 F,0,100315,100415,0,0.6 F,0,100415,100715,0.6,0 S,19,100415,100715,1.4,0
Sprite,Foreground,Centre,"sb\glow.png",457,401 C,0,100340,,196,162,223 F,0,100340,100440,0,0.6 F,0,100440,100740,0.6,0 S,19,100440,100740,1.4,0
Sprite,Foreground,Centre,"sb\glow.png",462,402 C,0,100365,,196,162,223 F,0,100365,100465,0,0.6 F,0,100465,100765,0.6,0 S,19,100465,100765,1.4,0
Sprite,Foreground,Centre,"sb\glow.png",500,366 C,0,100654,,196,162,223 F,2,100654,100854,1,0 S,2,100654,100854,1,0.2
Sprite,Foreground,Centre,"sb\glow.png",430,291 C,0,101018,,196,162,223 F,2,101018,101552,1,0 S,2,101018,101552,1,0.2
Sprite,Foreground,Centre,"sb\glow.png",430,291 C,0,100918,,196,162,223 F,0,100918,101018,0,0.6 F,0,101018,101318,0.6,0 S,19,101018,101318,1.4,0
Sprite,Foreground,Centre,"sb\glow.png",427,286 C,0,100943,,196,162,223 F,0,100943,101043,0,0.6 F,0,101043,101343,0.6,0 S,19,101043,101343,1.4,0
Sprite,Foreground,Centre,"sb\glow.png",423,282 C,0,100968,,196,162,223 F,0,100968,101068,0,0.6 F,0,101068,101368,0.6,0 S,19,101068,101368,1.4,0
Sprite,Foreground,Centre,"sb\glow.png",420,277 C,0,100993,,196,162,223 F,0,100993,101093,0,0.6 F,0,101093,101393,0.6,0 S,19,101093,101393,1.4,0
Sprite,Foreground,Centre,"sb\glow.png",417,271 C,0,101018,,196,162,223 F,0,101018,101118,0,0.6 F,0,101118,101418,0.6,0 S,19,101118,101418,1.4,0
Sprite,Foreground,Centre,"sb\glow.png",415,266 C,0,101043,,196,162,223 F,0,101043,101143,0,0.6 F,0,101143,101443,0.6,0 S,19,101143,101443,1.4,0
Sprite,Foreground,Centre,"sb\glow.png",412,261 C,0,101068,,196,162,223 F,0,101068,101168,0,0.6 F,0,101168,101468,0.6,0 S,19,101168,101468,1.4,0
Sprite,Foreground,Centre,"sb\glow.png",411,255 C,0,101093,,196,162,223 F,0,101093,101193,0,0.6 F,0,101193,101493,0.6,0 S,19,101193,101493,1.4,0
Sprite,Foreground,Centre,"sb\glow.png",409,250 C,0,101118,,196,162,223 F,0,101118,101218,0,0.6 F,0,101218,101518,0.6,0 S,19,101218,101518,1.4,0
Sprite,Foreground,Centre,"sb\glow.png",408,244 C,0,101143,,196,162,223 F,0,101143,101243,0,0.6 F,0,101243,101543,0.6,0 S,19,101243,101543,1.4,0
Sprite,Foreground,Centre,"sb\glow.png",406,238 C,0,101168,,196,162,223 F,0,101168,101268,0,0.6 F,0,101268,101568,0.6,0 S,19,101268,101568,1.4,0
Sprite,Foreground,Centre,"sb\glow.png",406,233 C,0,101193,,196,162,223 F,0,101193,101293,0,0.6 F,0,101293,101593,0.6,0 S,19,101293,101593,1.4,0
Sprite,Foreground,Centre,"sb\glow.png",405,227 C,0,101218,,196,162,223 F,0,101218,101318,0,0.6 F,0,101318,101618,0.6,0 S,19,101318,101618,1.4,0
Sprite,Foreground,Centre,"sb\glow.png",405,221 C,0,101243,,196,162,223 F,0,101243,101343,0,0.6 F,0,101343,101643,0.6,0 S,19,101343,101643,1.4,0
Sprite,Foreground,Centre,"sb\glow.png",429,176 C,0,101533,,196,162,223 F,2,101533,102097,1,0 S,2,101533,102097,1,0.2
Sprite,Foreground,Centre,"sb\glow.png",429,176 C,0,101433,,196,162,223 F,0,101433,101533,0,0.6 F,0,101533,101833,0.6,0 S,19,101533,101833,1.4,0
Sprite,Foreground,Centre,"sb\glow.png",432,171 C,0,101458,,196,162,223 F,0,101458,101558,0,0.6 F,0,101558,101858,0.6,0 S,19,101558,101858,1.4,0
Sprite,Foreground,Centre,"sb\glow.png",436,167 C,0,101483,,196,162,223 F,0,101483,101583,0,0.6 F,0,101583,101883,0.6,0 S,19,101583,101883,1.4,0
Sprite,Foreground,Centre,"sb\glow.png",439,162 C,0,101508,,196,162,223 F,0,101508,101608,0,0.6 F,0,101608,101908,0.6,0 S,19,101608,101908,1.4,0
Sprite,Foreground,Centre,"sb\glow.png",442,156 C,0,101533,,196,162,223 F,0,101533,101633,0,0.6 F,0,101633,101933,0.6,0 S,19,101633,101933,1.4,0
Sprite,Foreground,Centre,"sb\glow.png",444,151 C,0,101558,,196,162,223 F,0,101558,101658,0,0.6 F,0,101658,101958,0.6,0 S,19,101658,101958,1.4,0
Sprite,Foreground,Centre,"sb\glow.png",447,146 C,0,101583,,196,162,223 F,0,101583,101683,0,0.6 F,0,101683,101983,0.6,0 S,19,101683,101983,1.4,0
Sprite,Foreground,Centre,"sb\glow.png",448,140 C,0,101608,,196,162,223 F,0,101608,101708,0,0.6 F,0,101708,102008,0.6,0 S,19,101708,102008,1.4,0
Sprite,Foreground,Centre,"sb\glow.png",450,135 C,0,101633,,196,162,223 F,0,101633,101733,0,0.6 F,0,101733,102033,0.6,0 S,19,101733,102033,1.4,0
Sprite,Foreground,Centre,"sb\glow.png",451,129 C,0,101658,,196,162,223 F,0,101658,101758,0,0.6 F,0,101758,102058,0.6,0 S,19,101758,102058,1.4,0
Sprite,Foreground,Centre,"sb\glow.png",453,123 C,0,101683,,196,162,223 F,0,101683,101783,0,0.6 F,0,101783,102083,0.6,0 S,19,101783,102083,1.4,0
Sprite,Foreground,Centre,"sb\glow.png",453,118 C,0,101708,,196,162,223 F,0,101708,101808,0,0.6 F,0,101808,102108,0.6,0 S,19,101808,102108,1.4,0
Sprite,Foreground,Centre,"sb\glow.png",454,112 C,0,101733,,196,162,223 F,0,101733,101833,0,0.6 F,0,101833,102133,0.6,0 S,19,101833,102133,1.4,0
Sprite,Foreground,Centre,"sb\glow.png",454,106 C,0,101758,,196,162,223 F,0,101758,101858,0,0.6 F,0,101858,102158,0.6,0 S,19,101858,102158,1.4,0
Sprite,Foreground,Centre,"sb\glow.png",453,100 C,0,101783,,196,162,223 F,0,101783,101883,0,0.6 F,0,101883,102183,0.6,0 S,19,101883,102183,1.4,0
Sprite,Foreground,Centre,"sb\glow.png",414,58 C,0,102091,,196,162,223 F,2,102091,102291,1,0 S,2,102091,102291,1,0.2
Sprite,Foreground,Centre,"sb\glow.png",341,119 C,0,102446,,199,109,166 F,2,102446,103025,1,0 S,2,102446,103025,1,0.2
Sprite,Foreground,Centre,"sb\glow.png",341,119 C,0,102346,,199,109,166 F,0,102346,102446,0,0.6 F,0,102446,102746,0.6,0 S,19,102446,102746,1.4,0
Sprite,Foreground,Centre,"sb\glow.png",335,120 C,0,102371,,199,109,166 F,0,102371,102471,0,0.6 F,0,102471,102771,0.6,0 S,19,102471,102771,1.4,0
Sprite,Foreground,Centre,"sb\glow.png",330,121 C,0,102396,,199,109,166 F,0,102396,102496,0,0.6 F,0,102496,102796,0.6,0 S,19,102496,102796,1.4,0
Sprite,Foreground,Centre,"sb\glow.png",324,122 C,0,102421,,199,109,166 F,0,102421,102521,0,0.6 F,0,102521,102821,0.6,0 S,19,102521,102821,1.4,0
Sprite,Foreground,Centre,"sb\glow.png",319,123 C,0,102446,,199,109,166 F,0,102446,102546,0,0.6 F,0,102546,102846,0.6,0 S,19,102546,102846,1.4,0
Sprite,Foreground,Centre,"sb\glow.png",313,123 C,0,102471,,199,109,166 F,0,102471,102571,0,0.6 F,0,102571,102871,0.6,0 S,19,102571,102871,1.4,0
Sprite,Foreground,Centre,"sb\glow.png",308,124 C,0,102496,,199,109,166 F,0,102496,102596,0,0.6 F,0,102596,102896,0.6,0 S,19,102596,102896,1.4,0
Sprite,Foreground,Centre,"sb\glow.png",302,125 C,0,102521,,199,109,166 F,0,102521,102621,0,0.6 F,0,102621,102921,0.6,0 S,19,102621,102921,1.4,0
Sprite,Foreground,Centre,"sb\glow.png",297,125 C,0,102546,,199,109,166 F,0,102546,102646,0,0.6 F,0,102646,102946,0.6,0 S,19,102646,102946,1.4,0
Sprite,Foreground,Centre,"sb\glow.png",291,126 C,0,102571,,199,109,166 F,0,102571,102671,0,0.6 F,0,102671,102971,0.6,0 S,19,102671,102971,1.4,0
Sprite,Foreground,Centre,"sb\glow.png",286,126 C,0,102596,,199,109,166 F,0,102596,102696,0,0.6 F,0,102696,102996,0.6,0 S,19,102696,102996,1.4,0
Sprite,Foreground,Centre,"sb\glow.png",280,126 C,0,102621,,199,109,166 F,0,102621,102721,0,0.6 F,0,102721,103021,0.6,0 S,19,102721,103021,1.4,0
Sprite,Foreground,Centre,"sb\glow.png",274,127 C,0,102646,,199,109,166 F,0,102646,102746,0,0.6 F,0,102746,103046,0.6,0 S,19,102746,103046,1.4,0
Sprite,Foreground,Centre,"sb\glow.png",269,127 C,0,102671,,199,109,166 F,0,102671,102771,0,0.6 F,0,102771,103071,0.6,0 S,19,102771,103071,1.4,0
Sprite,Foreground,Centre,"sb\glow.png",263,127 C,0,102696,,199,109,166 F,0,102696,102796,0,0.6 F,0,102796,103096,0.6,0 S,19,102796,103096,1.4,0
Sprite,Foreground,Centre,"sb\glow.png",258,127 C,0,102721,,199,109,166 F,0,102721,102821,0,0.6 F,0,102821,103121,0.6,0 S,19,102821,103121,1.4,0
Sprite,Foreground,Centre,"sb\glow.png",173,67 C,0,103190,,199,109,166 F,2,103190,103571,1,0 S,2,103190,103571,1,0.2
Sprite,Foreground,Centre,"sb\glow.png",173,67 C,0,103090,,199,109,166 F,0,103090,103190,0,0.6 F,0,103190,103490,0.6,0 S,19,103190,103490,1.4,0
Sprite,Foreground,Centre,"sb\glow.png",167,66 C,0,103115,,199,109,166 F,0,103115,103215,0,0.6 F,0,103215,103515,0.6,0 S,19,103215,103515,1.4,0
Sprite,Foreground,Centre,"sb\glow.png",161,65 C,0,103140,,199,109,166 F,0,103140,103240,0,0.6 F,0,103240,103540,0.6,0 S,19,103240,103540,1.4,0
Sprite,Foreground,Centre,"sb\glow.png",156,64 C,0,103165,,199,109,166 F,0,103165,103265,0,0.6 F,0,103265,103565,0.6,0 S,19,103265,103565,1.4,0
Sprite,Foreground,Centre,"sb\glow.png",150,63 C,0,103190,,199,109,166 F,0,103190,103290,0,0.6 F,0,103290,103590,0.6,0 S,19,103290,103590,1.4,0
Sprite,Foreground,Centre,"sb\glow.png",144,63 C,0,103215,,199,109,166 F,0,103215,103315,0,0.6 F,0,103315,103615,0.6,0 S,19,103315,103615,1.4,0
Sprite,Foreground,Centre,"sb\glow.png",138,62 C,0,103240,,199,109,166 F,0,103240,103340,0,0.6 F,0,103340,103640,0.6,0 S,19,103340,103640,1.4,0
Sprite,Foreground,Centre,"sb\glow.png",133,61 C,0,103265,,199,109,166 F,0,103265,103365,0,0.6 F,0,103365,103665,0.6,0 S,19,103365,103665,1.4,0
Sprite,Foreground,Centre,"sb\glow.png",84,81 C,0,103554,,199,109,166 F,2,103554,103754,1,0 S,2,103554,103754,1,0.2
Sprite,Foreground,Centre,"sb\glow.png",77,182 C,0,103917,,199,109,166 F,2,103917,104480,1,0 S,2,103917,104480,1,0.2
Sprite,Foreground,Centre,"sb\glow.png",77,182 C,0,103817,,199,109,166 F,0,103817,103917,0,0.6 F,0,103917,104217,0.6,0 S,19,103917,104217,1.4,0
Sprite,Foreground,Centre,"sb\glow.png",80,187 C,0,103842,,199,109,166 F,0,103842,103942,0,0.6 F,0,103942,104242,0.6,0 S,19,103942,104242,1.4,0
Sprite,Foreground,Centre,"sb\glow.png",83,192 C,0,103867,,199,109,166 F,0,103867,103967,0,0.6 F,0,103967,104267,0.6,0 S,19,103967,104267,1.4,0
Sprite,Foreground,Centre,"sb\glow.png",87,197 C,0,103892,,199,109,166 F,0,103892,103992,0,0.6 F,0,103992,104292,0.6,0 S,19,103992,104292,1.4,0
Sprite,Foreground,Centre,"sb\glow.png",89,202 C,0,103917,,199,109,166 F,0,103917,104017,0,0.6 F,0,104017,104317,0.6,0 S,19,104017,104317,1.4,0
Sprite,Foreground,Centre,"sb\glow.png",92,207 C,0,103942,,199,109,166 F,0,103942,104042,0,0.6 F,0,104042,104342,0.6,0 S,19,104042,104342,1.4,0
Sprite,Foreground,Centre,"sb\glow.png",95,212 C,0,103967,,199,109,166 F,0,103967,104067,0,0.6 F,0,104067,104367,0.6,0 S,19,104067,104367,1.4,0
Sprite,Foreground,Centre,"sb\glow.png",97,218 C,0,103992,,199,109,166 F,0,103992,104092,0,0.6 F,0,104092,104392,0.6,0 S,19,104092,104392,1.4,0
Sprite,Foreground,Centre,"sb\glow.png",99,223 C,0,104017,,199,109,166 F,0,104017,104117,0,0.6 F,0,104117,104417,0.6,0 S,19,104117,104417,1.4,0
Sprite,Foreground,Centre,"sb\glow.png",101,228 C,0,104042,,199,109,166 F,0,104042,104142,0,0.6 F,0,104142,104442,0.6,0 S,19,104142,104442,1.4,0
Sprite,Foreground,Centre,"sb\glow.png",103,234 C,0,104067,,199,109,166 F,0,104067,104167,0,0.6 F,0,104167,104467,0.6,0 S,19,104167,104467,1.4,0
Sprite,Foreground,Centre,"sb\glow.png",104,240 C,0,104092,,199,109,166 F,0,104092,104192,0,0.6 F,0,104192,104492,0.6,0 S,19,104192,104492,1.4,0
Sprite,Foreground,Centre,"sb\glow.png",106,245 C,0,104117,,199,109,166 F,0,104117,104217,0,0.6 F,0,104217,104517,0.6,0 S,19,104217,104517,1.4,0
Sprite,Foreground,Centre,"sb\glow.png",107,251 C,0,104142,,199,109,166 F,0,104142,104242,0,0.6 F,0,104242,104542,0.6,0 S,19,104242,104542,1.4,0
Sprite,Foreground,Centre,"sb\glow.png",108,257 C,0,104167,,199,109,166 F,0,104167,104267,0,0.6 F,0,104267,104567,0.6,0 S,19,104267,104567,1.4,0
Sprite,Foreground,Centre,"sb\glow.png",105,309 C,0,104462,,199,109,166 F,2,104462,105025,1,0 S,2,104462,105025,1,0.2
Sprite,Foreground,Centre,"sb\glow.png",105,309 C,0,104362,,199,109,166 F,0,104362,104462,0,0.6 F,0,104462,104762,0.6,0 S,19,104462,104762,1.4,0
Sprite,Foreground,Centre,"sb\glow.png",102,314 C,0,104387,,199,109,166 F,0,104387,104487,0,0.6 F,0,104487,104787,0.6,0 S,19,104487,104787,1.4,0
Sprite,Foreground,Centre,"sb\glow.png",98,319 C,0,104412,,199,109,166 F,0,104412,104512,0,0.6 F,0,104512,104812,0.6,0 S,19,104512,104812,1.4,0
Sprite,Foreground,Centre,"sb\glow.png",95,323 C,0,104437,,199,109,166 F,0,104437,104537,0,0.6 F,0,104537,104837,0.6,0 S,19,104537,104837,1.4,0
Sprite,Foreground,Centre,"sb\glow.png",92,329 C,0,104462,,199,109,166 F,0,104462,104562,0,0.6 F,0,104562,104862,0.6,0 S,19,104562,104862,1.4,0
Sprite,Foreground,Centre,"sb\glow.png",89,334 C,0,104487,,199,109,166 F,0,104487,104587,0,0.6 F,0,104587,104887,0.6,0 S,19,104587,104887,1.4,0
Sprite,Foreground,Centre,"sb\glow.png",87,339 C,0,104512,,199,109,166 F,0,104512,104612,0,0.6 F,0,104612,104912,0.6,0 S,19,104612,104912,1.4,0
Sprite,Foreground,Centre,"sb\glow.png",84,344 C,0,104537,,199,109,166 F,0,104537,104637,0,0.6 F,0,104637,104937,0.6,0 S,19,104637,104937,1.4,0
Sprite,Foreground,Centre,"sb\glow.png",82,349 C,0,104562,,199,109,166 F,0,104562,104662,0,0.6 F,0,104662,104962,0.6,0 S,19,104662,104962,1.4,0
Sprite,Foreground,Centre,"sb\glow.png",80,355 C,0,104587,,199,109,166 F,0,104587,104687,0,0.6 F,0,104687,104987,0.6,0 S,19,104687,104987,1.4,0
Sprite,Foreground,Centre,"sb\glow.png",78,360 C,0,104612,,199,109,166 F,0,104612,104712,0,0.6 F,0,104712,105012,0.6,0 S,19,104712,105012,1.4,0
Sprite,Foreground,Centre,"sb\glow.png",76,366 C,0,104637,,199,109,166 F,0,104637,104737,0,0.6 F,0,104737,105037,0.6,0 S,19,104737,105037,1.4,0
Sprite,Foreground,Centre,"sb\glow.png",74,372 C,0,104662,,199,109,166 F,0,104662,104762,0,0.6 F,0,104762,105062,0.6,0 S,19,104762,105062,1.4,0
Sprite,Foreground,Centre,"sb\glow.png",73,377 C,0,104687,,199,109,166 F,0,104687,104787,0,0.6 F,0,104787,105087,0.6,0 S,19,104787,105087,1.4,0
Sprite,Foreground,Centre,"sb\glow.png",72,383 C,0,104712,,199,109,166 F,0,104712,104812,0,0.6 F,0,104812,105112,0.6,0 S,19,104812,105112,1.4,0
Sprite,Foreground,Centre,"sb\glow.png",107,422 C,0,105007,,199,109,166 F,2,105007,105207,1,0 S,2,105007,105207,1,0.2
Sprite,Foreground,Centre,"sb\glow.png",217,406 C,0,105371,,224,130,124 F,2,105371,105934,1,0 S,2,105371,105934,1,0.2
Sprite,Foreground,Centre,"sb\glow.png",217,406 C,0,105271,,224,130,124 F,0,105271,105371,0,0.6 F,0,105371,105671,0.6,0 S,19,105371,105671,1.4,0
Sprite,Foreground,Centre,"sb\glow.png",223,407 C,0,105296,,224,130,124 F,0,105296,105396,0,0.6 F,0,105396,105696,0.6,0 S,19,105396,105696,1.4,0
Sprite,Foreground,Centre,"sb\glow.png",230,408 C,0,105321,,224,130,124 F,0,105321,105421,0,0.6 F,0,105421,105721,0.6,0 S,19,105421,105721,1.4,0
Sprite,Foreground,Centre,"sb\glow.png",236,408 C,0,105346,,224,130,124 F,0,105346,105446,0,0.6 F,0,105446,105746,0.6,0 S,19,105446,105746,1.4,0
Sprite,Foreground,Centre,"sb\glow.png",243,407 C,0,105371,,224,130,124 F,0,105371,105471,0,0.6 F,0,105471,105771,0.6,0 S,19,105471,105771,1.4,0
Sprite,Foreground,Centre,"sb\glow.png",249,406 C,0,105396,,224,130,124 F,0,105396,105496,0,0.6 F,0,105496,105796,0.6,0 S,19,105496,105796,1.4,0
Sprite,Foreground,Centre,"sb\glow.png",255,404 C,0,105421,,224,130,124 F,0,105421,105521,0,0.6 F,0,105521,105821,0.6,0 S,19,105521,105821,1.4,0
Sprite,Foreground,Centre,"sb\glow.png",261,402 C,0,105446,,224,130,124 F,0,105446,105546,0,0.6 F,0,105546,105846,0.6,0 S,19,105546,105846,1.4,0
Sprite,Foreground,Centre,"sb\glow.png",267,400 C,0,105471,,224,130,124 F,0,105471,105571,0,0.6 F,0,105571,105871,0.6,0 S,19,105571,105871,1.4,0
Sprite,Foreground,Centre,"sb\glow.png",273,397 C,0,105496,,224,130,124 F,0,105496,105596,0,0.6 F,0,105596,105896,0.6,0 S,19,105596,105896,1.4,0
Sprite,Foreground,Centre,"sb\glow.png",279,395 C,0,105521,,224,130,124 F,0,105521,105621,0,0.6 F,0,105621,105921,0.6,0 S,19,105621,105921,1.4,0
Sprite,Foreground,Centre,"sb\glow.png",285,394 C,0,105546,,224,130,124 F,0,105546,105646,0,0.6 F,0,105646,105946,0.6,0 S,19,105646,105946,1.4,0
Sprite,Foreground,Centre,"sb\glow.png",292,393 C,0,105571,,224,130,124 F,0,105571,105671,0,0.6 F,0,105671,105971,0.6,0 S,19,105671,105971,1.4,0
Sprite,Foreground,Centre,"sb\glow.png",298,393 C,0,105596,,224,130,124 F,0,105596,105696,0,0.6 F,0,105696,105996,0.6,0 S,19,105696,105996,1.4,0
Sprite,Foreground,Centre,"sb\glow.png",305,394 C,0,105621,,224,130,124 F,0,105621,105721,0,0.6 F,0,105721,106021,0.6,0 S,19,105721,106021,1.4,0
Sprite,Foreground,Centre,"sb\glow.png",388,316 C,0,106098,,224,130,124 F,2,106098,106479,1,0 S,2,106098,106479,1,0.2
Sprite,Foreground,Centre,"sb\glow.png",388,316 C,0,105998,,224,130,124 F,0,105998,106098,0,0.6 F,0,106098,106398,0.6,0 S,19,106098,106398,1.4,0
Sprite,Foreground,Centre,"sb\glow.png",389,310 C,0,106023,,224,130,124 F,0,106023,106123,0,0.6 F,0,106123,106423,0.6,0 S,19,106123,106423,1.4,0
Sprite,Foreground,Centre,"sb\glow.png",390,303 C,0,106048,,224,130,124 F,0,106048,106148,0,0.6 F,0,106148,106448,0.6,0 S,19,106148,106448,1.4,0
Sprite,Foreground,Centre,"sb\glow.png",391,297 C,0,106073,,224,130,124 F,0,106073,106173,0,0.6 F,0,106173,106473,0.6,0 S,19,106173,106473,1.4,0
Sprite,Foreground,Centre,"sb\glow.png",392,291 C,0,106098,,224,130,124 F,0,106098,106198,0,0.6 F,0,106198,106498,0.6,0 S,19,106198,106498,1.4,0
Sprite,Foreground,Centre,"sb\glow.png",393,284 C,0,106123,,224,130,124 F,0,106123,106223,0,0.6 F,0,106223,106523,0.6,0 S,19,106223,106523,1.4,0
Sprite,Foreground,Centre,"sb\glow.png",394,278 C,0,106148,,224,130,124 F,0,106148,106248,0,0.6 F,0,106248,106548,0.6,0 S,19,106248,106548,1.4,0
Sprite,Foreground,Centre,"sb\glow.png",394,271 C,0,106173,,224,130,124 F,0,106173,106273,0,0.6 F,0,106273,106573,0.6,0 S,19,106273,106573,1.4,0
Sprite,Foreground,Centre,"sb\glow.png",434,230 C,0,106462,,224,130,124 F,2,106462,106662,1,0 S,2,106462,106662,1,0.2
Sprite,Foreground,Centre,"sb\glow.png",469,123 C,0,106826,,224,130,124 F,2,106826,107389,1,0 S,2,106826,107389,1,0.2
Sprite,Foreground,Centre,"sb\glow.png",469,123 C,0,106726,,224,130,124 F,0,106726,106826,0,0.6 F,0,106826,107126,0.6,0 S,19,106826,107126,1.4,0
Sprite,Foreground,Centre,"sb\glow.png",463,124 C,0,106751,,224,130,124 F,0,106751,106851,0,0.6 F,0,106851,107151,0.6,0 S,19,106851,107151,1.4,0
Sprite,Foreground,Centre,"sb\glow.png",456,125 C,0,106776,,224,130,124 F,0,106776,106876,0,0.6 F,0,106876,107176,0.6,0 S,19,106876,107176,1.4,0
Sprite,Foreground,Centre,"sb\glow.png",450,125 C,0,106801,,224,130,124 F,0,106801,106901,0,0.6 F,0,106901,107201,0.6,0 S,19,106901,107201,1.4,0
Sprite,Foreground,Centre,"sb\glow.png",443,125 C,0,106826,,224,130,124 F,0,106826,106926,0,0.6 F,0,106926,107226,0.6,0 S,19,106926,107226,1.4,0
Sprite,Foreground,Centre,"sb\glow.png",437,125 C,0,106851,,224,130,124 F,0,106851,106951,0,0.6 F,0,106951,107251,0.6,0 S,19,106951,107251,1.4,0
Sprite,Foreground,Centre,"sb\glow.png",431,124 C,0,106876,,224,130,124 F,0,106876,106976,0,0.6 F,0,106976,107276,0.6,0 S,19,106976,107276,1.4,0
Sprite,Foreground,Centre,"sb\glow.png",425,122 C,0,106901,,224,130,124 F,0,106901,107001,0,0.6 F,0,107001,107301,0.6,0 S,19,107001,107301,1.4,0
Sprite,Foreground,Centre,"sb\glow.png",419,119 C,0,106926,,224,130,124 F,0,106926,107026,0,0.6 F,0,107026,107326,0.6,0 S,19,107026,107326,1.4,0
Sprite,Foreground,Centre,"sb\glow.png",413,117 C,0,106951,,224,130,124 F,0,106951,107051,0,0.6 F,0,107051,107351,0.6,0 S,19,107051,107351,1.4,0
Sprite,Foreground,Centre,"sb\glow.png",406,115 C,0,106976,,224,130,124 F,0,106976,107076,0,0.6 F,0,107076,107376,0.6,0 S,19,107076,107376,1.4,0
Sprite,Foreground,Centre,"sb\glow.png",400,114 C,0,107001,,224,130,124 F,0,107001,107101,0,0.6 F,0,107101,107401,0.6,0 S,19,107101,107401,1.4,0
Sprite,Foreground,Centre,"sb\glow.png",394,114 C,0,107026,,224,130,124 F,0,107026,107126,0,0.6 F,0,107126,107426,0.6,0 S,19,107126,107426,1.4,0
Sprite,Foreground,Centre,"sb\glow.png",387,114 C,0,107051,,224,130,124 F,0,107051,107151,0,0.6 F,0,107151,107451,0.6,0 S,19,107151,107451,1.4,0
Sprite,Foreground,Centre,"sb\glow.png",381,114 C,0,107076,,224,130,124 F,0,107076,107176,0,0.6 F,0,107176,107476,0.6,0 S,19,107176,107476,1.4,0
Sprite,Foreground,Centre,"sb\glow.png",322,126 C,0,107371,,224,130,124 F,2,107371,107571,1,0 S,2,107371,107571,1,0.2
Sprite,Foreground,Centre,"sb\glow.png",267,138 C,0,107553,,224,130,124 F,2,107553,107934,1,0 S,2,107553,107934,1,0.2
Sprite,Foreground,Centre,"sb\glow.png",267,138 C,0,107453,,224,130,124 F,0,107453,107553,0,0.6 F,0,107553,107853,0.6,0 S,19,107553,107853,1.4,0
Sprite,Foreground,Centre,"sb\glow.png",261,139 C,0,107478,,224,130,124 F,0,107478,107578,0,0.6 F,0,107578,107878,0.6,0 S,19,107578,107878,1.4,0
Sprite,Foreground,Centre,"sb\glow.png",254,140 C,0,107503,,224,130,124 F,0,107503,107603,0,0.6 F,0,107603,107903,0.6,0 S,19,107603,107903,1.4,0
Sprite,Foreground,Centre,"sb\glow.png",248,141 C,0,107528,,224,130,124 F,0,107528,107628,0,0.6 F,0,107628,107928,0.6,0 S,19,107628,107928,1.4,0
Sprite,Foreground,Centre,"sb\glow.png",242,143 C,0,107553,,224,130,124 F,0,107553,107653,0,0.6 F,0,107653,107953,0.6,0 S,19,107653,107953,1.4,0
Sprite,Foreground,Centre,"sb\glow.png",235,144 C,0,107578,,224,130,124 F,0,107578,107678,0,0.6 F,0,107678,107978,0.6,0 S,19,107678,107978,1.4,0
Sprite,Foreground,Centre,"sb\glow.png",229,145 C,0,107603,,224,130,124 F,0,107603,107703,0,0.6 F,0,107703,108003,0.6,0 S,19,107703,108003,1.4,0
Sprite,Foreground,Centre,"sb\glow.png",223,146 C,0,107628,,224,130,124 F,0,107628,107728,0,0.6 F,0,107728,108028,0.6,0 S,19,107728,108028,1.4,0
Sprite,Foreground,Centre,"sb\glow.png",180,107 C,0,107917,,224,130,124 F,2,107917,108298,1,0 S,2,107917,108298,1,0.2
Sprite,Foreground,Centre,"sb\glow.png",180,107 C,0,107817,,224,130,124 F,0,107817,107917,0,0.6 F,0,107917,108217,0.6,0 S,19,107917,108217,1.4,0
Sprite,Foreground,Centre,"sb\glow.png",174,106 C,0,107842,,224,130,124 F,0,107842,107942,0,0.6 F,0,107942,108242,0.6,0 S,19,107942,108242,1.4,0
Sprite,Foreground,Centre,"sb\glow.png",167,105 C,0,107867,,224,130,124 F,0,107867,107967,0,0.6 F,0,107967,108267,0.6,0 S,19,107967,108267,1.4,0
Sprite,Foreground,Centre,"sb\glow.png",161,104 C,0,107892,,224,130,124 F,0,107892,107992,0,0.6 F,0,107992,108292,0.6,0 S,19,107992,108292,1.4,0
Sprite,Foreground,Centre,"sb\glow.png",155,102 C,0,107917,,224,130,124 F,0,107917,108017,0,0.6 F,0,108017,108317,0.6,0 S,19,108017,108317,1.4,0
Sprite,Foreground,Centre,"sb\glow.png",148,101 C,0,107942,,224,130,124 F,0,107942,108042,0,0.6 F,0,108042,108342,0.6,0 S,19,108042,108342,1.4,0
Sprite,Foreground,Centre,"sb\glow.png",142,100 C,0,107967,,224,130,124 F,0,107967,108067,0,0.6 F,0,108067,108367,0.6,0 S,19,108067,108367,1.4,0
Sprite,Foreground,Centre,"sb\glow.png",136,99 C,0,107992,,224,130,124 F,0,107992,108092,0,0.6 F,0,108092,108392,0.6,0 S,19,108092,108392,1.4,0
//Storyboard Layer 4 (Overlay)
//Storyboard Sound Samples

[TimingPoints]
646,363.636363636364,4,2,1,32,1,8
3543,363.636363636364,4,2,1,32,1,8
6452,-100,4,2,1,30,0,8
7179,-100,4,2,1,35,0,8
7906,-100,4,2,1,40,0,8
8633,-100,4,2,1,45,0,8
9379,363.636363636364,4,2,1,50,1,0
9742,-100,4,2,1,52,0,0
10106,-100,4,2,1,54,0,0
10288,-100,4,2,1,56,0,0
10469,-100,4,2,1,58,0,0
10833,-100,4,2,1,62,0,0
11014,-100,4,2,1,64,0,0
11197,-100,4,2,1,66,0,0
11378,-100,4,2,1,68,0,0
11560,-100,4,2,1,70,0,0
11924,-100,4,2,1,60,0,0
12288,-100,4,2,99,70,0,0
12365,-100,4,2,1,70,0,0
13742,342.857142857143,4,2,1,70,1,8
14084,363.636363636364,4,2,1,70,1,8
15173,363.636363636364,4,2,1,70,1,8
15900,359.281437125748,4,2,1,70,1,8
16259,363.636363636364,4,2,1,70,1,8
16986,-100,4,2,1,60,0,8
17167,-100,4,2,1,70,0,8
17348,363.636363636364,4,2,1,70,1,8
17711,-100,4,2,1,60,0,8
18075,368.098159509202,4,2,1,70,1,8
20467,361.44578313253,4,2,1,60,1,0
21009,348.837209302326,4,2,1,70,1,0
21358,379.746835443038,4,2,1,60,1,0
21547,-100,4,2,1,70,0,0
21927,363.636363636364,4,2,1,70,1,0
22290,363.636363636364,4,2,1,70,1,0
22471,363.636363636364,4,2,1,70,1,0
23919,363.636363636364,4,2,99,70,1,0
24009,-100,4,2,1,70,0,0
28463,-100,4,2,1,50,0,0
28646,-100,4,2,1,53,0,0
28827,-100,4,2,1,56,0,0
29009,-100,4,2,1,59,0,0
29190,-100,4,2,1,62,0,0
29373,-100,4,2,1,65,0,0
29554,-100,4,2,1,68,0,0
29730,365.853658536585,4,2,1,30,1,8
29730,-111.111111111111,4,2,1,30,0,8
32657,363.636363636364,4,2,1,30,1,8
32657,-111.111111111111,4,2,1,30,0,8
41003,370.37037037037,4,2,1,30,1,8
41374,363.636363636364,4,2,1,55,1,8
44283,359.281437125748,4,2,1,55,1,8
45720,363.636363636364,4,2,1,55,1,8
47174,365.853658536585,4,2,1,55,1,8
48637,363.636363636364,4,2,1,55,1,8
53364,-100,4,2,1,50,0,8
53546,-100,4,2,1,53,0,8
53727,-100,4,2,1,56,0,8
54091,-100,4,2,1,62,0,8
54455,-100,4,2,1,67,0,8
54818,-100,4,2,1,70,0,8
55182,370.37037037037,4,2,1,60,1,8
55926,363.636363636364,4,2,1,60,1,8
57370,363.636363636364,4,2,1,60,1,8
63551,382.165605095541,4,2,1,60,1,8
63933,348.837209302326,4,2,1,60,1,8
64281,363.636363636364,4,2,1,60,1,8
64644,363.636363636364,4,2,1,70,1,8
67561,363.636363636364,4,2,99,70,1,9
67648,-100,4,2,1,70,0,9
69015,352.941176470588,4,2,1,70,1,9
69015,-90.9090909090909,4,2,1,70,0,9
69897,363.636363636364,4,2,1,70,1,9
70442,363.636363636364,4,2,1,70,1,9
70442,-90.9090909090909,4,2,1,70,0,9
73351,389.61038961039,4,2,1,70,1,9
73351,-90.9090909090909,4,2,1,70,0,9
73740,363.636363636364,4,2,1,70,1,1
74103,-90.9090909090909,4,2,1,70,0,1
74285,350.877192982456,4,2,1,70,1,1
74811,363.636363636364,4,2,1,70,1,1
74811,-90.9090909090909,4,2,1,70,0,1
75901,379.746835443038,4,2,1,80,1,9
76281,363.636363636364,4,2,1,80,1,9
76281,-90.9090909090909,4,2,1,80,0,9
78280,-90.9090909090909,4,2,1,60,0,9
78464,363.636363636364,4,2,1,60,1,1
78827,-90.9090909090909,4,2,1,52,0,1
78918,-90.9090909090909,4,2,1,54,0,1
79008,-90.9090909090909,4,2,1,56,0,1
79190,363.636363636364,4,2,99,80,1,1
79190,-90.9090909090909,4,2,99,80,0,1
79280,-90.9090909090909,4,2,1,80,0,1
85008,-100,4,2,1,75,0,0
86481,357.142857142857,4,2,1,75,1,8
87017,363.636363636364,4,2,1,75,1,0
87198,363.636363636364,4,2,1,75,1,0
87924,363.636363636364,4,2,1,75,1,0
90833,-90.9090909090909,4,2,1,75,0,1
91560,-90.9090909090909,4,2,1,77,0,1
91923,-90.9090909090909,4,2,1,79,0,1
92273,363.636363636364,4,2,1,83,1,9
92636,-100,4,2,1,85,0,9
93000,-90.9090909090909,4,2,1,87,0,9
93363,-90.9090909090909,4,2,1,89,0,9
93727,-90.9090909090909,4,2,1,92,0,9
94818,-90.9090909090909,4,2,1,80,0,9
95183,370.37037037037,4,2,1,90,1,9
95183,-90.9090909090909,4,2,1,90,0,9
96672,359.281437125748,4,2,1,70,1,8
98109,363.636363636364,4,2,1,70,1,8
101352,363.636363636364,4,2,1,70,1,8
101910,363.636363636364,4,2,1,70,1,8
102091,-100,4,2,1,50,0,8
102446,379.746835443038,4,2,1,70,1,8
102827,363.636363636364,4,2,1,70,1,8
103917,363.636363636364,4,2,1,70,1,8
105371,-90.9090909090909,4,2,1,70,0,9
106098,-90.9090909090909,4,2,1,72,0,9
106462,-90.9090909090909,4,2,1,74,0,9
106826,-90.9090909090909,4,2,1,76,0,9
107007,-90.9090909090909,4,2,1,78,0,9
107189,-90.9090909090909,4,2,1,80,0,9
107371,-90.9090909090909,4,2,1,82,0,9
107553,-90.9090909090909,4,2,1,84,0,9
107734,-90.9090909090909,4,2,1,86,0,9
107917,-90.9090909090909,4,2,1,88,0,9
108098,-90.9090909090909,4,2,1,90,0,9
109015,363.636363636364,4,2,99,80,1,8
116838,319.148936170213,4,2,99,70,1,0
117077,-100,4,2,1,70,0,0

[Colours]
Combo1 : 199,109,166
Combo2 : 224,130,124
Combo3 : 220,166,126
Combo4 : 222,203,124
Combo5 : 196,162,223

[HitObjects]
301,103,6452,6,0,B|409:54|375:133|475:82,2,170,2|2|2,2:0|2:0|2:0,2:0:0:0:
183,270,8633,2,0,B|98:231|125:293|47:253,1,127.5,2|0,2:0|2:0,2:0:0:0:
28,219,9379,6,0,L|51:126,1,85,2|0,3:0|3:0,2:0:0:0:
147,110,10106,2,0,L|126:27,1,85,0|0,3:0|3:0,2:0:0:0:
227,15,10833,2,0,L|284:5,1,42.5,8|8,3:2|3:2,2:0:0:0:
305,43,11197,2,0,L|346:50,1,42.5,8|8,3:2|2:0,2:0:0:0:
396,62,11560,1,12,2:0:0:0:
484,10,11924,2,0,P|496:43|498:66,1,42.5,8|8,2:0|2:0,2:0:0:0:
497,101,12288,6,0,P|476:129|479:234,1,127.5,12|0,2:0|2:0,2:0:0:0:
484,267,13015,1,2,3:0:0:0:
382,276,13379,1,8,2:0:0:0:
330,371,13742,2,0,P|297:373|245:370,1,85,2|10,3:0|2:0,2:0:0:0:
166,305,14447,1,2,3:0:0:0:
201,209,14811,1,10,2:0:0:0:
121,147,15173,6,0,P|152:118|247:111,1,127.5,2|0,3:0|2:0,2:0:0:0:
273,66,15900,1,0,3:0:0:0:
183,20,16259,2,0,P|149:28|124:38,1,42.5,8|0,2:0|2:0,2:0:0:0:
95,50,16622,1,2,3:0:0:0:
47,140,16986,2,0,L|57:196,1,42.5,10|0,2:0|3:0,2:0:0:0:
28,225,17348,2,0,L|15:328,1,85,2|10,3:0|2:0,2:0:0:0:
108,352,18075,6,0,P|180:357|231:310,1,127.5,14|0,2:0|2:0,2:0:0:0:
228,275,18811,1,2,3:0:0:0:
254,176,19179,1,8,2:0:0:0:
342,226,19547,2,0,L|437:212,1,85,2|10,3:0|2:0,2:0:0:0:
433,111,20283,2,0,L|348:123,1,84.2690833333333,2|8,3:0|2:0,2:0:0:0:
298,124,20828,1,8,2:0:0:0:
276,75,21009,6,0,P|303:28|344:16,1,85.0637500000002,14|8,2:0|2:0,2:0:0:0:
379,9,21547,1,14,2:0:0:0:
436,93,21927,2,0,L|432:136,1,42.5,10|10,2:0|2:0,2:0:0:0:
404,178,22290,1,14,2:0:0:0:
306,205,22652,2,0,P|278:215|259:233,2,42.5,10|10|14,2:0|2:0|2:0,2:0:0:0:
326,305,23380,1,10,2:0:0:0:
193,367,23919,6,0,L|101:362,1,85,12|8,2:0|2:0,2:0:0:0:
20,310,24646,1,0,3:0:0:0:
77,226,25009,1,8,2:0:0:0:
6,152,25373,2,0,B|-23:99|31:92|8:28,1,127.5,2|2,3:0|2:0,2:0:0:0:
54,6,26100,1,0,2:0:0:0:
136,65,26464,1,10,2:0:0:0:
143,166,26828,2,0,P|193:169|259:120,1,127.5,2|0,3:0|2:0,2:0:0:0:
289,89,27555,1,0,3:0:0:0:
380,39,27919,1,10,2:0:0:0:
380,39,28100,6,0,L|410:130,1,85,6|2,3:0|3:0,2:0:0:0:
457,114,28646,2,0,L|462:164,1,42.5,2|2,3:0|3:0,2:0:0:0:
501,188,29009,2,0,L|483:235,1,42.5,10|10,2:0|2:0,2:0:0:0:
502,276,29373,2,0,L|464:311,1,42.5,10|10,2:0|2:0,2:0:0:0:
445,341,29730,6,0,P|393:330|354:344,1,76.5000000000001,2|2,2:0|2:0,2:0:0:0:
284,304,30461,2,0,P|246:309|209:298,1,76.5000000000001,2|2,2:0|2:0,2:0:0:0:
144,233,31193,2,0,P|84:209|36:225,1,114.75,2|2,2:0|2:0,2:0:0:0:
83,303,32108,1,2,2:0:0:0:
222,333,32657,6,0,P|267:340|350:265,1,153,2|2,2:0|2:0,2:0:0:0:
310,193,33747,1,2,2:0:0:0:
218,202,34111,2,0,P|192:212|137:217,2,76.5000000000001,0|2|0,2:0|2:0|2:0,2:0:0:0:
234,41,35566,6,0,P|283:29|323:41,1,76.5000000000001,2|0,2:0|2:0,2:0:0:0:
382,86,36293,2,0,P|431:98|471:86,1,76.5000000000001,2|0,2:0|2:0,2:0:0:0:
456,184,37020,2,0,P|446:224|445:272,1,76.5000000000001,2|0,2:0|2:0,2:0:0:0:
363,303,37747,2,0,P|373:343|374:391,1,76.5000000000001,2|0,2:0|2:0,2:0:0:0:
284,360,38475,6,0,B|240:259|316:262|262:166,1,191.25,2|2,2:0|2:0,2:0:0:0:
222,163,39566,1,2,2:0:0:0:
176,170,39747,2,0,P|125:180|149:36,1,264.289625,2|6,2:0|2:0,2:0:0:0:
223,83,41374,6,0,L|309:67,1,85,2|2,3:0|3:0,2:0:0:0:
334,24,41919,2,0,L|418:34,1,85,2|2,2:0|2:0,2:0:0:0:
469,27,42464,1,2,3:0:0:0:
500,124,42828,2,0,P|511:164|505:215,1,85,0|2,3:0|3:0,2:0:0:0:
474,246,43374,2,0,P|463:286|469:337,1,85,2|2,2:0|2:0,2:0:0:0:
432,366,43919,1,0,3:0:0:0:
330,318,44283,6,0,L|237:329,1,85,2|2,3:0|3:0,2:0:0:0:
209,292,44821,1,0,2:0:0:0:
159,281,45001,2,0,L|74:271,1,85,2|2,3:0|3:0,2:0:0:0:
3,199,45720,2,0,P|26:147|30:108,1,85,0|2,3:0|3:0,2:0:0:0:
65,83,46265,2,0,P|105:72|150:77,1,85,2|2,2:0|2:0,2:0:0:0:
193,98,46810,1,0,3:0:0:0:
267,28,47174,6,0,L|353:33,1,85,6|0,3:0|3:0,2:0:0:0:
453,43,47905,1,2,3:0:0:0:
392,125,48271,1,0,3:0:0:0:
443,213,48637,2,0,L|357:218,1,85,2|0,3:0|3:0,2:0:0:0:
260,236,49364,1,2,3:0:0:0:
320,319,49727,1,0,3:0:0:0:
230,368,50091,6,0,P|199:332|162:323,1,85,2|0,3:0|3:0,2:0:0:0:
61,326,50818,1,2,3:0:0:0:
114,238,51182,1,0,3:0:0:0:
28,182,51546,2,0,P|59:146|96:137,1,85,2|0,3:0|3:0,2:0:0:0:
195,145,52273,1,2,3:0:0:0:
153,58,52637,1,0,3:0:0:0:
243,10,53000,6,0,B|256:119|225:86|251:198,1,170,6|0,3:2|3:0,2:0:0:0:
244,281,54091,1,0,3:0:0:0:
163,343,54455,1,0,3:0:0:0:
64,316,54818,1,4,3:0:0:0:
19,225,55182,2,0,P|15:202|20:174,1,42.5,8|0,2:0|3:0,2:0:0:0:
53,147,55552,2,0,P|57:124|53:97,1,42.5,0|0,3:0|3:0,2:0:0:0:
94,67,55926,6,0,P|156:56|192:67,1,85,4|2,3:0|3:0,2:0:0:0:
176,162,56653,2,0,P|112:162|79:179,1,85,10|2,2:0|2:0,2:0:0:0:
48,194,57198,1,0,2:0:0:0:
35,240,57370,2,0,L|18:335,1,85,0|2,3:0|3:0,2:0:0:0:
103,383,58097,1,10,2:0:0:0:
151,293,58460,1,2,2:0:0:0:
243,336,58824,6,0,P|302:319|337:337,2,85,2|2|10,3:0|3:0|2:0,2:0:0:0:
174,263,59915,2,0,P|230:226|343:226,1,170,2|2,3:0|2:0,2:0:0:0:
425,258,61006,2,0,L|443:159,1,85,14|8,2:0|2:0,2:0:0:0:
458,73,61733,6,0,P|397:57|368:61,1,85,2|8,3:0|2:0,2:0:0:0:
283,102,62460,1,0,3:0:0:0:
252,199,62824,1,8,2:0:0:0:
298,287,63188,2,0,L|282:371,1,85,2|8,3:0|2:0,2:0:0:0:
195,300,63933,1,2,3:0:0:0:
117,359,64281,1,8,2:0:0:0:
38,294,64644,6,0,P|45:227|59:202,1,85,10|8,2:0|2:0,2:0:0:0:
124,135,65371,1,8,2:0:0:0:
223,157,65734,2,0,L|228:204,1,42.5,10|10,2:0|2:0,2:0:0:0:
233,250,66098,1,14,2:0:0:0:
489,312,67561,6,0,P|498:247|488:218,1,85,14|8,2:0|2:0,2:0:0:0:
420,157,68288,2,0,L|435:112,1,42.5,0|0,3:0|3:0,2:0:0:0:
470,81,68651,1,10,2:0:0:0:
378,10,69015,2,0,P|335:13|281:29,1,93.5,2|10,3:0|2:0,2:0:0:0:
261,76,69544,2,0,P|219:86|161:80,1,93.5701278533938,2|2,2:0|3:0,2:0:0:0:
119,69,70078,1,8,2:0:0:0:
14,31,70442,6,0,P|8:89|25:130,1,93.5,0|8,3:0|2:0,2:0:0:0:
88,205,71169,2,0,L|73:262,1,46.75,0|0,3:0|3:0,2:0:0:0:
34,287,71532,1,10,2:0:0:0:
121,357,71896,2,0,P|161:340|225:352,1,93.5,2|10,3:0|2:0,2:0:0:0:
264,359,72442,2,0,P|304:376|368:364,1,93.5,2|14,2:0|2:0,2:0:0:0:
397,337,72987,1,12,2:0:0:0:
374,234,73351,6,0,B|335:199|266:227,1,93.5000028533936,4|8,3:0|2:0,2:0:0:0:
190,150,74103,2,0,L|174:96,1,47.0071264266968,0|0,3:0|3:0,2:0:0:0:
164,55,74460,1,8,2:0:0:0:
265,9,74811,2,0,L|281:63,1,46.75,0|0,3:0|3:0,2:0:0:0:
293,106,75174,1,8,2:0:0:0:
362,196,75538,5,6,3:0:0:0:
259,220,75901,1,6,3:0:0:0:
199,323,76281,2,0,P|251:316|297:342,1,93.5,6|8,3:0|2:0,2:0:0:0:
334,372,76826,1,2,2:0:0:0:
334,372,77008,2,0,P|386:379|464:333,1,140.25,2|2,3:0|2:0,2:0:0:0:
490,290,77735,1,2,3:0:0:0:
442,188,78099,2,0,L|373:181,1,46.75,8|8,2:0|2:0,2:0:0:0:
343,180,78464,1,8,3:0:0:0:
273,92,78827,2,0,L|226:84,1,46.75,8|8,2:0|2:0,2:0:0:0:
171,74,79190,6,0,P|145:139|130:167,1,93.5,12|8,2:0|2:0,2:0:0:0:
59,243,79917,2,0,L|67:303,1,46.75,0|0,3:0|2:0,2:0:0:0:
74,344,80280,1,10,2:0:0:0:
187,372,80644,2,0,P|202:314|227:283,1,93.5,2|10,3:0|2:0,2:0:0:0:
261,248,81190,2,0,P|246:190|221:159,1,93.5,2|2,2:0|2:0,2:0:0:0:
186,124,81735,1,8,2:0:0:0:
265,44,82099,6,0,L|364:31,1,93.5,0|8,3:0|2:0,2:0:0:0:
464,68,82826,2,0,L|467:128,1,46.75,0|0,3:0|2:0,2:0:0:0:
470,169,83190,1,10,2:0:0:0:
445,277,83553,2,0,P|399:289|346:336,1,93.5,0|10,3:0|2:0,2:0:0:0:
319,352,84099,2,0,P|291:336|225:333,1,93.5,2|2,2:0|3:0,2:0:0:0:
189,369,84644,2,0,L|128:376,1,46.75,0|2,3:0|3:0,2:0:0:0:
98,348,85008,6,0,B|73:280|111:289|94:206,1,127.5,4|0,3:0|3:0,2:0:0:0:
89,172,85735,1,8,2:0:0:0:
175,118,86099,1,0,2:0:0:0:
242,199,86481,2,0,P|293:223|368:198,1,127.762,2|0,3:0|3:0,2:0:0:0:
378,158,87198,1,8,2:0:0:0:
300,87,87561,2,0,L|289:36,1,42.5,2|8,2:0|2:0,2:0:0:0:
235,45,87924,6,0,P|190:77|106:70,1,127.5,0|0,3:0|3:0,2:0:0:0:
73,55,88651,1,8,2:0:0:0:
21,142,89014,1,2,2:0:0:0:
86,219,89378,2,0,B|161:195|145:240|220:217,1,127.5,2|0,3:0|3:0,2:0:0:0:
260,209,90105,1,8,2:0:0:0:
353,164,90469,2,0,L|360:210,1,42.5,10|10,3:0|3:0,2:0:0:0:
397,248,90833,6,0,P|388:303|350:341,1,93.5,4|0,3:0|3:0,2:0:0:0:
308,329,91378,1,0,2:0:0:0:
251,325,91560,2,0,P|222:288|217:242,1,93.5,0|0,3:0|3:0,2:0:0:0:
164,241,92105,1,0,3:0:0:0:
116,241,92273,2,0,P|110:286|88:324,1,85,8|8,2:0|2:0,2:0:0:0:
7,241,93000,2,0,L|-2:189,1,46.75,8|8,2:0|2:0,2:0:0:0:
23,144,93363,2,0,L|32:92,1,46.75,8|8,2:0|2:0,2:0:0:0:
68,55,93727,6,0,P|97:40|170:56,1,93.5,12|0,2:0|3:0,2:0:0:0:
202,77,94273,1,12,2:0:0:0:
281,156,94636,1,0,3:0:0:0:
334,138,94818,2,0,L|384:134,1,46.75,14|0,2:0|2:0,2:0:0:0:
428,165,95183,6,0,P|451:230|452:268,1,93.5,14|10,2:0|2:0,2:0:0:0:
446,309,95738,1,10,2:0:0:0:
361,383,96108,1,10,2:0:0:0:
220,306,96672,6,0,P|212:279|226:205,1,85,6|8,3:0|2:0,2:0:0:0:
253,128,97390,2,0,L|242:81,1,42.5,0|0,3:0|2:0,2:0:0:0:
210,47,97749,1,8,2:0:0:0:
131,114,98109,2,0,L|122:206,1,85,2|8,3:0|2:0,2:0:0:0:
86,234,98654,2,0,L|95:326,1,85,2|0,2:0|2:0,2:0:0:0:
122,361,99199,1,10,2:0:0:0:
197,288,99563,6,0,P|245:272|283:277,1,85,2|8,3:0|2:0,2:0:0:0:
358,339,100290,2,0,L|415:349,1,42.5,0|0,3:0|2:0,2:0:0:0:
436,310,100654,1,8,2:0:0:0:
366,235,101018,2,0,P|344:191|344:142,1,78.26625,2|8,3:0|2:0,2:0:0:0:
365,120,101533,2,0,P|387:76|387:27,1,88.5,2|0,2:0|2:0,2:0:0:0:
350,2,102091,1,10,2:0:0:0:
276,63,102446,6,0,P|223:70|169:71,1,85.4476666666667,2|8,3:0|2:0,2:0:0:0:
109,11,103190,2,0,L|64:4,1,42.5,0|0,3:0|2:0,2:0:0:0:
20,25,103554,1,8,2:0:0:0:
13,126,103917,2,0,P|32:159|45:206,1,85,2|8,3:0|2:0,2:0:0:0:
41,253,104462,2,0,P|17:295|6:335,1,85,2|0,2:0|2:0,2:0:0:0:
43,366,105007,1,10,2:0:0:0:
153,350,105371,6,0,B|201:359|206:328|249:340,1,93.5,6|8,3:0|2:0,2:0:0:0:
324,260,106098,2,0,L|332:205,1,46.75,0|0,3:0|2:0,2:0:0:0:
370,174,106462,1,8,2:0:0:0:
405,67,106826,2,0,B|354:77|362:54|314:58,1,93.5,2|0,3:0|3:0,2:0:0:0:
258,70,107371,1,0,3:0:0:0:
203,82,107553,2,0,L|147:92,1,46.75,10|10,2:0|2:0,2:0:0:0:
116,51,107917,2,0,L|60:41,1,46.75,10|10,2:0|2:0,2:0:0:0:
256,192,109015,5,12,2:0:0:0:
256,192,109196,12,0,117077,3:0:0:0:
