osu file format v14

[General]
AudioFilename: audio.mp3
AudioLeadIn: 0
PreviewTime: 65676
Countdown: 0
SampleSet: Soft
StackLeniency: 0.7
Mode: 0
LetterboxInBreaks: 0
EpilepsyWarning: 1
WidescreenStoryboard: 1

[Editor]
DistanceSpacing: 0.8
BeatDivisor: 4
GridSize: 4
TimelineZoom: 4.099998

[Metadata]
Title:Kimi no Shiranai Monogatari (Cut Ver.)
TitleUnicode:君の知らない物語 (Cut Ver.)
Artist:ClariS
ArtistUnicode:ClariS
Creator:Full Combo
Version:Starry Skies
Source:化物語
Tags:クラリス supercell shaft bakemonogatari ed ending japanese pop turwik nyu_- oneshotfox nyu anime jpop j-pop venerablenyanta kuki1537
BeatmapID:2633220
BeatmapSetID:1191205

[Difficulty]
HPDrainRate:5.5
CircleSize:4.2
OverallDifficulty:9.2
ApproachRate:9.1
SliderMultiplier:1.6
SliderTickRate:1

[Events]
//Background and Video events
0,0,"new.jpg",0,0
//Break Periods
//Storyboard Layer 0 (Background)
//Storyboard Layer 1 (Fail)
//Storyboard Layer 2 (Pass)
//Storyboard Layer 3 (Foreground)
Sprite,Foreground,Centre,"sb\white.png",320,240 V,19,12658,13179,0,0.01,1,0.01 F,0,12658,17361,1 V,19,13179,16634,1,0.01,1.1,0.01 R,19,16997,17197,0,-0.7853982 V,19,16997,17197,1.1,0.01,0.33,0.01
Sprite,Foreground,Centre,"sb\q.png",320,240 F,0,17361,,1 R,0,17361,,-0.7853982 V,19,17361,17561,0.5650685,0,0.5650685,0.5650685 V,19,17725,17925,0.5650685,0.5650685,1.130137,1.130137 R,19,18088,18288,-0.7853982,0 V,19,18088,18288,1.130137,1.130137,0,1.284247 F,0,18452,18652,1,0
Sprite,Foreground,Centre,"sb\s.png",0,0 C,0,17725,,255,255,255 S,19,17725,17845,0,0.15 M,22,17725,18270,320,240,295.7527,86.90831 R,22,17725,18270,-0.1,1.26 S,0,17845,18270,0.15,0.19 F,0,18070,18270,1,0
Sprite,Foreground,Centre,"sb\q.png",0,0 C,0,17725,,255,255,255 S,19,17725,17845,0,0.15 M,22,17725,18270,320,240,368.8084,130.3745 R,22,17725,18270,-0.1,0.26 S,0,17845,18270,0.15,0.19 F,0,18070,18270,1,0
Sprite,Foreground,Centre,"sb\t.png",0,0 C,0,17725,,255,255,255 S,19,17725,17845,0,0.15 M,22,17725,18270,320,240,336.2019,85.84911 R,22,17725,18270,-0.1,1.36 S,0,17845,18270,0.15,0.19 F,0,18070,18270,1,0
Sprite,Foreground,Centre,"sb\t.png",0,0 C,0,17725,,255,255,255 S,19,17725,17845,0,0.15 M,22,17725,18270,320,240,380.5618,350.5746 R,22,17725,18270,-0.1,0.36 S,0,17845,18270,0.15,0.19 F,0,18070,18270,1,0
Sprite,Foreground,Centre,"sb\o.png",0,0 C,0,17725,,255,255,255 S,19,17725,17845,0,0.15 M,22,17725,18270,320,240,255.18,326.3831 R,22,17725,18270,-0.1,1.16 S,0,17845,18270,0.15,0.19 F,0,18070,18270,1,0
Sprite,Foreground,Centre,"sb\t.png",0,0 C,0,17725,,255,255,255 S,19,17725,17845,0,0.15 M,22,17725,18270,320,240,141.2284,271.4303 R,22,17725,18270,-0.1,1.06 S,0,17845,18270,0.15,0.19 F,0,18070,18270,1,0
Sprite,Foreground,Centre,"sb\q.png",0,0 C,0,17725,,255,255,255 S,19,17725,17845,0,0.15 M,22,17725,18270,320,240,250.9934,108.3641 R,22,17725,18270,-0.1,1.26 S,0,17845,18270,0.15,0.19 F,0,18070,18270,1,0
Sprite,Foreground,Centre,"sb\s.png",0,0 C,0,17725,,255,255,255 S,19,17725,17845,0,0.15 M,22,17725,18270,320,240,369.869,148.2968 R,22,17725,18270,-0.1,0.36 S,0,17845,18270,0.15,0.19 F,0,18070,18270,1,0
Sprite,Foreground,Centre,"sb\q.png",0,0 C,0,17725,,255,255,255 S,19,17725,17845,0,0.15 M,22,17725,18270,320,240,495.7588,227.7229 R,22,17725,18270,-0.1,-0.54 S,0,17845,18270,0.15,0.19 F,0,18070,18270,1,0
Sprite,Foreground,Centre,"sb\o.png",0,0 C,0,17725,,255,255,255 S,19,17725,17845,0,0.15 M,22,17725,18270,320,240,412.3492,362.8728 R,22,17725,18270,-0.1,0.86 S,0,17845,18270,0.15,0.19 F,0,18070,18270,1,0
Sprite,Foreground,Centre,"sb\o.png",0,0 C,0,17725,,255,255,255 S,19,17725,17845,0,0.15 M,22,17725,18270,320,240,233.2191,405.9659 R,22,17725,18270,-0.1,0.06 S,0,17845,18270,0.15,0.19 F,0,18070,18270,1,0
Sprite,Foreground,BottomCentre,"sb\white.png",0,0 M,19,18088,18288,320,355.5,320,333.75 R,19,18088,18288,-0.7853982,0 V,19,18088,18288,0.01,0.66,0.01,0.75
Sprite,Foreground,TopCentre,"sb\white.png",0,0 M,19,18088,18288,320,124.5,320,146.25 R,19,18088,18288,-0.7853982,0 V,19,18088,18288,0.01,0.66,0.01,0.75
Sprite,Foreground,Centre,"sb\white.png",320,240 V,0,18270,21381,0.01,0.75,0.01,0.66 F,0,18270,21562,1 V,0,21381,21481,0.01,0.66,0.01,0.01
Sprite,Foreground,Centre,"sb\credits\bm.png",0,0 S,0,12997,,0.5 M,19,12997,13197,200,215,280,215 F,0,12997,13197,0,1 M,0,13197,16634,280,215,320,215 M,22,16634,16834,320,215,360,215 F,0,16634,16834,1,0
Sprite,Foreground,Centre,"sb\credits\fc.png",0,0 S,0,13361,,0.5 M,19,13361,13561,480,265,400,265 F,0,13361,13561,0,1 M,0,13561,16634,400,265,320,265 M,22,16634,16834,320,265,280,265 F,0,16634,16834,1,0
Sprite,Foreground,TopLeft,"sb\credits\sb.png",0,0 S,0,18452,,0.5 M,19,18452,18652,335,120,335,150 F,0,18452,18652,0,1 M,0,18652,21017,335,150,335,240 M,22,21017,21217,335,240,335,265 F,0,21017,21217,1,0
Sprite,Foreground,BottomRight,"sb\credits\ny.png",0,0 S,0,18816,,0.5 M,19,18816,19016,305,350,305,330 F,0,18816,19016,0,1 M,0,19016,21199,305,330,305,240 M,22,21199,21399,305,240,305,215 F,0,21199,21399,1,0
Sprite,Foreground,Centre,"sb\q2.png",320,240 C,0,9385,,0,0,0 S,19,9385,9505,0,0.52 S,0,9505,10113,0.52,0.62 F,0,9913,10113,1,0
Sprite,Foreground,Centre,"sb\s.png",0,0 C,0,9385,,0,0,0 S,19,9385,9505,0,0.15 M,22,9385,10113,320,240,350.7202,398.042 R,22,9385,10113,-0.1,1.16 S,0,9505,10113,0.15,0.19 F,0,9913,10113,1,0
Sprite,Foreground,Centre,"sb\q.png",0,0 C,0,9385,,0,0,0 S,19,9385,9505,0,0.15 M,22,9385,10113,320,240,195.8768,320.6066 R,22,9385,10113,-0.1,1.06 S,0,9505,10113,0.15,0.19 F,0,9913,10113,1,0
Sprite,Foreground,Centre,"sb\t.png",0,0 C,0,9385,,0,0,0 S,19,9385,9505,0,0.15 M,22,9385,10113,320,240,295.2585,123.6004 R,22,9385,10113,-0.1,0.86 S,0,9505,10113,0.15,0.19 F,0,9913,10113,1,0
Sprite,Foreground,Centre,"sb\o.png",0,0 C,0,9385,,0,0,0 S,19,9385,9505,0,0.15 M,22,9385,10113,320,240,418.1601,393.7243 R,22,9385,10113,-0.1,0.66 S,0,9505,10113,0.15,0.19 F,0,9913,10113,1,0
Sprite,Foreground,Centre,"sb\o.png",0,0 C,0,9385,,0,0,0 S,19,9385,9505,0,0.15 M,22,9385,10113,320,240,277.801,331.5892 R,22,9385,10113,-0.1,1.06 S,0,9505,10113,0.15,0.19 F,0,9913,10113,1,0
Sprite,Foreground,Centre,"sb\o.png",0,0 C,0,9385,,0,0,0 S,19,9385,9505,0,0.15 M,22,9385,10113,320,240,199.0184,233.6673 R,22,9385,10113,-0.1,1.36 S,0,9505,10113,0.15,0.19 F,0,9913,10113,1,0
Sprite,Foreground,Centre,"sb\q.png",0,0 C,0,9385,,0,0,0 S,19,9385,9505,0,0.15 M,22,9385,10113,320,240,241.0932,78.21707 R,22,9385,10113,-0.1,-0.34 S,0,9505,10113,0.15,0.19 F,0,9913,10113,1,0
Sprite,Foreground,Centre,"sb\s.png",0,0 C,0,9385,,0,0,0 S,19,9385,9505,0,0.15 M,22,9385,10113,320,240,412.1138,75.45517 R,22,9385,10113,-0.1,-0.24 S,0,9505,10113,0.15,0.19 F,0,9913,10113,1,0
Sprite,Foreground,Centre,"sb\t.png",0,0 C,0,9385,,0,0,0 S,19,9385,9505,0,0.15 M,22,9385,10113,320,240,486.0851,257.4563 R,22,9385,10113,-0.1,0.36 S,0,9505,10113,0.15,0.19 F,0,9913,10113,1,0
Sprite,Foreground,Centre,"sb\o.png",0,0 C,0,9385,,0,0,0 S,19,9385,9505,0,0.15 M,22,9385,10113,320,240,420.9495,392.4205 R,22,9385,10113,-0.1,1.26 S,0,9505,10113,0.15,0.19 F,0,9913,10113,1,0
Sprite,Foreground,Centre,"sb\q.png",0,0 C,0,9385,,0,0,0 S,19,9385,9505,0,0.15 M,22,9385,10113,320,240,241.8246,361.5016 R,22,9385,10113,-0.1,-0.04 S,0,9505,10113,0.15,0.19 F,0,9913,10113,1,0
Sprite,Foreground,Centre,"sb\s.png",0,0 C,0,21562,,255,255,255 S,19,21562,21682,0,0.15 M,22,21562,22199,320,240,386.0336,395.5653 R,22,21562,22199,-0.1,-0.14 S,0,21682,22199,0.15,0.19 F,0,21999,22199,1,0
Sprite,Foreground,Centre,"sb\q.png",0,0 C,0,21562,,255,255,255 S,19,21562,21682,0,0.15 M,22,21562,22199,320,240,468.9079,306.2981 R,22,21562,22199,-0.1,1.26 S,0,21682,22199,0.15,0.19 F,0,21999,22199,1,0
Sprite,Foreground,Centre,"sb\t.png",0,0 C,0,21562,,255,255,255 S,19,21562,21682,0,0.15 M,22,21562,22199,320,240,181.8868,106.6256 R,22,21562,22199,-0.1,-0.44 S,0,21682,22199,0.15,0.19 F,0,21999,22199,1,0
Sprite,Foreground,Centre,"sb\o.png",0,0 C,0,21562,,255,255,255 S,19,21562,21682,0,0.15 M,22,21562,22199,320,240,422.8155,371.5978 R,22,21562,22199,-0.1,-0.44 S,0,21682,22199,0.15,0.19 F,0,21999,22199,1,0
Sprite,Foreground,Centre,"sb\q.png",0,0 C,0,21562,,255,255,255 S,19,21562,21682,0,0.15 M,22,21562,22199,320,240,246.9517,403.5408 R,22,21562,22199,-0.1,0.36 S,0,21682,22199,0.15,0.19 F,0,21999,22199,1,0
Sprite,Foreground,Centre,"sb\q.png",0,0 C,0,21562,,255,255,255 S,19,21562,21682,0,0.15 M,22,21562,22199,320,240,199.8535,246.385 R,22,21562,22199,-0.1,0.66 S,0,21682,22199,0.15,0.19 F,0,21999,22199,1,0
Sprite,Foreground,Centre,"sb\o.png",0,0 C,0,21562,,255,255,255 S,19,21562,21682,0,0.15 M,22,21562,22199,320,240,273.5327,141.0405 R,22,21562,22199,-0.1,-0.04 S,0,21682,22199,0.15,0.19 F,0,21999,22199,1,0
Sprite,Foreground,Centre,"sb\o.png",0,0 C,0,21562,,255,255,255 S,19,21562,21682,0,0.15 M,22,21562,22199,320,240,378.3213,120.4885 R,22,21562,22199,-0.1,0.46 S,0,21682,22199,0.15,0.19 F,0,21999,22199,1,0
Sprite,Foreground,Centre,"sb\q.png",0,0 C,0,21562,,255,255,255 S,19,21562,21682,0,0.15 M,22,21562,22199,320,240,424.984,250.9755 R,22,21562,22199,-0.1,-0.04 S,0,21682,22199,0.15,0.19 F,0,21999,22199,1,0
Sprite,Foreground,Centre,"sb\q.png",0,0 C,0,21562,,255,255,255 S,19,21562,21682,0,0.15 M,22,21562,22199,320,240,378.2911,341.9902 R,22,21562,22199,-0.1,0.86 S,0,21682,22199,0.15,0.19 F,0,21999,22199,1,0
Sprite,Foreground,Centre,"sb\s.png",0,0 C,0,21562,,255,255,255 S,19,21562,21682,0,0.15 M,22,21562,22199,320,240,220.6643,381.7353 R,22,21562,22199,-0.1,0.66 S,0,21682,22199,0.15,0.19 F,0,21999,22199,1,0
Sprite,Foreground,Centre,"sb\s.png",0,0 C,0,22290,,255,255,255 S,19,22290,22410,0,0.15 M,22,22290,22835,320,240,174.9908,172.3811 R,22,22290,22835,-0.1,0.56 S,0,22410,22835,0.15,0.19 F,0,22635,22835,1,0
Sprite,Foreground,Centre,"sb\q.png",0,0 C,0,22290,,255,255,255 S,19,22290,22410,0,0.15 M,22,22290,22835,320,240,378.684,350.3684 R,22,22290,22835,-0.1,-0.44 S,0,22410,22835,0.15,0.19 F,0,22635,22835,1,0
Sprite,Foreground,Centre,"sb\t.png",0,0 C,0,22290,,255,255,255 S,19,22290,22410,0,0.15 M,22,22290,22835,320,240,400.9406,421.7955 R,22,22290,22835,-0.1,-0.04 S,0,22410,22835,0.15,0.19 F,0,22635,22835,1,0
Sprite,Foreground,Centre,"sb\o.png",0,0 C,0,22290,,255,255,255 S,19,22290,22410,0,0.15 M,22,22290,22835,320,240,398,385.6385 R,22,22290,22835,-0.1,0.66 S,0,22410,22835,0.15,0.19 F,0,22635,22835,1,0
Sprite,Foreground,Centre,"sb\s.png",0,0 C,0,22290,,255,255,255 S,19,22290,22410,0,0.15 M,22,22290,22835,320,240,231.2444,368.0553 R,22,22290,22835,-0.1,-0.24 S,0,22410,22835,0.15,0.19 F,0,22635,22835,1,0
Sprite,Foreground,Centre,"sb\q.png",0,0 C,0,22290,,255,255,255 S,19,22290,22410,0,0.15 M,22,22290,22835,320,240,166.9083,250.8123 R,22,22290,22835,-0.1,0.76 S,0,22410,22835,0.15,0.19 F,0,22635,22835,1,0
Sprite,Foreground,Centre,"sb\s.png",0,0 C,0,22290,,255,255,255 S,19,22290,22410,0,0.15 M,22,22290,22835,320,240,234.1833,126.5367 R,22,22290,22835,-0.1,0.36 S,0,22410,22835,0.15,0.19 F,0,22635,22835,1,0
Sprite,Foreground,Centre,"sb\s.png",0,0 C,0,22290,,255,255,255 S,19,22290,22410,0,0.15 M,22,22290,22835,320,240,375.7531,131.9353 R,22,22290,22835,-0.1,0.26 S,0,22410,22835,0.15,0.19 F,0,22635,22835,1,0
Sprite,Foreground,Centre,"sb\t.png",0,0 C,0,22290,,255,255,255 S,19,22290,22410,0,0.15 M,22,22290,22835,320,240,499.2385,208.5697 R,22,22290,22835,-0.1,-0.14 S,0,22410,22835,0.15,0.19 F,0,22635,22835,1,0
Sprite,Foreground,Centre,"sb\q.png",0,0 C,0,22290,,255,255,255 S,19,22290,22410,0,0.15 M,22,22290,22835,320,240,445.9864,414.6373 R,22,22290,22835,-0.1,1.36 S,0,22410,22835,0.15,0.19 F,0,22635,22835,1,0
Sprite,Foreground,Centre,"sb\t.png",0,0 C,0,22290,,255,255,255 S,19,22290,22410,0,0.15 M,22,22290,22835,320,240,207.579,416.1636 R,22,22290,22835,-0.1,0.56 S,0,22410,22835,0.15,0.19 F,0,22635,22835,1,0
Sprite,Foreground,Centre,"sb\o.png",320,240 S,19,21562,21962,0,0.33 F,0,21562,22635,1 S,19,22290,22690,0.33,0.54 F,0,22635,22835,1,0
Sprite,Foreground,Centre,"sb\pog.png",0,0 S,0,27925,,0.15 M,19,27925,28289,0,500,0,340 R,0,27925,28562,-0.5,0.5 S,22,28107,28197,0.15,0.23 S,0,28197,28707,0.23,0.15 M,15,28289,28562,0,340,0,520
Sprite,Foreground,Centre,"sb\t.png",0,0 C,0,28107,,255,255,255 S,19,28107,28227,0,0.15 M,22,28107,28507,0,340,70.59849,501.373 R,22,28107,28507,-0.1,1.16 S,0,28227,28507,0.15,0.19 F,0,28307,28507,1,0
Sprite,Foreground,Centre,"sb\s.png",0,0 C,0,28107,,255,255,255 S,19,28107,28227,0,0.15 M,22,28107,28507,0,340,-113.743,503.6788 R,22,28107,28507,-0.1,-0.24 S,0,28227,28507,0.15,0.19 F,0,28307,28507,1,0
Sprite,Foreground,Centre,"sb\o.png",0,0 C,0,28107,,255,255,255 S,19,28107,28227,0,0.15 M,22,28107,28507,0,340,-149.1409,366.2209 R,22,28107,28507,-0.1,0.16 S,0,28227,28507,0.15,0.19 F,0,28307,28507,1,0
Sprite,Foreground,Centre,"sb\q.png",0,0 C,0,28107,,255,255,255 S,19,28107,28227,0,0.15 M,22,28107,28507,0,340,-57.68427,242.0426 R,22,28107,28507,-0.1,-0.24 S,0,28227,28507,0.15,0.19 F,0,28307,28507,1,0
Sprite,Foreground,Centre,"sb\t.png",0,0 C,0,28107,,255,255,255 S,19,28107,28227,0,0.15 M,22,28107,28507,0,340,75.13851,218.5389 R,22,28107,28507,-0.1,-0.14 S,0,28227,28507,0.15,0.19 F,0,28307,28507,1,0
Sprite,Foreground,Centre,"sb\q.png",0,0 C,0,28107,,255,255,255 S,19,28107,28227,0,0.15 M,22,28107,28507,0,340,154.6224,313.0845 R,22,28107,28507,-0.1,0.76 S,0,28227,28507,0.15,0.19 F,0,28307,28507,1,0
Sprite,Foreground,Centre,"sb\s.png",0,0 C,0,28107,,255,255,255 S,19,28107,28227,0,0.15 M,22,28107,28507,0,340,73.06672,506.6182 R,22,28107,28507,-0.1,0.86 S,0,28227,28507,0.15,0.19 F,0,28307,28507,1,0
Sprite,Foreground,Centre,"sb\t.png",0,0 C,0,28107,,255,255,255 S,19,28107,28227,0,0.15 M,22,28107,28507,0,340,-49.23212,440.6281 R,22,28107,28507,-0.1,0.36 S,0,28227,28507,0.15,0.19 F,0,28307,28507,1,0
Sprite,Foreground,Centre,"sb\t.png",0,0 C,0,28107,,255,255,255 S,19,28107,28227,0,0.15 M,22,28107,28507,0,340,-162.7766,357.0381 R,22,28107,28507,-0.1,0.06 S,0,28227,28507,0.15,0.19 F,0,28307,28507,1,0
Sprite,Foreground,Centre,"sb\o.png",0,0 C,0,28107,,255,255,255 S,19,28107,28227,0,0.15 M,22,28107,28507,0,340,-57.69724,189.6936 R,22,28107,28507,-0.1,-0.54 S,0,28227,28507,0.15,0.19 F,0,28307,28507,1,0
Sprite,Foreground,Centre,"sb\s.png",0,0 C,0,28107,,255,255,255 S,19,28107,28227,0,0.15 M,22,28107,28507,0,340,69.15941,174.7563 R,22,28107,28507,-0.1,-0.44 S,0,28227,28507,0.15,0.19 F,0,28307,28507,1,0
Sprite,Foreground,Centre,"sb\s.png",0,0 C,0,28107,,255,255,255 S,19,28107,28227,0,0.15 M,22,28107,28507,0,340,172.0523,346.0376 R,22,28107,28507,-0.1,-0.34 S,0,28227,28507,0.15,0.19 F,0,28307,28507,1,0
Sprite,Foreground,Centre,"sb\white.png",428,208 C,0,53364,,255,101,115 F,0,53364,54114,1,0 R,0,53364,54114,0.02122698,0 V,19,53364,54114,0.04,932,0,932
Sprite,Foreground,Centre,"sb\so.png",0,0 C,0,53364,,255,101,115 M,19,53364,54031,428,208,429.5773,194.1307 F,0,53364,54031,1,0 S,0,53364,54031,0.1406027,0
Sprite,Foreground,Centre,"sb\so.png",0,0 C,0,53364,,255,101,115 M,19,53364,54080,428,208,320.8692,248.7294 F,0,53364,54080,1,0 S,0,53364,54080,0.09673147,0
Sprite,Foreground,Centre,"sb\so.png",0,0 C,0,53364,,255,101,115 M,19,53364,54121,428,208,432.9191,213.4169 F,0,53364,54121,1,0 S,0,53364,54121,0.136237,0
Sprite,Foreground,Centre,"sb\so.png",0,0 C,0,53364,,255,101,115 M,19,53364,54038,428,208,470.5053,206.757 F,0,53364,54038,1,0 S,0,53364,54038,0.1348052,0
Sprite,Foreground,Centre,"sb\so.png",0,0 C,0,53364,,255,101,115 M,19,53364,54166,428,208,315.9752,213.7048 F,0,53364,54166,1,0 S,0,53364,54166,0.1434019,0
Sprite,Foreground,Centre,"sb\o.png",428,208 C,0,53364,,255,101,115 F,19,53364,54114,1,0 S,19,53364,54114,0.01,1
Sprite,Foreground,Centre,"sb\white.png",282,267 C,0,53546,,255,101,115 F,0,53546,54296,1,0 R,0,53546,54296,0.03079993,0 V,19,53546,54296,0.04,932,0,932
Sprite,Foreground,Centre,"sb\so.png",0,0 C,0,53546,,255,101,115 M,19,53546,54289,282,267,216.4519,230.3671 F,0,53546,54289,1,0 S,0,53546,54289,0.1488544,0
Sprite,Foreground,Centre,"sb\so.png",0,0 C,0,53546,,255,101,115 M,19,53546,54206,282,267,242.6013,217.6971 F,0,53546,54206,1,0 S,0,53546,54206,0.08431418,0
Sprite,Foreground,Centre,"sb\so.png",0,0 C,0,53546,,255,101,115 M,19,53546,54308,282,267,283.1873,266.6748 F,0,53546,54308,1,0 S,0,53546,54308,0.07734515,0
Sprite,Foreground,Centre,"sb\so.png",0,0 C,0,53546,,255,101,115 M,19,53546,54258,282,267,341.0298,228.0108 F,0,53546,54258,1,0 S,0,53546,54258,0.06468251,0
Sprite,Foreground,Centre,"sb\so.png",0,0 C,0,53546,,255,101,115 M,19,53546,54363,282,267,278.1311,245.7672 F,0,53546,54363,1,0 S,0,53546,54363,0.09879681,0
Sprite,Foreground,Centre,"sb\o.png",282,267 C,0,53546,,255,101,115 F,19,53546,54296,1,0 S,19,53546,54296,0.01,1
Sprite,Foreground,Centre,"sb\white.png",407,365 C,0,53727,,255,101,115 F,0,53727,54477,1,0 R,0,53727,54477,-0.01975844,0 V,19,53727,54477,0.04,932,0,932
Sprite,Foreground,Centre,"sb\so.png",0,0 C,0,53727,,255,101,115 M,19,53727,54598,407,365,432.7821,314.7306 F,0,53727,54598,1,0 S,0,53727,54598,0.1124866,0
Sprite,Foreground,Centre,"sb\so.png",0,0 C,0,53727,,255,101,115 M,19,53727,54494,407,365,425.7122,458.0236 F,0,53727,54494,1,0 S,0,53727,54494,0.1338579,0
Sprite,Foreground,Centre,"sb\so.png",0,0 C,0,53727,,255,101,115 M,19,53727,54512,407,365,423.6355,395.3243 F,0,53727,54512,1,0 S,0,53727,54512,0.1499973,0
Sprite,Foreground,Centre,"sb\so.png",0,0 C,0,53727,,255,101,115 M,19,53727,54565,407,365,370.7208,369.2672 F,0,53727,54565,1,0 S,0,53727,54565,0.06009354,0
Sprite,Foreground,Centre,"sb\so.png",0,0 C,0,53727,,255,101,115 M,19,53727,54307,407,365,400.133,313.0235 F,0,53727,54307,1,0 S,0,53727,54307,0.06891238,0
Sprite,Foreground,Centre,"sb\o.png",407,365 C,0,53727,,255,101,115 F,19,53727,54477,1,0 S,19,53727,54477,0.01,1
Sprite,Foreground,Centre,"sb\white.png",337,190 C,0,53909,,255,101,115 F,0,53909,54659,1,0 R,0,53909,54659,0 V,19,53909,54659,0.04,932,0,932
Sprite,Foreground,Centre,"sb\so.png",0,0 C,0,53909,,255,101,115 M,19,53909,54645,337,190,318.2493,226.5159 F,0,53909,54645,1,0 S,0,53909,54645,0.1309204,0
Sprite,Foreground,Centre,"sb\so.png",0,0 C,0,53909,,255,101,115 M,19,53909,54723,337,190,354.1855,128.889 F,0,53909,54723,1,0 S,0,53909,54723,0.1022785,0
Sprite,Foreground,Centre,"sb\so.png",0,0 C,0,53909,,255,101,115 M,19,53909,54571,337,190,357.8008,224.3752 F,0,53909,54571,1,0 S,0,53909,54571,0.07225179,0
Sprite,Foreground,Centre,"sb\so.png",0,0 C,0,53909,,255,101,115 M,19,53909,54702,337,190,296.9936,94.48443 F,0,53909,54702,1,0 S,0,53909,54702,0.1130394,0
Sprite,Foreground,Centre,"sb\so.png",0,0 C,0,53909,,255,101,115 M,19,53909,54673,337,190,276.9164,219.3704 F,0,53909,54673,1,0 S,0,53909,54673,0.1400104,0
Sprite,Foreground,Centre,"sb\o.png",337,190 C,0,53909,,255,101,115 F,19,53909,54659,1,0 S,19,53909,54659,0.01,1
Sprite,Foreground,Centre,"sb\white.png",306,377 C,0,54091,,255,101,115 F,0,54091,54841,1,0 R,0,54091,54841,0.1256637,0 V,19,54091,54841,0.04,932,0,932
Sprite,Foreground,Centre,"sb\so.png",0,0 C,0,54091,,255,101,115 M,19,54091,54893,306,377,250.1243,301.0038 F,0,54091,54893,1,0 S,0,54091,54893,0.09906252,0
Sprite,Foreground,Centre,"sb\so.png",0,0 C,0,54091,,255,101,115 M,19,54091,54848,306,377,331.4747,411.1772 F,0,54091,54848,1,0 S,0,54091,54848,0.1118182,0
Sprite,Foreground,Centre,"sb\so.png",0,0 C,0,54091,,255,101,115 M,19,54091,54851,306,377,272.6424,375.9344 F,0,54091,54851,1,0 S,0,54091,54851,0.07816473,0
Sprite,Foreground,Centre,"sb\so.png",0,0 C,0,54091,,255,101,115 M,19,54091,54935,306,377,275.2784,271.3154 F,0,54091,54935,1,0 S,0,54091,54935,0.102274,0
Sprite,Foreground,Centre,"sb\so.png",0,0 C,0,54091,,255,101,115 M,19,54091,54841,306,377,305.7011,378.5497 F,0,54091,54841,1,0 S,0,54091,54841,0.07805536,0
Sprite,Foreground,Centre,"sb\o.png",306,377 C,0,54091,,255,101,115 F,19,54091,54841,1,0 S,19,54091,54841,0.01,1
Sprite,Foreground,Centre,"sb\white.png",484,305 C,0,54273,,255,101,115 F,0,54273,55023,1,0 R,0,54273,55023,0 V,19,54273,55023,0.04,932,0,932
Sprite,Foreground,Centre,"sb\so.png",0,0 C,0,54273,,255,101,115 M,19,54273,55071,484,305,555.9844,366.9969 F,0,54273,55071,1,0 S,0,54273,55071,0.1433393,0
Sprite,Foreground,Centre,"sb\so.png",0,0 C,0,54273,,255,101,115 M,19,54273,55070,484,305,516.6476,340.0732 F,0,54273,55070,1,0 S,0,54273,55070,0.1185127,0
Sprite,Foreground,Centre,"sb\so.png",0,0 C,0,54273,,255,101,115 M,19,54273,54926,484,305,555.1153,338.3239 F,0,54273,54926,1,0 S,0,54273,54926,0.07507484,0
Sprite,Foreground,Centre,"sb\so.png",0,0 C,0,54273,,255,101,115 M,19,54273,54965,484,305,500.4828,304.7012 F,0,54273,54965,1,0 S,0,54273,54965,0.134256,0
Sprite,Foreground,Centre,"sb\so.png",0,0 C,0,54273,,255,101,115 M,19,54273,55030,484,305,452.1199,290.4641 F,0,54273,55030,1,0 S,0,54273,55030,0.05777092,0
Sprite,Foreground,Centre,"sb\o.png",484,305 C,0,54273,,255,101,115 F,19,54273,55023,1,0 S,19,54273,55023,0.01,1
Sprite,Foreground,Centre,"sb\white.png",207,240 C,0,54455,,255,101,115 F,0,54455,55205,1,0 R,0,54455,55205,0 V,19,54455,55205,0.04,932,0,932
Sprite,Foreground,Centre,"sb\so.png",0,0 C,0,54455,,255,101,115 M,19,54455,55225,207,240,220.3183,208.4942 F,0,54455,55225,1,0 S,0,54455,55225,0.1172489,0
Sprite,Foreground,Centre,"sb\so.png",0,0 C,0,54455,,255,101,115 M,19,54455,55103,207,240,159.4217,241.6309 F,0,54455,55103,1,0 S,0,54455,55103,0.09830741,0
Sprite,Foreground,Centre,"sb\so.png",0,0 C,0,54455,,255,101,115 M,19,54455,55184,207,240,185.4,139.5005 F,0,54455,55184,1,0 S,0,54455,55184,0.09468999,0
Sprite,Foreground,Centre,"sb\so.png",0,0 C,0,54455,,255,101,115 M,19,54455,55159,207,240,316.8351,205.1341 F,0,54455,55159,1,0 S,0,54455,55159,0.07026042,0
Sprite,Foreground,Centre,"sb\so.png",0,0 C,0,54455,,255,101,115 M,19,54455,55209,207,240,110.3195,298.3064 F,0,54455,55209,1,0 S,0,54455,55209,0.1493572,0
Sprite,Foreground,Centre,"sb\o.png",207,240 C,0,54455,,255,101,115 F,19,54455,55205,1,0 S,19,54455,55205,0.01,1
Sprite,Foreground,Centre,"sb\white.png",437,435 C,0,54637,,255,101,115 F,0,54637,55387,1,0 R,0,54637,55387,-0.02617994,0 V,19,54637,55387,0.04,932,0,932
Sprite,Foreground,Centre,"sb\so.png",0,0 C,0,54637,,255,101,115 M,19,54637,55420,437,435,417.1479,545.3488 F,0,54637,55420,1,0 S,0,54637,55420,0.0824167,0
Sprite,Foreground,Centre,"sb\so.png",0,0 C,0,54637,,255,101,115 M,19,54637,55574,437,435,336.9688,489.6451 F,0,54637,55574,1,0 S,0,54637,55574,0.07551745,0
Sprite,Foreground,Centre,"sb\so.png",0,0 C,0,54637,,255,101,115 M,19,54637,55244,437,435,501.2697,505.4221 F,0,54637,55244,1,0 S,0,54637,55244,0.1044657,0
Sprite,Foreground,Centre,"sb\so.png",0,0 C,0,54637,,255,101,115 M,19,54637,55313,437,435,437.736,431.7116 F,0,54637,55313,1,0 S,0,54637,55313,0.05334431,0
Sprite,Foreground,Centre,"sb\so.png",0,0 C,0,54637,,255,101,115 M,19,54637,55311,437,435,469.5487,519.8892 F,0,54637,55311,1,0 S,0,54637,55311,0.1081289,0
Sprite,Foreground,Centre,"sb\o.png",437,435 C,0,54637,,255,101,115 F,19,54637,55387,1,0 S,19,54637,55387,0.01,1
Sprite,Foreground,Centre,"sb\white.png",470,148 C,0,54818,,255,101,115 F,0,54818,55568,1,0 R,0,54818,55568,-0.05067085,0 V,19,54818,55568,0.04,932,0,932
Sprite,Foreground,Centre,"sb\so.png",0,0 C,0,54818,,255,101,115 M,19,54818,55455,470,148,473.3673,216.095 F,0,54818,55455,1,0 S,0,54818,55455,0.105929,0
Sprite,Foreground,Centre,"sb\so.png",0,0 C,0,54818,,255,101,115 M,19,54818,55544,470,148,491.3224,179.6391 F,0,54818,55544,1,0 S,0,54818,55544,0.1377911,0
Sprite,Foreground,Centre,"sb\so.png",0,0 C,0,54818,,255,101,115 M,19,54818,55587,470,148,447.0949,56.71646 F,0,54818,55587,1,0 S,0,54818,55587,0.07648331,0
Sprite,Foreground,Centre,"sb\so.png",0,0 C,0,54818,,255,101,115 M,19,54818,55663,470,148,542.0121,136.136 F,0,54818,55663,1,0 S,0,54818,55663,0.1137824,0
Sprite,Foreground,Centre,"sb\so.png",0,0 C,0,54818,,255,101,115 M,19,54818,55440,470,148,483.3379,119.522 F,0,54818,55440,1,0 S,0,54818,55440,0.1110506,0
Sprite,Foreground,Centre,"sb\o.png",470,148 C,0,54818,,255,101,115 F,19,54818,55568,1,0 S,19,54818,55568,0.01,1
Sprite,Foreground,Centre,"sb\white.png",376,261 C,0,55000,,255,101,115 F,0,55000,55750,1,0 R,0,55000,55750,-0.01774911,0 V,19,55000,55750,0.04,932,0,932
Sprite,Foreground,Centre,"sb\so.png",0,0 C,0,55000,,255,101,115 M,19,55000,55762,376,261,296.0743,280.5653 F,0,55000,55762,1,0 S,0,55000,55762,0.06909123,0
Sprite,Foreground,Centre,"sb\so.png",0,0 C,0,55000,,255,101,115 M,19,55000,55761,376,261,289.5392,225.1852 F,0,55000,55761,1,0 S,0,55000,55761,0.1339827,0
Sprite,Foreground,Centre,"sb\so.png",0,0 C,0,55000,,255,101,115 M,19,55000,55641,376,261,365.0642,247.3199 F,0,55000,55641,1,0 S,0,55000,55641,0.1359581,0
Sprite,Foreground,Centre,"sb\so.png",0,0 C,0,55000,,255,101,115 M,19,55000,55819,376,261,283.5814,292.7255 F,0,55000,55819,1,0 S,0,55000,55819,0.08404827,0
Sprite,Foreground,Centre,"sb\so.png",0,0 C,0,55000,,255,101,115 M,19,55000,55823,376,261,372.9145,278.2719 F,0,55000,55823,1,0 S,0,55000,55823,0.1108932,0
Sprite,Foreground,Centre,"sb\o.png",376,261 C,0,55000,,255,101,115 F,19,55000,55750,1,0 S,19,55000,55750,0.01,1
Sprite,Foreground,Centre,"sb\white.png",214,96 C,0,55367,,255,101,115 F,0,55367,56117,1,0 R,0,55367,56117,-0.0273182,0 V,19,55367,56117,0.04,932,0,932
Sprite,Foreground,Centre,"sb\so.png",0,0 C,0,55367,,255,101,115 M,19,55367,56119,214,96,303.4049,90.74215 F,0,55367,56119,1,0 S,0,55367,56119,0.05019976,0
Sprite,Foreground,Centre,"sb\so.png",0,0 C,0,55367,,255,101,115 M,19,55367,56064,214,96,175.3385,81.40063 F,0,55367,56064,1,0 S,0,55367,56064,0.08250289,0
Sprite,Foreground,Centre,"sb\so.png",0,0 C,0,55367,,255,101,115 M,19,55367,56206,214,96,215.093,91.33595 F,0,55367,56206,1,0 S,0,55367,56206,0.1022511,0
Sprite,Foreground,Centre,"sb\so.png",0,0 C,0,55367,,255,101,115 M,19,55367,56125,214,96,230.7561,123.502 F,0,55367,56125,1,0 S,0,55367,56125,0.07499506,0
Sprite,Foreground,Centre,"sb\so.png",0,0 C,0,55367,,255,101,115 M,19,55367,56188,214,96,211.0072,105.0884 F,0,55367,56188,1,0 S,0,55367,56188,0.06922523,0
Sprite,Foreground,Centre,"sb\o.png",214,96 C,0,55367,,255,101,115 F,19,55367,56117,1,0 S,19,55367,56117,0.01,1
Sprite,Foreground,Centre,"sb\white.png",333,176 C,0,55552,,255,101,115 F,0,55552,56302,1,0 R,0,55552,56302,-0.02575076,0 V,19,55552,56302,0.04,932,0,932
Sprite,Foreground,Centre,"sb\so.png",0,0 C,0,55552,,255,101,115 M,19,55552,56305,333,176,335.3219,184.047 F,0,55552,56305,1,0 S,0,55552,56305,0.09823435,0
Sprite,Foreground,Centre,"sb\so.png",0,0 C,0,55552,,255,101,115 M,19,55552,56138,333,176,321.1563,167.257 F,0,55552,56138,1,0 S,0,55552,56138,0.106238,0
Sprite,Foreground,Centre,"sb\so.png",0,0 C,0,55552,,255,101,115 M,19,55552,56164,333,176,323.0095,143.7505 F,0,55552,56164,1,0 S,0,55552,56164,0.09579568,0
Sprite,Foreground,Centre,"sb\so.png",0,0 C,0,55552,,255,101,115 M,19,55552,56248,333,176,242.4398,179.7502 F,0,55552,56248,1,0 S,0,55552,56248,0.1130608,0
Sprite,Foreground,Centre,"sb\so.png",0,0 C,0,55552,,255,101,115 M,19,55552,56300,333,176,315.1285,231.8609 F,0,55552,56300,1,0 S,0,55552,56300,0.09457719,0
Sprite,Foreground,Centre,"sb\o.png",333,176 C,0,55552,,255,101,115 F,19,55552,56302,1,0 S,19,55552,56302,0.01,1
Sprite,Foreground,Centre,"sb\white.png",179,100 F,0,93727,94477,1,0 R,0,93727,94477,0.02122698,0 V,19,93727,94477,0.04,932,0,932
Sprite,Foreground,Centre,"sb\so.png",0,0 M,19,93727,94394,179,100,180.5773,86.13071 F,0,93727,94394,1,0 S,0,93727,94394,0.1406027,0
Sprite,Foreground,Centre,"sb\so.png",0,0 M,19,93727,94443,179,100,71.86916,140.7294 F,0,93727,94443,1,0 S,0,93727,94443,0.09673147,0
Sprite,Foreground,Centre,"sb\so.png",0,0 M,19,93727,94484,179,100,183.9191,105.4169 F,0,93727,94484,1,0 S,0,93727,94484,0.136237,0
Sprite,Foreground,Centre,"sb\so.png",0,0 M,19,93727,94401,179,100,221.5053,98.757 F,0,93727,94401,1,0 S,0,93727,94401,0.1348052,0
Sprite,Foreground,Centre,"sb\so.png",0,0 M,19,93727,94529,179,100,66.97521,105.7048 F,0,93727,94529,1,0 S,0,93727,94529,0.1434019,0
Sprite,Foreground,Centre,"sb\o.png",179,100 F,19,93727,94477,1,0 S,19,93727,94477,0.01,1
Sprite,Foreground,Centre,"sb\white.png",371,215 F,0,93909,94659,1,0 R,0,93909,94659,0.03079993,0 V,19,93909,94659,0.04,932,0,932
Sprite,Foreground,Centre,"sb\so.png",0,0 M,19,93909,94652,371,215,305.4519,178.3671 F,0,93909,94652,1,0 S,0,93909,94652,0.1488544,0
Sprite,Foreground,Centre,"sb\so.png",0,0 M,19,93909,94569,371,215,331.6013,165.6971 F,0,93909,94569,1,0 S,0,93909,94569,0.08431418,0
Sprite,Foreground,Centre,"sb\so.png",0,0 M,19,93909,94671,371,215,372.1873,214.6748 F,0,93909,94671,1,0 S,0,93909,94671,0.07734515,0
Sprite,Foreground,Centre,"sb\so.png",0,0 M,19,93909,94621,371,215,430.0298,176.0108 F,0,93909,94621,1,0 S,0,93909,94621,0.06468251,0
Sprite,Foreground,Centre,"sb\so.png",0,0 M,19,93909,94726,371,215,367.1311,193.7672 F,0,93909,94726,1,0 S,0,93909,94726,0.09879681,0
Sprite,Foreground,Centre,"sb\o.png",371,215 F,19,93909,94659,1,0 S,19,93909,94659,0.01,1
Sprite,Foreground,Centre,"sb\white.png",93,281 F,0,94091,94841,1,0 R,0,94091,94841,-0.01975844,0 V,19,94091,94841,0.04,932,0,932
Sprite,Foreground,Centre,"sb\so.png",0,0 M,19,94091,94962,93,281,118.7821,230.7306 F,0,94091,94962,1,0 S,0,94091,94962,0.1124866,0
Sprite,Foreground,Centre,"sb\so.png",0,0 M,19,94091,94858,93,281,111.7122,374.0236 F,0,94091,94858,1,0 S,0,94091,94858,0.1338579,0
Sprite,Foreground,Centre,"sb\so.png",0,0 M,19,94091,94876,93,281,109.6355,311.3243 F,0,94091,94876,1,0 S,0,94091,94876,0.1499973,0
Sprite,Foreground,Centre,"sb\so.png",0,0 M,19,94091,94929,93,281,56.72084,285.2672 F,0,94091,94929,1,0 S,0,94091,94929,0.06009354,0
Sprite,Foreground,Centre,"sb\so.png",0,0 M,19,94091,94671,93,281,86.13303,229.0235 F,0,94091,94671,1,0 S,0,94091,94671,0.06891238,0
Sprite,Foreground,Centre,"sb\o.png",93,281 F,19,94091,94841,1,0 S,19,94091,94841,0.01,1
Sprite,Foreground,Centre,"sb\white.png",338,106 F,0,94273,95023,1,0 R,0,94273,95023,0 V,19,94273,95023,0.04,932,0,932
Sprite,Foreground,Centre,"sb\so.png",0,0 M,19,94273,95009,338,106,319.2493,142.5159 F,0,94273,95009,1,0 S,0,94273,95009,0.1309204,0
Sprite,Foreground,Centre,"sb\so.png",0,0 M,19,94273,95087,338,106,355.1855,44.88902 F,0,94273,95087,1,0 S,0,94273,95087,0.1022785,0
Sprite,Foreground,Centre,"sb\so.png",0,0 M,19,94273,94935,338,106,358.8008,140.3752 F,0,94273,94935,1,0 S,0,94273,94935,0.07225179,0
Sprite,Foreground,Centre,"sb\so.png",0,0 M,19,94273,95066,338,106,297.9936,10.48443 F,0,94273,95066,1,0 S,0,94273,95066,0.1130394,0
Sprite,Foreground,Centre,"sb\so.png",0,0 M,19,94273,95037,338,106,277.9164,135.3704 F,0,94273,95037,1,0 S,0,94273,95037,0.1400104,0
Sprite,Foreground,Centre,"sb\o.png",338,106 F,19,94273,95023,1,0 S,19,94273,95023,0.01,1
Sprite,Foreground,Centre,"sb\white.png",221,393 F,0,94454,95204,1,0 R,0,94454,95204,0.1256637,0 V,19,94454,95204,0.04,932,0,932
Sprite,Foreground,Centre,"sb\so.png",0,0 M,19,94454,95256,221,393,165.1243,317.0038 F,0,94454,95256,1,0 S,0,94454,95256,0.09906252,0
Sprite,Foreground,Centre,"sb\so.png",0,0 M,19,94454,95211,221,393,246.4747,427.1772 F,0,94454,95211,1,0 S,0,94454,95211,0.1118182,0
Sprite,Foreground,Centre,"sb\so.png",0,0 M,19,94454,95214,221,393,187.6424,391.9344 F,0,94454,95214,1,0 S,0,94454,95214,0.07816473,0
Sprite,Foreground,Centre,"sb\so.png",0,0 M,19,94454,95298,221,393,190.2784,287.3154 F,0,94454,95298,1,0 S,0,94454,95298,0.102274,0
Sprite,Foreground,Centre,"sb\so.png",0,0 M,19,94454,95204,221,393,220.7011,394.5497 F,0,94454,95204,1,0 S,0,94454,95204,0.07805536,0
Sprite,Foreground,Centre,"sb\o.png",221,393 F,19,94454,95204,1,0 S,19,94454,95204,0.01,1
Sprite,Foreground,Centre,"sb\white.png",96,115 F,0,94636,95386,1,0 R,0,94636,95386,0 V,19,94636,95386,0.04,932,0,932
Sprite,Foreground,Centre,"sb\so.png",0,0 M,19,94636,95434,96,115,167.9844,176.9969 F,0,94636,95434,1,0 S,0,94636,95434,0.1433393,0
Sprite,Foreground,Centre,"sb\so.png",0,0 M,19,94636,95433,96,115,128.6476,150.0733 F,0,94636,95433,1,0 S,0,94636,95433,0.1185127,0
Sprite,Foreground,Centre,"sb\so.png",0,0 M,19,94636,95289,96,115,167.1153,148.3239 F,0,94636,95289,1,0 S,0,94636,95289,0.07507484,0
Sprite,Foreground,Centre,"sb\so.png",0,0 M,19,94636,95328,96,115,112.4828,114.7012 F,0,94636,95328,1,0 S,0,94636,95328,0.134256,0
Sprite,Foreground,Centre,"sb\so.png",0,0 M,19,94636,95393,96,115,64.1199,100.464 F,0,94636,95393,1,0 S,0,94636,95393,0.05777092,0
Sprite,Foreground,Centre,"sb\o.png",96,115 F,19,94636,95386,1,0 S,19,94636,95386,0.01,1
Sprite,Foreground,Centre,"sb\white.png",353,293 F,0,94818,95568,1,0 R,0,94818,95568,0 V,19,94818,95568,0.04,932,0,932
Sprite,Foreground,Centre,"sb\so.png",0,0 M,19,94818,95588,353,293,366.3183,261.4942 F,0,94818,95588,1,0 S,0,94818,95588,0.1172489,0
Sprite,Foreground,Centre,"sb\so.png",0,0 M,19,94818,95466,353,293,305.4217,294.631 F,0,94818,95466,1,0 S,0,94818,95466,0.09830741,0
Sprite,Foreground,Centre,"sb\so.png",0,0 M,19,94818,95547,353,293,331.4,192.5005 F,0,94818,95547,1,0 S,0,94818,95547,0.09468999,0
Sprite,Foreground,Centre,"sb\so.png",0,0 M,19,94818,95522,353,293,462.8351,258.1341 F,0,94818,95522,1,0 S,0,94818,95522,0.07026042,0
Sprite,Foreground,Centre,"sb\so.png",0,0 M,19,94818,95572,353,293,256.3195,351.3064 F,0,94818,95572,1,0 S,0,94818,95572,0.1493572,0
Sprite,Foreground,Centre,"sb\o.png",353,293 F,19,94818,95568,1,0 S,19,94818,95568,0.01,1
Sprite,Foreground,Centre,"sb\white.png",64,259 F,0,95183,95933,1,0 R,0,95183,95933,-0.02617994,0 V,19,95183,95933,0.04,932,0,932
Sprite,Foreground,Centre,"sb\so.png",0,0 M,19,95183,95966,64,259,44.14785,369.3488 F,0,95183,95966,1,0 S,0,95183,95966,0.0824167,0
Sprite,Foreground,Centre,"sb\so.png",0,0 M,19,95183,96120,64,259,-36.03124,313.6451 F,0,95183,96120,1,0 S,0,95183,96120,0.07551745,0
Sprite,Foreground,Centre,"sb\so.png",0,0 M,19,95183,95790,64,259,128.2697,329.4221 F,0,95183,95790,1,0 S,0,95183,95790,0.1044657,0
Sprite,Foreground,Centre,"sb\so.png",0,0 M,19,95183,95859,64,259,64.73602,255.7116 F,0,95183,95859,1,0 S,0,95183,95859,0.05334431,0
Sprite,Foreground,Centre,"sb\so.png",0,0 M,19,95183,95857,64,259,96.54873,343.8892 F,0,95183,95857,1,0 S,0,95183,95857,0.1081289,0
Sprite,Foreground,Centre,"sb\o.png",64,259 F,19,95183,95933,1,0 S,19,95183,95933,0.01,1
Sprite,Foreground,Centre,"sb\white.png",532,334 F,0,107553,108303,1,0 R,0,107553,108303,0.02122698,0 V,19,107553,108303,0.04,932,0,932
Sprite,Foreground,Centre,"sb\so.png",0,0 M,19,107553,108220,532,334,533.5773,320.1307 F,0,107553,108220,1,0 S,0,107553,108220,0.1406027,0
Sprite,Foreground,Centre,"sb\so.png",0,0 M,19,107553,108269,532,334,424.8692,374.7293 F,0,107553,108269,1,0 S,0,107553,108269,0.09673147,0
Sprite,Foreground,Centre,"sb\so.png",0,0 M,19,107553,108310,532,334,536.9191,339.4169 F,0,107553,108310,1,0 S,0,107553,108310,0.136237,0
Sprite,Foreground,Centre,"sb\so.png",0,0 M,19,107553,108227,532,334,574.5053,332.757 F,0,107553,108227,1,0 S,0,107553,108227,0.1348052,0
Sprite,Foreground,Centre,"sb\so.png",0,0 M,19,107553,108355,532,334,419.9752,339.7048 F,0,107553,108355,1,0 S,0,107553,108355,0.1434019,0
Sprite,Foreground,Centre,"sb\o.png",532,334 F,19,107553,108303,1,0 S,19,107553,108303,0.01,1
Sprite,Foreground,Centre,"sb\white.png",139,391 F,0,107735,108485,1,0 R,0,107735,108485,0.03079993,0 V,19,107735,108485,0.04,932,0,932
Sprite,Foreground,Centre,"sb\so.png",0,0 M,19,107735,108478,139,391,73.45193,354.367 F,0,107735,108478,1,0 S,0,107735,108478,0.1488544,0
Sprite,Foreground,Centre,"sb\so.png",0,0 M,19,107735,108395,139,391,99.60129,341.6971 F,0,107735,108395,1,0 S,0,107735,108395,0.08431418,0
Sprite,Foreground,Centre,"sb\so.png",0,0 M,19,107735,108497,139,391,140.1873,390.6748 F,0,107735,108497,1,0 S,0,107735,108497,0.07734515,0
Sprite,Foreground,Centre,"sb\so.png",0,0 M,19,107735,108447,139,391,198.0298,352.0108 F,0,107735,108447,1,0 S,0,107735,108447,0.06468251,0
Sprite,Foreground,Centre,"sb\so.png",0,0 M,19,107735,108552,139,391,135.1311,369.7672 F,0,107735,108552,1,0 S,0,107735,108552,0.09879681,0
Sprite,Foreground,Centre,"sb\o.png",139,391 F,19,107735,108485,1,0 S,19,107735,108485,0.01,1
Sprite,Foreground,Centre,"sb\white.png",379,62 F,0,107917,108667,1,0 R,0,107917,108667,-0.01975844,0 V,19,107917,108667,0.04,932,0,932
Sprite,Foreground,Centre,"sb\so.png",0,0 M,19,107917,108788,379,62,404.7821,11.73061 F,0,107917,108788,1,0 S,0,107917,108788,0.1124866,0
Sprite,Foreground,Centre,"sb\so.png",0,0 M,19,107917,108684,379,62,397.7122,155.0236 F,0,107917,108684,1,0 S,0,107917,108684,0.1338579,0
Sprite,Foreground,Centre,"sb\so.png",0,0 M,19,107917,108702,379,62,395.6355,92.32435 F,0,107917,108702,1,0 S,0,107917,108702,0.1499973,0
Sprite,Foreground,Centre,"sb\so.png",0,0 M,19,107917,108755,379,62,342.7208,66.2672 F,0,107917,108755,1,0 S,0,107917,108755,0.06009354,0
Sprite,Foreground,Centre,"sb\so.png",0,0 M,19,107917,108497,379,62,372.133,10.02349 F,0,107917,108497,1,0 S,0,107917,108497,0.06891238,0
Sprite,Foreground,Centre,"sb\o.png",379,62 F,19,107917,108667,1,0 S,19,107917,108667,0.01,1
Sprite,Foreground,Centre,"sb\white.png",403,440 F,0,108098,108848,1,0 R,0,108098,108848,0 V,19,108098,108848,0.04,932,0,932
Sprite,Foreground,Centre,"sb\so.png",0,0 M,19,108098,108834,403,440,384.2493,476.5159 F,0,108098,108834,1,0 S,0,108098,108834,0.1309204,0
Sprite,Foreground,Centre,"sb\so.png",0,0 M,19,108098,108912,403,440,420.1855,378.889 F,0,108098,108912,1,0 S,0,108098,108912,0.1022785,0
Sprite,Foreground,Centre,"sb\so.png",0,0 M,19,108098,108760,403,440,423.8008,474.3752 F,0,108098,108760,1,0 S,0,108098,108760,0.07225179,0
Sprite,Foreground,Centre,"sb\so.png",0,0 M,19,108098,108891,403,440,362.9936,344.4844 F,0,108098,108891,1,0 S,0,108098,108891,0.1130394,0
Sprite,Foreground,Centre,"sb\so.png",0,0 M,19,108098,108862,403,440,342.9164,469.3704 F,0,108098,108862,1,0 S,0,108098,108862,0.1400104,0
Sprite,Foreground,Centre,"sb\o.png",403,440 F,19,108098,108848,1,0 S,19,108098,108848,0.01,1
Sprite,Foreground,Centre,"sb\white.png",347,328 F,0,64644,65394,0.75,0 R,0,64644,65394,0.02122698,0 V,19,64644,65394,0.04,932,0,932
Sprite,Foreground,Centre,"sb\so.png",0,0 M,19,64644,65311,347,328,348.5773,314.1307 F,0,64644,65311,1,0 S,0,64644,65311,0.1859041,0
Sprite,Foreground,Centre,"sb\so.png",0,0 M,19,64644,65360,347,328,239.8692,368.7293 F,0,64644,65360,1,0 S,0,64644,65360,0.1200972,0
Sprite,Foreground,Centre,"sb\so.png",0,0 M,19,64644,65401,347,328,351.9191,333.4169 F,0,64644,65401,1,0 S,0,64644,65401,0.1793555,0
Sprite,Foreground,Centre,"sb\so.png",0,0 M,19,64644,65318,347,328,389.5053,326.757 F,0,64644,65318,1,0 S,0,64644,65318,0.1772078,0
Sprite,Foreground,Centre,"sb\so.png",0,0 M,19,64644,65446,347,328,234.9752,333.7048 F,0,64644,65446,1,0 S,0,64644,65446,0.1901028,0
Sprite,Foreground,Centre,"sb\o.png",347,328 F,19,64644,65394,1,0 S,19,64644,65394,0.01,1
Sprite,Foreground,Centre,"sb\white.png",282,167 F,0,64825,65575,0.75,0 R,0,64825,65575,0.03079993,0 V,19,64825,65575,0.04,932,0,932
Sprite,Foreground,Centre,"sb\so.png",0,0 M,19,64825,65568,282,167,216.4519,130.3671 F,0,64825,65568,1,0 S,0,64825,65568,0.1982816,0
Sprite,Foreground,Centre,"sb\so.png",0,0 M,19,64825,65485,282,167,242.6013,117.6971 F,0,64825,65485,1,0 S,0,64825,65485,0.1014713,0
Sprite,Foreground,Centre,"sb\so.png",0,0 M,19,64825,65587,282,167,283.1873,166.6748 F,0,64825,65587,1,0 S,0,64825,65587,0.09101772,0
Sprite,Foreground,Centre,"sb\so.png",0,0 M,19,64825,65537,282,167,341.0298,128.0108 F,0,64825,65537,1,0 S,0,64825,65537,0.07202376,0
Sprite,Foreground,Centre,"sb\so.png",0,0 M,19,64825,65642,282,167,278.1311,145.7672 F,0,64825,65642,1,0 S,0,64825,65642,0.1231952,0
Sprite,Foreground,Centre,"sb\o.png",282,167 F,19,64825,65575,1,0 S,19,64825,65575,0.01,1
Sprite,Foreground,Centre,"sb\white.png",273,385 F,0,65007,65757,0.75,0 R,0,65007,65757,-0.01975844,0 V,19,65007,65757,0.04,932,0,932
Sprite,Foreground,Centre,"sb\so.png",0,0 M,19,65007,65878,273,385,298.7821,334.7306 F,0,65007,65878,1,0 S,0,65007,65878,0.1437299,0
Sprite,Foreground,Centre,"sb\so.png",0,0 M,19,65007,65774,273,385,291.7122,478.0236 F,0,65007,65774,1,0 S,0,65007,65774,0.1757869,0
Sprite,Foreground,Centre,"sb\so.png",0,0 M,19,65007,65792,273,385,289.6355,415.3243 F,0,65007,65792,1,0 S,0,65007,65792,0.1999959,0
Sprite,Foreground,Centre,"sb\so.png",0,0 M,19,65007,65845,273,385,236.7208,389.2672 F,0,65007,65845,1,0 S,0,65007,65845,0.06514031,0
Sprite,Foreground,Centre,"sb\so.png",0,0 M,19,65007,65587,273,385,266.133,333.0235 F,0,65007,65587,1,0 S,0,65007,65587,0.07836857,0
Sprite,Foreground,Centre,"sb\o.png",273,385 F,19,65007,65757,1,0 S,19,65007,65757,0.01,1
Sprite,Foreground,Centre,"sb\white.png",360,109 F,0,65189,65939,0.75,0 R,0,65189,65939,0 V,19,65189,65939,0.04,932,0,932
Sprite,Foreground,Centre,"sb\so.png",0,0 M,19,65189,65925,360,109,341.2493,145.5159 F,0,65189,65925,1,0 S,0,65189,65925,0.1713806,0
Sprite,Foreground,Centre,"sb\so.png",0,0 M,19,65189,66003,360,109,377.1855,47.88902 F,0,65189,66003,1,0 S,0,65189,66003,0.1284178,0
Sprite,Foreground,Centre,"sb\so.png",0,0 M,19,65189,65851,360,109,380.8008,143.3752 F,0,65189,65851,1,0 S,0,65189,65851,0.08337769,0
Sprite,Foreground,Centre,"sb\so.png",0,0 M,19,65189,65982,360,109,319.9936,13.48443 F,0,65189,65982,1,0 S,0,65189,65982,0.1445592,0
Sprite,Foreground,Centre,"sb\so.png",0,0 M,19,65189,65953,360,109,299.9164,138.3704 F,0,65189,65953,1,0 S,0,65189,65953,0.1850156,0
Sprite,Foreground,Centre,"sb\o.png",360,109 F,19,65189,65939,1,0 S,19,65189,65939,0.01,1
Sprite,Foreground,Centre,"sb\white.png",356,417 F,0,65371,66121,0.75,0 R,0,65371,66121,0.1256637,0 V,19,65371,66121,0.04,932,0,932
Sprite,Foreground,Centre,"sb\so.png",0,0 M,19,65371,66173,356,417,300.1244,341.0038 F,0,65371,66173,1,0 S,0,65371,66173,0.1235938,0
Sprite,Foreground,Centre,"sb\so.png",0,0 M,19,65371,66128,356,417,381.4747,451.1772 F,0,65371,66128,1,0 S,0,65371,66128,0.1427273,0
Sprite,Foreground,Centre,"sb\so.png",0,0 M,19,65371,66131,356,417,322.6424,415.9344 F,0,65371,66131,1,0 S,0,65371,66131,0.09224709,0
Sprite,Foreground,Centre,"sb\so.png",0,0 M,19,65371,66215,356,417,325.2784,311.3154 F,0,65371,66215,1,0 S,0,65371,66215,0.128411,0
Sprite,Foreground,Centre,"sb\so.png",0,0 M,19,65371,66121,356,417,355.7011,418.5497 F,0,65371,66121,1,0 S,0,65371,66121,0.09208304,0
Sprite,Foreground,Centre,"sb\o.png",356,417 F,19,65371,66121,1,0 S,19,65371,66121,0.01,1
Sprite,Foreground,Centre,"sb\white.png",273,76 F,0,65553,66303,0.75,0 R,0,65553,66303,0 V,19,65553,66303,0.04,932,0,932
Sprite,Foreground,Centre,"sb\so.png",0,0 M,19,65553,66351,273,76,344.9844,137.9969 F,0,65553,66351,1,0 S,0,65553,66351,0.1900089,0
Sprite,Foreground,Centre,"sb\so.png",0,0 M,19,65553,66350,273,76,305.6476,111.0732 F,0,65553,66350,1,0 S,0,65553,66350,0.152769,0
Sprite,Foreground,Centre,"sb\so.png",0,0 M,19,65553,66206,273,76,344.1153,109.3239 F,0,65553,66206,1,0 S,0,65553,66206,0.08761225,0
Sprite,Foreground,Centre,"sb\so.png",0,0 M,19,65553,66245,273,76,289.4828,75.70116 F,0,65553,66245,1,0 S,0,65553,66245,0.176384,0
Sprite,Foreground,Centre,"sb\so.png",0,0 M,19,65553,66310,273,76,241.1199,61.46404 F,0,65553,66310,1,0 S,0,65553,66310,0.06165638,0
Sprite,Foreground,Centre,"sb\o.png",273,76 F,19,65553,66303,1,0 S,19,65553,66303,0.01,1
Sprite,Foreground,Centre,"sb\white.png",122,341 F,0,65734,66484,0.75,0 R,0,65734,66484,0 V,19,65734,66484,0.04,932,0,932
Sprite,Foreground,Centre,"sb\so.png",0,0 M,19,65734,66504,122,341,135.3183,309.4942 F,0,65734,66504,1,0 S,0,65734,66504,0.1508734,0
Sprite,Foreground,Centre,"sb\so.png",0,0 M,19,65734,66382,122,341,74.42173,342.631 F,0,65734,66382,1,0 S,0,65734,66382,0.1224611,0
Sprite,Foreground,Centre,"sb\so.png",0,0 M,19,65734,66463,122,341,100.4,240.5005 F,0,65734,66463,1,0 S,0,65734,66463,0.117035,0
Sprite,Foreground,Centre,"sb\so.png",0,0 M,19,65734,66438,122,341,231.8351,306.1341 F,0,65734,66438,1,0 S,0,65734,66438,0.08039062,0
Sprite,Foreground,Centre,"sb\so.png",0,0 M,19,65734,66488,122,341,25.31949,399.3064 F,0,65734,66488,1,0 S,0,65734,66488,0.1990358,0
Sprite,Foreground,Centre,"sb\o.png",122,341 F,19,65734,66484,1,0 S,19,65734,66484,0.01,1
Sprite,Foreground,Centre,"sb\glow.png",573,240 C,0,67561,,224,130,124 F,2,67561,68124,1,0 S,2,67561,68124,1,0.2
Sprite,Foreground,Centre,"sb\glow.png",573,240 C,0,67461,,224,130,124 F,0,67461,67561,0,0.6 F,0,67561,67861,0.6,0 S,19,67561,67861,1.4,0
Sprite,Foreground,Centre,"sb\glow.png",561,246 C,0,67486,,224,130,124 F,0,67486,67586,0,0.6 F,0,67586,67886,0.6,0 S,19,67586,67886,1.4,0
Sprite,Foreground,Centre,"sb\glow.png",548,251 C,0,67511,,224,130,124 F,0,67511,67611,0,0.6 F,0,67611,67911,0.6,0 S,19,67611,67911,1.4,0
Sprite,Foreground,Centre,"sb\glow.png",534,254 C,0,67536,,224,130,124 F,0,67536,67636,0,0.6 F,0,67636,67936,0.6,0 S,19,67636,67936,1.4,0
Sprite,Foreground,Centre,"sb\glow.png",521,254 C,0,67561,,224,130,124 F,0,67561,67661,0,0.6 F,0,67661,67961,0.6,0 S,19,67661,67961,1.4,0
Sprite,Foreground,Centre,"sb\glow.png",507,252 C,0,67586,,224,130,124 F,0,67586,67686,0,0.6 F,0,67686,67986,0.6,0 S,19,67686,67986,1.4,0
Sprite,Foreground,Centre,"sb\glow.png",494,247 C,0,67611,,224,130,124 F,0,67611,67711,0,0.6 F,0,67711,68011,0.6,0 S,19,67711,68011,1.4,0
Sprite,Foreground,Centre,"sb\glow.png",482,241 C,0,67636,,224,130,124 F,0,67636,67736,0,0.6 F,0,67736,68036,0.6,0 S,19,67736,68036,1.4,0
Sprite,Foreground,Centre,"sb\glow.png",469,235 C,0,67661,,224,130,124 F,0,67661,67761,0,0.6 F,0,67761,68061,0.6,0 S,19,67761,68061,1.4,0
Sprite,Foreground,Centre,"sb\glow.png",457,230 C,0,67686,,224,130,124 F,0,67686,67786,0,0.6 F,0,67786,68086,0.6,0 S,19,67786,68086,1.4,0
Sprite,Foreground,Centre,"sb\glow.png",443,227 C,0,67711,,224,130,124 F,0,67711,67811,0,0.6 F,0,67811,68111,0.6,0 S,19,67811,68111,1.4,0
Sprite,Foreground,Centre,"sb\glow.png",429,227 C,0,67736,,224,130,124 F,0,67736,67836,0,0.6 F,0,67836,68136,0.6,0 S,19,67836,68136,1.4,0
Sprite,Foreground,Centre,"sb\glow.png",416,229 C,0,67761,,224,130,124 F,0,67761,67861,0,0.6 F,0,67861,68161,0.6,0 S,19,67861,68161,1.4,0
Sprite,Foreground,Centre,"sb\glow.png",403,233 C,0,67786,,224,130,124 F,0,67786,67886,0,0.6 F,0,67886,68186,0.6,0 S,19,67886,68186,1.4,0
Sprite,Foreground,Centre,"sb\glow.png",390,238 C,0,67811,,224,130,124 F,0,67811,67911,0,0.6 F,0,67911,68211,0.6,0 S,19,67911,68211,1.4,0
Sprite,Foreground,Centre,"sb\glow.png",264,440 C,0,68106,,224,130,124 F,2,68106,68306,1,0 S,2,68106,68306,1,0.2
Sprite,Foreground,Centre,"sb\glow.png",440,352 C,0,68288,,224,130,124 F,2,68288,68488,1,0 S,2,68288,68488,1,0.2
Sprite,Foreground,Centre,"sb\glow.png",304,295 C,0,68470,,224,130,124 F,2,68470,68670,1,0 S,2,68470,68670,1,0.2
Sprite,Foreground,Centre,"sb\glow.png",432,432 C,0,68651,,224,130,124 F,2,68651,69032,1,0 S,2,68651,69032,1,0.2
Sprite,Foreground,Centre,"sb\glow.png",432,432 C,0,68551,,224,130,124 F,0,68551,68651,0,0.6 F,0,68651,68951,0.6,0 S,19,68651,68951,1.4,0
Sprite,Foreground,Centre,"sb\glow.png",445,433 C,0,68576,,224,130,124 F,0,68576,68676,0,0.6 F,0,68676,68976,0.6,0 S,19,68676,68976,1.4,0
Sprite,Foreground,Centre,"sb\glow.png",457,433 C,0,68601,,224,130,124 F,0,68601,68701,0,0.6 F,0,68701,69001,0.6,0 S,19,68701,69001,1.4,0
Sprite,Foreground,Centre,"sb\glow.png",469,430 C,0,68626,,224,130,124 F,0,68626,68726,0,0.6 F,0,68726,69026,0.6,0 S,19,68726,69026,1.4,0
Sprite,Foreground,Centre,"sb\glow.png",481,424 C,0,68651,,224,130,124 F,0,68651,68751,0,0.6 F,0,68751,69051,0.6,0 S,19,68751,69051,1.4,0
Sprite,Foreground,Centre,"sb\glow.png",491,417 C,0,68676,,224,130,124 F,0,68676,68776,0,0.6 F,0,68776,69076,0.6,0 S,19,68776,69076,1.4,0
Sprite,Foreground,Centre,"sb\glow.png",499,408 C,0,68701,,224,130,124 F,0,68701,68801,0,0.6 F,0,68801,69101,0.6,0 S,19,68801,69101,1.4,0
Sprite,Foreground,Centre,"sb\glow.png",506,398 C,0,68726,,224,130,124 F,0,68726,68826,0,0.6 F,0,68826,69126,0.6,0 S,19,68826,69126,1.4,0
Sprite,Foreground,Centre,"sb\glow.png",481,201 C,0,69015,,220,166,126 F,2,69015,69391,1,0 S,2,69015,69391,1,0.2
Sprite,Foreground,Centre,"sb\glow.png",481,201 C,0,68915,,220,166,126 F,0,68915,69015,0,0.6 F,0,69015,69315,0.6,0 S,19,69015,69315,1.4,0
Sprite,Foreground,Centre,"sb\glow.png",494,203 C,0,68940,,220,166,126 F,0,68940,69040,0,0.6 F,0,69040,69340,0.6,0 S,19,69040,69340,1.4,0
Sprite,Foreground,Centre,"sb\glow.png",507,205 C,0,68965,,220,166,126 F,0,68965,69065,0,0.6 F,0,69065,69365,0.6,0 S,19,69065,69365,1.4,0
Sprite,Foreground,Centre,"sb\glow.png",520,207 C,0,68990,,220,166,126 F,0,68990,69090,0,0.6 F,0,69090,69390,0.6,0 S,19,69090,69390,1.4,0
Sprite,Foreground,Centre,"sb\glow.png",533,209 C,0,69015,,220,166,126 F,0,69015,69115,0,0.6 F,0,69115,69415,0.6,0 S,19,69115,69415,1.4,0
Sprite,Foreground,Centre,"sb\glow.png",545,211 C,0,69040,,220,166,126 F,0,69040,69140,0,0.6 F,0,69140,69440,0.6,0 S,19,69140,69440,1.4,0
Sprite,Foreground,Centre,"sb\glow.png",558,213 C,0,69065,,220,166,126 F,0,69065,69165,0,0.6 F,0,69165,69465,0.6,0 S,19,69165,69465,1.4,0
Sprite,Foreground,Centre,"sb\glow.png",571,215 C,0,69090,,220,166,126 F,0,69090,69190,0,0.6 F,0,69190,69490,0.6,0 S,19,69190,69490,1.4,0
Sprite,Foreground,Centre,"sb\glow.png",377,279 C,0,69367,,220,166,126 F,2,69367,69567,1,0 S,2,69367,69567,1,0.2
Sprite,Foreground,Centre,"sb\glow.png",416,107 C,0,69544,,220,166,126 F,2,69544,69920,1,0 S,2,69544,69920,1,0.2
Sprite,Foreground,Centre,"sb\glow.png",416,107 C,0,69444,,220,166,126 F,0,69444,69544,0,0.6 F,0,69544,69844,0.6,0 S,19,69544,69844,1.4,0
Sprite,Foreground,Centre,"sb\glow.png",426,99 C,0,69469,,220,166,126 F,0,69469,69569,0,0.6 F,0,69569,69869,0.6,0 S,19,69569,69869,1.4,0
Sprite,Foreground,Centre,"sb\glow.png",437,92 C,0,69494,,220,166,126 F,0,69494,69594,0,0.6 F,0,69594,69894,0.6,0 S,19,69594,69894,1.4,0
Sprite,Foreground,Centre,"sb\glow.png",449,87 C,0,69519,,220,166,126 F,0,69519,69619,0,0.6 F,0,69619,69919,0.6,0 S,19,69619,69919,1.4,0
Sprite,Foreground,Centre,"sb\glow.png",462,84 C,0,69544,,220,166,126 F,0,69544,69644,0,0.6 F,0,69644,69944,0.6,0 S,19,69644,69944,1.4,0
Sprite,Foreground,Centre,"sb\glow.png",475,84 C,0,69569,,220,166,126 F,0,69569,69669,0,0.6 F,0,69669,69969,0.6,0 S,19,69669,69969,1.4,0
Sprite,Foreground,Centre,"sb\glow.png",487,85 C,0,69594,,220,166,126 F,0,69594,69694,0,0.6 F,0,69694,69994,0.6,0 S,19,69694,69994,1.4,0
Sprite,Foreground,Centre,"sb\glow.png",500,89 C,0,69619,,220,166,126 F,0,69619,69719,0,0.6 F,0,69719,70019,0.6,0 S,19,69719,70019,1.4,0
Sprite,Foreground,Centre,"sb\glow.png",311,158 C,0,69897,,220,166,126 F,2,69897,70278,1,0 S,2,69897,70278,1,0.2
Sprite,Foreground,Centre,"sb\glow.png",311,158 C,0,69797,,220,166,126 F,0,69797,69897,0,0.6 F,0,69897,70197,0.6,0 S,19,69897,70197,1.4,0
Sprite,Foreground,Centre,"sb\glow.png",299,156 C,0,69822,,220,166,126 F,0,69822,69922,0,0.6 F,0,69922,70222,0.6,0 S,19,69922,70222,1.4,0
Sprite,Foreground,Centre,"sb\glow.png",286,154 C,0,69847,,220,166,126 F,0,69847,69947,0,0.6 F,0,69947,70247,0.6,0 S,19,69947,70247,1.4,0
Sprite,Foreground,Centre,"sb\glow.png",274,152 C,0,69872,,220,166,126 F,0,69872,69972,0,0.6 F,0,69972,70272,0.6,0 S,19,69972,70272,1.4,0
Sprite,Foreground,Centre,"sb\glow.png",261,150 C,0,69897,,220,166,126 F,0,69897,69997,0,0.6 F,0,69997,70297,0.6,0 S,19,69997,70297,1.4,0
Sprite,Foreground,Centre,"sb\glow.png",249,148 C,0,69922,,220,166,126 F,0,69922,70022,0,0.6 F,0,70022,70322,0.6,0 S,19,70022,70322,1.4,0
Sprite,Foreground,Centre,"sb\glow.png",236,146 C,0,69947,,220,166,126 F,0,69947,70047,0,0.6 F,0,70047,70347,0.6,0 S,19,70047,70347,1.4,0
Sprite,Foreground,Centre,"sb\glow.png",224,144 C,0,69972,,220,166,126 F,0,69972,70072,0,0.6 F,0,70072,70372,0.6,0 S,19,70072,70372,1.4,0
Sprite,Foreground,Centre,"sb\glow.png",64,178 C,0,70260,,220,166,126 F,2,70260,70460,1,0 S,2,70260,70460,1,0.2
Sprite,Foreground,Centre,"sb\glow.png",150,57 C,0,70442,,222,203,124 F,2,70442,71005,1,0 S,2,70442,71005,1,0.2
Sprite,Foreground,Centre,"sb\glow.png",150,57 C,0,70342,,222,203,124 F,0,70342,70442,0,0.6 F,0,70442,70742,0.6,0 S,19,70442,70742,1.4,0
Sprite,Foreground,Centre,"sb\glow.png",150,70 C,0,70367,,222,203,124 F,0,70367,70467,0,0.6 F,0,70467,70767,0.6,0 S,19,70467,70767,1.4,0
Sprite,Foreground,Centre,"sb\glow.png",150,82 C,0,70392,,222,203,124 F,0,70392,70492,0,0.6 F,0,70492,70792,0.6,0 S,19,70492,70792,1.4,0
Sprite,Foreground,Centre,"sb\glow.png",150,95 C,0,70417,,222,203,124 F,0,70417,70517,0,0.6 F,0,70517,70817,0.6,0 S,19,70517,70817,1.4,0
Sprite,Foreground,Centre,"sb\glow.png",149,108 C,0,70442,,222,203,124 F,0,70442,70542,0,0.6 F,0,70542,70842,0.6,0 S,19,70542,70842,1.4,0
Sprite,Foreground,Centre,"sb\glow.png",149,120 C,0,70467,,222,203,124 F,0,70467,70567,0,0.6 F,0,70567,70867,0.6,0 S,19,70567,70867,1.4,0
Sprite,Foreground,Centre,"sb\glow.png",149,133 C,0,70492,,222,203,124 F,0,70492,70592,0,0.6 F,0,70592,70892,0.6,0 S,19,70592,70892,1.4,0
Sprite,Foreground,Centre,"sb\glow.png",149,146 C,0,70517,,222,203,124 F,0,70517,70617,0,0.6 F,0,70617,70917,0.6,0 S,19,70617,70917,1.4,0
Sprite,Foreground,Centre,"sb\glow.png",149,158 C,0,70542,,222,203,124 F,0,70542,70642,0,0.6 F,0,70642,70942,0.6,0 S,19,70642,70942,1.4,0
Sprite,Foreground,Centre,"sb\glow.png",149,171 C,0,70567,,222,203,124 F,0,70567,70667,0,0.6 F,0,70667,70967,0.6,0 S,19,70667,70967,1.4,0
Sprite,Foreground,Centre,"sb\glow.png",149,183 C,0,70592,,222,203,124 F,0,70592,70692,0,0.6 F,0,70692,70992,0.6,0 S,19,70692,70992,1.4,0
Sprite,Foreground,Centre,"sb\glow.png",149,196 C,0,70617,,222,203,124 F,0,70617,70717,0,0.6 F,0,70717,71017,0.6,0 S,19,70717,71017,1.4,0
Sprite,Foreground,Centre,"sb\glow.png",148,209 C,0,70642,,222,203,124 F,0,70642,70742,0,0.6 F,0,70742,71042,0.6,0 S,19,70742,71042,1.4,0
Sprite,Foreground,Centre,"sb\glow.png",148,221 C,0,70667,,222,203,124 F,0,70667,70767,0,0.6 F,0,70767,71067,0.6,0 S,19,70767,71067,1.4,0
Sprite,Foreground,Centre,"sb\glow.png",148,234 C,0,70692,,222,203,124 F,0,70692,70792,0,0.6 F,0,70792,71092,0.6,0 S,19,70792,71092,1.4,0
Sprite,Foreground,Centre,"sb\glow.png",148,440 C,0,70987,,222,203,124 F,2,70987,71187,1,0 S,2,70987,71187,1,0.2
Sprite,Foreground,Centre,"sb\glow.png",66,318 C,0,71169,,222,203,124 F,2,71169,71369,1,0 S,2,71169,71369,1,0.2
Sprite,Foreground,Centre,"sb\glow.png",257,385 C,0,71351,,222,203,124 F,2,71351,71551,1,0 S,2,71351,71551,1,0.2
Sprite,Foreground,Centre,"sb\glow.png",352,200 C,0,71532,,222,203,124 F,2,71532,71913,1,0 S,2,71532,71913,1,0.2
Sprite,Foreground,Centre,"sb\glow.png",352,200 C,0,71432,,222,203,124 F,0,71432,71532,0,0.6 F,0,71532,71832,0.6,0 S,19,71532,71832,1.4,0
Sprite,Foreground,Centre,"sb\glow.png",344,209 C,0,71457,,222,203,124 F,0,71457,71557,0,0.6 F,0,71557,71857,0.6,0 S,19,71557,71857,1.4,0
Sprite,Foreground,Centre,"sb\glow.png",336,220 C,0,71482,,222,203,124 F,0,71482,71582,0,0.6 F,0,71582,71882,0.6,0 S,19,71582,71882,1.4,0
Sprite,Foreground,Centre,"sb\glow.png",332,231 C,0,71507,,222,203,124 F,0,71507,71607,0,0.6 F,0,71607,71907,0.6,0 S,19,71607,71907,1.4,0
Sprite,Foreground,Centre,"sb\glow.png",328,243 C,0,71532,,222,203,124 F,0,71532,71632,0,0.6 F,0,71632,71932,0.6,0 S,19,71632,71932,1.4,0
Sprite,Foreground,Centre,"sb\glow.png",328,256 C,0,71557,,222,203,124 F,0,71557,71657,0,0.6 F,0,71657,71957,0.6,0 S,19,71657,71957,1.4,0
Sprite,Foreground,Centre,"sb\glow.png",329,269 C,0,71582,,222,203,124 F,0,71582,71682,0,0.6 F,0,71682,71982,0.6,0 S,19,71682,71982,1.4,0
Sprite,Foreground,Centre,"sb\glow.png",333,281 C,0,71607,,222,203,124 F,0,71607,71707,0,0.6 F,0,71707,72007,0.6,0 S,19,71707,72007,1.4,0
Sprite,Foreground,Centre,"sb\glow.png",463,152 C,0,71896,,196,162,223 F,2,71896,72277,1,0 S,2,71896,72277,1,0.2
Sprite,Foreground,Centre,"sb\glow.png",463,152 C,0,71796,,196,162,223 F,0,71796,71896,0,0.6 F,0,71896,72196,0.6,0 S,19,71896,72196,1.4,0
Sprite,Foreground,Centre,"sb\glow.png",464,139 C,0,71821,,196,162,223 F,0,71821,71921,0,0.6 F,0,71921,72221,0.6,0 S,19,71921,72221,1.4,0
Sprite,Foreground,Centre,"sb\glow.png",465,127 C,0,71846,,196,162,223 F,0,71846,71946,0,0.6 F,0,71946,72246,0.6,0 S,19,71946,72246,1.4,0
Sprite,Foreground,Centre,"sb\glow.png",465,114 C,0,71871,,196,162,223 F,0,71871,71971,0,0.6 F,0,71971,72271,0.6,0 S,19,71971,72271,1.4,0
Sprite,Foreground,Centre,"sb\glow.png",466,102 C,0,71896,,196,162,223 F,0,71896,71996,0,0.6 F,0,71996,72296,0.6,0 S,19,71996,72296,1.4,0
Sprite,Foreground,Centre,"sb\glow.png",467,89 C,0,71921,,196,162,223 F,0,71921,72021,0,0.6 F,0,72021,72321,0.6,0 S,19,72021,72321,1.4,0
Sprite,Foreground,Centre,"sb\glow.png",468,76 C,0,71946,,196,162,223 F,0,71946,72046,0,0.6 F,0,72046,72346,0.6,0 S,19,72046,72346,1.4,0
Sprite,Foreground,Centre,"sb\glow.png",469,64 C,0,71971,,196,162,223 F,0,71971,72071,0,0.6 F,0,72071,72371,0.6,0 S,19,72071,72371,1.4,0
Sprite,Foreground,Centre,"sb\glow.png",450,265 C,0,72260,,196,162,223 F,2,72260,72460,1,0 S,2,72260,72460,1,0.2
Sprite,Foreground,Centre,"sb\glow.png",353,200 C,0,72442,,196,162,223 F,2,72442,72642,1,0 S,2,72442,72642,1,0.2
Sprite,Foreground,Centre,"sb\glow.png",561,214 C,0,72623,,196,162,223 F,2,72623,72823,1,0 S,2,72623,72823,1,0.2
Sprite,Foreground,Centre,"sb\glow.png",322,345 C,0,72805,,199,109,166 F,2,72805,73005,1,0 S,2,72805,73005,1,0.2
Sprite,Foreground,Centre,"sb\glow.png",463,152 C,0,72987,,199,109,166 F,2,72987,73187,1,0 S,2,72987,73187,1,0.2
Sprite,Foreground,Centre,"sb\glow.png",553,378 C,0,73169,,199,109,166 F,2,73169,73369,1,0 S,2,73169,73369,1,0.2
Sprite,Foreground,Centre,"sb\glow.png",233,248 C,0,73351,,224,130,124 F,2,73351,73745,1,0 S,2,73351,73745,1,0.2
Sprite,Foreground,Centre,"sb\glow.png",233,248 C,0,73251,,224,130,124 F,0,73251,73351,0,0.6 F,0,73351,73651,0.6,0 S,19,73351,73651,1.4,0
Sprite,Foreground,Centre,"sb\glow.png",221,249 C,0,73276,,224,130,124 F,0,73276,73376,0,0.6 F,0,73376,73676,0.6,0 S,19,73376,73676,1.4,0
Sprite,Foreground,Centre,"sb\glow.png",210,250 C,0,73301,,224,130,124 F,0,73301,73401,0,0.6 F,0,73401,73701,0.6,0 S,19,73401,73701,1.4,0
Sprite,Foreground,Centre,"sb\glow.png",198,252 C,0,73326,,224,130,124 F,0,73326,73426,0,0.6 F,0,73426,73726,0.6,0 S,19,73426,73726,1.4,0
Sprite,Foreground,Centre,"sb\glow.png",186,253 C,0,73351,,224,130,124 F,0,73351,73451,0,0.6 F,0,73451,73751,0.6,0 S,19,73451,73751,1.4,0
Sprite,Foreground,Centre,"sb\glow.png",174,254 C,0,73376,,224,130,124 F,0,73376,73476,0,0.6 F,0,73476,73776,0.6,0 S,19,73476,73776,1.4,0
Sprite,Foreground,Centre,"sb\glow.png",163,255 C,0,73401,,224,130,124 F,0,73401,73501,0,0.6 F,0,73501,73801,0.6,0 S,19,73501,73801,1.4,0
Sprite,Foreground,Centre,"sb\glow.png",151,257 C,0,73426,,224,130,124 F,0,73426,73526,0,0.6 F,0,73526,73826,0.6,0 S,19,73526,73826,1.4,0
Sprite,Foreground,Centre,"sb\glow.png",216,384 C,0,73740,,224,130,124 F,2,73740,73940,1,0 S,2,73740,73940,1,0.2
Sprite,Foreground,Centre,"sb\glow.png",274,172 C,0,73921,,224,130,124 F,2,73921,74302,1,0 S,2,73921,74302,1,0.2
Sprite,Foreground,Centre,"sb\glow.png",274,172 C,0,73821,,224,130,124 F,0,73821,73921,0,0.6 F,0,73921,74221,0.6,0 S,19,73921,74221,1.4,0
Sprite,Foreground,Centre,"sb\glow.png",263,166 C,0,73846,,224,130,124 F,0,73846,73946,0,0.6 F,0,73946,74246,0.6,0 S,19,73946,74246,1.4,0
Sprite,Foreground,Centre,"sb\glow.png",251,162 C,0,73871,,224,130,124 F,0,73871,73971,0,0.6 F,0,73971,74271,0.6,0 S,19,73971,74271,1.4,0
Sprite,Foreground,Centre,"sb\glow.png",239,160 C,0,73896,,224,130,124 F,0,73896,73996,0,0.6 F,0,73996,74296,0.6,0 S,19,73996,74296,1.4,0
Sprite,Foreground,Centre,"sb\glow.png",226,159 C,0,73921,,224,130,124 F,0,73921,74021,0,0.6 F,0,74021,74321,0.6,0 S,19,74021,74321,1.4,0
Sprite,Foreground,Centre,"sb\glow.png",214,161 C,0,73946,,224,130,124 F,0,73946,74046,0,0.6 F,0,74046,74346,0.6,0 S,19,74046,74346,1.4,0
Sprite,Foreground,Centre,"sb\glow.png",202,165 C,0,73971,,224,130,124 F,0,73971,74071,0,0.6 F,0,74071,74371,0.6,0 S,19,74071,74371,1.4,0
Sprite,Foreground,Centre,"sb\glow.png",191,171 C,0,73996,,224,130,124 F,0,73996,74096,0,0.6 F,0,74096,74396,0.6,0 S,19,74096,74396,1.4,0
Sprite,Foreground,Centre,"sb\glow.png",90,321 C,0,74285,,224,130,124 F,2,74285,74485,1,0 S,2,74285,74485,1,0.2
Sprite,Foreground,Centre,"sb\glow.png",233,248 C,0,74460,,224,130,124 F,2,74460,74835,1,0 S,2,74460,74835,1,0.2
Sprite,Foreground,Centre,"sb\glow.png",233,248 C,0,74360,,224,130,124 F,0,74360,74460,0,0.6 F,0,74460,74760,0.6,0 S,19,74460,74760,1.4,0
Sprite,Foreground,Centre,"sb\glow.png",246,250 C,0,74385,,224,130,124 F,0,74385,74485,0,0.6 F,0,74485,74785,0.6,0 S,19,74485,74785,1.4,0
Sprite,Foreground,Centre,"sb\glow.png",259,251 C,0,74410,,224,130,124 F,0,74410,74510,0,0.6 F,0,74510,74810,0.6,0 S,19,74510,74810,1.4,0
Sprite,Foreground,Centre,"sb\glow.png",272,253 C,0,74435,,224,130,124 F,0,74435,74535,0,0.6 F,0,74535,74835,0.6,0 S,19,74535,74835,1.4,0
Sprite,Foreground,Centre,"sb\glow.png",285,255 C,0,74460,,224,130,124 F,0,74460,74560,0,0.6 F,0,74560,74860,0.6,0 S,19,74560,74860,1.4,0
Sprite,Foreground,Centre,"sb\glow.png",298,257 C,0,74485,,224,130,124 F,0,74485,74585,0,0.6 F,0,74585,74885,0.6,0 S,19,74585,74885,1.4,0
Sprite,Foreground,Centre,"sb\glow.png",311,258 C,0,74510,,224,130,124 F,0,74510,74610,0,0.6 F,0,74610,74910,0.6,0 S,19,74610,74910,1.4,0
Sprite,Foreground,Centre,"sb\glow.png",324,260 C,0,74535,,224,130,124 F,0,74535,74635,0,0.6 F,0,74635,74935,0.6,0 S,19,74635,74935,1.4,0
Sprite,Foreground,Centre,"sb\glow.png",509,279 C,0,74811,,220,166,126 F,2,74811,75011,1,0 S,2,74811,75011,1,0.2
Sprite,Foreground,Centre,"sb\glow.png",421,391 C,0,74992,,220,166,126 F,2,74992,75192,1,0 S,2,74992,75192,1,0.2
Sprite,Foreground,Centre,"sb\glow.png",448,201 C,0,75174,,220,166,126 F,2,75174,75555,1,0 S,2,75174,75555,1,0.2
Sprite,Foreground,Centre,"sb\glow.png",448,201 C,0,75074,,220,166,126 F,0,75074,75174,0,0.6 F,0,75174,75474,0.6,0 S,19,75174,75474,1.4,0
Sprite,Foreground,Centre,"sb\glow.png",458,194 C,0,75099,,220,166,126 F,0,75099,75199,0,0.6 F,0,75199,75499,0.6,0 S,19,75199,75499,1.4,0
Sprite,Foreground,Centre,"sb\glow.png",469,188 C,0,75124,,220,166,126 F,0,75124,75224,0,0.6 F,0,75224,75524,0.6,0 S,19,75224,75524,1.4,0
Sprite,Foreground,Centre,"sb\glow.png",481,183 C,0,75149,,220,166,126 F,0,75149,75249,0,0.6 F,0,75249,75549,0.6,0 S,19,75249,75549,1.4,0
Sprite,Foreground,Centre,"sb\glow.png",493,180 C,0,75174,,220,166,126 F,0,75174,75274,0,0.6 F,0,75274,75574,0.6,0 S,19,75274,75574,1.4,0
Sprite,Foreground,Centre,"sb\glow.png",506,179 C,0,75199,,220,166,126 F,0,75199,75299,0,0.6 F,0,75299,75599,0.6,0 S,19,75299,75599,1.4,0
Sprite,Foreground,Centre,"sb\glow.png",518,180 C,0,75224,,220,166,126 F,0,75224,75324,0,0.6 F,0,75324,75624,0.6,0 S,19,75324,75624,1.4,0
Sprite,Foreground,Centre,"sb\glow.png",531,182 C,0,75249,,220,166,126 F,0,75249,75349,0,0.6 F,0,75349,75649,0.6,0 S,19,75349,75649,1.4,0
Sprite,Foreground,Centre,"sb\glow.png",221,71 C,0,75538,,222,203,124 F,2,75538,76010,1,0 S,2,75538,76010,1,0.2
Sprite,Foreground,Centre,"sb\glow.png",221,71 C,0,75438,,222,203,124 F,0,75438,75538,0,0.6 F,0,75538,75838,0.6,0 S,19,75538,75838,1.4,0
Sprite,Foreground,Centre,"sb\glow.png",211,86 C,0,75463,,222,203,124 F,0,75463,75563,0,0.6 F,0,75563,75863,0.6,0 S,19,75563,75863,1.4,0
Sprite,Foreground,Centre,"sb\glow.png",203,101 C,0,75488,,222,203,124 F,0,75488,75588,0,0.6 F,0,75588,75888,0.6,0 S,19,75588,75888,1.4,0
Sprite,Foreground,Centre,"sb\glow.png",197,118 C,0,75513,,222,203,124 F,0,75513,75613,0,0.6 F,0,75613,75913,0.6,0 S,19,75613,75913,1.4,0
Sprite,Foreground,Centre,"sb\glow.png",192,135 C,0,75538,,222,203,124 F,0,75538,75638,0,0.6 F,0,75638,75938,0.6,0 S,19,75638,75938,1.4,0
Sprite,Foreground,Centre,"sb\glow.png",189,152 C,0,75563,,222,203,124 F,0,75563,75663,0,0.6 F,0,75663,75963,0.6,0 S,19,75663,75963,1.4,0
Sprite,Foreground,Centre,"sb\glow.png",189,169 C,0,75588,,222,203,124 F,0,75588,75688,0,0.6 F,0,75688,75988,0.6,0 S,19,75688,75988,1.4,0
Sprite,Foreground,Centre,"sb\glow.png",190,187 C,0,75613,,222,203,124 F,0,75613,75713,0,0.6 F,0,75713,76013,0.6,0 S,19,75713,76013,1.4,0
Sprite,Foreground,Centre,"sb\glow.png",193,204 C,0,75638,,222,203,124 F,0,75638,75738,0,0.6 F,0,75738,76038,0.6,0 S,19,75738,76038,1.4,0
Sprite,Foreground,Centre,"sb\glow.png",198,221 C,0,75663,,222,203,124 F,0,75663,75763,0,0.6 F,0,75763,76063,0.6,0 S,19,75763,76063,1.4,0
Sprite,Foreground,Centre,"sb\glow.png",205,237 C,0,75688,,222,203,124 F,0,75688,75788,0,0.6 F,0,75788,76088,0.6,0 S,19,75788,76088,1.4,0
Sprite,Foreground,Centre,"sb\glow.png",216,255 C,0,75901,,196,162,223 F,2,75901,76385,1,0 S,2,75901,76385,1,0.2
Sprite,Foreground,Centre,"sb\glow.png",216,255 C,0,75801,,196,162,223 F,0,75801,75901,0,0.6 F,0,75901,76201,0.6,0 S,19,75901,76201,1.4,0
Sprite,Foreground,Centre,"sb\glow.png",209,240 C,0,75826,,196,162,223 F,0,75826,75926,0,0.6 F,0,75926,76226,0.6,0 S,19,75926,76226,1.4,0
Sprite,Foreground,Centre,"sb\glow.png",200,225 C,0,75851,,196,162,223 F,0,75851,75951,0,0.6 F,0,75951,76251,0.6,0 S,19,75951,76251,1.4,0
Sprite,Foreground,Centre,"sb\glow.png",190,212 C,0,75876,,196,162,223 F,0,75876,75976,0,0.6 F,0,75976,76276,0.6,0 S,19,75976,76276,1.4,0
Sprite,Foreground,Centre,"sb\glow.png",178,200 C,0,75901,,196,162,223 F,0,75901,76001,0,0.6 F,0,76001,76301,0.6,0 S,19,76001,76301,1.4,0
Sprite,Foreground,Centre,"sb\glow.png",165,190 C,0,75926,,196,162,223 F,0,75926,76026,0,0.6 F,0,76026,76326,0.6,0 S,19,76026,76326,1.4,0
Sprite,Foreground,Centre,"sb\glow.png",151,180 C,0,75951,,196,162,223 F,0,75951,76051,0,0.6 F,0,76051,76351,0.6,0 S,19,76051,76351,1.4,0
Sprite,Foreground,Centre,"sb\glow.png",136,173 C,0,75976,,196,162,223 F,0,75976,76076,0,0.6 F,0,76076,76376,0.6,0 S,19,76076,76376,1.4,0
Sprite,Foreground,Centre,"sb\glow.png",120,167 C,0,76001,,196,162,223 F,0,76001,76101,0,0.6 F,0,76101,76401,0.6,0 S,19,76101,76401,1.4,0
Sprite,Foreground,Centre,"sb\glow.png",103,163 C,0,76026,,196,162,223 F,0,76026,76126,0,0.6 F,0,76126,76426,0.6,0 S,19,76126,76426,1.4,0
Sprite,Foreground,Centre,"sb\glow.png",87,161 C,0,76051,,196,162,223 F,0,76051,76151,0,0.6 F,0,76151,76451,0.6,0 S,19,76151,76451,1.4,0
Sprite,Foreground,Centre,"sb\glow.png",70,161 C,0,76076,,196,162,223 F,0,76076,76176,0,0.6 F,0,76176,76476,0.6,0 S,19,76176,76476,1.4,0
Sprite,Foreground,Centre,"sb\glow.png",64,161 C,0,76281,,199,109,166 F,2,76281,76844,1,0 S,2,76281,76844,1,0.2
Sprite,Foreground,Centre,"sb\glow.png",64,161 C,0,76181,,199,109,166 F,0,76181,76281,0,0.6 F,0,76281,76581,0.6,0 S,19,76281,76581,1.4,0
Sprite,Foreground,Centre,"sb\glow.png",77,162 C,0,76206,,199,109,166 F,0,76206,76306,0,0.6 F,0,76306,76606,0.6,0 S,19,76306,76606,1.4,0
Sprite,Foreground,Centre,"sb\glow.png",90,162 C,0,76231,,199,109,166 F,0,76231,76331,0,0.6 F,0,76331,76631,0.6,0 S,19,76331,76631,1.4,0
Sprite,Foreground,Centre,"sb\glow.png",103,161 C,0,76256,,199,109,166 F,0,76256,76356,0,0.6 F,0,76356,76656,0.6,0 S,19,76356,76656,1.4,0
Sprite,Foreground,Centre,"sb\glow.png",116,159 C,0,76281,,199,109,166 F,0,76281,76381,0,0.6 F,0,76381,76681,0.6,0 S,19,76381,76681,1.4,0
Sprite,Foreground,Centre,"sb\glow.png",129,155 C,0,76306,,199,109,166 F,0,76306,76406,0,0.6 F,0,76406,76706,0.6,0 S,19,76406,76706,1.4,0
Sprite,Foreground,Centre,"sb\glow.png",142,151 C,0,76331,,199,109,166 F,0,76331,76431,0,0.6 F,0,76431,76731,0.6,0 S,19,76431,76731,1.4,0
Sprite,Foreground,Centre,"sb\glow.png",154,145 C,0,76356,,199,109,166 F,0,76356,76456,0,0.6 F,0,76456,76756,0.6,0 S,19,76456,76756,1.4,0
Sprite,Foreground,Centre,"sb\glow.png",165,139 C,0,76381,,199,109,166 F,0,76381,76481,0,0.6 F,0,76481,76781,0.6,0 S,19,76481,76781,1.4,0
Sprite,Foreground,Centre,"sb\glow.png",176,131 C,0,76406,,199,109,166 F,0,76406,76506,0,0.6 F,0,76506,76806,0.6,0 S,19,76506,76806,1.4,0
Sprite,Foreground,Centre,"sb\glow.png",186,123 C,0,76431,,199,109,166 F,0,76431,76531,0,0.6 F,0,76531,76831,0.6,0 S,19,76531,76831,1.4,0
Sprite,Foreground,Centre,"sb\glow.png",195,113 C,0,76456,,199,109,166 F,0,76456,76556,0,0.6 F,0,76556,76856,0.6,0 S,19,76556,76856,1.4,0
Sprite,Foreground,Centre,"sb\glow.png",204,103 C,0,76481,,199,109,166 F,0,76481,76581,0,0.6 F,0,76581,76881,0.6,0 S,19,76581,76881,1.4,0
Sprite,Foreground,Centre,"sb\glow.png",211,93 C,0,76506,,199,109,166 F,0,76506,76606,0,0.6 F,0,76606,76906,0.6,0 S,19,76606,76906,1.4,0
Sprite,Foreground,Centre,"sb\glow.png",218,81 C,0,76531,,199,109,166 F,0,76531,76631,0,0.6 F,0,76631,76931,0.6,0 S,19,76631,76931,1.4,0
Sprite,Foreground,Centre,"sb\glow.png",97,276 C,0,76826,,199,109,166 F,2,76826,77026,1,0 S,2,76826,77026,1,0.2
Sprite,Foreground,Centre,"sb\glow.png",275,164 C,0,77008,,199,109,166 F,2,77008,77571,1,0 S,2,77008,77571,1,0.2
Sprite,Foreground,Centre,"sb\glow.png",275,164 C,0,76908,,199,109,166 F,0,76908,77008,0,0.6 F,0,77008,77308,0.6,0 S,19,77008,77308,1.4,0
Sprite,Foreground,Centre,"sb\glow.png",288,164 C,0,76933,,199,109,166 F,0,76933,77033,0,0.6 F,0,77033,77333,0.6,0 S,19,77033,77333,1.4,0
Sprite,Foreground,Centre,"sb\glow.png",301,164 C,0,76958,,199,109,166 F,0,76958,77058,0,0.6 F,0,77058,77358,0.6,0 S,19,77058,77358,1.4,0
Sprite,Foreground,Centre,"sb\glow.png",314,166 C,0,76983,,199,109,166 F,0,76983,77083,0,0.6 F,0,77083,77383,0.6,0 S,19,77083,77383,1.4,0
Sprite,Foreground,Centre,"sb\glow.png",327,169 C,0,77008,,199,109,166 F,0,77008,77108,0,0.6 F,0,77108,77408,0.6,0 S,19,77108,77408,1.4,0
Sprite,Foreground,Centre,"sb\glow.png",339,175 C,0,77033,,199,109,166 F,0,77033,77133,0,0.6 F,0,77133,77433,0.6,0 S,19,77133,77433,1.4,0
Sprite,Foreground,Centre,"sb\glow.png",350,183 C,0,77058,,199,109,166 F,0,77058,77158,0,0.6 F,0,77158,77458,0.6,0 S,19,77158,77458,1.4,0
Sprite,Foreground,Centre,"sb\glow.png",359,192 C,0,77083,,199,109,166 F,0,77083,77183,0,0.6 F,0,77183,77483,0.6,0 S,19,77183,77483,1.4,0
Sprite,Foreground,Centre,"sb\glow.png",367,202 C,0,77108,,199,109,166 F,0,77108,77208,0,0.6 F,0,77208,77508,0.6,0 S,19,77208,77508,1.4,0
Sprite,Foreground,Centre,"sb\glow.png",376,213 C,0,77133,,199,109,166 F,0,77133,77233,0,0.6 F,0,77233,77533,0.6,0 S,19,77233,77533,1.4,0
Sprite,Foreground,Centre,"sb\glow.png",384,223 C,0,77158,,199,109,166 F,0,77158,77258,0,0.6 F,0,77258,77558,0.6,0 S,19,77258,77558,1.4,0
Sprite,Foreground,Centre,"sb\glow.png",394,231 C,0,77183,,199,109,166 F,0,77183,77283,0,0.6 F,0,77283,77583,0.6,0 S,19,77283,77583,1.4,0
Sprite,Foreground,Centre,"sb\glow.png",406,238 C,0,77208,,199,109,166 F,0,77208,77308,0,0.6 F,0,77308,77608,0.6,0 S,19,77308,77608,1.4,0
Sprite,Foreground,Centre,"sb\glow.png",418,242 C,0,77233,,199,109,166 F,0,77233,77333,0,0.6 F,0,77333,77633,0.6,0 S,19,77333,77633,1.4,0
Sprite,Foreground,Centre,"sb\glow.png",431,245 C,0,77258,,199,109,166 F,0,77258,77358,0,0.6 F,0,77358,77658,0.6,0 S,19,77358,77658,1.4,0
Sprite,Foreground,Centre,"sb\glow.png",461,138 C,0,77553,,199,109,166 F,2,77553,77753,1,0 S,2,77553,77753,1,0.2
Sprite,Foreground,Centre,"sb\glow.png",294,249 C,0,77735,,224,130,124 F,2,77735,78298,1,0 S,2,77735,78298,1,0.2
Sprite,Foreground,Centre,"sb\glow.png",294,249 C,0,77635,,224,130,124 F,0,77635,77735,0,0.6 F,0,77735,78035,0.6,0 S,19,77735,78035,1.4,0
Sprite,Foreground,Centre,"sb\glow.png",293,262 C,0,77660,,224,130,124 F,0,77660,77760,0,0.6 F,0,77760,78060,0.6,0 S,19,77760,78060,1.4,0
Sprite,Foreground,Centre,"sb\glow.png",293,275 C,0,77685,,224,130,124 F,0,77685,77785,0,0.6 F,0,77785,78085,0.6,0 S,19,77785,78085,1.4,0
Sprite,Foreground,Centre,"sb\glow.png",292,289 C,0,77710,,224,130,124 F,0,77710,77810,0,0.6 F,0,77810,78110,0.6,0 S,19,77810,78110,1.4,0
Sprite,Foreground,Centre,"sb\glow.png",291,302 C,0,77735,,224,130,124 F,0,77735,77835,0,0.6 F,0,77835,78135,0.6,0 S,19,77835,78135,1.4,0
Sprite,Foreground,Centre,"sb\glow.png",291,315 C,0,77760,,224,130,124 F,0,77760,77860,0,0.6 F,0,77860,78160,0.6,0 S,19,77860,78160,1.4,0
Sprite,Foreground,Centre,"sb\glow.png",290,328 C,0,77785,,224,130,124 F,0,77785,77885,0,0.6 F,0,77885,78185,0.6,0 S,19,77885,78185,1.4,0
Sprite,Foreground,Centre,"sb\glow.png",289,341 C,0,77810,,224,130,124 F,0,77810,77910,0,0.6 F,0,77910,78210,0.6,0 S,19,77910,78210,1.4,0
Sprite,Foreground,Centre,"sb\glow.png",288,354 C,0,77835,,224,130,124 F,0,77835,77935,0,0.6 F,0,77935,78235,0.6,0 S,19,77935,78235,1.4,0
Sprite,Foreground,Centre,"sb\glow.png",288,368 C,0,77860,,224,130,124 F,0,77860,77960,0,0.6 F,0,77960,78260,0.6,0 S,19,77960,78260,1.4,0
Sprite,Foreground,Centre,"sb\glow.png",287,381 C,0,77885,,224,130,124 F,0,77885,77985,0,0.6 F,0,77985,78285,0.6,0 S,19,77985,78285,1.4,0
Sprite,Foreground,Centre,"sb\glow.png",286,394 C,0,77910,,224,130,124 F,0,77910,78010,0,0.6 F,0,78010,78310,0.6,0 S,19,78010,78310,1.4,0
Sprite,Foreground,Centre,"sb\glow.png",286,407 C,0,77935,,224,130,124 F,0,77935,78035,0,0.6 F,0,78035,78335,0.6,0 S,19,78035,78335,1.4,0
Sprite,Foreground,Centre,"sb\glow.png",285,420 C,0,77960,,224,130,124 F,0,77960,78060,0,0.6 F,0,78060,78360,0.6,0 S,19,78060,78360,1.4,0
Sprite,Foreground,Centre,"sb\glow.png",284,434 C,0,77985,,224,130,124 F,0,77985,78085,0,0.6 F,0,78085,78385,0.6,0 S,19,78085,78385,1.4,0
Sprite,Foreground,Centre,"sb\glow.png",193,373 C,0,78281,,224,130,124 F,2,78281,78571,1,0 S,2,78281,78571,1,0.2
Sprite,Foreground,Centre,"sb\glow.png",193,373 C,0,78181,,224,130,124 F,0,78181,78281,0,0.6 F,0,78281,78581,0.6,0 S,19,78281,78581,1.4,0
Sprite,Foreground,Centre,"sb\glow.png",180,370 C,0,78206,,224,130,124 F,0,78206,78306,0,0.6 F,0,78306,78606,0.6,0 S,19,78306,78606,1.4,0
Sprite,Foreground,Centre,"sb\glow.png",167,368 C,0,78231,,224,130,124 F,0,78231,78331,0,0.6 F,0,78331,78631,0.6,0 S,19,78331,78631,1.4,0
Sprite,Foreground,Centre,"sb\glow.png",154,365 C,0,78256,,224,130,124 F,0,78256,78356,0,0.6 F,0,78356,78656,0.6,0 S,19,78356,78656,1.4,0
Sprite,Foreground,Centre,"sb\glow.png",80,264 C,0,78464,,224,130,124 F,2,78464,78845,1,0 S,2,78464,78845,1,0.2
Sprite,Foreground,Centre,"sb\glow.png",80,264 C,0,78364,,224,130,124 F,0,78364,78464,0,0.6 F,0,78464,78764,0.6,0 S,19,78464,78764,1.4,0
Sprite,Foreground,Centre,"sb\glow.png",92,269 C,0,78389,,224,130,124 F,0,78389,78489,0,0.6 F,0,78489,78789,0.6,0 S,19,78489,78789,1.4,0
Sprite,Foreground,Centre,"sb\glow.png",105,272 C,0,78414,,224,130,124 F,0,78414,78514,0,0.6 F,0,78514,78814,0.6,0 S,19,78514,78814,1.4,0
Sprite,Foreground,Centre,"sb\glow.png",118,273 C,0,78439,,224,130,124 F,0,78439,78539,0,0.6 F,0,78539,78839,0.6,0 S,19,78539,78839,1.4,0
Sprite,Foreground,Centre,"sb\glow.png",131,272 C,0,78464,,224,130,124 F,0,78464,78564,0,0.6 F,0,78564,78864,0.6,0 S,19,78564,78864,1.4,0
Sprite,Foreground,Centre,"sb\glow.png",144,270 C,0,78489,,224,130,124 F,0,78489,78589,0,0.6 F,0,78589,78889,0.6,0 S,19,78589,78889,1.4,0
Sprite,Foreground,Centre,"sb\glow.png",157,265 C,0,78514,,224,130,124 F,0,78514,78614,0,0.6 F,0,78614,78914,0.6,0 S,19,78614,78914,1.4,0
Sprite,Foreground,Centre,"sb\glow.png",168,259 C,0,78539,,224,130,124 F,0,78539,78639,0,0.6 F,0,78639,78939,0.6,0 S,19,78639,78939,1.4,0
Sprite,Foreground,Centre,"sb\glow.png",198,237 C,0,78736,,224,130,124 F,2,78736,78936,1,0 S,2,78736,78936,1,0.2
Sprite,Foreground,Centre,"sb\glow.png",213,207 C,0,78827,,224,130,124 F,2,78827,79027,1,0 S,2,78827,79027,1,0.2
Sprite,Foreground,Centre,"sb\glow.png",229,177 C,0,78918,,224,130,124 F,2,78918,79118,1,0 S,2,78918,79118,1,0.2
Sprite,Foreground,Centre,"sb\glow.png",242,146 C,0,79009,,224,130,124 F,2,79009,79209,1,0 S,2,79009,79209,1,0.2
Sprite,Foreground,Centre,"sb\glow.png",254,114 C,0,79100,,224,130,124 F,2,79100,79300,1,0 S,2,79100,79300,1,0.2
Sprite,Foreground,Centre,"sb\glow.png",268,83 C,0,79190,,220,166,126 F,2,79190,79571,1,0 S,2,79190,79571,1,0.2
Sprite,Foreground,Centre,"sb\glow.png",268,83 C,0,79090,,220,166,126 F,0,79090,79190,0,0.6 F,0,79190,79490,0.6,0 S,19,79190,79490,1.4,0
Sprite,Foreground,Centre,"sb\glow.png",281,82 C,0,79115,,220,166,126 F,0,79115,79215,0,0.6 F,0,79215,79515,0.6,0 S,19,79215,79515,1.4,0
Sprite,Foreground,Centre,"sb\glow.png",294,81 C,0,79140,,220,166,126 F,0,79140,79240,0,0.6 F,0,79240,79540,0.6,0 S,19,79240,79540,1.4,0
Sprite,Foreground,Centre,"sb\glow.png",308,80 C,0,79165,,220,166,126 F,0,79165,79265,0,0.6 F,0,79265,79565,0.6,0 S,19,79265,79565,1.4,0
Sprite,Foreground,Centre,"sb\glow.png",321,80 C,0,79190,,220,166,126 F,0,79190,79290,0,0.6 F,0,79290,79590,0.6,0 S,19,79290,79590,1.4,0
Sprite,Foreground,Centre,"sb\glow.png",334,79 C,0,79215,,220,166,126 F,0,79215,79315,0,0.6 F,0,79315,79615,0.6,0 S,19,79315,79615,1.4,0
Sprite,Foreground,Centre,"sb\glow.png",347,78 C,0,79240,,220,166,126 F,0,79240,79340,0,0.6 F,0,79340,79640,0.6,0 S,19,79340,79640,1.4,0
Sprite,Foreground,Centre,"sb\glow.png",360,77 C,0,79265,,220,166,126 F,0,79265,79365,0,0.6 F,0,79365,79665,0.6,0 S,19,79365,79665,1.4,0
Sprite,Foreground,Centre,"sb\glow.png",534,192 C,0,79553,,220,166,126 F,2,79553,79934,1,0 S,2,79553,79934,1,0.2
Sprite,Foreground,Centre,"sb\glow.png",534,192 C,0,79453,,220,166,126 F,0,79453,79553,0,0.6 F,0,79553,79853,0.6,0 S,19,79553,79853,1.4,0
Sprite,Foreground,Centre,"sb\glow.png",521,191 C,0,79478,,220,166,126 F,0,79478,79578,0,0.6 F,0,79578,79878,0.6,0 S,19,79578,79878,1.4,0
Sprite,Foreground,Centre,"sb\glow.png",508,190 C,0,79503,,220,166,126 F,0,79503,79603,0,0.6 F,0,79603,79903,0.6,0 S,19,79603,79903,1.4,0
Sprite,Foreground,Centre,"sb\glow.png",495,189 C,0,79528,,220,166,126 F,0,79528,79628,0,0.6 F,0,79628,79928,0.6,0 S,19,79628,79928,1.4,0
Sprite,Foreground,Centre,"sb\glow.png",481,188 C,0,79553,,220,166,126 F,0,79553,79653,0,0.6 F,0,79653,79953,0.6,0 S,19,79653,79953,1.4,0
Sprite,Foreground,Centre,"sb\glow.png",468,187 C,0,79578,,220,166,126 F,0,79578,79678,0,0.6 F,0,79678,79978,0.6,0 S,19,79678,79978,1.4,0
Sprite,Foreground,Centre,"sb\glow.png",455,186 C,0,79603,,220,166,126 F,0,79603,79703,0,0.6 F,0,79703,80003,0.6,0 S,19,79703,80003,1.4,0
Sprite,Foreground,Centre,"sb\glow.png",442,185 C,0,79628,,220,166,126 F,0,79628,79728,0,0.6 F,0,79728,80028,0.6,0 S,19,79728,80028,1.4,0
Sprite,Foreground,Centre,"sb\glow.png",361,386 C,0,79917,,220,166,126 F,2,79917,80298,1,0 S,2,79917,80298,1,0.2
Sprite,Foreground,Centre,"sb\glow.png",361,386 C,0,79817,,220,166,126 F,0,79817,79917,0,0.6 F,0,79917,80217,0.6,0 S,19,79917,80217,1.4,0
Sprite,Foreground,Centre,"sb\glow.png",374,385 C,0,79842,,220,166,126 F,0,79842,79942,0,0.6 F,0,79942,80242,0.6,0 S,19,79942,80242,1.4,0
Sprite,Foreground,Centre,"sb\glow.png",387,384 C,0,79867,,220,166,126 F,0,79867,79967,0,0.6 F,0,79967,80267,0.6,0 S,19,79967,80267,1.4,0
Sprite,Foreground,Centre,"sb\glow.png",400,383 C,0,79892,,220,166,126 F,0,79892,79992,0,0.6 F,0,79992,80292,0.6,0 S,19,79992,80292,1.4,0
Sprite,Foreground,Centre,"sb\glow.png",414,382 C,0,79917,,220,166,126 F,0,79917,80017,0,0.6 F,0,80017,80317,0.6,0 S,19,80017,80317,1.4,0
Sprite,Foreground,Centre,"sb\glow.png",427,381 C,0,79942,,220,166,126 F,0,79942,80042,0,0.6 F,0,80042,80342,0.6,0 S,19,80042,80342,1.4,0
Sprite,Foreground,Centre,"sb\glow.png",440,380 C,0,79967,,220,166,126 F,0,79967,80067,0,0.6 F,0,80067,80367,0.6,0 S,19,80067,80367,1.4,0
Sprite,Foreground,Centre,"sb\glow.png",453,379 C,0,79992,,220,166,126 F,0,79992,80092,0,0.6 F,0,80092,80392,0.6,0 S,19,80092,80392,1.4,0
Sprite,Foreground,Centre,"sb\glow.png",378,293 C,0,80280,,220,166,126 F,2,80280,80661,1,0 S,2,80280,80661,1,0.2
Sprite,Foreground,Centre,"sb\glow.png",378,293 C,0,80180,,220,166,126 F,0,80180,80280,0,0.6 F,0,80280,80580,0.6,0 S,19,80280,80580,1.4,0
Sprite,Foreground,Centre,"sb\glow.png",365,292 C,0,80205,,220,166,126 F,0,80205,80305,0,0.6 F,0,80305,80605,0.6,0 S,19,80305,80605,1.4,0
Sprite,Foreground,Centre,"sb\glow.png",352,291 C,0,80230,,220,166,126 F,0,80230,80330,0,0.6 F,0,80330,80630,0.6,0 S,19,80330,80630,1.4,0
Sprite,Foreground,Centre,"sb\glow.png",339,290 C,0,80255,,220,166,126 F,0,80255,80355,0,0.6 F,0,80355,80655,0.6,0 S,19,80355,80655,1.4,0
Sprite,Foreground,Centre,"sb\glow.png",325,289 C,0,80280,,220,166,126 F,0,80280,80380,0,0.6 F,0,80380,80680,0.6,0 S,19,80380,80680,1.4,0
Sprite,Foreground,Centre,"sb\glow.png",312,288 C,0,80305,,220,166,126 F,0,80305,80405,0,0.6 F,0,80405,80705,0.6,0 S,19,80405,80705,1.4,0
Sprite,Foreground,Centre,"sb\glow.png",299,287 C,0,80330,,220,166,126 F,0,80330,80430,0,0.6 F,0,80430,80730,0.6,0 S,19,80430,80730,1.4,0
Sprite,Foreground,Centre,"sb\glow.png",286,286 C,0,80355,,220,166,126 F,0,80355,80455,0,0.6 F,0,80455,80755,0.6,0 S,19,80455,80755,1.4,0
Sprite,Foreground,Centre,"sb\glow.png",95,415 C,0,80644,,222,203,124 F,2,80644,81025,1,0 S,2,80644,81025,1,0.2
Sprite,Foreground,Centre,"sb\glow.png",95,415 C,0,80544,,222,203,124 F,0,80544,80644,0,0.6 F,0,80644,80944,0.6,0 S,19,80644,80944,1.4,0
Sprite,Foreground,Centre,"sb\glow.png",102,404 C,0,80569,,222,203,124 F,0,80569,80669,0,0.6 F,0,80669,80969,0.6,0 S,19,80669,80969,1.4,0
Sprite,Foreground,Centre,"sb\glow.png",108,392 C,0,80594,,222,203,124 F,0,80594,80694,0,0.6 F,0,80694,80994,0.6,0 S,19,80694,80994,1.4,0
Sprite,Foreground,Centre,"sb\glow.png",114,380 C,0,80619,,222,203,124 F,0,80619,80719,0,0.6 F,0,80719,81019,0.6,0 S,19,80719,81019,1.4,0
Sprite,Foreground,Centre,"sb\glow.png",118,368 C,0,80644,,222,203,124 F,0,80644,80744,0,0.6 F,0,80744,81044,0.6,0 S,19,80744,81044,1.4,0
Sprite,Foreground,Centre,"sb\glow.png",122,355 C,0,80669,,222,203,124 F,0,80669,80769,0,0.6 F,0,80769,81069,0.6,0 S,19,80769,81069,1.4,0
Sprite,Foreground,Centre,"sb\glow.png",125,342 C,0,80694,,222,203,124 F,0,80694,80794,0,0.6 F,0,80794,81094,0.6,0 S,19,80794,81094,1.4,0
Sprite,Foreground,Centre,"sb\glow.png",127,329 C,0,80719,,222,203,124 F,0,80719,80819,0,0.6 F,0,80819,81119,0.6,0 S,19,80819,81119,1.4,0
Sprite,Foreground,Centre,"sb\glow.png",104,211 C,0,81008,,222,203,124 F,2,81008,81208,1,0 S,2,81008,81208,1,0.2
Sprite,Foreground,Centre,"sb\glow.png",233,105 C,0,81190,,222,203,124 F,2,81190,81571,1,0 S,2,81190,81571,1,0.2
Sprite,Foreground,Centre,"sb\glow.png",233,105 C,0,81090,,222,203,124 F,0,81090,81190,0,0.6 F,0,81190,81490,0.6,0 S,19,81190,81490,1.4,0
Sprite,Foreground,Centre,"sb\glow.png",246,106 C,0,81115,,222,203,124 F,0,81115,81215,0,0.6 F,0,81215,81515,0.6,0 S,19,81215,81515,1.4,0
Sprite,Foreground,Centre,"sb\glow.png",259,107 C,0,81140,,222,203,124 F,0,81140,81240,0,0.6 F,0,81240,81540,0.6,0 S,19,81240,81540,1.4,0
Sprite,Foreground,Centre,"sb\glow.png",272,108 C,0,81165,,222,203,124 F,0,81165,81265,0,0.6 F,0,81265,81565,0.6,0 S,19,81265,81565,1.4,0
Sprite,Foreground,Centre,"sb\glow.png",286,109 C,0,81190,,222,203,124 F,0,81190,81290,0,0.6 F,0,81290,81590,0.6,0 S,19,81290,81590,1.4,0
Sprite,Foreground,Centre,"sb\glow.png",299,110 C,0,81215,,222,203,124 F,0,81215,81315,0,0.6 F,0,81315,81615,0.6,0 S,19,81315,81615,1.4,0
Sprite,Foreground,Centre,"sb\glow.png",312,111 C,0,81240,,222,203,124 F,0,81240,81340,0,0.6 F,0,81340,81640,0.6,0 S,19,81340,81640,1.4,0
Sprite,Foreground,Centre,"sb\glow.png",325,112 C,0,81265,,222,203,124 F,0,81265,81365,0,0.6 F,0,81365,81665,0.6,0 S,19,81365,81665,1.4,0
Sprite,Foreground,Centre,"sb\glow.png",429,193 C,0,81553,,222,203,124 F,2,81553,81934,1,0 S,2,81553,81934,1,0.2
Sprite,Foreground,Centre,"sb\glow.png",429,193 C,0,81453,,222,203,124 F,0,81453,81553,0,0.6 F,0,81553,81853,0.6,0 S,19,81553,81853,1.4,0
Sprite,Foreground,Centre,"sb\glow.png",416,194 C,0,81478,,222,203,124 F,0,81478,81578,0,0.6 F,0,81578,81878,0.6,0 S,19,81578,81878,1.4,0
Sprite,Foreground,Centre,"sb\glow.png",403,195 C,0,81503,,222,203,124 F,0,81503,81603,0,0.6 F,0,81603,81903,0.6,0 S,19,81603,81903,1.4,0
Sprite,Foreground,Centre,"sb\glow.png",390,196 C,0,81528,,222,203,124 F,0,81528,81628,0,0.6 F,0,81628,81928,0.6,0 S,19,81628,81928,1.4,0
Sprite,Foreground,Centre,"sb\glow.png",376,197 C,0,81553,,222,203,124 F,0,81553,81653,0,0.6 F,0,81653,81953,0.6,0 S,19,81653,81953,1.4,0
Sprite,Foreground,Centre,"sb\glow.png",363,198 C,0,81578,,222,203,124 F,0,81578,81678,0,0.6 F,0,81678,81978,0.6,0 S,19,81678,81978,1.4,0
Sprite,Foreground,Centre,"sb\glow.png",350,199 C,0,81603,,222,203,124 F,0,81603,81703,0,0.6 F,0,81703,82003,0.6,0 S,19,81703,82003,1.4,0
Sprite,Foreground,Centre,"sb\glow.png",337,200 C,0,81628,,222,203,124 F,0,81628,81728,0,0.6 F,0,81728,82028,0.6,0 S,19,81728,82028,1.4,0
Sprite,Foreground,Centre,"sb\glow.png",231,280 C,0,81917,,222,203,124 F,2,81917,82117,1,0 S,2,81917,82117,1,0.2
Sprite,Foreground,Centre,"sb\glow.png",404,393 C,0,82099,,196,162,223 F,2,82099,82480,1,0 S,2,82099,82480,1,0.2
Sprite,Foreground,Centre,"sb\glow.png",404,393 C,0,81999,,196,162,223 F,0,81999,82099,0,0.6 F,0,82099,82399,0.6,0 S,19,82099,82399,1.4,0
Sprite,Foreground,Centre,"sb\glow.png",403,380 C,0,82024,,196,162,223 F,0,82024,82124,0,0.6 F,0,82124,82424,0.6,0 S,19,82124,82424,1.4,0
Sprite,Foreground,Centre,"sb\glow.png",401,367 C,0,82049,,196,162,223 F,0,82049,82149,0,0.6 F,0,82149,82449,0.6,0 S,19,82149,82449,1.4,0
Sprite,Foreground,Centre,"sb\glow.png",400,354 C,0,82074,,196,162,223 F,0,82074,82174,0,0.6 F,0,82174,82474,0.6,0 S,19,82174,82474,1.4,0
Sprite,Foreground,Centre,"sb\glow.png",398,341 C,0,82099,,196,162,223 F,0,82099,82199,0,0.6 F,0,82199,82499,0.6,0 S,19,82199,82499,1.4,0
Sprite,Foreground,Centre,"sb\glow.png",397,327 C,0,82124,,196,162,223 F,0,82124,82224,0,0.6 F,0,82224,82524,0.6,0 S,19,82224,82524,1.4,0
Sprite,Foreground,Centre,"sb\glow.png",395,314 C,0,82149,,196,162,223 F,0,82149,82249,0,0.6 F,0,82249,82549,0.6,0 S,19,82249,82549,1.4,0
Sprite,Foreground,Centre,"sb\glow.png",394,301 C,0,82174,,196,162,223 F,0,82174,82274,0,0.6 F,0,82274,82574,0.6,0 S,19,82274,82574,1.4,0
Sprite,Foreground,Centre,"sb\glow.png",510,181 C,0,82462,,196,162,223 F,2,82462,82843,1,0 S,2,82462,82843,1,0.2
Sprite,Foreground,Centre,"sb\glow.png",510,181 C,0,82362,,196,162,223 F,0,82362,82462,0,0.6 F,0,82462,82762,0.6,0 S,19,82462,82762,1.4,0
Sprite,Foreground,Centre,"sb\glow.png",509,194 C,0,82387,,196,162,223 F,0,82387,82487,0,0.6 F,0,82487,82787,0.6,0 S,19,82487,82787,1.4,0
Sprite,Foreground,Centre,"sb\glow.png",507,207 C,0,82412,,196,162,223 F,0,82412,82512,0,0.6 F,0,82512,82812,0.6,0 S,19,82512,82812,1.4,0
Sprite,Foreground,Centre,"sb\glow.png",506,220 C,0,82437,,196,162,223 F,0,82437,82537,0,0.6 F,0,82537,82837,0.6,0 S,19,82537,82837,1.4,0
Sprite,Foreground,Centre,"sb\glow.png",504,233 C,0,82462,,196,162,223 F,0,82462,82562,0,0.6 F,0,82562,82862,0.6,0 S,19,82562,82862,1.4,0
Sprite,Foreground,Centre,"sb\glow.png",503,247 C,0,82487,,196,162,223 F,0,82487,82587,0,0.6 F,0,82587,82887,0.6,0 S,19,82587,82887,1.4,0
Sprite,Foreground,Centre,"sb\glow.png",501,260 C,0,82512,,196,162,223 F,0,82512,82612,0,0.6 F,0,82612,82912,0.6,0 S,19,82612,82912,1.4,0
Sprite,Foreground,Centre,"sb\glow.png",500,273 C,0,82537,,196,162,223 F,0,82537,82637,0,0.6 F,0,82637,82937,0.6,0 S,19,82637,82937,1.4,0
Sprite,Foreground,Centre,"sb\glow.png",462,111 C,0,82826,,196,162,223 F,2,82826,83207,1,0 S,2,82826,83207,1,0.2
Sprite,Foreground,Centre,"sb\glow.png",462,111 C,0,82726,,196,162,223 F,0,82726,82826,0,0.6 F,0,82826,83126,0.6,0 S,19,82826,83126,1.4,0
Sprite,Foreground,Centre,"sb\glow.png",472,102 C,0,82751,,196,162,223 F,0,82751,82851,0,0.6 F,0,82851,83151,0.6,0 S,19,82851,83151,1.4,0
Sprite,Foreground,Centre,"sb\glow.png",482,94 C,0,82776,,196,162,223 F,0,82776,82876,0,0.6 F,0,82876,83176,0.6,0 S,19,82876,83176,1.4,0
Sprite,Foreground,Centre,"sb\glow.png",494,88 C,0,82801,,196,162,223 F,0,82801,82901,0,0.6 F,0,82901,83201,0.6,0 S,19,82901,83201,1.4,0
Sprite,Foreground,Centre,"sb\glow.png",506,85 C,0,82826,,196,162,223 F,0,82826,82926,0,0.6 F,0,82926,83226,0.6,0 S,19,82926,83226,1.4,0
Sprite,Foreground,Centre,"sb\glow.png",519,87 C,0,82851,,196,162,223 F,0,82851,82951,0,0.6 F,0,82951,83251,0.6,0 S,19,82951,83251,1.4,0
Sprite,Foreground,Centre,"sb\glow.png",532,91 C,0,82876,,196,162,223 F,0,82876,82976,0,0.6 F,0,82976,83276,0.6,0 S,19,82976,83276,1.4,0
Sprite,Foreground,Centre,"sb\glow.png",544,97 C,0,82901,,196,162,223 F,0,82901,83001,0,0.6 F,0,83001,83301,0.6,0 S,19,83001,83301,1.4,0
Sprite,Foreground,Centre,"sb\glow.png",397,183 C,0,83190,,196,162,223 F,2,83190,83390,1,0 S,2,83190,83390,1,0.2
Sprite,Foreground,Centre,"sb\glow.png",351,107 C,0,83371,,196,162,223 F,2,83371,83571,1,0 S,2,83371,83571,1,0.2
Sprite,Foreground,Centre,"sb\glow.png",308,292 C,0,83553,,199,109,166 F,2,83553,83934,1,0 S,2,83553,83934,1,0.2
Sprite,Foreground,Centre,"sb\glow.png",308,292 C,0,83453,,199,109,166 F,0,83453,83553,0,0.6 F,0,83553,83853,0.6,0 S,19,83553,83853,1.4,0
Sprite,Foreground,Centre,"sb\glow.png",295,291 C,0,83478,,199,109,166 F,0,83478,83578,0,0.6 F,0,83578,83878,0.6,0 S,19,83578,83878,1.4,0
Sprite,Foreground,Centre,"sb\glow.png",282,289 C,0,83503,,199,109,166 F,0,83503,83603,0,0.6 F,0,83603,83903,0.6,0 S,19,83603,83903,1.4,0
Sprite,Foreground,Centre,"sb\glow.png",269,288 C,0,83528,,199,109,166 F,0,83528,83628,0,0.6 F,0,83628,83928,0.6,0 S,19,83628,83928,1.4,0
Sprite,Foreground,Centre,"sb\glow.png",255,287 C,0,83553,,199,109,166 F,0,83553,83653,0,0.6 F,0,83653,83953,0.6,0 S,19,83653,83953,1.4,0
Sprite,Foreground,Centre,"sb\glow.png",242,286 C,0,83578,,199,109,166 F,0,83578,83678,0,0.6 F,0,83678,83978,0.6,0 S,19,83678,83978,1.4,0
Sprite,Foreground,Centre,"sb\glow.png",229,284 C,0,83603,,199,109,166 F,0,83603,83703,0,0.6 F,0,83703,84003,0.6,0 S,19,83703,84003,1.4,0
Sprite,Foreground,Centre,"sb\glow.png",216,283 C,0,83628,,199,109,166 F,0,83628,83728,0,0.6 F,0,83728,84028,0.6,0 S,19,83728,84028,1.4,0
Sprite,Foreground,Centre,"sb\glow.png",93,353 C,0,83917,,199,109,166 F,2,83917,84117,1,0 S,2,83917,84117,1,0.2
Sprite,Foreground,Centre,"sb\glow.png",108,219 C,0,84099,,199,109,166 F,2,84099,84299,1,0 S,2,84099,84299,1,0.2
Sprite,Foreground,Centre,"sb\glow.png",108,219 C,0,84190,,199,109,166 F,2,84190,84390,1,0 S,2,84190,84390,1,0.2
Sprite,Foreground,Centre,"sb\glow.png",108,219 C,0,84280,,199,109,166 F,2,84280,84480,1,0 S,2,84280,84480,1,0.2
Sprite,Foreground,Centre,"sb\glow.png",192,372 C,0,84462,,224,130,124 F,2,84462,84662,1,0 S,2,84462,84662,1,0.2
Sprite,Foreground,Centre,"sb\glow.png",297,204 C,0,84644,,224,130,124 F,2,84644,84844,1,0 S,2,84644,84844,1,0.2
Sprite,Foreground,Centre,"sb\glow.png",101,202 C,0,84826,,224,130,124 F,2,84826,85026,1,0 S,2,84826,85026,1,0.2
Sprite,Foreground,Centre,"sb\glow.png",195,399 C,0,85008,,220,166,126 F,2,85008,85571,1,0 S,2,85008,85571,1,0.2
Sprite,Foreground,Centre,"sb\glow.png",195,399 C,0,84908,,220,166,126 F,0,84908,85008,0,0.6 F,0,85008,85308,0.6,0 S,19,85008,85308,1.4,0
Sprite,Foreground,Centre,"sb\glow.png",206,399 C,0,84933,,220,166,126 F,0,84933,85033,0,0.6 F,0,85033,85333,0.6,0 S,19,85033,85333,1.4,0
Sprite,Foreground,Centre,"sb\glow.png",217,398 C,0,84958,,220,166,126 F,0,84958,85058,0,0.6 F,0,85058,85358,0.6,0 S,19,85058,85358,1.4,0
Sprite,Foreground,Centre,"sb\glow.png",228,396 C,0,84983,,220,166,126 F,0,84983,85083,0,0.6 F,0,85083,85383,0.6,0 S,19,85083,85383,1.4,0
Sprite,Foreground,Centre,"sb\glow.png",238,392 C,0,85008,,220,166,126 F,0,85008,85108,0,0.6 F,0,85108,85408,0.6,0 S,19,85108,85408,1.4,0
Sprite,Foreground,Centre,"sb\glow.png",248,387 C,0,85033,,220,166,126 F,0,85033,85133,0,0.6 F,0,85133,85433,0.6,0 S,19,85133,85433,1.4,0
Sprite,Foreground,Centre,"sb\glow.png",257,380 C,0,85058,,220,166,126 F,0,85058,85158,0,0.6 F,0,85158,85458,0.6,0 S,19,85158,85458,1.4,0
Sprite,Foreground,Centre,"sb\glow.png",265,373 C,0,85083,,220,166,126 F,0,85083,85183,0,0.6 F,0,85183,85483,0.6,0 S,19,85183,85483,1.4,0
Sprite,Foreground,Centre,"sb\glow.png",272,365 C,0,85108,,220,166,126 F,0,85108,85208,0,0.6 F,0,85208,85508,0.6,0 S,19,85208,85508,1.4,0
Sprite,Foreground,Centre,"sb\glow.png",280,357 C,0,85133,,220,166,126 F,0,85133,85233,0,0.6 F,0,85233,85533,0.6,0 S,19,85233,85533,1.4,0
Sprite,Foreground,Centre,"sb\glow.png",289,350 C,0,85158,,220,166,126 F,0,85158,85258,0,0.6 F,0,85258,85558,0.6,0 S,19,85258,85558,1.4,0
Sprite,Foreground,Centre,"sb\glow.png",298,345 C,0,85183,,220,166,126 F,0,85183,85283,0,0.6 F,0,85283,85583,0.6,0 S,19,85283,85583,1.4,0
Sprite,Foreground,Centre,"sb\glow.png",309,341 C,0,85208,,220,166,126 F,0,85208,85308,0,0.6 F,0,85308,85608,0.6,0 S,19,85308,85608,1.4,0
Sprite,Foreground,Centre,"sb\glow.png",319,338 C,0,85233,,220,166,126 F,0,85233,85333,0,0.6 F,0,85333,85633,0.6,0 S,19,85333,85633,1.4,0
Sprite,Foreground,Centre,"sb\glow.png",330,337 C,0,85258,,220,166,126 F,0,85258,85358,0,0.6 F,0,85358,85658,0.6,0 S,19,85358,85658,1.4,0
Sprite,Foreground,Centre,"sb\glow.png",445,369 C,0,85553,,220,166,126 F,2,85553,85753,1,0 S,2,85553,85753,1,0.2
Sprite,Foreground,Centre,"sb\glow.png",445,369 C,0,85735,,220,166,126 F,2,85735,86116,1,0 S,2,85735,86116,1,0.2
Sprite,Foreground,Centre,"sb\glow.png",445,369 C,0,85635,,220,166,126 F,0,85635,85735,0,0.6 F,0,85735,86035,0.6,0 S,19,85735,86035,1.4,0
Sprite,Foreground,Centre,"sb\glow.png",440,359 C,0,85660,,220,166,126 F,0,85660,85760,0,0.6 F,0,85760,86060,0.6,0 S,19,85760,86060,1.4,0
Sprite,Foreground,Centre,"sb\glow.png",435,350 C,0,85685,,220,166,126 F,0,85685,85785,0,0.6 F,0,85785,86085,0.6,0 S,19,85785,86085,1.4,0
Sprite,Foreground,Centre,"sb\glow.png",430,339 C,0,85710,,220,166,126 F,0,85710,85810,0,0.6 F,0,85810,86110,0.6,0 S,19,85810,86110,1.4,0
Sprite,Foreground,Centre,"sb\glow.png",427,329 C,0,85735,,220,166,126 F,0,85735,85835,0,0.6 F,0,85835,86135,0.6,0 S,19,85835,86135,1.4,0
Sprite,Foreground,Centre,"sb\glow.png",424,319 C,0,85760,,220,166,126 F,0,85760,85860,0,0.6 F,0,85860,86160,0.6,0 S,19,85860,86160,1.4,0
Sprite,Foreground,Centre,"sb\glow.png",422,308 C,0,85785,,220,166,126 F,0,85785,85885,0,0.6 F,0,85885,86185,0.6,0 S,19,85885,86185,1.4,0
Sprite,Foreground,Centre,"sb\glow.png",420,297 C,0,85810,,220,166,126 F,0,85810,85910,0,0.6 F,0,85910,86210,0.6,0 S,19,85910,86210,1.4,0
Sprite,Foreground,Centre,"sb\glow.png",384,171 C,0,86099,,220,166,126 F,2,86099,86571,1,0 S,2,86099,86571,1,0.2
Sprite,Foreground,Centre,"sb\glow.png",384,171 C,0,85999,,220,166,126 F,0,85999,86099,0,0.6 F,0,86099,86399,0.6,0 S,19,86099,86399,1.4,0
Sprite,Foreground,Centre,"sb\glow.png",374,176 C,0,86024,,220,166,126 F,0,86024,86124,0,0.6 F,0,86124,86424,0.6,0 S,19,86124,86424,1.4,0
Sprite,Foreground,Centre,"sb\glow.png",364,179 C,0,86049,,220,166,126 F,0,86049,86149,0,0.6 F,0,86149,86449,0.6,0 S,19,86149,86449,1.4,0
Sprite,Foreground,Centre,"sb\glow.png",353,182 C,0,86074,,220,166,126 F,0,86074,86174,0,0.6 F,0,86174,86474,0.6,0 S,19,86174,86474,1.4,0
Sprite,Foreground,Centre,"sb\glow.png",342,183 C,0,86099,,220,166,126 F,0,86099,86199,0,0.6 F,0,86199,86499,0.6,0 S,19,86199,86499,1.4,0
Sprite,Foreground,Centre,"sb\glow.png",331,183 C,0,86124,,220,166,126 F,0,86124,86224,0,0.6 F,0,86224,86524,0.6,0 S,19,86224,86524,1.4,0
Sprite,Foreground,Centre,"sb\glow.png",320,181 C,0,86149,,220,166,126 F,0,86149,86249,0,0.6 F,0,86249,86549,0.6,0 S,19,86249,86549,1.4,0
Sprite,Foreground,Centre,"sb\glow.png",310,178 C,0,86174,,220,166,126 F,0,86174,86274,0,0.6 F,0,86274,86574,0.6,0 S,19,86274,86574,1.4,0
Sprite,Foreground,Centre,"sb\glow.png",300,174 C,0,86199,,220,166,126 F,0,86199,86299,0,0.6 F,0,86299,86599,0.6,0 S,19,86299,86599,1.4,0
Sprite,Foreground,Centre,"sb\glow.png",290,169 C,0,86224,,220,166,126 F,0,86224,86324,0,0.6 F,0,86324,86624,0.6,0 S,19,86324,86624,1.4,0
Sprite,Foreground,Centre,"sb\glow.png",281,163 C,0,86249,,220,166,126 F,0,86249,86349,0,0.6 F,0,86349,86649,0.6,0 S,19,86349,86649,1.4,0
Sprite,Foreground,Centre,"sb\glow.png",199,87 C,0,86481,,222,203,124 F,2,86481,86681,1,0 S,2,86481,86681,1,0.2
Sprite,Foreground,Centre,"sb\glow.png",186,180 C,0,86659,,222,203,124 F,2,86659,87037,1,0 S,2,86659,87037,1,0.2
Sprite,Foreground,Centre,"sb\glow.png",186,180 C,0,86559,,222,203,124 F,0,86559,86659,0,0.6 F,0,86659,86959,0.6,0 S,19,86659,86959,1.4,0
Sprite,Foreground,Centre,"sb\glow.png",186,190 C,0,86584,,222,203,124 F,0,86584,86684,0,0.6 F,0,86684,86984,0.6,0 S,19,86684,86984,1.4,0
Sprite,Foreground,Centre,"sb\glow.png",185,200 C,0,86609,,222,203,124 F,0,86609,86709,0,0.6 F,0,86709,87009,0.6,0 S,19,86709,87009,1.4,0
Sprite,Foreground,Centre,"sb\glow.png",183,210 C,0,86634,,222,203,124 F,0,86634,86734,0,0.6 F,0,86734,87034,0.6,0 S,19,86734,87034,1.4,0
Sprite,Foreground,Centre,"sb\glow.png",181,220 C,0,86659,,222,203,124 F,0,86659,86759,0,0.6 F,0,86759,87059,0.6,0 S,19,86759,87059,1.4,0
Sprite,Foreground,Centre,"sb\glow.png",178,230 C,0,86684,,222,203,124 F,0,86684,86784,0,0.6 F,0,86784,87084,0.6,0 S,19,86784,87084,1.4,0
Sprite,Foreground,Centre,"sb\glow.png",175,239 C,0,86709,,222,203,124 F,0,86709,86809,0,0.6 F,0,86809,87109,0.6,0 S,19,86809,87109,1.4,0
Sprite,Foreground,Centre,"sb\glow.png",171,248 C,0,86734,,222,203,124 F,0,86734,86834,0,0.6 F,0,86834,87134,0.6,0 S,19,86834,87134,1.4,0
Sprite,Foreground,Centre,"sb\glow.png",116,347 C,0,87017,,222,203,124 F,2,87017,87217,1,0 S,2,87017,87217,1,0.2
Sprite,Foreground,Centre,"sb\glow.png",116,347 C,0,87198,,222,203,124 F,2,87198,87579,1,0 S,2,87198,87579,1,0.2
Sprite,Foreground,Centre,"sb\glow.png",116,347 C,0,87098,,222,203,124 F,0,87098,87198,0,0.6 F,0,87198,87498,0.6,0 S,19,87198,87498,1.4,0
Sprite,Foreground,Centre,"sb\glow.png",124,341 C,0,87123,,222,203,124 F,0,87123,87223,0,0.6 F,0,87223,87523,0.6,0 S,19,87223,87523,1.4,0
Sprite,Foreground,Centre,"sb\glow.png",133,337 C,0,87148,,222,203,124 F,0,87148,87248,0,0.6 F,0,87248,87548,0.6,0 S,19,87248,87548,1.4,0
Sprite,Foreground,Centre,"sb\glow.png",142,333 C,0,87173,,222,203,124 F,0,87173,87273,0,0.6 F,0,87273,87573,0.6,0 S,19,87273,87573,1.4,0
Sprite,Foreground,Centre,"sb\glow.png",151,331 C,0,87198,,222,203,124 F,0,87198,87298,0,0.6 F,0,87298,87598,0.6,0 S,19,87298,87598,1.4,0
Sprite,Foreground,Centre,"sb\glow.png",161,329 C,0,87223,,222,203,124 F,0,87223,87323,0,0.6 F,0,87323,87623,0.6,0 S,19,87323,87623,1.4,0
Sprite,Foreground,Centre,"sb\glow.png",171,329 C,0,87248,,222,203,124 F,0,87248,87348,0,0.6 F,0,87348,87648,0.6,0 S,19,87348,87648,1.4,0
Sprite,Foreground,Centre,"sb\glow.png",181,331 C,0,87273,,222,203,124 F,0,87273,87373,0,0.6 F,0,87373,87673,0.6,0 S,19,87373,87673,1.4,0
Sprite,Foreground,Centre,"sb\glow.png",334,423 C,0,87561,,222,203,124 F,2,87561,87761,1,0 S,2,87561,87761,1,0.2
Sprite,Foreground,Centre,"sb\glow.png",356,263 C,0,87743,,222,203,124 F,2,87743,87943,1,0 S,2,87743,87943,1,0.2
Sprite,Foreground,Centre,"sb\glow.png",356,263 C,0,87924,,196,162,223 F,2,87924,88487,1,0 S,2,87924,88487,1,0.2
Sprite,Foreground,Centre,"sb\glow.png",356,263 C,0,87824,,196,162,223 F,0,87824,87924,0,0.6 F,0,87924,88224,0.6,0 S,19,87924,88224,1.4,0
Sprite,Foreground,Centre,"sb\glow.png",361,272 C,0,87849,,196,162,223 F,0,87849,87949,0,0.6 F,0,87949,88249,0.6,0 S,19,87949,88249,1.4,0
Sprite,Foreground,Centre,"sb\glow.png",367,280 C,0,87874,,196,162,223 F,0,87874,87974,0,0.6 F,0,87974,88274,0.6,0 S,19,87974,88274,1.4,0
Sprite,Foreground,Centre,"sb\glow.png",374,287 C,0,87899,,196,162,223 F,0,87899,87999,0,0.6 F,0,87999,88299,0.6,0 S,19,87999,88299,1.4,0
Sprite,Foreground,Centre,"sb\glow.png",381,293 C,0,87924,,196,162,223 F,0,87924,88024,0,0.6 F,0,88024,88324,0.6,0 S,19,88024,88324,1.4,0
Sprite,Foreground,Centre,"sb\glow.png",389,298 C,0,87949,,196,162,223 F,0,87949,88049,0,0.6 F,0,88049,88349,0.6,0 S,19,88049,88349,1.4,0
Sprite,Foreground,Centre,"sb\glow.png",398,303 C,0,87974,,196,162,223 F,0,87974,88074,0,0.6 F,0,88074,88374,0.6,0 S,19,88074,88374,1.4,0
Sprite,Foreground,Centre,"sb\glow.png",408,306 C,0,87999,,196,162,223 F,0,87999,88099,0,0.6 F,0,88099,88399,0.6,0 S,19,88099,88399,1.4,0
Sprite,Foreground,Centre,"sb\glow.png",417,308 C,0,88024,,196,162,223 F,0,88024,88124,0,0.6 F,0,88124,88424,0.6,0 S,19,88124,88424,1.4,0
Sprite,Foreground,Centre,"sb\glow.png",427,309 C,0,88049,,196,162,223 F,0,88049,88149,0,0.6 F,0,88149,88449,0.6,0 S,19,88149,88449,1.4,0
Sprite,Foreground,Centre,"sb\glow.png",437,308 C,0,88074,,196,162,223 F,0,88074,88174,0,0.6 F,0,88174,88474,0.6,0 S,19,88174,88474,1.4,0
Sprite,Foreground,Centre,"sb\glow.png",447,307 C,0,88099,,196,162,223 F,0,88099,88199,0,0.6 F,0,88199,88499,0.6,0 S,19,88199,88499,1.4,0
Sprite,Foreground,Centre,"sb\glow.png",456,304 C,0,88124,,196,162,223 F,0,88124,88224,0,0.6 F,0,88224,88524,0.6,0 S,19,88224,88524,1.4,0
Sprite,Foreground,Centre,"sb\glow.png",465,300 C,0,88149,,196,162,223 F,0,88149,88249,0,0.6 F,0,88249,88549,0.6,0 S,19,88249,88549,1.4,0
Sprite,Foreground,Centre,"sb\glow.png",474,295 C,0,88174,,196,162,223 F,0,88174,88274,0,0.6 F,0,88274,88574,0.6,0 S,19,88274,88574,1.4,0
Sprite,Foreground,Centre,"sb\glow.png",434,206 C,0,88469,,196,162,223 F,2,88469,88669,1,0 S,2,88469,88669,1,0.2
Sprite,Foreground,Centre,"sb\glow.png",288,314 C,0,88651,,196,162,223 F,2,88651,89032,1,0 S,2,88651,89032,1,0.2
Sprite,Foreground,Centre,"sb\glow.png",288,314 C,0,88551,,196,162,223 F,0,88551,88651,0,0.6 F,0,88651,88951,0.6,0 S,19,88651,88951,1.4,0
Sprite,Foreground,Centre,"sb\glow.png",278,315 C,0,88576,,196,162,223 F,0,88576,88676,0,0.6 F,0,88676,88976,0.6,0 S,19,88676,88976,1.4,0
Sprite,Foreground,Centre,"sb\glow.png",268,316 C,0,88601,,196,162,223 F,0,88601,88701,0,0.6 F,0,88701,89001,0.6,0 S,19,88701,89001,1.4,0
Sprite,Foreground,Centre,"sb\glow.png",258,317 C,0,88626,,196,162,223 F,0,88626,88726,0,0.6 F,0,88726,89026,0.6,0 S,19,88726,89026,1.4,0
Sprite,Foreground,Centre,"sb\glow.png",249,318 C,0,88651,,196,162,223 F,0,88651,88751,0,0.6 F,0,88751,89051,0.6,0 S,19,88751,89051,1.4,0
Sprite,Foreground,Centre,"sb\glow.png",239,319 C,0,88676,,196,162,223 F,0,88676,88776,0,0.6 F,0,88776,89076,0.6,0 S,19,88776,89076,1.4,0
Sprite,Foreground,Centre,"sb\glow.png",229,320 C,0,88701,,196,162,223 F,0,88701,88801,0,0.6 F,0,88801,89101,0.6,0 S,19,88801,89101,1.4,0
Sprite,Foreground,Centre,"sb\glow.png",219,321 C,0,88726,,196,162,223 F,0,88726,88826,0,0.6 F,0,88826,89126,0.6,0 S,19,88826,89126,1.4,0
Sprite,Foreground,Centre,"sb\glow.png",76,170 C,0,89014,,196,162,223 F,2,89014,89395,1,0 S,2,89014,89395,1,0.2
Sprite,Foreground,Centre,"sb\glow.png",76,170 C,0,88914,,196,162,223 F,0,88914,89014,0,0.6 F,0,89014,89314,0.6,0 S,19,89014,89314,1.4,0
Sprite,Foreground,Centre,"sb\glow.png",86,171 C,0,88939,,196,162,223 F,0,88939,89039,0,0.6 F,0,89039,89339,0.6,0 S,19,89039,89339,1.4,0
Sprite,Foreground,Centre,"sb\glow.png",96,172 C,0,88964,,196,162,223 F,0,88964,89064,0,0.6 F,0,89064,89364,0.6,0 S,19,89064,89364,1.4,0
Sprite,Foreground,Centre,"sb\glow.png",106,173 C,0,88989,,196,162,223 F,0,88989,89089,0,0.6 F,0,89089,89389,0.6,0 S,19,89089,89389,1.4,0
Sprite,Foreground,Centre,"sb\glow.png",115,174 C,0,89014,,196,162,223 F,0,89014,89114,0,0.6 F,0,89114,89414,0.6,0 S,19,89114,89414,1.4,0
Sprite,Foreground,Centre,"sb\glow.png",125,175 C,0,89039,,196,162,223 F,0,89039,89139,0,0.6 F,0,89139,89439,0.6,0 S,19,89139,89439,1.4,0
Sprite,Foreground,Centre,"sb\glow.png",135,176 C,0,89064,,196,162,223 F,0,89064,89164,0,0.6 F,0,89164,89464,0.6,0 S,19,89164,89464,1.4,0
Sprite,Foreground,Centre,"sb\glow.png",145,177 C,0,89089,,196,162,223 F,0,89089,89189,0,0.6 F,0,89189,89489,0.6,0 S,19,89189,89489,1.4,0
Sprite,Foreground,Centre,"sb\glow.png",183,183 C,0,89287,,196,162,223 F,2,89287,89487,1,0 S,2,89287,89487,1,0.2
Sprite,Foreground,Centre,"sb\glow.png",187,187 C,0,89378,,199,109,166 F,2,89378,89578,1,0 S,2,89378,89578,1,0.2
Sprite,Foreground,Centre,"sb\glow.png",64,271 C,0,89560,,199,109,166 F,2,89560,89760,1,0 S,2,89560,89760,1,0.2
Sprite,Foreground,Centre,"sb\glow.png",156,71 C,0,89742,,199,109,166 F,2,89742,89942,1,0 S,2,89742,89942,1,0.2
Sprite,Foreground,Centre,"sb\glow.png",274,247 C,0,89924,,199,109,166 F,2,89924,90124,1,0 S,2,89924,90124,1,0.2
Sprite,Foreground,Centre,"sb\glow.png",64,271 C,0,90105,,199,109,166 F,2,90105,90486,1,0 S,2,90105,90486,1,0.2
Sprite,Foreground,Centre,"sb\glow.png",64,271 C,0,90005,,199,109,166 F,0,90005,90105,0,0.6 F,0,90105,90405,0.6,0 S,19,90105,90405,1.4,0
Sprite,Foreground,Centre,"sb\glow.png",74,270 C,0,90030,,199,109,166 F,0,90030,90130,0,0.6 F,0,90130,90430,0.6,0 S,19,90130,90430,1.4,0
Sprite,Foreground,Centre,"sb\glow.png",84,269 C,0,90055,,199,109,166 F,0,90055,90155,0,0.6 F,0,90155,90455,0.6,0 S,19,90155,90455,1.4,0
Sprite,Foreground,Centre,"sb\glow.png",94,268 C,0,90080,,199,109,166 F,0,90080,90180,0,0.6 F,0,90180,90480,0.6,0 S,19,90180,90480,1.4,0
Sprite,Foreground,Centre,"sb\glow.png",103,267 C,0,90105,,199,109,166 F,0,90105,90205,0,0.6 F,0,90205,90505,0.6,0 S,19,90205,90505,1.4,0
Sprite,Foreground,Centre,"sb\glow.png",113,266 C,0,90130,,199,109,166 F,0,90130,90230,0,0.6 F,0,90230,90530,0.6,0 S,19,90230,90530,1.4,0
Sprite,Foreground,Centre,"sb\glow.png",123,265 C,0,90155,,199,109,166 F,0,90155,90255,0,0.6 F,0,90255,90555,0.6,0 S,19,90255,90555,1.4,0
Sprite,Foreground,Centre,"sb\glow.png",133,264 C,0,90180,,199,109,166 F,0,90180,90280,0,0.6 F,0,90280,90580,0.6,0 S,19,90280,90580,1.4,0
Sprite,Foreground,Centre,"sb\glow.png",377,253 C,0,90469,,199,109,166 F,2,90469,90669,1,0 S,2,90469,90669,1,0.2
Sprite,Foreground,Centre,"sb\glow.png",315,357 C,0,90651,,199,109,166 F,2,90651,90851,1,0 S,2,90651,90851,1,0.2
Sprite,Foreground,Centre,"sb\glow.png",247,253 C,0,90833,,224,130,124 F,2,90833,91214,1,0 S,2,90833,91214,1,0.2
Sprite,Foreground,Centre,"sb\glow.png",247,253 C,0,90733,,224,130,124 F,0,90733,90833,0,0.6 F,0,90833,91133,0.6,0 S,19,90833,91133,1.4,0
Sprite,Foreground,Centre,"sb\glow.png",248,243 C,0,90758,,224,130,124 F,0,90758,90858,0,0.6 F,0,90858,91158,0.6,0 S,19,90858,91158,1.4,0
Sprite,Foreground,Centre,"sb\glow.png",249,233 C,0,90783,,224,130,124 F,0,90783,90883,0,0.6 F,0,90883,91183,0.6,0 S,19,90883,91183,1.4,0
Sprite,Foreground,Centre,"sb\glow.png",249,223 C,0,90808,,224,130,124 F,0,90808,90908,0,0.6 F,0,90908,91208,0.6,0 S,19,90908,91208,1.4,0
Sprite,Foreground,Centre,"sb\glow.png",250,214 C,0,90833,,224,130,124 F,0,90833,90933,0,0.6 F,0,90933,91233,0.6,0 S,19,90933,91233,1.4,0
Sprite,Foreground,Centre,"sb\glow.png",251,204 C,0,90858,,224,130,124 F,0,90858,90958,0,0.6 F,0,90958,91258,0.6,0 S,19,90958,91258,1.4,0
Sprite,Foreground,Centre,"sb\glow.png",252,194 C,0,90883,,224,130,124 F,0,90883,90983,0,0.6 F,0,90983,91283,0.6,0 S,19,90983,91283,1.4,0
Sprite,Foreground,Centre,"sb\glow.png",252,184 C,0,90908,,224,130,124 F,0,90908,91008,0,0.6 F,0,91008,91308,0.6,0 S,19,91008,91308,1.4,0
Sprite,Foreground,Centre,"sb\glow.png",415,107 C,0,91196,,224,130,124 F,2,91196,91577,1,0 S,2,91196,91577,1,0.2
Sprite,Foreground,Centre,"sb\glow.png",415,107 C,0,91096,,224,130,124 F,0,91096,91196,0,0.6 F,0,91196,91496,0.6,0 S,19,91196,91496,1.4,0
Sprite,Foreground,Centre,"sb\glow.png",416,117 C,0,91121,,224,130,124 F,0,91121,91221,0,0.6 F,0,91221,91521,0.6,0 S,19,91221,91521,1.4,0
Sprite,Foreground,Centre,"sb\glow.png",417,127 C,0,91146,,224,130,124 F,0,91146,91246,0,0.6 F,0,91246,91546,0.6,0 S,19,91246,91546,1.4,0
Sprite,Foreground,Centre,"sb\glow.png",418,137 C,0,91171,,224,130,124 F,0,91171,91271,0,0.6 F,0,91271,91571,0.6,0 S,19,91271,91571,1.4,0
Sprite,Foreground,Centre,"sb\glow.png",420,146 C,0,91196,,224,130,124 F,0,91196,91296,0,0.6 F,0,91296,91596,0.6,0 S,19,91296,91596,1.4,0
Sprite,Foreground,Centre,"sb\glow.png",421,156 C,0,91221,,224,130,124 F,0,91221,91321,0,0.6 F,0,91321,91621,0.6,0 S,19,91321,91621,1.4,0
Sprite,Foreground,Centre,"sb\glow.png",422,166 C,0,91246,,224,130,124 F,0,91246,91346,0,0.6 F,0,91346,91646,0.6,0 S,19,91346,91646,1.4,0
Sprite,Foreground,Centre,"sb\glow.png",423,176 C,0,91271,,224,130,124 F,0,91271,91371,0,0.6 F,0,91371,91671,0.6,0 S,19,91371,91671,1.4,0
Sprite,Foreground,Centre,"sb\glow.png",228,271 C,0,91560,,220,166,126 F,2,91560,91941,1,0 S,2,91560,91941,1,0.2
Sprite,Foreground,Centre,"sb\glow.png",228,271 C,0,91460,,220,166,126 F,0,91460,91560,0,0.6 F,0,91560,91860,0.6,0 S,19,91560,91860,1.4,0
Sprite,Foreground,Centre,"sb\glow.png",229,259 C,0,91485,,220,166,126 F,0,91485,91585,0,0.6 F,0,91585,91885,0.6,0 S,19,91585,91885,1.4,0
Sprite,Foreground,Centre,"sb\glow.png",231,247 C,0,91510,,220,166,126 F,0,91510,91610,0,0.6 F,0,91610,91910,0.6,0 S,19,91610,91910,1.4,0
Sprite,Foreground,Centre,"sb\glow.png",232,235 C,0,91535,,220,166,126 F,0,91535,91635,0,0.6 F,0,91635,91935,0.6,0 S,19,91635,91935,1.4,0
Sprite,Foreground,Centre,"sb\glow.png",234,223 C,0,91560,,220,166,126 F,0,91560,91660,0,0.6 F,0,91660,91960,0.6,0 S,19,91660,91960,1.4,0
Sprite,Foreground,Centre,"sb\glow.png",235,211 C,0,91585,,220,166,126 F,0,91585,91685,0,0.6 F,0,91685,91985,0.6,0 S,19,91685,91985,1.4,0
Sprite,Foreground,Centre,"sb\glow.png",237,199 C,0,91610,,220,166,126 F,0,91610,91710,0,0.6 F,0,91710,92010,0.6,0 S,19,91710,92010,1.4,0
Sprite,Foreground,Centre,"sb\glow.png",238,187 C,0,91635,,220,166,126 F,0,91635,91735,0,0.6 F,0,91735,92035,0.6,0 S,19,91735,92035,1.4,0
Sprite,Foreground,Centre,"sb\glow.png",425,84 C,0,91924,,220,166,126 F,2,91924,92305,1,0 S,2,91924,92305,1,0.2
Sprite,Foreground,Centre,"sb\glow.png",425,84 C,0,91824,,220,166,126 F,0,91824,91924,0,0.6 F,0,91924,92224,0.6,0 S,19,91924,92224,1.4,0
Sprite,Foreground,Centre,"sb\glow.png",427,97 C,0,91849,,220,166,126 F,0,91849,91949,0,0.6 F,0,91949,92249,0.6,0 S,19,91949,92249,1.4,0
Sprite,Foreground,Centre,"sb\glow.png",429,110 C,0,91874,,220,166,126 F,0,91874,91974,0,0.6 F,0,91974,92274,0.6,0 S,19,91974,92274,1.4,0
Sprite,Foreground,Centre,"sb\glow.png",431,123 C,0,91899,,220,166,126 F,0,91899,91999,0,0.6 F,0,91999,92299,0.6,0 S,19,91999,92299,1.4,0
Sprite,Foreground,Centre,"sb\glow.png",433,136 C,0,91924,,220,166,126 F,0,91924,92024,0,0.6 F,0,92024,92324,0.6,0 S,19,92024,92324,1.4,0
Sprite,Foreground,Centre,"sb\glow.png",435,149 C,0,91949,,220,166,126 F,0,91949,92049,0,0.6 F,0,92049,92349,0.6,0 S,19,92049,92349,1.4,0
Sprite,Foreground,Centre,"sb\glow.png",438,162 C,0,91974,,220,166,126 F,0,91974,92074,0,0.6 F,0,92074,92374,0.6,0 S,19,92074,92374,1.4,0
Sprite,Foreground,Centre,"sb\glow.png",440,175 C,0,91999,,220,166,126 F,0,91999,92099,0,0.6 F,0,92099,92399,0.6,0 S,19,92099,92399,1.4,0
Sprite,Foreground,Centre,"sb\glow.png",486,369 C,0,92273,,222,203,124 F,2,92273,92473,1,0 S,2,92273,92473,1,0.2
Sprite,Foreground,Centre,"sb\glow.png",396,236 C,0,92454,,222,203,124 F,2,92454,92654,1,0 S,2,92454,92654,1,0.2
Sprite,Foreground,Centre,"sb\glow.png",330,434 C,0,92636,,196,162,223 F,2,92636,92836,1,0 S,2,92636,92836,1,0.2
Sprite,Foreground,Centre,"sb\glow.png",443,305 C,0,92818,,196,162,223 F,2,92818,93018,1,0 S,2,92818,93018,1,0.2
Sprite,Foreground,Centre,"sb\glow.png",196,315 C,0,93000,,199,109,166 F,2,93000,93200,1,0 S,2,93000,93200,1,0.2
Sprite,Foreground,Centre,"sb\glow.png",398,370 C,0,93182,,199,109,166 F,2,93182,93382,1,0 S,2,93182,93382,1,0.2
Sprite,Foreground,Centre,"sb\glow.png",413,141 C,0,93363,,224,130,124 F,2,93363,93563,1,0 S,2,93363,93563,1,0.2
Sprite,Foreground,Centre,"sb\glow.png",295,343 C,0,93545,,224,130,124 F,2,93545,93745,1,0 S,2,93545,93745,1,0.2
Sprite,Foreground,Centre,"sb\glow.png",179,100 C,0,93727,,220,166,126 F,2,93727,93927,1,0 S,2,93727,93927,1,0.2
Sprite,Foreground,Centre,"sb\glow.png",371,215 C,0,93909,,220,166,126 F,2,93909,94109,1,0 S,2,93909,94109,1,0.2
Sprite,Foreground,Centre,"sb\glow.png",93,281 C,0,94091,,220,166,126 F,2,94091,94291,1,0 S,2,94091,94291,1,0.2
Sprite,Foreground,Centre,"sb\glow.png",338,106 C,0,94273,,222,203,124 F,2,94273,94473,1,0 S,2,94273,94473,1,0.2
Sprite,Foreground,Centre,"sb\glow.png",221,393 C,0,94454,,222,203,124 F,2,94454,94654,1,0 S,2,94454,94654,1,0.2
Sprite,Foreground,Centre,"sb\glow.png",96,115 C,0,94636,,222,203,124 F,2,94636,94836,1,0 S,2,94636,94836,1,0.2
Sprite,Foreground,Centre,"sb\glow.png",353,293 C,0,94818,,196,162,223 F,2,94818,95199,1,0 S,2,94818,95199,1,0.2
Sprite,Foreground,Centre,"sb\glow.png",353,293 C,0,94718,,196,162,223 F,0,94718,94818,0,0.6 F,0,94818,95118,0.6,0 S,19,94818,95118,1.4,0
Sprite,Foreground,Centre,"sb\glow.png",342,294 C,0,94743,,196,162,223 F,0,94743,94843,0,0.6 F,0,94843,95143,0.6,0 S,19,94843,95143,1.4,0
Sprite,Foreground,Centre,"sb\glow.png",331,295 C,0,94768,,196,162,223 F,0,94768,94868,0,0.6 F,0,94868,95168,0.6,0 S,19,94868,95168,1.4,0
Sprite,Foreground,Centre,"sb\glow.png",320,297 C,0,94793,,196,162,223 F,0,94793,94893,0,0.6 F,0,94893,95193,0.6,0 S,19,94893,95193,1.4,0
Sprite,Foreground,Centre,"sb\glow.png",309,298 C,0,94818,,196,162,223 F,0,94818,94918,0,0.6 F,0,94918,95218,0.6,0 S,19,94918,95218,1.4,0
Sprite,Foreground,Centre,"sb\glow.png",298,299 C,0,94843,,196,162,223 F,0,94843,94943,0,0.6 F,0,94943,95243,0.6,0 S,19,94943,95243,1.4,0
Sprite,Foreground,Centre,"sb\glow.png",287,300 C,0,94868,,196,162,223 F,0,94868,94968,0,0.6 F,0,94968,95268,0.6,0 S,19,94968,95268,1.4,0
Sprite,Foreground,Centre,"sb\glow.png",276,302 C,0,94893,,196,162,223 F,0,94893,94993,0,0.6 F,0,94993,95293,0.6,0 S,19,94993,95293,1.4,0
Sprite,Foreground,Centre,"sb\glow.png",64,259 C,0,95183,,196,162,223 F,2,95183,95660,1,0 S,2,95183,95660,1,0.2
Sprite,Foreground,Centre,"sb\glow.png",64,259 C,0,95083,,196,162,223 F,0,95083,95183,0,0.6 F,0,95183,95483,0.6,0 S,19,95183,95483,1.4,0
Sprite,Foreground,Centre,"sb\glow.png",74,264 C,0,95108,,196,162,223 F,0,95108,95208,0,0.6 F,0,95208,95508,0.6,0 S,19,95208,95508,1.4,0
Sprite,Foreground,Centre,"sb\glow.png",83,269 C,0,95133,,196,162,223 F,0,95133,95233,0,0.6 F,0,95233,95533,0.6,0 S,19,95233,95533,1.4,0
Sprite,Foreground,Centre,"sb\glow.png",92,276 C,0,95158,,196,162,223 F,0,95158,95258,0,0.6 F,0,95258,95558,0.6,0 S,19,95258,95558,1.4,0
Sprite,Foreground,Centre,"sb\glow.png",100,283 C,0,95183,,196,162,223 F,0,95183,95283,0,0.6 F,0,95283,95583,0.6,0 S,19,95283,95583,1.4,0
Sprite,Foreground,Centre,"sb\glow.png",107,291 C,0,95208,,196,162,223 F,0,95208,95308,0,0.6 F,0,95308,95608,0.6,0 S,19,95308,95608,1.4,0
Sprite,Foreground,Centre,"sb\glow.png",114,299 C,0,95233,,196,162,223 F,0,95233,95333,0,0.6 F,0,95333,95633,0.6,0 S,19,95333,95633,1.4,0
Sprite,Foreground,Centre,"sb\glow.png",120,308 C,0,95258,,196,162,223 F,0,95258,95358,0,0.6 F,0,95358,95658,0.6,0 S,19,95358,95658,1.4,0
Sprite,Foreground,Centre,"sb\glow.png",124,318 C,0,95283,,196,162,223 F,0,95283,95383,0,0.6 F,0,95383,95683,0.6,0 S,19,95383,95683,1.4,0
Sprite,Foreground,Centre,"sb\glow.png",128,328 C,0,95308,,196,162,223 F,0,95308,95408,0,0.6 F,0,95408,95708,0.6,0 S,19,95408,95708,1.4,0
Sprite,Foreground,Centre,"sb\glow.png",132,338 C,0,95333,,196,162,223 F,0,95333,95433,0,0.6 F,0,95433,95733,0.6,0 S,19,95433,95733,1.4,0
Sprite,Foreground,Centre,"sb\glow.png",134,349 C,0,95358,,196,162,223 F,0,95358,95458,0,0.6 F,0,95458,95758,0.6,0 S,19,95458,95758,1.4,0
Sprite,Foreground,Centre,"sb\glow.png",137,379 C,0,95553,,196,162,223 F,2,95553,95753,1,0 S,2,95553,95753,1,0.2
Sprite,Foreground,Centre,"sb\glow.png",322,153 C,0,95738,,196,162,223 F,2,95738,95938,1,0 S,2,95738,95938,1,0.2
Sprite,Foreground,Centre,"sb\glow.png",532,365 C,0,96108,,196,162,223 F,2,96108,96308,1,0 S,2,96108,96308,1,0.2
Sprite,Foreground,Centre,"sb\glow.png",386,304 C,0,96479,,196,162,223 F,2,96479,96679,1,0 S,2,96479,96679,1,0.2
Sprite,Foreground,Centre,"sb\glow.png",378,144 C,0,96672,,199,109,166 F,2,96672,97051,1,0 S,2,96672,97051,1,0.2
Sprite,Foreground,Centre,"sb\glow.png",378,144 C,0,96572,,199,109,166 F,0,96572,96672,0,0.6 F,0,96672,96972,0.6,0 S,19,96672,96972,1.4,0
Sprite,Foreground,Centre,"sb\glow.png",379,155 C,0,96597,,199,109,166 F,0,96597,96697,0,0.6 F,0,96697,96997,0.6,0 S,19,96697,96997,1.4,0
Sprite,Foreground,Centre,"sb\glow.png",379,166 C,0,96622,,199,109,166 F,0,96622,96722,0,0.6 F,0,96722,97022,0.6,0 S,19,96722,97022,1.4,0
Sprite,Foreground,Centre,"sb\glow.png",380,177 C,0,96647,,199,109,166 F,0,96647,96747,0,0.6 F,0,96747,97047,0.6,0 S,19,96747,97047,1.4,0
Sprite,Foreground,Centre,"sb\glow.png",380,188 C,0,96672,,199,109,166 F,0,96672,96772,0,0.6 F,0,96772,97072,0.6,0 S,19,96772,97072,1.4,0
Sprite,Foreground,Centre,"sb\glow.png",381,200 C,0,96697,,199,109,166 F,0,96697,96797,0,0.6 F,0,96797,97097,0.6,0 S,19,96797,97097,1.4,0
Sprite,Foreground,Centre,"sb\glow.png",381,211 C,0,96722,,199,109,166 F,0,96722,96822,0,0.6 F,0,96822,97122,0.6,0 S,19,96822,97122,1.4,0
Sprite,Foreground,Centre,"sb\glow.png",382,222 C,0,96747,,199,109,166 F,0,96747,96847,0,0.6 F,0,96847,97147,0.6,0 S,19,96847,97147,1.4,0
Sprite,Foreground,Centre,"sb\glow.png",263,338 C,0,97031,,199,109,166 F,2,97031,97410,1,0 S,2,97031,97410,1,0.2
Sprite,Foreground,Centre,"sb\glow.png",263,338 C,0,96931,,199,109,166 F,0,96931,97031,0,0.6 F,0,97031,97331,0.6,0 S,19,97031,97331,1.4,0
Sprite,Foreground,Centre,"sb\glow.png",263,327 C,0,96956,,199,109,166 F,0,96956,97056,0,0.6 F,0,97056,97356,0.6,0 S,19,97056,97356,1.4,0
Sprite,Foreground,Centre,"sb\glow.png",264,316 C,0,96981,,199,109,166 F,0,96981,97081,0,0.6 F,0,97081,97381,0.6,0 S,19,97081,97381,1.4,0
Sprite,Foreground,Centre,"sb\glow.png",264,305 C,0,97006,,199,109,166 F,0,97006,97106,0,0.6 F,0,97106,97406,0.6,0 S,19,97106,97406,1.4,0
Sprite,Foreground,Centre,"sb\glow.png",265,293 C,0,97031,,199,109,166 F,0,97031,97131,0,0.6 F,0,97131,97431,0.6,0 S,19,97131,97431,1.4,0
Sprite,Foreground,Centre,"sb\glow.png",265,282 C,0,97056,,199,109,166 F,0,97056,97156,0,0.6 F,0,97156,97456,0.6,0 S,19,97156,97456,1.4,0
Sprite,Foreground,Centre,"sb\glow.png",266,271 C,0,97081,,199,109,166 F,0,97081,97181,0,0.6 F,0,97181,97481,0.6,0 S,19,97181,97481,1.4,0
Sprite,Foreground,Centre,"sb\glow.png",266,260 C,0,97106,,199,109,166 F,0,97106,97206,0,0.6 F,0,97206,97506,0.6,0 S,19,97206,97506,1.4,0
Sprite,Foreground,Centre,"sb\glow.png",382,414 C,0,97390,,199,109,166 F,2,97390,97769,1,0 S,2,97390,97769,1,0.2
Sprite,Foreground,Centre,"sb\glow.png",382,414 C,0,97290,,199,109,166 F,0,97290,97390,0,0.6 F,0,97390,97690,0.6,0 S,19,97390,97690,1.4,0
Sprite,Foreground,Centre,"sb\glow.png",372,419 C,0,97315,,199,109,166 F,0,97315,97415,0,0.6 F,0,97415,97715,0.6,0 S,19,97415,97715,1.4,0
Sprite,Foreground,Centre,"sb\glow.png",361,422 C,0,97340,,199,109,166 F,0,97340,97440,0,0.6 F,0,97440,97740,0.6,0 S,19,97440,97740,1.4,0
Sprite,Foreground,Centre,"sb\glow.png",351,425 C,0,97365,,199,109,166 F,0,97365,97465,0,0.6 F,0,97465,97765,0.6,0 S,19,97465,97765,1.4,0
Sprite,Foreground,Centre,"sb\glow.png",339,425 C,0,97390,,199,109,166 F,0,97390,97490,0,0.6 F,0,97490,97790,0.6,0 S,19,97490,97790,1.4,0
Sprite,Foreground,Centre,"sb\glow.png",328,424 C,0,97415,,199,109,166 F,0,97415,97515,0,0.6 F,0,97515,97815,0.6,0 S,19,97515,97815,1.4,0
Sprite,Foreground,Centre,"sb\glow.png",318,422 C,0,97440,,199,109,166 F,0,97440,97540,0,0.6 F,0,97540,97840,0.6,0 S,19,97540,97840,1.4,0
Sprite,Foreground,Centre,"sb\glow.png",307,418 C,0,97465,,199,109,166 F,0,97465,97565,0,0.6 F,0,97565,97865,0.6,0 S,19,97565,97865,1.4,0
Sprite,Foreground,Centre,"sb\glow.png",386,268 C,0,97749,,199,109,166 F,2,97749,98128,1,0 S,2,97749,98128,1,0.2
Sprite,Foreground,Centre,"sb\glow.png",386,268 C,0,97649,,199,109,166 F,0,97649,97749,0,0.6 F,0,97749,98049,0.6,0 S,19,97749,98049,1.4,0
Sprite,Foreground,Centre,"sb\glow.png",396,263 C,0,97674,,199,109,166 F,0,97674,97774,0,0.6 F,0,97774,98074,0.6,0 S,19,97774,98074,1.4,0
Sprite,Foreground,Centre,"sb\glow.png",407,260 C,0,97699,,199,109,166 F,0,97699,97799,0,0.6 F,0,97799,98099,0.6,0 S,19,97799,98099,1.4,0
Sprite,Foreground,Centre,"sb\glow.png",417,257 C,0,97724,,199,109,166 F,0,97724,97824,0,0.6 F,0,97824,98124,0.6,0 S,19,97824,98124,1.4,0
Sprite,Foreground,Centre,"sb\glow.png",429,257 C,0,97749,,199,109,166 F,0,97749,97849,0,0.6 F,0,97849,98149,0.6,0 S,19,97849,98149,1.4,0
Sprite,Foreground,Centre,"sb\glow.png",440,258 C,0,97774,,199,109,166 F,0,97774,97874,0,0.6 F,0,97874,98174,0.6,0 S,19,97874,98174,1.4,0
Sprite,Foreground,Centre,"sb\glow.png",450,260 C,0,97799,,199,109,166 F,0,97799,97899,0,0.6 F,0,97899,98199,0.6,0 S,19,97899,98199,1.4,0
Sprite,Foreground,Centre,"sb\glow.png",461,264 C,0,97824,,199,109,166 F,0,97824,97924,0,0.6 F,0,97924,98224,0.6,0 S,19,97924,98224,1.4,0
Sprite,Foreground,Centre,"sb\glow.png",260,198 C,0,98109,,224,130,124 F,2,98109,98672,1,0 S,2,98109,98672,1,0.2
Sprite,Foreground,Centre,"sb\glow.png",260,198 C,0,98009,,224,130,124 F,0,98009,98109,0,0.6 F,0,98109,98409,0.6,0 S,19,98109,98409,1.4,0
Sprite,Foreground,Centre,"sb\glow.png",249,196 C,0,98034,,224,130,124 F,0,98034,98134,0,0.6 F,0,98134,98434,0.6,0 S,19,98134,98434,1.4,0
Sprite,Foreground,Centre,"sb\glow.png",238,194 C,0,98059,,224,130,124 F,0,98059,98159,0,0.6 F,0,98159,98459,0.6,0 S,19,98159,98459,1.4,0
Sprite,Foreground,Centre,"sb\glow.png",227,194 C,0,98084,,224,130,124 F,0,98084,98184,0,0.6 F,0,98184,98484,0.6,0 S,19,98184,98484,1.4,0
Sprite,Foreground,Centre,"sb\glow.png",216,193 C,0,98109,,224,130,124 F,0,98109,98209,0,0.6 F,0,98209,98509,0.6,0 S,19,98209,98509,1.4,0
Sprite,Foreground,Centre,"sb\glow.png",205,194 C,0,98134,,224,130,124 F,0,98134,98234,0,0.6 F,0,98234,98534,0.6,0 S,19,98234,98534,1.4,0
Sprite,Foreground,Centre,"sb\glow.png",194,195 C,0,98159,,224,130,124 F,0,98159,98259,0,0.6 F,0,98259,98559,0.6,0 S,19,98259,98559,1.4,0
Sprite,Foreground,Centre,"sb\glow.png",184,197 C,0,98184,,224,130,124 F,0,98184,98284,0,0.6 F,0,98284,98584,0.6,0 S,19,98284,98584,1.4,0
Sprite,Foreground,Centre,"sb\glow.png",175,203 C,0,98209,,224,130,124 F,0,98209,98309,0,0.6 F,0,98309,98609,0.6,0 S,19,98309,98609,1.4,0
Sprite,Foreground,Centre,"sb\glow.png",167,211 C,0,98234,,224,130,124 F,0,98234,98334,0,0.6 F,0,98334,98634,0.6,0 S,19,98334,98634,1.4,0
Sprite,Foreground,Centre,"sb\glow.png",159,218 C,0,98259,,224,130,124 F,0,98259,98359,0,0.6 F,0,98359,98659,0.6,0 S,19,98359,98659,1.4,0
Sprite,Foreground,Centre,"sb\glow.png",149,224 C,0,98284,,224,130,124 F,0,98284,98384,0,0.6 F,0,98384,98684,0.6,0 S,19,98384,98684,1.4,0
Sprite,Foreground,Centre,"sb\glow.png",139,228 C,0,98309,,224,130,124 F,0,98309,98409,0,0.6 F,0,98409,98709,0.6,0 S,19,98409,98709,1.4,0
Sprite,Foreground,Centre,"sb\glow.png",129,231 C,0,98334,,224,130,124 F,0,98334,98434,0,0.6 F,0,98434,98734,0.6,0 S,19,98434,98734,1.4,0
Sprite,Foreground,Centre,"sb\glow.png",118,233 C,0,98359,,224,130,124 F,0,98359,98459,0,0.6 F,0,98459,98759,0.6,0 S,19,98459,98759,1.4,0
Sprite,Foreground,Centre,"sb\glow.png",318,131 C,0,98654,,224,130,124 F,2,98654,99217,1,0 S,2,98654,99217,1,0.2
Sprite,Foreground,Centre,"sb\glow.png",318,131 C,0,98554,,224,130,124 F,0,98554,98654,0,0.6 F,0,98654,98954,0.6,0 S,19,98654,98954,1.4,0
Sprite,Foreground,Centre,"sb\glow.png",325,139 C,0,98579,,224,130,124 F,0,98579,98679,0,0.6 F,0,98679,98979,0.6,0 S,19,98679,98979,1.4,0
Sprite,Foreground,Centre,"sb\glow.png",331,148 C,0,98604,,224,130,124 F,0,98604,98704,0,0.6 F,0,98704,99004,0.6,0 S,19,98704,99004,1.4,0
Sprite,Foreground,Centre,"sb\glow.png",337,158 C,0,98629,,224,130,124 F,0,98629,98729,0,0.6 F,0,98729,99029,0.6,0 S,19,98729,99029,1.4,0
Sprite,Foreground,Centre,"sb\glow.png",341,168 C,0,98654,,224,130,124 F,0,98654,98754,0,0.6 F,0,98754,99054,0.6,0 S,19,98754,99054,1.4,0
Sprite,Foreground,Centre,"sb\glow.png",344,179 C,0,98679,,224,130,124 F,0,98679,98779,0,0.6 F,0,98779,99079,0.6,0 S,19,98779,99079,1.4,0
Sprite,Foreground,Centre,"sb\glow.png",345,189 C,0,98704,,224,130,124 F,0,98704,98804,0,0.6 F,0,98804,99104,0.6,0 S,19,98804,99104,1.4,0
Sprite,Foreground,Centre,"sb\glow.png",346,200 C,0,98729,,224,130,124 F,0,98729,98829,0,0.6 F,0,98829,99129,0.6,0 S,19,98829,99129,1.4,0
Sprite,Foreground,Centre,"sb\glow.png",345,211 C,0,98754,,224,130,124 F,0,98754,98854,0,0.6 F,0,98854,99154,0.6,0 S,19,98854,99154,1.4,0
Sprite,Foreground,Centre,"sb\glow.png",343,222 C,0,98779,,224,130,124 F,0,98779,98879,0,0.6 F,0,98879,99179,0.6,0 S,19,98879,99179,1.4,0
Sprite,Foreground,Centre,"sb\glow.png",340,233 C,0,98804,,224,130,124 F,0,98804,98904,0,0.6 F,0,98904,99204,0.6,0 S,19,98904,99204,1.4,0
Sprite,Foreground,Centre,"sb\glow.png",335,243 C,0,98829,,224,130,124 F,0,98829,98929,0,0.6 F,0,98929,99229,0.6,0 S,19,98929,99229,1.4,0
Sprite,Foreground,Centre,"sb\glow.png",330,252 C,0,98854,,224,130,124 F,0,98854,98954,0,0.6 F,0,98954,99254,0.6,0 S,19,98954,99254,1.4,0
Sprite,Foreground,Centre,"sb\glow.png",323,261 C,0,98879,,224,130,124 F,0,98879,98979,0,0.6 F,0,98979,99279,0.6,0 S,19,98979,99279,1.4,0
Sprite,Foreground,Centre,"sb\glow.png",316,269 C,0,98904,,224,130,124 F,0,98904,99004,0,0.6 F,0,99004,99304,0.6,0 S,19,99004,99304,1.4,0
Sprite,Foreground,Centre,"sb\glow.png",170,338 C,0,99199,,224,130,124 F,2,99199,99580,1,0 S,2,99199,99580,1,0.2
Sprite,Foreground,Centre,"sb\glow.png",170,338 C,0,99099,,224,130,124 F,0,99099,99199,0,0.6 F,0,99199,99499,0.6,0 S,19,99199,99499,1.4,0
Sprite,Foreground,Centre,"sb\glow.png",181,338 C,0,99124,,224,130,124 F,0,99124,99224,0,0.6 F,0,99224,99524,0.6,0 S,19,99224,99524,1.4,0
Sprite,Foreground,Centre,"sb\glow.png",192,339 C,0,99149,,224,130,124 F,0,99149,99249,0,0.6 F,0,99249,99549,0.6,0 S,19,99249,99549,1.4,0
Sprite,Foreground,Centre,"sb\glow.png",203,339 C,0,99174,,224,130,124 F,0,99174,99274,0,0.6 F,0,99274,99574,0.6,0 S,19,99274,99574,1.4,0
Sprite,Foreground,Centre,"sb\glow.png",214,340 C,0,99199,,224,130,124 F,0,99199,99299,0,0.6 F,0,99299,99599,0.6,0 S,19,99299,99599,1.4,0
Sprite,Foreground,Centre,"sb\glow.png",225,340 C,0,99224,,224,130,124 F,0,99224,99324,0,0.6 F,0,99324,99624,0.6,0 S,19,99324,99624,1.4,0
Sprite,Foreground,Centre,"sb\glow.png",236,341 C,0,99249,,224,130,124 F,0,99249,99349,0,0.6 F,0,99349,99649,0.6,0 S,19,99349,99649,1.4,0
Sprite,Foreground,Centre,"sb\glow.png",247,341 C,0,99274,,224,130,124 F,0,99274,99374,0,0.6 F,0,99374,99674,0.6,0 S,19,99374,99674,1.4,0
Sprite,Foreground,Centre,"sb\glow.png",422,396 C,0,99563,,220,166,126 F,2,99563,99944,1,0 S,2,99563,99944,1,0.2
Sprite,Foreground,Centre,"sb\glow.png",422,396 C,0,99463,,220,166,126 F,0,99463,99563,0,0.6 F,0,99563,99863,0.6,0 S,19,99563,99863,1.4,0
Sprite,Foreground,Centre,"sb\glow.png",421,385 C,0,99488,,220,166,126 F,0,99488,99588,0,0.6 F,0,99588,99888,0.6,0 S,19,99588,99888,1.4,0
Sprite,Foreground,Centre,"sb\glow.png",420,374 C,0,99513,,220,166,126 F,0,99513,99613,0,0.6 F,0,99613,99913,0.6,0 S,19,99613,99913,1.4,0
Sprite,Foreground,Centre,"sb\glow.png",418,363 C,0,99538,,220,166,126 F,0,99538,99638,0,0.6 F,0,99638,99938,0.6,0 S,19,99638,99938,1.4,0
Sprite,Foreground,Centre,"sb\glow.png",417,352 C,0,99563,,220,166,126 F,0,99563,99663,0,0.6 F,0,99663,99963,0.6,0 S,19,99663,99963,1.4,0
Sprite,Foreground,Centre,"sb\glow.png",416,341 C,0,99588,,220,166,126 F,0,99588,99688,0,0.6 F,0,99688,99988,0.6,0 S,19,99688,99988,1.4,0
Sprite,Foreground,Centre,"sb\glow.png",415,330 C,0,99613,,220,166,126 F,0,99613,99713,0,0.6 F,0,99713,100013,0.6,0 S,19,99713,100013,1.4,0
Sprite,Foreground,Centre,"sb\glow.png",413,319 C,0,99638,,220,166,126 F,0,99638,99738,0,0.6 F,0,99738,100038,0.6,0 S,19,99738,100038,1.4,0
Sprite,Foreground,Centre,"sb\glow.png",527,138 C,0,99927,,220,166,126 F,2,99927,100308,1,0 S,2,99927,100308,1,0.2
Sprite,Foreground,Centre,"sb\glow.png",527,138 C,0,99827,,220,166,126 F,0,99827,99927,0,0.6 F,0,99927,100227,0.6,0 S,19,99927,100227,1.4,0
Sprite,Foreground,Centre,"sb\glow.png",526,149 C,0,99852,,220,166,126 F,0,99852,99952,0,0.6 F,0,99952,100252,0.6,0 S,19,99952,100252,1.4,0
Sprite,Foreground,Centre,"sb\glow.png",525,160 C,0,99877,,220,166,126 F,0,99877,99977,0,0.6 F,0,99977,100277,0.6,0 S,19,99977,100277,1.4,0
Sprite,Foreground,Centre,"sb\glow.png",523,171 C,0,99902,,220,166,126 F,0,99902,100002,0,0.6 F,0,100002,100302,0.6,0 S,19,100002,100302,1.4,0
Sprite,Foreground,Centre,"sb\glow.png",522,182 C,0,99927,,220,166,126 F,0,99927,100027,0,0.6 F,0,100027,100327,0.6,0 S,19,100027,100327,1.4,0
Sprite,Foreground,Centre,"sb\glow.png",521,193 C,0,99952,,220,166,126 F,0,99952,100052,0,0.6 F,0,100052,100352,0.6,0 S,19,100052,100352,1.4,0
Sprite,Foreground,Centre,"sb\glow.png",520,204 C,0,99977,,220,166,126 F,0,99977,100077,0,0.6 F,0,100077,100377,0.6,0 S,19,100077,100377,1.4,0
Sprite,Foreground,Centre,"sb\glow.png",518,215 C,0,100002,,220,166,126 F,0,100002,100102,0,0.6 F,0,100102,100402,0.6,0 S,19,100102,100402,1.4,0
Sprite,Foreground,Centre,"sb\glow.png",393,423 C,0,100290,,220,166,126 F,2,100290,100671,1,0 S,2,100290,100671,1,0.2
Sprite,Foreground,Centre,"sb\glow.png",393,423 C,0,100190,,220,166,126 F,0,100190,100290,0,0.6 F,0,100290,100590,0.6,0 S,19,100290,100590,1.4,0
Sprite,Foreground,Centre,"sb\glow.png",392,412 C,0,100215,,220,166,126 F,0,100215,100315,0,0.6 F,0,100315,100615,0.6,0 S,19,100315,100615,1.4,0
Sprite,Foreground,Centre,"sb\glow.png",391,401 C,0,100240,,220,166,126 F,0,100240,100340,0,0.6 F,0,100340,100640,0.6,0 S,19,100340,100640,1.4,0
Sprite,Foreground,Centre,"sb\glow.png",389,390 C,0,100265,,220,166,126 F,0,100265,100365,0,0.6 F,0,100365,100665,0.6,0 S,19,100365,100665,1.4,0
Sprite,Foreground,Centre,"sb\glow.png",388,379 C,0,100290,,220,166,126 F,0,100290,100390,0,0.6 F,0,100390,100690,0.6,0 S,19,100390,100690,1.4,0
Sprite,Foreground,Centre,"sb\glow.png",387,368 C,0,100315,,220,166,126 F,0,100315,100415,0,0.6 F,0,100415,100715,0.6,0 S,19,100415,100715,1.4,0
Sprite,Foreground,Centre,"sb\glow.png",386,357 C,0,100340,,220,166,126 F,0,100340,100440,0,0.6 F,0,100440,100740,0.6,0 S,19,100440,100740,1.4,0
Sprite,Foreground,Centre,"sb\glow.png",384,346 C,0,100365,,220,166,126 F,0,100365,100465,0,0.6 F,0,100465,100765,0.6,0 S,19,100465,100765,1.4,0
Sprite,Foreground,Centre,"sb\glow.png",556,119 C,0,100654,,220,166,126 F,2,100654,101035,1,0 S,2,100654,101035,1,0.2
Sprite,Foreground,Centre,"sb\glow.png",556,119 C,0,100554,,220,166,126 F,0,100554,100654,0,0.6 F,0,100654,100954,0.6,0 S,19,100654,100954,1.4,0
Sprite,Foreground,Centre,"sb\glow.png",555,130 C,0,100579,,220,166,126 F,0,100579,100679,0,0.6 F,0,100679,100979,0.6,0 S,19,100679,100979,1.4,0
Sprite,Foreground,Centre,"sb\glow.png",554,141 C,0,100604,,220,166,126 F,0,100604,100704,0,0.6 F,0,100704,101004,0.6,0 S,19,100704,101004,1.4,0
Sprite,Foreground,Centre,"sb\glow.png",552,152 C,0,100629,,220,166,126 F,0,100629,100729,0,0.6 F,0,100729,101029,0.6,0 S,19,100729,101029,1.4,0
Sprite,Foreground,Centre,"sb\glow.png",551,163 C,0,100654,,220,166,126 F,0,100654,100754,0,0.6 F,0,100754,101054,0.6,0 S,19,100754,101054,1.4,0
Sprite,Foreground,Centre,"sb\glow.png",550,174 C,0,100679,,220,166,126 F,0,100679,100779,0,0.6 F,0,100779,101079,0.6,0 S,19,100779,101079,1.4,0
Sprite,Foreground,Centre,"sb\glow.png",549,185 C,0,100704,,220,166,126 F,0,100704,100804,0,0.6 F,0,100804,101104,0.6,0 S,19,100804,101104,1.4,0
Sprite,Foreground,Centre,"sb\glow.png",547,196 C,0,100729,,220,166,126 F,0,100729,100829,0,0.6 F,0,100829,101129,0.6,0 S,19,100829,101129,1.4,0
Sprite,Foreground,Centre,"sb\glow.png",303,301 C,0,101018,,222,203,124 F,2,101018,101552,1,0 S,2,101018,101552,1,0.2
Sprite,Foreground,Centre,"sb\glow.png",303,301 C,0,100918,,222,203,124 F,0,100918,101018,0,0.6 F,0,101018,101318,0.6,0 S,19,101018,101318,1.4,0
Sprite,Foreground,Centre,"sb\glow.png",309,292 C,0,100943,,222,203,124 F,0,100943,101043,0,0.6 F,0,101043,101343,0.6,0 S,19,101043,101343,1.4,0
Sprite,Foreground,Centre,"sb\glow.png",315,283 C,0,100968,,222,203,124 F,0,100968,101068,0,0.6 F,0,101068,101368,0.6,0 S,19,101068,101368,1.4,0
Sprite,Foreground,Centre,"sb\glow.png",322,274 C,0,100993,,222,203,124 F,0,100993,101093,0,0.6 F,0,101093,101393,0.6,0 S,19,101093,101393,1.4,0
Sprite,Foreground,Centre,"sb\glow.png",331,267 C,0,101018,,222,203,124 F,0,101018,101118,0,0.6 F,0,101118,101418,0.6,0 S,19,101118,101418,1.4,0
Sprite,Foreground,Centre,"sb\glow.png",340,261 C,0,101043,,222,203,124 F,0,101043,101143,0,0.6 F,0,101143,101443,0.6,0 S,19,101143,101443,1.4,0
Sprite,Foreground,Centre,"sb\glow.png",349,256 C,0,101068,,222,203,124 F,0,101068,101168,0,0.6 F,0,101168,101468,0.6,0 S,19,101168,101468,1.4,0
Sprite,Foreground,Centre,"sb\glow.png",359,252 C,0,101093,,222,203,124 F,0,101093,101193,0,0.6 F,0,101193,101493,0.6,0 S,19,101193,101493,1.4,0
Sprite,Foreground,Centre,"sb\glow.png",370,249 C,0,101118,,222,203,124 F,0,101118,101218,0,0.6 F,0,101218,101518,0.6,0 S,19,101218,101518,1.4,0
Sprite,Foreground,Centre,"sb\glow.png",381,247 C,0,101143,,222,203,124 F,0,101143,101243,0,0.6 F,0,101243,101543,0.6,0 S,19,101243,101543,1.4,0
Sprite,Foreground,Centre,"sb\glow.png",392,246 C,0,101168,,222,203,124 F,0,101168,101268,0,0.6 F,0,101268,101568,0.6,0 S,19,101268,101568,1.4,0
Sprite,Foreground,Centre,"sb\glow.png",403,247 C,0,101193,,222,203,124 F,0,101193,101293,0,0.6 F,0,101293,101593,0.6,0 S,19,101293,101593,1.4,0
Sprite,Foreground,Centre,"sb\glow.png",413,249 C,0,101218,,222,203,124 F,0,101218,101318,0,0.6 F,0,101318,101618,0.6,0 S,19,101318,101618,1.4,0
Sprite,Foreground,Centre,"sb\glow.png",424,252 C,0,101243,,222,203,124 F,0,101243,101343,0,0.6 F,0,101343,101643,0.6,0 S,19,101343,101643,1.4,0
Sprite,Foreground,Centre,"sb\glow.png",234,401 C,0,101533,,222,203,124 F,2,101533,101914,1,0 S,2,101533,101914,1,0.2
Sprite,Foreground,Centre,"sb\glow.png",234,401 C,0,101433,,222,203,124 F,0,101433,101533,0,0.6 F,0,101533,101833,0.6,0 S,19,101533,101833,1.4,0
Sprite,Foreground,Centre,"sb\glow.png",223,403 C,0,101458,,222,203,124 F,0,101458,101558,0,0.6 F,0,101558,101858,0.6,0 S,19,101558,101858,1.4,0
Sprite,Foreground,Centre,"sb\glow.png",212,405 C,0,101483,,222,203,124 F,0,101483,101583,0,0.6 F,0,101583,101883,0.6,0 S,19,101583,101883,1.4,0
Sprite,Foreground,Centre,"sb\glow.png",202,408 C,0,101508,,222,203,124 F,0,101508,101608,0,0.6 F,0,101608,101908,0.6,0 S,19,101608,101908,1.4,0
Sprite,Foreground,Centre,"sb\glow.png",199,408 C,0,101533,,222,203,124 F,0,101533,101633,0,0.6 F,0,101633,101933,0.6,0 S,19,101633,101933,1.4,0
Sprite,Foreground,Centre,"sb\glow.png",210,406 C,0,101558,,222,203,124 F,0,101558,101658,0,0.6 F,0,101658,101958,0.6,0 S,19,101658,101958,1.4,0
Sprite,Foreground,Centre,"sb\glow.png",220,404 C,0,101583,,222,203,124 F,0,101583,101683,0,0.6 F,0,101683,101983,0.6,0 S,19,101683,101983,1.4,0
Sprite,Foreground,Centre,"sb\glow.png",231,402 C,0,101608,,222,203,124 F,0,101608,101708,0,0.6 F,0,101708,102008,0.6,0 S,19,101708,102008,1.4,0
Sprite,Foreground,Centre,"sb\glow.png",176,182 C,0,101910,,196,162,223 F,2,101910,102110,1,0 S,2,101910,102110,1,0.2
Sprite,Foreground,Centre,"sb\glow.png",141,201 C,0,102000,,196,162,223 F,2,102000,102200,1,0 S,2,102000,102200,1,0.2
Sprite,Foreground,Centre,"sb\glow.png",122,236 C,0,102091,,196,162,223 F,2,102091,102291,1,0 S,2,102091,102291,1,0.2
Sprite,Foreground,Centre,"sb\glow.png",124,275 C,0,102182,,196,162,223 F,2,102182,102382,1,0 S,2,102182,102382,1,0.2
Sprite,Foreground,Centre,"sb\glow.png",146,308 C,0,102273,,196,162,223 F,2,102273,102473,1,0 S,2,102273,102473,1,0.2
Sprite,Foreground,Centre,"sb\glow.png",182,325 C,0,102364,,196,162,223 F,2,102364,102564,1,0 S,2,102364,102564,1,0.2
Sprite,Foreground,Centre,"sb\glow.png",211,323 C,0,102446,,199,109,166 F,2,102446,102835,1,0 S,2,102446,102835,1,0.2
Sprite,Foreground,Centre,"sb\glow.png",211,323 C,0,102346,,199,109,166 F,0,102346,102446,0,0.6 F,0,102446,102746,0.6,0 S,19,102446,102746,1.4,0
Sprite,Foreground,Centre,"sb\glow.png",221,322 C,0,102371,,199,109,166 F,0,102371,102471,0,0.6 F,0,102471,102771,0.6,0 S,19,102471,102771,1.4,0
Sprite,Foreground,Centre,"sb\glow.png",232,321 C,0,102396,,199,109,166 F,0,102396,102496,0,0.6 F,0,102496,102796,0.6,0 S,19,102496,102796,1.4,0
Sprite,Foreground,Centre,"sb\glow.png",242,319 C,0,102421,,199,109,166 F,0,102421,102521,0,0.6 F,0,102521,102821,0.6,0 S,19,102521,102821,1.4,0
Sprite,Foreground,Centre,"sb\glow.png",253,318 C,0,102446,,199,109,166 F,0,102446,102546,0,0.6 F,0,102546,102846,0.6,0 S,19,102546,102846,1.4,0
Sprite,Foreground,Centre,"sb\glow.png",263,317 C,0,102471,,199,109,166 F,0,102471,102571,0,0.6 F,0,102571,102871,0.6,0 S,19,102571,102871,1.4,0
Sprite,Foreground,Centre,"sb\glow.png",274,316 C,0,102496,,199,109,166 F,0,102496,102596,0,0.6 F,0,102596,102896,0.6,0 S,19,102596,102896,1.4,0
Sprite,Foreground,Centre,"sb\glow.png",284,314 C,0,102521,,199,109,166 F,0,102521,102621,0,0.6 F,0,102621,102921,0.6,0 S,19,102621,102921,1.4,0
Sprite,Foreground,Centre,"sb\glow.png",257,146 C,0,102827,,199,109,166 F,2,102827,103208,1,0 S,2,102827,103208,1,0.2
Sprite,Foreground,Centre,"sb\glow.png",257,146 C,0,102727,,199,109,166 F,0,102727,102827,0,0.6 F,0,102827,103127,0.6,0 S,19,102827,103127,1.4,0
Sprite,Foreground,Centre,"sb\glow.png",258,157 C,0,102752,,199,109,166 F,0,102752,102852,0,0.6 F,0,102852,103152,0.6,0 S,19,102852,103152,1.4,0
Sprite,Foreground,Centre,"sb\glow.png",260,168 C,0,102777,,199,109,166 F,0,102777,102877,0,0.6 F,0,102877,103177,0.6,0 S,19,102877,103177,1.4,0
Sprite,Foreground,Centre,"sb\glow.png",261,179 C,0,102802,,199,109,166 F,0,102802,102902,0,0.6 F,0,102902,103202,0.6,0 S,19,102902,103202,1.4,0
Sprite,Foreground,Centre,"sb\glow.png",262,190 C,0,102827,,199,109,166 F,0,102827,102927,0,0.6 F,0,102927,103227,0.6,0 S,19,102927,103227,1.4,0
Sprite,Foreground,Centre,"sb\glow.png",263,201 C,0,102852,,199,109,166 F,0,102852,102952,0,0.6 F,0,102952,103252,0.6,0 S,19,102952,103252,1.4,0
Sprite,Foreground,Centre,"sb\glow.png",265,212 C,0,102877,,199,109,166 F,0,102877,102977,0,0.6 F,0,102977,103277,0.6,0 S,19,102977,103277,1.4,0
Sprite,Foreground,Centre,"sb\glow.png",266,222 C,0,102902,,199,109,166 F,0,102902,103002,0,0.6 F,0,103002,103302,0.6,0 S,19,103002,103302,1.4,0
Sprite,Foreground,Centre,"sb\glow.png",433,196 C,0,103190,,199,109,166 F,2,103190,103571,1,0 S,2,103190,103571,1,0.2
Sprite,Foreground,Centre,"sb\glow.png",433,196 C,0,103090,,199,109,166 F,0,103090,103190,0,0.6 F,0,103190,103490,0.6,0 S,19,103190,103490,1.4,0
Sprite,Foreground,Centre,"sb\glow.png",422,197 C,0,103115,,199,109,166 F,0,103115,103215,0,0.6 F,0,103215,103515,0.6,0 S,19,103215,103515,1.4,0
Sprite,Foreground,Centre,"sb\glow.png",411,199 C,0,103140,,199,109,166 F,0,103140,103240,0,0.6 F,0,103240,103540,0.6,0 S,19,103240,103540,1.4,0
Sprite,Foreground,Centre,"sb\glow.png",400,200 C,0,103165,,199,109,166 F,0,103165,103265,0,0.6 F,0,103265,103565,0.6,0 S,19,103265,103565,1.4,0
Sprite,Foreground,Centre,"sb\glow.png",389,201 C,0,103190,,199,109,166 F,0,103190,103290,0,0.6 F,0,103290,103590,0.6,0 S,19,103290,103590,1.4,0
Sprite,Foreground,Centre,"sb\glow.png",378,202 C,0,103215,,199,109,166 F,0,103215,103315,0,0.6 F,0,103315,103615,0.6,0 S,19,103315,103615,1.4,0
Sprite,Foreground,Centre,"sb\glow.png",367,204 C,0,103240,,199,109,166 F,0,103240,103340,0,0.6 F,0,103340,103640,0.6,0 S,19,103340,103640,1.4,0
Sprite,Foreground,Centre,"sb\glow.png",357,205 C,0,103265,,199,109,166 F,0,103265,103365,0,0.6 F,0,103365,103665,0.6,0 S,19,103365,103665,1.4,0
Sprite,Foreground,Centre,"sb\glow.png",384,386 C,0,103554,,199,109,166 F,2,103554,103935,1,0 S,2,103554,103935,1,0.2
Sprite,Foreground,Centre,"sb\glow.png",384,386 C,0,103454,,199,109,166 F,0,103454,103554,0,0.6 F,0,103554,103854,0.6,0 S,19,103554,103854,1.4,0
Sprite,Foreground,Centre,"sb\glow.png",383,375 C,0,103479,,199,109,166 F,0,103479,103579,0,0.6 F,0,103579,103879,0.6,0 S,19,103579,103879,1.4,0
Sprite,Foreground,Centre,"sb\glow.png",381,364 C,0,103504,,199,109,166 F,0,103504,103604,0,0.6 F,0,103604,103904,0.6,0 S,19,103604,103904,1.4,0
Sprite,Foreground,Centre,"sb\glow.png",380,353 C,0,103529,,199,109,166 F,0,103529,103629,0,0.6 F,0,103629,103929,0.6,0 S,19,103629,103929,1.4,0
Sprite,Foreground,Centre,"sb\glow.png",379,342 C,0,103554,,199,109,166 F,0,103554,103654,0,0.6 F,0,103654,103954,0.6,0 S,19,103654,103954,1.4,0
Sprite,Foreground,Centre,"sb\glow.png",378,331 C,0,103579,,199,109,166 F,0,103579,103679,0,0.6 F,0,103679,103979,0.6,0 S,19,103679,103979,1.4,0
Sprite,Foreground,Centre,"sb\glow.png",376,320 C,0,103604,,199,109,166 F,0,103604,103704,0,0.6 F,0,103704,104004,0.6,0 S,19,103704,104004,1.4,0
Sprite,Foreground,Centre,"sb\glow.png",375,310 C,0,103629,,199,109,166 F,0,103629,103729,0,0.6 F,0,103729,104029,0.6,0 S,19,103729,104029,1.4,0
Sprite,Foreground,Centre,"sb\glow.png",528,70 C,0,103917,,224,130,124 F,2,103917,104480,1,0 S,2,103917,104480,1,0.2
Sprite,Foreground,Centre,"sb\glow.png",528,70 C,0,103817,,224,130,124 F,0,103817,103917,0,0.6 F,0,103917,104217,0.6,0 S,19,103917,104217,1.4,0
Sprite,Foreground,Centre,"sb\glow.png",527,81 C,0,103842,,224,130,124 F,0,103842,103942,0,0.6 F,0,103942,104242,0.6,0 S,19,103942,104242,1.4,0
Sprite,Foreground,Centre,"sb\glow.png",526,92 C,0,103867,,224,130,124 F,0,103867,103967,0,0.6 F,0,103967,104267,0.6,0 S,19,103967,104267,1.4,0
Sprite,Foreground,Centre,"sb\glow.png",525,103 C,0,103892,,224,130,124 F,0,103892,103992,0,0.6 F,0,103992,104292,0.6,0 S,19,103992,104292,1.4,0
Sprite,Foreground,Centre,"sb\glow.png",524,114 C,0,103917,,224,130,124 F,0,103917,104017,0,0.6 F,0,104017,104317,0.6,0 S,19,104017,104317,1.4,0
Sprite,Foreground,Centre,"sb\glow.png",523,125 C,0,103942,,224,130,124 F,0,103942,104042,0,0.6 F,0,104042,104342,0.6,0 S,19,104042,104342,1.4,0
Sprite,Foreground,Centre,"sb\glow.png",522,136 C,0,103967,,224,130,124 F,0,103967,104067,0,0.6 F,0,104067,104367,0.6,0 S,19,104067,104367,1.4,0
Sprite,Foreground,Centre,"sb\glow.png",522,147 C,0,103992,,224,130,124 F,0,103992,104092,0,0.6 F,0,104092,104392,0.6,0 S,19,104092,104392,1.4,0
Sprite,Foreground,Centre,"sb\glow.png",521,158 C,0,104017,,224,130,124 F,0,104017,104117,0,0.6 F,0,104117,104417,0.6,0 S,19,104117,104417,1.4,0
Sprite,Foreground,Centre,"sb\glow.png",520,169 C,0,104042,,224,130,124 F,0,104042,104142,0,0.6 F,0,104142,104442,0.6,0 S,19,104142,104442,1.4,0
Sprite,Foreground,Centre,"sb\glow.png",519,180 C,0,104067,,224,130,124 F,0,104067,104167,0,0.6 F,0,104167,104467,0.6,0 S,19,104167,104467,1.4,0
Sprite,Foreground,Centre,"sb\glow.png",518,191 C,0,104092,,224,130,124 F,0,104092,104192,0,0.6 F,0,104192,104492,0.6,0 S,19,104192,104492,1.4,0
Sprite,Foreground,Centre,"sb\glow.png",517,202 C,0,104117,,224,130,124 F,0,104117,104217,0,0.6 F,0,104217,104517,0.6,0 S,19,104217,104517,1.4,0
Sprite,Foreground,Centre,"sb\glow.png",516,213 C,0,104142,,224,130,124 F,0,104142,104242,0,0.6 F,0,104242,104542,0.6,0 S,19,104242,104542,1.4,0
Sprite,Foreground,Centre,"sb\glow.png",515,223 C,0,104167,,224,130,124 F,0,104167,104267,0,0.6 F,0,104267,104567,0.6,0 S,19,104267,104567,1.4,0
Sprite,Foreground,Centre,"sb\glow.png",351,89 C,0,104462,,224,130,124 F,2,104462,104662,1,0 S,2,104462,104662,1,0.2
Sprite,Foreground,Centre,"sb\glow.png",351,89 C,0,104644,,224,130,124 F,2,104644,105025,1,0 S,2,104644,105025,1,0.2
Sprite,Foreground,Centre,"sb\glow.png",351,89 C,0,104544,,224,130,124 F,0,104544,104644,0,0.6 F,0,104644,104944,0.6,0 S,19,104644,104944,1.4,0
Sprite,Foreground,Centre,"sb\glow.png",362,88 C,0,104569,,224,130,124 F,0,104569,104669,0,0.6 F,0,104669,104969,0.6,0 S,19,104669,104969,1.4,0
Sprite,Foreground,Centre,"sb\glow.png",373,87 C,0,104594,,224,130,124 F,0,104594,104694,0,0.6 F,0,104694,104994,0.6,0 S,19,104694,104994,1.4,0
Sprite,Foreground,Centre,"sb\glow.png",384,86 C,0,104619,,224,130,124 F,0,104619,104719,0,0.6 F,0,104719,105019,0.6,0 S,19,104719,105019,1.4,0
Sprite,Foreground,Centre,"sb\glow.png",395,85 C,0,104644,,224,130,124 F,0,104644,104744,0,0.6 F,0,104744,105044,0.6,0 S,19,104744,105044,1.4,0
Sprite,Foreground,Centre,"sb\glow.png",406,83 C,0,104669,,224,130,124 F,0,104669,104769,0,0.6 F,0,104769,105069,0.6,0 S,19,104769,105069,1.4,0
Sprite,Foreground,Centre,"sb\glow.png",417,82 C,0,104694,,224,130,124 F,0,104694,104794,0,0.6 F,0,104794,105094,0.6,0 S,19,104794,105094,1.4,0
Sprite,Foreground,Centre,"sb\glow.png",428,81 C,0,104719,,224,130,124 F,0,104719,104819,0,0.6 F,0,104819,105119,0.6,0 S,19,104819,105119,1.4,0
Sprite,Foreground,Centre,"sb\glow.png",337,231 C,0,105007,,224,130,124 F,2,105007,105388,1,0 S,2,105007,105388,1,0.2
Sprite,Foreground,Centre,"sb\glow.png",337,231 C,0,104907,,224,130,124 F,0,104907,105007,0,0.6 F,0,105007,105307,0.6,0 S,19,105007,105307,1.4,0
Sprite,Foreground,Centre,"sb\glow.png",326,230 C,0,104932,,224,130,124 F,0,104932,105032,0,0.6 F,0,105032,105332,0.6,0 S,19,105032,105332,1.4,0
Sprite,Foreground,Centre,"sb\glow.png",315,229 C,0,104957,,224,130,124 F,0,104957,105057,0,0.6 F,0,105057,105357,0.6,0 S,19,105057,105357,1.4,0
Sprite,Foreground,Centre,"sb\glow.png",304,227 C,0,104982,,224,130,124 F,0,104982,105082,0,0.6 F,0,105082,105382,0.6,0 S,19,105082,105382,1.4,0
Sprite,Foreground,Centre,"sb\glow.png",293,226 C,0,105007,,224,130,124 F,0,105007,105107,0,0.6 F,0,105107,105407,0.6,0 S,19,105107,105407,1.4,0
Sprite,Foreground,Centre,"sb\glow.png",282,225 C,0,105032,,224,130,124 F,0,105032,105132,0,0.6 F,0,105132,105432,0.6,0 S,19,105132,105432,1.4,0
Sprite,Foreground,Centre,"sb\glow.png",271,224 C,0,105057,,224,130,124 F,0,105057,105157,0,0.6 F,0,105157,105457,0.6,0 S,19,105157,105457,1.4,0
Sprite,Foreground,Centre,"sb\glow.png",260,222 C,0,105082,,224,130,124 F,0,105082,105182,0,0.6 F,0,105182,105482,0.6,0 S,19,105182,105482,1.4,0
Sprite,Foreground,Centre,"sb\glow.png",230,62 C,0,105371,,220,166,126 F,2,105371,105752,1,0 S,2,105371,105752,1,0.2
Sprite,Foreground,Centre,"sb\glow.png",230,62 C,0,105271,,220,166,126 F,0,105271,105371,0,0.6 F,0,105371,105671,0.6,0 S,19,105371,105671,1.4,0
Sprite,Foreground,Centre,"sb\glow.png",235,72 C,0,105296,,220,166,126 F,0,105296,105396,0,0.6 F,0,105396,105696,0.6,0 S,19,105396,105696,1.4,0
Sprite,Foreground,Centre,"sb\glow.png",238,82 C,0,105321,,220,166,126 F,0,105321,105421,0,0.6 F,0,105421,105721,0.6,0 S,19,105421,105721,1.4,0
Sprite,Foreground,Centre,"sb\glow.png",240,93 C,0,105346,,220,166,126 F,0,105346,105446,0,0.6 F,0,105446,105746,0.6,0 S,19,105446,105746,1.4,0
Sprite,Foreground,Centre,"sb\glow.png",241,104 C,0,105371,,220,166,126 F,0,105371,105471,0,0.6 F,0,105471,105771,0.6,0 S,19,105471,105771,1.4,0
Sprite,Foreground,Centre,"sb\glow.png",239,115 C,0,105396,,220,166,126 F,0,105396,105496,0,0.6 F,0,105496,105796,0.6,0 S,19,105496,105796,1.4,0
Sprite,Foreground,Centre,"sb\glow.png",236,125 C,0,105421,,220,166,126 F,0,105421,105521,0,0.6 F,0,105521,105821,0.6,0 S,19,105521,105821,1.4,0
Sprite,Foreground,Centre,"sb\glow.png",232,135 C,0,105446,,220,166,126 F,0,105446,105546,0,0.6 F,0,105546,105846,0.6,0 S,19,105546,105846,1.4,0
Sprite,Foreground,Centre,"sb\glow.png",178,249 C,0,105735,,222,203,124 F,2,105735,105935,1,0 S,2,105735,105935,1,0.2
Sprite,Foreground,Centre,"sb\glow.png",144,103 C,0,105917,,222,203,124 F,2,105917,106117,1,0 S,2,105917,106117,1,0.2
Sprite,Foreground,Centre,"sb\glow.png",312,203 C,0,106098,,196,162,223 F,2,106098,106298,1,0 S,2,106098,106298,1,0.2
Sprite,Foreground,Centre,"sb\glow.png",160,173 C,0,106280,,196,162,223 F,2,106280,106480,1,0 S,2,106280,106480,1,0.2
Sprite,Foreground,Centre,"sb\glow.png",360,94 C,0,106462,,199,109,166 F,2,106462,106662,1,0 S,2,106462,106662,1,0.2
Sprite,Foreground,Centre,"sb\glow.png",287,276 C,0,106644,,199,109,166 F,2,106644,106844,1,0 S,2,106644,106844,1,0.2
Sprite,Foreground,Centre,"sb\glow.png",498,73 C,0,106826,,224,130,124 F,2,106826,107026,1,0 S,2,106826,107026,1,0.2
Sprite,Foreground,Centre,"sb\glow.png",238,118 C,0,107007,,224,130,124 F,2,107007,107207,1,0 S,2,107007,107207,1,0.2
Sprite,Foreground,Centre,"sb\glow.png",524,251 C,0,107189,,220,166,126 F,2,107189,107389,1,0 S,2,107189,107389,1,0.2
Sprite,Foreground,Centre,"sb\glow.png",156,184 C,0,107371,,220,166,126 F,2,107371,107571,1,0 S,2,107371,107571,1,0.2
Sprite,Foreground,Centre,"sb\glow.png",532,334 C,0,107553,,222,203,124 F,2,107553,107753,1,0 S,2,107553,107753,1,0.2
Sprite,Foreground,Centre,"sb\glow.png",139,391 C,0,107735,,222,203,124 F,2,107735,107935,1,0 S,2,107735,107935,1,0.2
Sprite,Foreground,Centre,"sb\glow.png",379,62 C,0,107917,,196,162,223 F,2,107917,108117,1,0 S,2,107917,108117,1,0.2
Sprite,Foreground,Centre,"sb\glow.png",403,440 C,0,108098,,196,162,223 F,2,108098,108298,1,0 S,2,108098,108298,1,0.2
//Storyboard Layer 4 (Overlay)
//Storyboard Sound Samples

[TimingPoints]
646,363.636363636364,4,2,1,32,1,8
3543,363.636363636364,4,2,1,32,1,8
6452,-285.714285714286,4,2,1,30,0,8
7179,-238.095238095238,4,2,1,35,0,8
7906,-222.222222222222,4,2,1,40,0,8
8633,-200,4,2,1,45,0,8
9379,363.636363636364,4,2,1,50,1,0
9379,-142.857142857143,4,2,1,50,0,0
9742,-125,4,2,1,52,0,0
10106,-125,4,2,1,54,0,0
10288,-125,4,2,1,56,0,0
10469,-125,4,2,1,58,0,0
10651,-125,4,2,1,60,0,0
10833,-125,4,2,1,62,0,0
11015,-125,4,2,1,64,0,0
11197,-125,4,2,1,66,0,0
11379,-125,4,2,1,68,0,0
11560,-125,4,2,1,70,0,0
11924,-125,4,2,1,60,0,0
12288,-86.9565217391304,4,2,99,70,0,0
12365,-86.9565217391304,4,2,1,70,0,0
13742,342.857142857143,4,2,1,70,1,8
13742,-90.9090909090909,4,2,1,70,0,8
14084,363.636363636364,4,2,1,70,1,8
14084,-90.9090909090909,4,2,1,70,0,8
15173,363.636363636364,4,2,1,70,1,8
15173,-90.9090909090909,4,2,1,70,0,8
15900,359.281437125748,4,2,1,70,1,8
15900,-86.9565217391304,4,2,1,70,0,8
16259,363.636363636364,4,2,1,70,1,8
16622,-86.9565217391304,4,2,1,70,0,8
16803,-86.9565217391304,4,2,1,60,0,8
17168,-86.9565217391304,4,2,1,70,0,8
17348,363.636363636364,4,2,1,70,1,8
17711,-100,4,2,1,60,0,8
18075,368.098159509202,4,2,1,70,1,8
19547,-90.9090909090909,4,2,1,70,0,8
20467,361.44578313253,4,2,1,60,1,0
20647,-90.9090909090909,4,2,1,60,0,0
21009,348.837209302326,4,2,1,70,1,0
21358,379.746835443038,4,2,1,60,1,0
21547,-90.9090909090909,4,2,1,70,0,0
21927,363.636363636364,4,2,1,70,1,0
22290,363.636363636364,4,2,1,70,1,0
22290,-90.9090909090909,4,2,1,70,0,0
22471,363.636363636364,4,2,1,70,1,0
23919,363.636363636364,4,2,99,70,1,0
24009,-100,4,2,1,70,0,0
28464,-100,4,2,1,50,0,0
28646,-100,4,2,1,53,0,0
28828,-100,4,2,1,56,0,0
29009,-100,4,2,1,59,0,0
29191,-100,4,2,1,62,0,0
29373,-100,4,2,1,65,0,0
29555,-100,4,2,1,68,0,0
29730,365.853658536585,4,2,1,30,1,8
29730,-125,4,2,1,30,0,8
32657,363.636363636364,4,2,1,30,1,8
32657,-125,4,2,1,30,0,8
35566,-138.888888888889,4,2,1,30,0,8
38475,-149.253731343284,4,2,1,30,0,8
39929,-200,4,2,1,30,0,8
41003,370.37037037037,4,2,1,30,1,8
41003,-200,4,2,1,30,0,8
41374,363.636363636364,4,2,1,55,1,8
44283,359.281437125748,4,2,1,55,1,8
45720,363.636363636364,4,2,1,55,1,8
47174,365.853658536585,4,2,1,55,1,8
47174,-111.111111111111,4,2,1,55,0,8
48637,363.636363636364,4,2,1,55,1,8
48637,-111.111111111111,4,2,1,55,0,8
53364,-111.111111111111,4,2,1,50,0,8
53546,-111.111111111111,4,2,1,53,0,8
53727,-111.111111111111,4,2,1,56,0,8
53909,-111.111111111111,4,2,1,59,0,8
54091,-111.111111111111,4,2,1,62,0,8
54273,-111.111111111111,4,2,1,65,0,8
54455,-111.111111111111,4,2,1,67,0,8
54637,-111.111111111111,4,2,1,68,0,8
54818,-111.111111111111,4,2,1,70,0,8
55000,-100,4,2,1,60,0,8
55182,370.37037037037,4,2,1,60,1,8
55926,363.636363636364,4,2,1,60,1,8
57370,363.636363636364,4,2,1,60,1,8
63551,382.165605095541,4,2,1,60,1,8
63933,348.837209302326,4,2,1,60,1,8
64281,363.636363636364,4,2,1,60,1,8
64644,363.636363636364,4,2,1,70,1,8
67189,-100,4,2,1,45,0,8
67561,363.636363636364,4,2,99,70,1,9
67561,-80,4,2,99,70,0,9
67648,-80,4,2,1,70,0,9
68651,-86.9565217391304,4,2,1,70,0,9
69015,352.941176470588,4,2,1,70,1,9
69015,-86.9565217391304,4,2,1,70,0,9
69897,363.636363636364,4,2,1,70,1,9
69897,-86.9565217391304,4,2,1,70,0,9
70442,363.636363636364,4,2,1,70,1,9
70442,-86.9565217391304,4,2,1,70,0,9
73351,389.61038961039,4,2,1,70,1,9
73351,-86.9565217391304,4,2,1,70,0,9
73740,363.636363636364,4,2,1,70,1,1
73921,-86.9565217391304,4,2,1,70,0,1
74285,350.877192982456,4,2,1,70,1,1
74460,-86.9565217391304,4,2,1,70,0,1
74811,363.636363636364,4,2,1,70,1,1
75174,-86.9565217391304,4,2,1,70,0,1
75538,-62.5,4,2,1,70,0,1
75798,-62.5,4,2,1,5,0,1
75901,379.746835443038,4,2,1,80,1,9
75901,-62.5,4,2,1,80,0,9
76161,-62.5,4,2,1,5,0,9
76281,363.636363636364,4,2,1,80,1,9
76281,-83.3333333333333,4,2,1,80,0,9
78281,-83.3333333333333,4,2,1,60,0,9
78358,-83.3333333333333,4,2,1,63,0,9
78464,363.636363636364,4,2,1,60,1,1
78464,-83.3333333333333,4,2,1,60,0,1
78544,-83.3333333333333,4,2,1,69,0,1
78635,-83.3333333333333,4,2,1,72,0,1
78736,-83.3333333333333,4,2,1,50,0,1
78827,-83.3333333333333,4,2,1,52,0,1
78918,-83.3333333333333,4,2,1,54,0,1
79009,-83.3333333333333,4,2,1,56,0,1
79100,-83.3333333333333,4,2,1,58,0,1
79190,363.636363636364,4,2,99,80,1,1
79190,-83.3333333333333,4,2,99,80,0,1
79280,-83.3333333333333,4,2,1,80,0,1
85008,-100,4,2,1,75,0,0
86481,357.142857142857,4,2,1,75,1,8
86659,-111.111111111111,4,2,1,75,0,8
87017,363.636363636364,4,2,1,75,1,0
87198,363.636363636364,4,2,1,75,1,0
87198,-111.111111111111,4,2,1,75,0,0
87924,363.636363636364,4,2,1,75,1,0
87924,-111.111111111111,4,2,1,75,0,0
90833,-111.111111111111,4,2,1,75,0,1
91560,-90.9090909090909,4,2,1,77,0,1
91924,-83.3333333333333,4,2,1,79,0,1
92273,363.636363636364,4,2,1,83,1,9
92636,-100,4,2,1,85,0,9
93000,-100,4,2,1,87,0,9
93363,-100,4,2,1,89,0,9
93727,-100,4,2,1,92,0,9
94818,-100,4,2,1,80,0,9
95183,370.37037037037,4,2,1,90,1,9
96672,359.281437125748,4,2,1,70,1,8
98109,363.636363636364,4,2,1,70,1,8
101352,363.636363636364,4,2,1,70,1,8
101910,363.636363636364,4,2,1,50,1,8
102446,379.746835443038,4,2,1,70,1,8
102827,363.636363636364,4,2,1,70,1,8
103917,363.636363636364,4,2,1,70,1,8
105371,-100,4,2,1,70,0,9
106098,-100,4,2,1,72,0,9
106462,-100,4,2,1,74,0,9
106826,-100,4,2,1,76,0,9
107007,-100,4,2,1,78,0,9
107189,-100,4,2,1,80,0,9
107371,-100,4,2,1,82,0,9
107553,-100,4,2,1,84,0,9
107735,-100,4,2,1,86,0,9
107917,-100,4,2,1,88,0,9
108098,-100,4,2,1,90,0,9
109015,363.636363636364,4,2,99,80,1,8
116742,-100,4,2,1,80,0,8
116838,319.148936170213,4,2,1,70,1,0
116838,-129.87012987013,4,2,1,70,0,0

[Colours]
Combo1 : 199,109,166
Combo2 : 224,130,124
Combo3 : 220,166,126
Combo4 : 222,203,124
Combo5 : 196,162,223

[HitObjects]
106,71,6452,6,0,L|100:155,1,83.9999999999999,2|0,2:0|2:0,2:0:0:0:
38,265,7179,2,0,B|70:242|70:242|145:249,1,100.8,2|0,2:0|2:0,2:0:0:0:
198,323,7906,2,0,L|310:308,1,108,2|0,2:0|2:0,2:0:0:0:
425,255,8633,2,0,B|407:305|407:305|426:368,1,120,2|0,2:0|2:0,2:0:0:0:
495,171,9379,6,0,L|439:179,1,55.9999999999999,2|0,3:0|2:0,2:0:0:0:
394,74,9742,2,0,L|336:104,1,64,0|0,3:0|2:0,2:0:0:0:
205,97,10106,5,0,3:0:0:0:
225,21,10288,1,0,3:0:0:0:
112,197,10469,5,0,3:0:0:0:
290,156,10651,1,0,3:0:0:0:
137,283,10833,5,8,3:2:0:0:
86,111,11015,1,8,3:2:0:0:
272,237,11197,5,8,3:2:0:0:
305,70,11379,1,8,2:0:0:0:
424,295,11560,5,12,2:0:0:0:
393,109,11742,1,8,2:0:0:0:
358,353,11924,5,8,2:0:0:0:
386,375,12015,1,8,2:0:0:0:
420,383,12106,1,8,2:0:0:0:
455,375,12197,1,8,2:0:0:0:
484,355,12288,6,0,P|501:289|400:217,1,184,12|8,2:0|2:0,2:0:0:0:
340,318,12833,1,0,2:0:0:0:
313,118,13015,2,0,B|330:100|355:92|355:92|385:103|414:129,1,92,2|0,3:0|2:0,2:0:0:0:
308,217,13379,2,0,P|261:223|211:212,1,92,8|0,2:0|2:0,2:0:0:0:
40,59,13742,6,0,L|47:146,1,88,2|0,3:0|2:0,2:0:0:0:
132,296,14084,2,0,L|139:208,1,88,10|0,2:0|2:0,2:0:0:0:
205,47,14447,2,0,B|184:30|166:25|166:25|125:39|105:66,1,88,2|0,3:0|2:0,2:0:0:0:
229,178,14811,2,0,L|326:170,1,88,10|0,2:0|2:0,2:0:0:0:
489,88,15173,6,0,L|472:263,1,176,2|8,3:0|2:0,2:0:0:0:
512,355,15718,1,0,2:0:0:0:
394,236,15900,2,0,B|376:218|352:212|352:212|325:219|307:237,1,92,0|0,3:0|2:0,2:0:0:0:
240,340,16259,1,8,2:0:0:0:
175,173,16440,1,0,2:0:0:0:
175,173,16531,1,0,2:0:0:0:
175,173,16622,6,0,L|168:268,1,92,2|8,3:0|2:0,2:0:0:0:
166,306,16895,1,8,2:0:0:0:
166,306,16986,1,10,2:0:0:0:
82,205,17168,1,0,3:0:0:0:
273,267,17348,2,0,L|274:313,2,40,2|0|0,3:0|3:0|3:0,2:0:0:0:
271,77,17711,1,10,2:0:0:0:
241,50,17802,1,8,2:0:0:0:
202,40,17893,1,8,2:0:0:0:
164,49,17984,1,8,2:0:0:0:
135,69,18075,6,0,P|119:109|112:160,1,80,14|0,2:0|2:0,2:0:0:0:
335,228,18443,2,0,P|308:194|267:162,1,80,10|0,2:0|2:0,2:0:0:0:
91,333,18811,2,0,B|186:339|151:260|248:267,1,160,2|8,3:0|2:0,2:0:0:0:
472,282,19363,1,2,2:0:0:0:
472,282,19455,1,2,2:0:0:0:
472,282,19547,6,0,P|478:330|463:383,1,88,2|0,3:0|2:0,2:0:0:0:
368,231,19915,2,0,P|364:178|377:130,1,88,10|0,2:0|2:0,2:0:0:0:
498,19,20283,1,2,3:0:0:0:
333,130,20467,5,8,2:0:0:0:
298,122,20557,1,8,2:0:0:0:
264,113,20647,2,0,L|204:102,1,44,8|8,2:0|2:0,2:0:0:0:
154,260,20828,2,0,L|129:216,1,44,8|8,2:0|2:0,2:0:0:0:
11,87,21009,5,14,2:0:0:0:
2,280,21183,2,0,L|-2:331,2,40.2293333333333,8|8|8,2:0|2:0|2:0,2:0:0:0:
231,178,21547,6,0,B|313:177|282:249|387:237,1,132,14|0,2:0|2:0,2:0:0:0:
381,241,21927,1,10,2:0:0:0:
339,70,22108,1,10,2:0:0:0:
229,266,22290,6,0,B|205:304|205:304|103:318,1,131.51600402832,14|0,2:0|2:0,2:0:0:0:
73,324,22652,1,10,2:0:0:0:
131,124,22834,1,10,2:0:0:0:
299,360,23016,5,14,2:0:0:0:
231,25,23380,1,10,2:0:0:0:
462,307,23919,6,0,P|427:320|377:316,1,80,12|0,2:0|2:0,2:0:0:0:
361,173,24282,2,0,P|396:160|446:164,1,80,8|0,2:0|2:0,2:0:0:0:
475,331,24646,2,0,P|428:347|363:342,1,80,0|0,3:0|2:0,2:0:0:0:
342,154,25009,2,0,P|387:136|452:141,1,80,8|0,2:0|2:0,2:0:0:0:
264,324,25373,6,0,B|180:326|220:237|100:253,1,160,2|8,3:0|2:0,2:0:0:0:
14,372,25919,2,0,B|47:330|47:330|33:212,1,160,2|0,2:0|2:0,2:0:0:0:
42,51,26464,2,0,P|18:95|33:159,1,80,10|0,2:0|2:0,2:0:0:0:
238,81,26828,6,0,P|211:38|148:19,1,80,2|0,3:0|2:0,2:0:0:0:
117,232,27191,2,0,P|167:230|215:185,1,80,8|0,2:0|2:0,2:0:0:0:
322,65,27555,2,0,P|372:66|421:108,1,80,0|0,3:0|2:0,2:0:0:0:
319,270,27919,1,10,2:0:0:0:
496,164,28100,6,0,L|416:168,1,80,6|0,3:0|2:0,2:0:0:0:
240,168,28464,1,2,3:0:0:0:
414,271,28646,1,2,3:0:0:0:
209,274,28828,1,2,3:0:0:0:
416,170,29009,1,10,2:0:0:0:
179,367,29191,1,10,2:0:0:0:
265,74,29373,1,10,2:0:0:0:
415,368,29555,1,10,2:0:0:0:
209,274,29730,6,0,P|172:272|132:287,1,64,2|2,2:0|2:0,2:0:0:0:
30,344,30095,2,0,P|50:312|56:273,1,64,2|2,2:0|2:0,2:0:0:0:
44,162,30461,2,0,B|73:190|73:190|124:195|164:167,1,128,2|2,2:0|2:0,2:0:0:0:
227,88,31010,1,2,2:0:0:0:
330,157,31193,6,0,P|323:101|380:34,1,128,2|2,2:0|2:0,2:0:0:0:
431,127,31742,2,0,L|422:218,1,64,2|0,2:0|2:0,2:0:0:0:
346,296,32108,2,0,L|344:208,1,64,2|0,2:0|2:0,2:0:0:0:
455,313,32473,1,2,2:0:0:0:
287,371,32657,6,0,L|196:362,1,64,2|2,2:0|2:0,2:0:0:0:
163,247,33020,2,0,L|226:243,1,64,2|2,2:0|2:0,2:0:0:0:
114,348,33384,1,2,2:0:0:0:
52,253,33566,1,2,2:0:0:0:
0,353,33747,1,2,2:0:0:0:
52,219,33929,6,0,L|52:149,1,64,2|0,2:0|2:0,2:0:0:0:
54,53,34293,1,2,2:0:0:0:
146,116,34475,1,2,2:0:0:0:
241,49,34657,2,0,P|268:31|298:22,1,64,2|0,2:0|2:0,2:0:0:0:
420,145,35020,2,0,P|360:125|299:140,1,128,2|0,2:0|2:0,2:0:0:0:
367,32,35566,6,0,L|357:211,1,172.8,2|0,2:0|2:0,2:0:0:0:
439,355,36293,2,0,L|448:182,1,172.8,2|0,2:0|2:0,2:0:0:0:
341,311,37020,6,0,B|281:309|275:261|269:221|206:221,1,172.8,2|0,2:0|2:0,2:0:0:0:
64,324,37747,2,0,P|127:338|194:305,1,115.2,2|0,2:0|2:0,2:0:0:0:
53,77,38475,6,0,P|45:174|135:254,1,214.399999999999,2|0,2:0|2:0,2:0:0:0:
205,200,39384,1,2,2:0:0:0:
259,272,39566,1,2,2:0:0:0:
329,216,39747,1,2,2:0:0:0:
404,282,39929,6,0,L|455:287,1,40,0|0,2:0|2:0,2:0:0:0:
445,209,40293,2,0,L|484:212,1,40,0|0,2:0|2:0,2:0:0:0:
478,100,40657,2,0,L|475:153,1,40,0|0,2:0|2:0,2:0:0:0:
414,32,41003,2,0,L|356:26,1,40,6|0,2:0|2:0,2:0:0:0:
235,118,41374,5,2,3:0:0:0:
291,27,41555,1,2,2:0:0:0:
181,28,41737,1,2,3:0:0:0:
325,141,41919,2,0,P|303:190|254:205,1,80,2|0,2:0|3:0,2:0:0:0:
164,187,42283,1,2,2:0:0:0:
181,366,42464,1,2,3:0:0:0:
117,281,42646,1,2,2:0:0:0:
299,341,42828,5,0,3:0:0:0:
329,233,43010,1,2,2:0:0:0:
424,299,43192,1,2,3:0:0:0:
349,127,43374,2,0,P|337:164|345:203,1,80,2|0,2:0|3:0,2:0:0:0:
471,105,43737,2,0,P|483:68|473:24,1,80,2|0,2:0|3:0,2:0:0:0:
349,127,44101,1,2,2:0:0:0:
254,25,44283,6,0,L|157:31,1,80,2|0,3:0|2:0,2:0:0:0:
97,138,44642,2,0,L|176:133,1,80,2|0,3:0|2:0,2:0:0:0:
45,52,45001,1,2,3:0:0:0:
37,211,45181,1,2,2:0:0:0:
176,133,45360,1,2,3:0:0:0:
217,288,45540,2,0,L|193:191,1,80.4453333333333,2|0,2:0|3:0,2:0:0:0:
172,376,45901,5,2,2:0:0:0:
108,295,46083,1,2,3:0:0:0:
12,369,46265,2,0,P|-4:321|15:262,1,80,2|0,2:0|3:0,2:0:0:0:
140,140,46629,1,2,2:0:0:0:
48,208,46810,1,0,3:0:0:0:
80,56,46992,1,0,2:0:0:0:
216,215,47174,6,0,P|287:251|368:235,1,144,6|0,3:0|3:0,2:0:0:0:
417,166,47722,1,0,2:0:0:0:
311,11,47905,2,0,L|297:161,1,144,2|0,3:0|3:0,2:0:0:0:
288,243,48454,1,0,2:0:0:0:
125,155,48637,6,0,P|166:127|206:125,1,72.0000000000001,2|0,3:0|2:0,2:0:0:0:
105,251,49000,2,0,P|61:228|42:196,1,72.0000000000001,0|0,3:0|2:0,2:0:0:0:
200,221,49364,2,0,B|222:260|207:290|190:306|163:331|192:375,1,144,2|0,3:0|3:0,2:0:0:0:
282,346,49909,1,0,2:0:0:0:
449,370,50091,6,0,L|433:226,1,144,2|0,3:0|3:0,2:0:0:0:
488,134,50637,1,0,2:0:0:0:
290,53,50818,2,0,P|360:26|430:52,1,144,2|0,3:0|3:0,2:0:0:0:
361,125,51364,1,0,2:0:0:0:
221,6,51546,6,0,L|71:32,1,144,2|0,3:0|3:0,2:0:0:0:
11,115,52091,1,0,2:0:0:0:
198,214,52273,2,0,P|190:136|140:98,1,144,2|0,3:0|3:0,2:0:0:0:
95,191,52818,1,0,2:0:0:0:
313,227,53000,5,6,3:2:0:0:
364,152,53364,5,0,3:0:0:0:
218,211,53546,1,0,3:0:0:0:
343,309,53727,5,0,3:0:0:0:
273,134,53909,1,0,3:0:0:0:
242,321,54091,5,0,3:0:0:0:
420,249,54273,1,0,3:0:0:0:
143,184,54455,5,0,3:0:0:0:
373,379,54637,1,0,3:0:0:0:
406,92,54818,1,4,3:0:0:0:
312,205,55000,2,0,L|315:246,2,40.18,8|8|8,2:0|2:0|2:0,2:0:0:0:
150,40,55367,5,0,3:0:0:0:
269,120,55552,1,0,3:0:0:0:
143,184,55737,1,0,3:0:0:0:
266,30,55926,6,0,P|319:41|352:81,1,80,4|0,3:0|2:0,2:0:0:0:
214,211,56289,2,0,P|161:200|128:160,1,80,2|0,3:0|2:0,2:0:0:0:
50,30,56653,2,0,L|62:116,1,80,10|0,2:0|2:0,2:0:0:0:
0,294,57016,2,0,L|11:214,1,80,2|0,2:0|2:0,2:0:0:0:
83,360,57370,5,0,3:0:0:0:
0,294,57551,1,8,2:0:0:0:
203,275,57733,2,0,P|214:327|193:372,1,80,2|0,3:0|2:0,2:0:0:0:
121,227,58097,2,0,P|157:186|208:178,1,80,10|0,2:0|2:0,2:0:0:0:
291,341,58460,2,0,P|331:359|379:351,1,80,2|8,2:0|2:0,2:0:0:0:
352,186,58824,6,0,L|342:284,1,80,2|0,3:0|2:0,2:0:0:0:
480,164,59188,2,0,L|488:84,1,80,2|0,3:0|2:0,2:0:0:0:
327,86,59551,2,0,P|364:105|408:103,1,80,10|0,2:0|2:0,2:0:0:0:
282,0,59915,1,2,3:0:0:0:
258,159,60097,5,8,2:0:0:0:
261,162,60188,1,8,2:0:0:0:
265,166,60279,1,0,3:0:0:0:
109,38,60460,1,10,2:0:0:0:
127,29,60551,1,2,2:0:0:0:
144,19,60642,1,2,2:0:0:0:
121,242,60824,1,0,3:0:0:0:
26,70,61006,1,14,2:0:0:0:
154,128,61188,1,8,2:0:0:0:
29,218,61370,5,8,2:0:0:0:
34,249,61460,1,8,2:0:0:0:
40,280,61551,1,8,2:0:0:0:
43,311,61642,1,8,2:0:0:0:
46,342,61733,5,2,3:0:0:0:
247,56,62097,5,8,2:0:0:0:
332,336,62460,5,0,3:0:0:0:
231,299,62642,1,0,3:0:0:0:
411,276,62824,1,8,2:0:0:0:
137,140,63188,5,2,3:0:0:0:
106,358,63551,1,8,2:0:0:0:
411,90,63933,5,2,3:0:0:0:
299,138,64107,1,0,3:0:0:0:
482,179,64281,1,8,2:0:0:0:
299,138,64462,2,0,L|293:185,1,40,0|0,3:0|3:0,2:0:0:0:
283,272,64644,5,10,2:0:0:0:
218,111,64825,1,0,3:0:0:0:
209,329,65007,5,8,2:0:0:0:
296,53,65189,1,0,3:0:0:0:
292,361,65371,5,8,2:0:0:0:
209,20,65553,1,0,3:0:0:0:
58,285,65734,5,10,2:0:0:0:
97,277,65825,1,10,2:0:0:0:
136,268,65916,1,10,2:0:0:0:
175,259,66007,1,10,2:0:0:0:
214,251,66098,1,14,2:0:0:0:
464,72,67189,6,0,L|457:129,1,40,2|2,2:0|2:0,2:0:0:0:
376,296,67371,2,0,L|371:256,1,40,2|2,2:0|2:0,2:0:0:0:
509,184,67561,6,0,B|413:239|412:112|284:208,1,200,14|8,2:0|2:0,2:0:0:0:
200,384,68106,1,0,2:0:0:0:
376,296,68288,1,0,3:0:0:0:
240,239,68470,1,0,3:0:0:0:
368,376,68651,2,0,P|424:364|448:328,1,92,10|0,2:0|2:0,2:0:0:0:
417,145,69015,6,0,L|507:159,1,92,2|0,3:0|3:0,2:0:0:0:
313,223,69367,1,10,2:0:0:0:
352,51,69544,2,0,P|396:28|456:45,1,92,2|0,2:0|3:0,2:0:0:0:
247,102,69897,2,0,L|156:87,1,92,2|8,3:0|2:0,2:0:0:0:
0,122,70260,1,2,2:0:0:0:
66,8,70442,6,0,L|84:192,1,184.000003509522,0|8,3:0|2:0,2:0:0:0:
84,384,70987,1,0,2:0:0:0:
2,262,71169,1,0,3:0:0:0:
193,329,71351,1,0,3:0:0:0:
288,144,71532,2,0,P|266:179|281:245,1,92,10|0,2:0|2:0,2:0:0:0:
399,96,71896,6,0,L|405:2,1,92,2|0,3:0|3:0,2:0:0:0:
386,209,72260,1,10,2:0:0:0:
288,144,72442,1,2,2:0:0:0:
497,158,72623,1,0,3:0:0:0:
258,289,72805,5,14,2:0:0:0:
399,96,72987,1,12,2:0:0:0:
489,322,73169,1,2,2:0:0:0:
169,192,73351,6,0,L|55:204,1,92,4|0,3:0|2:0,2:0:0:0:
152,328,73740,1,8,2:0:0:0:
210,116,73921,2,0,P|166:103|118:121,1,92,0|0,2:0|3:0,2:0:0:0:
26,265,74285,1,0,3:0:0:0:
169,192,74460,2,0,L|268:205,1,92,8|0,2:0|2:0,2:0:0:0:
445,223,74811,5,0,3:0:0:0:
357,335,74992,1,0,3:0:0:0:
384,145,75174,2,0,P|451:123|501:143,1,92,8|0,2:0|2:0,2:0:0:0:
157,15,75538,6,0,P|127:83|160:212,1,192,6|0,3:0|2:0,2:0:0:0:
152,199,75901,6,0,P|108:139|-14:107,1,192,6|0,3:0|2:0,2:0:0:0:
0,105,76281,6,0,P|75:96|164:1,1,192,6|8,3:0|2:0,2:0:0:0:
33,220,76826,1,2,2:0:0:0:
211,108,77008,2,0,B|327:100|282:192|392:191,1,192,2|8,3:0|2:0,2:0:0:0:
397,82,77553,1,2,2:0:0:0:
230,193,77735,6,0,L|219:403,1,192,2|8,3:0|2:0,2:0:0:0:
129,317,78281,2,0,L|52:302,1,48,8|8,2:0|2:0,2:0:0:0:
16,208,78464,2,0,P|76:215|123:187,1,96,8|8,3:2|2:0,2:0:0:0:
134,181,78736,1,8,2:0:0:0:
149,151,78827,1,8,2:0:0:0:
165,121,78918,1,8,2:0:0:0:
178,90,79009,1,8,2:0:0:0:
190,58,79100,1,8,2:0:0:0:
204,27,79190,6,0,L|310:20,1,96,12|0,2:0|2:0,2:0:0:0:
470,136,79553,2,0,L|374:129,1,96,8|0,2:0|2:0,2:0:0:0:
297,330,79917,2,0,L|392:323,1,96,0|0,3:0|2:0,2:0:0:0:
314,237,80280,2,0,L|219:230,1,96,10|0,2:0|2:0,2:0:0:0:
31,359,80644,6,0,P|53:316|63:269,1,96,2|0,3:0|2:0,2:0:0:0:
40,155,81008,1,10,2:0:0:0:
169,49,81190,2,0,L|264:56,1,96,2|0,2:0|3:0,2:0:0:0:
365,137,81553,2,0,L|270:144,1,96,2|8,2:0|2:0,2:0:0:0:
167,224,81917,1,2,2:0:0:0:
340,337,82099,6,0,L|327:218,1,96,0|0,3:0|2:0,2:0:0:0:
446,125,82462,2,0,L|433:244,1,96,8|0,2:0|2:0,2:0:0:0:
398,55,82826,2,0,B|413:39|438:28|438:28|472:32|509:58,1,96,0|0,3:0|2:0,2:0:0:0:
333,127,83190,1,10,2:0:0:0:
287,51,83371,1,2,2:0:0:0:
244,236,83553,6,0,L|121:224,1,96,0|0,3:0|2:0,2:0:0:0:
29,297,83917,1,10,2:0:0:0:
44,163,84099,1,2,2:0:0:0:
44,163,84190,1,0,3:0:0:0:
44,163,84280,1,0,3:0:0:0:
128,316,84462,5,2,3:0:0:0:
233,148,84644,1,0,3:0:0:0:
37,146,84826,1,2,3:0:0:0:
131,343,85008,6,0,B|224:344|187:275|294:280,1,160,4|0,3:0|3:0,2:0:0:0:
381,313,85553,1,0,3:0:0:0:
381,313,85735,2,0,P|360:264|355:215,1,80,8|0,2:0|2:0,2:0:0:0:
320,115,86099,2,0,P|254:125|193:76,1,120,0|0,2:0|2:0,2:0:0:0:
135,31,86481,5,2,3:0:0:0:
122,124,86659,2,0,P|119:155|102:202,1,72.0000000000001,8|0,2:0|2:0,2:0:0:0:
52,291,87017,1,0,3:0:0:0:
52,291,87198,2,0,P|97:273|137:281,1,72.0000000000001,8|0,2:0|2:0,2:0:0:0:
270,367,87561,1,2,2:0:0:0:
292,207,87743,1,8,2:0:0:0:
292,207,87924,6,0,P|362:253|419:232,1,144,0|2,3:0|2:0,2:0:0:0:
370,150,88469,1,0,3:0:0:0:
224,258,88651,2,0,L|132:268,1,72.0000000000001,8|0,2:0|2:0,2:0:0:0:
12,114,89014,2,0,L|83:121,1,72.0000000000001,2|8,2:0|2:0,2:0:0:0:
119,127,89287,1,8,2:0:0:0:
123,131,89378,5,2,3:0:0:0:
0,215,89560,1,8,2:0:0:0:
92,15,89742,1,0,2:0:0:0:
210,191,89924,1,0,3:0:0:0:
0,215,90105,2,0,L|76:207,1,72.0000000000001,8|0,2:0|3:0,2:0:0:0:
313,197,90469,1,10,3:0:0:0:
251,301,90651,1,10,3:0:0:0:
183,197,90833,6,0,L|189:120,1,72.0000000000001,4|0,3:0|2:0,2:0:0:0:
351,51,91196,2,0,L|361:137,1,72.0000000000001,0|0,3:0|2:0,2:0:0:0:
164,215,91560,6,0,L|175:124,1,88,0|0,3:0|3:0,2:0:0:0:
361,28,91924,2,0,L|377:128,1,96,0|0,3:0|3:0,2:0:0:0:
422,313,92273,5,8,2:0:0:0:
332,180,92454,1,8,2:0:0:0:
266,378,92636,5,8,2:0:0:0:
379,249,92818,1,8,2:0:0:0:
132,259,93000,5,8,2:0:0:0:
334,314,93182,1,8,2:0:0:0:
349,85,93363,5,8,2:0:0:0:
231,287,93545,1,8,2:0:0:0:
115,44,93727,5,12,2:0:0:0:
307,159,93909,1,0,3:0:0:0:
29,225,94091,1,0,3:0:0:0:
274,50,94273,5,12,2:0:0:0:
157,337,94454,1,0,3:0:0:0:
32,59,94636,1,0,3:0:0:0:
289,237,94818,6,0,L|210:246,1,80,14|0,2:0|2:0,2:0:0:0:
0,203,95183,2,0,P|39:230|71:323,1,120,14|0,2:0|2:0,2:0:0:0:
73,323,95553,1,10,2:0:0:0:
258,97,95738,1,10,2:0:0:0:
468,309,96108,1,10,2:0:0:0:
322,248,96479,1,10,2:0:0:0:
314,88,96672,6,0,L|319:194,1,80,6|0,3:0|2:0,2:0:0:0:
199,282,97031,2,0,L|202:202,1,80,8|0,2:0|2:0,2:0:0:0:
318,358,97390,2,0,P|282:369|219:346,1,80,0|0,3:0|2:0,2:0:0:0:
322,212,97749,2,0,P|358:201|421:224,1,80,8|0,2:0|2:0,2:0:0:0:
196,142,98109,6,0,B|148:132|114:143|114:143|84:181|34:177,1,160,2|8,3:0|2:0,2:0:0:0:
254,75,98654,2,0,P|282:136|228:229,1,160,2|0,2:0|2:0,2:0:0:0:
106,282,99199,2,0,L|221:287,1,80,10|0,2:0|2:0,2:0:0:0:
358,340,99563,6,0,L|349:260,1,80,2|0,3:0|2:0,2:0:0:0:
463,82,99927,2,0,L|454:161,1,80,8|0,2:0|2:0,2:0:0:0:
329,367,100290,2,0,L|320:287,1,80,0|0,3:0|2:0,2:0:0:0:
492,63,100654,2,0,L|483:142,1,80,8|0,2:0|2:0,2:0:0:0:
239,245,101018,6,0,P|307:192|402:224,1,147,2|8,3:0|2:0,2:0:0:0:
170,345,101533,2,0,L|126:354,2,40,2|0|8,2:0|2:0|3:2,2:0:0:0:
112,126,101910,5,8,2:0:0:0:
77,145,102000,1,8,2:0:0:0:
58,180,102091,1,10,2:0:0:0:
60,219,102182,1,8,2:0:0:0:
82,252,102273,1,8,2:0:0:0:
118,269,102364,1,8,2:0:0:0:
152,269,102446,6,0,L|255:257,1,80,2|0,3:0|2:0,2:0:0:0:
193,90,102827,2,0,L|205:193,1,80,8|0,2:0|2:0,2:0:0:0:
369,140,103190,2,0,L|266:152,1,80,0|0,3:0|2:0,2:0:0:0:
320,330,103554,2,0,L|308:227,1,80,8|0,2:0|2:0,2:0:0:0:
464,14,103917,6,0,L|450:181,1,160,2|8,3:0|2:0,2:0:0:0:
287,33,104462,1,2,2:0:0:0:
287,33,104644,2,0,L|386:23,1,80,0|0,3:0|2:0,2:0:0:0:
273,175,105007,2,0,L|193:166,1,80,10|0,2:0|2:0,2:0:0:0:
166,6,105371,6,0,P|177:48|155:97,1,80,6|0,3:0|2:0,2:0:0:0:
114,193,105735,5,8,2:0:0:0:
80,47,105917,1,0,2:0:0:0:
248,147,106098,5,0,3:0:0:0:
96,117,106280,1,0,2:0:0:0:
296,38,106462,5,8,2:0:0:0:
223,220,106644,1,0,2:0:0:0:
434,17,106826,5,2,3:0:0:0:
174,62,107007,1,0,3:0:0:0:
460,195,107189,5,0,3:0:0:0:
92,128,107371,1,0,3:0:0:0:
468,278,107553,5,10,2:0:0:0:
75,335,107735,1,10,2:0:0:0:
315,6,107917,5,10,2:0:0:0:
339,384,108098,1,10,2:0:0:0:
256,192,109015,5,12,2:0:0:0:
256,192,109196,12,0,116742,2:0:0:0:
88,333,116838,6,0,L|39:344,3,30.8,0|0|0|0,3:0|3:0|3:0|3:0,2:0:0:0:
