osu file format v14

[General]
AudioFilename: audio.mp3
AudioLeadIn: 0
PreviewTime: 65845
Countdown: 1
SampleSet: Normal
StackLeniency: 0.7
Mode: 0
LetterboxInBreaks: 0
WidescreenStoryboard: 0

[Editor]
DistanceSpacing: 0.6
BeatDivisor: 4
GridSize: 4
TimelineZoom: 1.900002

[Metadata]
Title:Irony (Asterisk DnB Remix)
TitleUnicode:Irony (Asterisk DnB Remix)
Artist:ClariS
ArtistUnicode:ClariS
Creator:freshpipzz
Version:Extra
Source:
Tags:
BeatmapID:1066428
BeatmapSetID:501079

[Difficulty]
HPDrainRate:5
CircleSize:4.3
OverallDifficulty:9
ApproachRate:9
SliderMultiplier:1.4
SliderTickRate:1

[Events]
//Background and Video events
//Break Periods
2,21131,60102
2,65960,71931
2,91417,175302
2,178160,214388
2,215531,226388
2,227402,252102
//Storyboard Layer 0 (Background)
//Storyboard Layer 1 (Fail)
//Storyboard Layer 2 (Pass)
//Storyboard Layer 3 (Foreground)
//Storyboard Sound Samples

[TimingPoints]
360,342.857142857143,4,1,0,100,1,0
64645,-133.333333333333,4,1,0,100,0,0
65331,-100,4,1,0,100,0,0
65845,-100,4,1,0,100,0,1
82645,-100,4,1,0,100,0,0
88131,-100,4,1,0,100,0,1
110074,-100,4,1,0,100,0,0
131674,-100,4,1,0,100,0,1
142302,-100,4,1,0,100,0,0
153960,-100,4,1,0,100,0,0
208817,-100,4,1,0,100,0,1
215074,-100,4,1,0,100,0,1
215245,-100,4,1,0,100,0,1
252702,-100,4,2,0,35,0,0
263674,-100,4,1,0,30,0,0
265045,-100,4,1,0,30,0,0
266417,-100,4,1,0,25,0,0
267788,-100,4,1,0,20,0,0
269160,-100,4,1,0,20,0,0
270531,-100,4,1,0,15,0,0
271902,-100,4,1,0,10,0,0
273274,-100,4,1,0,5,0,0

[Colours]
Combo1 : 255,128,64
Combo2 : 255,0,66
Combo3 : 141,123,196

[HitObjects]
96,116,10989,5,0,0:0:0:0:
256,264,11160,1,0,0:0:0:0:
208,136,11331,2,0,L|308:148,1,70
124,248,11674,1,0,0:0:0:0:
360,108,11845,2,0,L|432:164,1,70
108,68,12188,2,0,L|188:100,1,70
232,284,12531,5,0,0:0:0:0:
196,200,12702,1,0,0:0:0:0:
312,116,12874,2,0,L|392:148,1,70
100,92,13217,2,0,L|172:108,2,70
208,184,13731,6,0,L|352:232,1,140
272,96,14245,2,0,L|184:92,2,70
108,72,19560,1,0,0:0:0:0:
97,105,19645,1,0,0:0:0:0:
94,139,19731,1,0,0:0:0:0:
100,174,19817,1,0,0:0:0:0:
114,206,19902,1,0,0:0:0:0:
136,233,19988,1,0,0:0:0:0:
164,254,20074,1,0,0:0:0:0:
196,268,20160,1,0,0:0:0:0:
230,274,20245,1,0,0:0:0:0:
265,271,20331,1,0,0:0:0:0:
298,260,20417,1,0,0:0:0:0:
327,241,20502,1,0,0:0:0:0:
351,215,20588,1,0,0:0:0:0:
368,185,20674,1,0,0:0:0:0:
377,151,20760,1,0,0:0:0:0:
377,116,20845,1,0,0:0:0:0:
369,82,20931,1,0,0:0:0:0:
292,120,60702,6,0,L|372:172,1,70
224,260,61045,2,0,L|140:212,1,70
220,96,61388,2,0,L|160:172,1,70
288,288,61731,2,0,L|340:212,1,70
96,124,62074,6,0,L|176:176,1,70
400,304,62417,2,0,L|316:256,1,70
336,56,62760,2,0,L|276:136,1,70
148,308,63103,2,0,L|200:244,1,70
328,252,63445,1,0,0:0:0:0:
192,80,63617,1,0,0:0:0:0:
184,248,63788,5,0,0:0:0:0:
328,132,63960,1,0,0:0:0:0:
108,128,64131,5,0,0:0:0:0:
324,216,64303,1,0,0:0:0:0:
260,40,64474,5,0,0:0:0:0:
128,168,64645,2,0,P|96:292|148:344,1,210.000008010865
176,252,65502,1,0,0:0:0:0:
184,256,65588,1,0,0:0:0:0:
192,256,65674,1,0,0:0:0:0:
200,256,65760,1,0,0:0:0:0:
56,172,72531,5,0,0:0:0:0:
440,88,72874,1,0,0:0:0:0:
268,256,73217,1,0,0:0:0:0:
260,40,73388,1,0,0:0:0:0:
56,244,73560,1,0,0:0:0:0:
384,192,73902,1,0,0:0:0:0:
216,276,74074,1,0,0:0:0:0:
224,132,74245,1,0,0:0:0:0:
156,200,74674,1,0,0:0:0:0:
240,272,74845,1,0,0:0:0:0:
372,152,75188,1,0,0:0:0:0:
116,52,75531,1,0,0:0:0:0:
116,52,75617,1,0,0:0:0:0:
112,208,75960,1,0,0:0:0:0:
320,232,76302,1,0,0:0:0:0:
240,108,76902,1,0,0:0:0:0:
40,156,77074,1,0,0:0:0:0:
116,348,77245,1,0,0:0:0:0:
460,180,77588,1,0,0:0:0:0:
344,112,77760,1,0,0:0:0:0:
216,48,78017,1,0,0:0:0:0:
96,176,78360,1,0,0:0:0:0:
372,280,78702,1,0,0:0:0:0:
364,220,78874,1,0,0:0:0:0:
364,92,79131,1,0,0:0:0:0:
196,64,79302,1,0,0:0:0:0:
88,120,79474,1,0,0:0:0:0:
116,264,79731,1,0,0:0:0:0:
196,336,79902,1,0,0:0:0:0:
420,40,80417,1,0,0:0:0:0:
116,64,80760,1,0,0:0:0:0:
352,324,81017,1,0,0:0:0:0:
392,56,81360,1,0,0:0:0:0:
248,148,82731,1,0,0:0:0:0:
24,300,82988,1,0,0:0:0:0:
428,72,83331,1,0,0:0:0:0:
272,304,83674,1,0,0:0:0:0:
136,68,83931,1,0,0:0:0:0:
112,264,84274,1,0,0:0:0:0:
372,176,84702,1,0,0:0:0:0:
156,124,85045,1,0,0:0:0:0:
440,88,85388,1,0,0:0:0:0:
88,280,85731,1,0,0:0:0:0:
408,256,86074,1,0,0:0:0:0:
344,148,86331,1,0,0:0:0:0:
72,260,86502,1,0,0:0:0:0:
416,192,86674,1,0,0:0:0:0:
180,88,87017,1,0,0:0:0:0:
396,140,87274,1,0,0:0:0:0:
180,256,87617,1,0,0:0:0:0:
312,64,87788,1,0,0:0:0:0:
68,120,87960,1,0,0:0:0:0:
372,200,88131,1,0,0:0:0:0:
112,144,88388,1,0,0:0:0:0:
312,204,88560,1,0,0:0:0:0:
392,228,88731,1,0,0:0:0:0:
392,228,88902,1,0,0:0:0:0:
256,172,89160,1,0,0:0:0:0:
468,112,89502,1,0,0:0:0:0:
64,176,89674,1,0,0:0:0:0:
116,188,89931,1,0,0:0:0:0:
108,176,90017,1,0,0:0:0:0:
104,176,90188,1,0,0:0:0:0:
104,176,90360,1,0,0:0:0:0:
376,48,90788,1,0,0:0:0:0:
280,172,90960,1,0,0:0:0:0:
248,224,91217,1,0,0:0:0:0:
256,192,175902,12,0,177960,0:0:0:0:
288,152,214988,6,0,L|240:156,1,35
236,156,215160,6,0,P|188:172|184:184,2,35
196,208,226988,6,0,L|224:212,1,17.5
192,200,227160,2,0,L|220:204,1,17.5
72,108,252702,6,0,L|144:136,1,70
196,248,253045,2,0,L|264:272,1,70
232,96,253388,2,0,L|296:132,1,70
352,236,253731,2,0,L|436:256,1,70
72,108,254074,6,0,L|144:136,1,70
196,248,254417,2,0,L|264:272,1,70
232,96,254760,2,0,L|296:132,1,70
352,236,255103,2,0,L|436:256,1,70
72,108,255445,6,0,L|144:136,1,70
196,248,255788,2,0,L|264:272,1,70
232,96,256131,2,0,L|296:132,1,70
352,236,256474,2,0,L|436:256,1,70
72,108,256817,6,0,L|144:136,1,70
196,248,257160,2,0,L|264:272,1,70
232,96,257503,2,0,L|296:132,1,70
352,236,257846,2,0,L|436:256,1,70
72,108,258188,6,0,L|144:136,1,70
196,248,258531,2,0,L|264:272,1,70
232,96,258874,6,0,L|296:132,1,70
352,236,259217,2,0,L|436:256,1,70
72,108,259560,6,0,L|144:136,1,70
196,248,259903,2,0,L|264:272,1,70
232,96,260246,2,0,L|296:132,1,70
352,236,260589,2,0,L|436:256,1,70
72,108,260931,6,0,L|144:136,1,70
196,248,261274,2,0,L|264:272,1,70
232,96,261617,2,0,L|296:132,1,70
352,236,261960,2,0,L|436:256,1,70
72,108,262302,6,0,L|144:136,1,70
196,248,262645,2,0,L|264:272,1,70
232,96,262988,2,0,L|296:132,1,70
352,236,263331,2,0,L|436:256,1,70
256,192,263674,12,0,273960,0:0:0:0:
