osu file format v14

[General]
AudioFilename: audio.mp3
AudioLeadIn: 0
PreviewTime: 208438
Countdown: 0
SampleSet: Soft
StackLeniency: 0.7
Mode: 0
LetterboxInBreaks: 0
WidescreenStoryboard: 0

[Editor]
Bookmarks: 36407,174407,189407
DistanceSpacing: 0.6
BeatDivisor: 4
GridSize: 4
TimelineZoom: 1.1

[Metadata]
Title:Irodori
TitleUnicode:イロドリ
Artist:ClariS
ArtistUnicode:ClariS
Creator:Ipas
Version:Color
Source:
Tags:newipas colorful colourful hitorigoto ヒトリゴト ep single clara クララ karen カレン atsushi yuasa 湯浅篤 japanese pop jpop
BeatmapID:2339364
BeatmapSetID:1119815

[Difficulty]
HPDrainRate:6
CircleSize:4
OverallDifficulty:8
ApproachRate:9
SliderMultiplier:1.8
SliderTickRate:1

[Events]
//Background and Video events
0,0,"anime-girl-clouds-scenic-sky.jpg",0,0
//Break Periods
2,177607,188807
//Storyboard Layer 0 (Background)
//Storyboard Layer 1 (Fail)
//Storyboard Layer 2 (Pass)
//Storyboard Layer 3 (Foreground)
//Storyboard Layer 4 (Overlay)
//Storyboard Sound Samples

[TimingPoints]
407,375,4,2,2,30,1,0
407,-153.846153846153,4,2,2,30,0,0
36407,-142.857142857143,4,2,2,40,0,0
47282,-137.931034482759,4,2,2,40,0,0
47657,-129.032258064516,4,2,2,40,0,0
48032,-90.9090909090909,4,2,2,40,0,0
48407,-142.857142857143,4,2,2,40,0,0
51407,-137.931034482759,4,2,2,40,0,0
54407,-125,4,2,2,40,0,0
57407,-333.333333333333,4,2,1,40,0,0
58813,-333.333333333333,4,2,1,5,0,0
58907,-142.857142857143,4,2,1,50,0,0
59563,-142.857142857143,4,2,1,5,0,0
59657,-105.263157894737,4,2,1,50,0,0
60407,-100,4,2,1,65,0,1
77282,-90.9090909090909,4,2,1,65,0,1
77397,-90.9090909090909,4,2,1,65,0,1
77657,-80,4,2,1,65,0,1
77844,-74.0740740740741,4,2,1,65,0,1
78407,-100,4,2,1,65,0,1
96407,-142.857142857143,4,2,1,65,0,0
97532,-142.857142857143,4,2,1,40,0,0
99219,-142.857142857143,4,2,1,50,0,0
99407,-100,4,2,1,55,0,0
105407,-125,4,2,2,40,0,0
116844,-125,4,2,1,40,0,0
117219,-125,4,2,2,40,0,0
117407,-111.111111111111,4,2,1,50,0,0
129407,-111.111111111111,4,2,1,55,0,0
141407,-133.333333333333,4,2,1,50,0,0
147407,-111.111111111111,4,2,1,55,0,0
150407,-111.111111111111,4,2,1,60,0,0
152844,-111.111111111111,4,2,2,60,0,0
153407,-100,4,2,1,65,0,0
165032,-100,4,2,2,65,0,0
165407,-100,4,2,1,65,0,0
189407,-166.666666666667,4,2,2,40,0,0
204407,-166.666666666667,4,2,2,45,0,0
210032,-100,4,2,1,65,0,0
210407,-90.9090909090909,4,2,1,65,0,1
220907,-80,4,2,1,65,0,1
221844,-74.0740740740741,4,2,1,65,0,1
222407,-90.9090909090909,4,2,1,65,0,1
240407,-125,4,2,1,65,0,0
241532,-125,4,2,2,45,0,0
243407,-100,4,2,1,50,0,0
250625,-100,4,2,2,50,0,0
251000,-100,4,2,1,50,0,0
252219,-100,4,2,2,50,0,0
252500,-100,4,2,1,50,0,0
255407,-100,4,2,1,60,0,0
263657,-100,4,2,1,50,0,0
264406,392.156862745098,4,2,2,30,1,0
264406,-166.666666666667,4,2,1,40,0,0
265190,-166.666666666667,4,2,2,40,0,0
265974,465.116279069767,4,2,2,40,1,0
266905,-166.666666666667,4,2,2,40,0,0
267419,779.220779220779,4,2,2,40,1,0
268203,750,4,2,2,40,1,0
268718,750,4,2,2,40,1,0
268999,750,4,2,2,40,1,0
269233,750,4,2,2,40,1,0
269795,750,4,2,2,40,1,0
270357,750,4,2,2,40,1,0
270966,1395.3488372093,4,2,2,40,1,0
273619,375,4,2,2,40,1,0

[Colours]
Combo1 : 0,164,164
Combo2 : 0,128,255
Combo3 : 143,143,143
Combo4 : 196,136,255

[HitObjects]
132,282,407,6,0,B|192:278|192:278|232:303|232:303|303:298,1,175.499991966248,2|0,0:0|0:0,0:0:0:0:
346,233,1157,2,0,L|334:175,1,58.4999973220826,2|2,0:0|0:0,0:0:0:0:
423,269,1532,1,2,0:0:0:0:
438,285,1907,5,2,0:0:0:0:
258,215,2282,1,2,0:0:0:0:
445,164,2657,1,2,0:0:0:0:
319,88,3032,1,2,0:0:0:0:
392,9,3407,6,0,P|345:63|236:52,1,175.499991966248,2|0,0:0|0:0,0:0:0:0:
165,71,4157,2,0,L|103:61,1,58.4999973220826,2|2,0:0|0:0,0:0:0:0:
215,136,4532,1,2,0:0:0:0:
224,155,4907,5,2,0:0:0:0:
99,204,5563,1,2,0:0:0:0:
94,211,5657,2,0,B|76:243|76:243|97:322,1,116.999994644165,2|0,0:0|0:0,0:0:0:0:
12,323,6407,6,0,B|105:298|77:379|175:359,1,175.499991966248,2|0,0:0|0:0,0:0:0:0:
288,261,7157,2,0,P|243:212|203:290,1,175.499991966248,2|0,0:0|0:0,0:0:0:0:
382,178,7907,6,0,P|367:250|361:293,2,116.999994644165,2|2|2,0:0|0:0|0:0,0:0:0:0:
277,68,9032,1,2,0:0:0:0:
277,68,9219,1,2,0:0:0:0:
256,192,9407,12,0,12032,0:0:0:0:
185,195,12407,6,0,L|57:206,1,116.999994644165,2|0,0:0|0:0,0:0:0:0:
27,124,12969,2,0,P|86:100|123:58,1,116.999994644165,0|2,0:0|0:0,0:0:0:0:
204,32,13532,2,0,L|271:22,1,58.4999973220826,2|2,0:0|0:0,0:0:0:0:
304,115,13907,6,0,L|188:106,1,116.999994644165,2|0,0:0|0:0,0:0:0:0:
35,38,14657,1,2,0:0:0:0:
68,179,15032,2,0,P|61:204|49:237,1,58.4999973220826
137,233,15407,6,0,L|145:359,1,116.999994644165,2|0,0:0|0:0,0:0:0:0:
233,366,15969,1,0,0:0:0:0:
233,366,16157,2,0,P|282:352|352:356,1,116.999994644165,2|0,0:0|0:0,0:0:0:0:
343,260,16719,5,0,0:0:0:0:
343,260,16907,2,0,B|283:268|283:268|239:244|239:244|162:253,1,175.499991966248,2|0,0:0|0:0,0:0:0:0:
174,251,17657,1,2,0:0:0:0:
358,171,18032,2,0,L|364:231,1,58.4999973220826,2|0,0:0|0:0,0:0:0:0:
449,150,18407,6,0,P|441:200|444:273,1,116.999994644165,2|0,0:0|0:0,0:0:0:0:
365,312,18970,2,0,P|335:270|281:221,1,116.999994644165,0|2,0:0|0:0,0:0:0:0:
207,190,19532,2,0,L|140:196,1,58.4999973220826,2|2,0:0|0:0,0:0:0:0:
268,116,19907,6,0,L|210:104,2,58.4999973220826,2|0|0,0:0|0:0|0:0,0:0:0:0:
452,61,20657,2,0,P|436:93|350:100,1,116.999994644165,2|0,0:0|0:0,0:0:0:0:
475,235,21407,6,0,L|353:221,1,116.999994644165,2|0,0:0|0:0,0:0:0:0:
295,282,21969,1,0,0:0:0:0:
281,297,22157,5,2,0:0:0:0:
196,296,22344,1,2,0:0:0:0:
130,228,22532,1,2,0:0:0:0:
110,222,22719,5,2,0:0:0:0:
18,288,22907,2,0,B|109:270|80:351|179:329,1,175.499991966248,2|0,0:0|0:0,0:0:0:0:
261,356,23657,2,0,P|253:302|255:230,1,116.999994644165,2|0,0:0|0:0,0:0:0:0:
54,111,24407,6,0,P|83:146|156:147,1,116.999994644165,2|0,0:0|0:0,0:0:0:0:
225,97,24969,2,0,P|208:154|207:225,1,116.999994644165,0|2,0:0|0:0,0:0:0:0:
151,271,25532,2,0,P|117:253|81:246,1,58.4999973220826,2|2,0:0|0:0,0:0:0:0:
205,211,25907,6,0,L|188:95,1,116.999994644165,2|0,0:0|0:0,0:0:0:0:
26,27,26657,1,2,0:0:0:0:
217,46,27032,2,0,P|206:73|187:95,1,58.4999973220826
289,146,27407,6,0,P|231:134|173:127,1,116.999994644165,2|0,0:0|0:0,0:0:0:0:
349,205,27969,1,0,0:0:0:0:
349,205,28157,2,0,B|366:148|366:148|352:87,1,116.999994644165,2|0,0:0|0:0,0:0:0:0:
274,241,28719,5,0,0:0:0:0:
274,241,28907,2,0,B|370:272|350:192|439:215,1,175.499991966248,2|0,0:0|0:0,0:0:0:0:
487,151,29657,2,0,P|494:113|411:135,1,175.499991966248,2|0,0:0|0:0,0:0:0:0:
439,215,30407,6,0,L|312:205,1,116.999994644165,2|0,0:0|0:0,0:0:0:0:
250,153,30969,1,0,0:0:0:0:
238,134,31157,5,2,0:0:0:0:
148,156,31344,1,2,0:0:0:0:
67,127,31532,1,2,0:0:0:0:
47,135,31719,5,2,0:0:0:0:
171,82,31907,2,0,P|193:44|140:43,1,116.999994644165,2|0,0:0|0:0,0:0:0:0:
141,159,32469,2,0,L|150:224,1,58.4999973220826,0|2,0:0|0:0,0:0:0:0:
329,343,33219,5,0,0:0:0:0:
329,343,33407,2,0,B|353:257|261:273|294:177,1,175.499991966248,2|0,0:0|0:0,0:0:0:0:
458,203,34157,2,0,B|406:193|406:193|374:205|374:205|345:185|345:185|291:180,1,175.499991966248,2|2,0:0|0:0,0:0:0:0:
281,169,34813,1,2,0:0:0:0:
270,156,34907,5,2,0:0:0:0:
206,67,35282,1,2,0:0:0:0:
259,143,35469,1,2,0:0:0:0:
188,193,35657,1,2,0:0:0:0:
137,123,35844,1,2,0:0:0:0:
259,143,36032,5,2,0:0:0:0:
68,216,36407,1,4,0:0:0:0:
46,237,36782,6,0,L|54:308,1,62.9999980773926,2|0,0:0|0:0,0:0:0:0:
148,196,37157,2,0,L|140:125,1,62.9999980773926,2|0,0:0|0:0,0:0:0:0:
37,36,37532,2,0,P|66:58|94:66,1,62.9999980773926,2|0,0:0|0:0,0:0:0:0:
157,38,37813,5,2,0:3:0:0:
171,26,37907,2,0,L|239:34,1,62.9999980773926,2|2,0:3|0:3,0:0:0:0:
389,108,38282,1,2,0:3:0:0:
318,51,38469,2,0,L|325:15,2,31.4999990386963,2|2|2,0:0|0:0|0:0,0:0:0:0:
298,153,38844,1,2,0:0:0:0:
293,173,38938,1,2,0:0:0:0:
272,204,39032,5,2,0:3:0:0:
221,206,39125,1,2,0:3:0:0:
183,172,39219,1,2,0:3:0:0:
190,125,39313,1,2,0:3:0:0:
224,93,39407,2,0,L|291:99,1,62.9999980773926,2|0,0:3|0:0,0:0:0:0:
120,166,39782,6,0,L|187:172,1,62.9999980773926,2|0,0:0|0:0,0:0:0:0:
320,257,40157,2,0,P|281:246|247:242,1,62.9999980773926,2|0,0:0|0:0,0:0:0:0:
166,302,40532,2,0,L|173:369,1,62.9999980773926,2|0,0:0|0:0,0:0:0:0:
90,323,40813,5,2,0:0:0:0:
77,310,40907,2,0,P|67:277|74:245,1,62.9999980773926,2|2,0:0|0:3,0:0:0:0:
219,182,41282,1,2,0:3:0:0:
109,139,41469,2,0,L|70:148,2,31.4999990386963,2|2|2,0:0|0:0|0:0,0:0:0:0:
239,95,41844,1,2,0:0:0:0:
256,92,41938,1,2,0:0:0:0:
284,97,42032,5,2,0:3:0:0:
311,88,42125,1,2,0:3:0:0:
337,98,42219,1,2,0:3:0:0:
369,88,42313,1,2,0:3:0:0:
407,100,42407,1,2,0:3:0:0:
425,287,42782,6,0,P|386:277|358:273,1,62.9999980773926,2|0,0:0|0:0,0:0:0:0:
487,184,43157,2,0,P|448:194|420:198,1,62.9999980773926,2|0,0:0|0:0,0:0:0:0:
286,209,43532,2,0,L|215:217,1,62.9999980773926,2|0,0:0|0:0,0:0:0:0:
344,151,43813,5,2,0:0:0:0:
339,131,43907,2,0,P|311:105|282:96,1,62.9999980773926,2|0,0:0|0:0,0:0:0:0:
401,68,44282,2,0,B|393:46|393:46|393:31|393:31|386:6,1,62.9999980773926,2|0,0:0|0:0,0:0:0:0:
241,167,44657,2,0,B|249:145|249:145|249:130|249:130|256:105,1,62.9999980773926,2|0,0:0|0:0,0:0:0:0:
370,226,45032,1,2,0:3:0:0:
377,238,45125,1,2,0:3:0:0:
385,252,45219,1,2,0:3:0:0:
392,266,45313,1,2,0:3:0:0:
402,280,45407,6,0,B|410:251|410:251|412:215,1,62.9999980773926,2|0,0:3|0:0,0:0:0:0:
278,338,45782,2,0,B|269:306|269:306|268:273,1,62.9999980773926,2|0,0:0|0:0,0:0:0:0:
324,134,46157,1,0,0:0:0:0:
174,202,46344,2,0,L|130:196,2,31.4999990386963,2|2|2,0:0|0:0|0:0,0:0:0:0:
350,253,46719,5,2,0:3:0:0:
357,237,46813,1,2,0:3:0:0:
351,217,46907,2,0,L|281:224,1,62.9999980773926,2|2,0:0|0:0,0:0:0:0:
217,153,47188,5,2,0:0:0:0:
217,153,47282,2,0,L|141:149,1,65.250001991272,2|2,0:0|0:0,0:0:0:0:
51,181,47563,5,2,0:0:0:0:
51,181,47657,2,0,B|68:144|59:104|59:104|36:127,1,104.625000798225,2|2,0:0|0:0,0:0:0:0:
82,251,48032,6,0,P|28:278|15:211,1,148.50000453186,2|2,0:0|0:0,0:0:0:0:
168,244,48407,6,0,L|299:234,1,125.999996154785
439,210,48969,1,2,0:0:0:0:
439,210,49063,1,2,0:0:0:0:
439,210,49157,2,0,B|429:243|429:243|437:276,1,62.9999980773926,2|0,0:0|0:0,0:0:0:0:
343,148,49532,1,2,0:3:0:0:
326,142,49625,1,2,0:3:0:0:
309,136,49719,1,2,0:3:0:0:
291,130,49813,1,2,0:3:0:0:
272,123,49907,6,0,P|243:106|209:98,1,62.9999980773926,2|0,0:3|0:0,0:0:0:0:
16,177,50282,1,2,0:0:0:0:
97,191,50469,2,0,P|127:182|154:166,1,62.9999980773926,2|0,0:0|0:0,0:0:0:0:
44,105,50844,1,2,0:0:0:0:
39,253,51032,1,2,0:3:0:0:
43,271,51125,1,2,0:3:0:0:
47,289,51219,1,2,0:3:0:0:
51,309,51313,1,2,0:3:0:0:
55,327,51407,6,0,P|87:322|124:320,1,65.250001991272,2|2,0:3|0:0,0:0:0:0:
237,254,51782,1,2,0:0:0:0:
319,293,51969,1,2,0:0:0:0:
145,238,52157,6,0,P|152:208|158:169,1,65.250001991272,2|2,0:0|0:0,0:0:0:0:
337,190,52532,1,2,0:0:0:0:
319,293,52719,1,2,0:0:0:0:
175,87,52907,6,0,P|206:96|238:100,1,65.250001991272,2|2,0:0|0:0,0:0:0:0:
420,254,53282,1,2,0:0:0:0:
319,293,53469,1,2,0:0:0:0:
337,190,53657,1,2,0:0:0:0:
460,362,53844,1,2,0:0:0:0:
474,344,53938,1,2,0:0:0:0:
463,291,54032,5,2,0:3:0:0:
420,254,54125,1,2,0:3:0:0:
363,261,54219,1,2,0:3:0:0:
341,313,54313,1,2,0:3:0:0:
360,360,54407,6,0,L|348:212,1,144,6|2,0:3|0:3,0:0:0:0:
415,66,54969,1,2,0:0:0:0:
468,154,55157,2,0,P|462:198|452:233,1,72,2|2,0:3|0:0,0:0:0:0:
268,113,55532,1,2,0:0:0:0:
361,140,55719,1,2,0:3:0:0:
415,66,55907,5,2,0:0:0:0:
268,113,56094,2,0,L|193:102,1,72,2|2,0:0|0:3,0:0:0:0:
46,166,56469,1,2,0:3:0:0:
37,188,56563,1,2,0:3:0:0:
46,211,56657,1,2,0:3:0:0:
183,320,56845,1,2,0:3:0:0:
192,298,56939,1,2,0:3:0:0:
206,259,57032,5,2,0:3:0:0:
188,208,57125,1,2,0:3:0:0:
141,181,57219,1,2,0:3:0:0:
87,188,57313,1,2,0:3:0:0:
47,212,57407,6,0,B|55:184|32:153|32:153|6:120|26:77|71:77|91:117|54:138,1,202.499993820191,4|0,0:0|0:0,0:0:0:0:
53,138,58907,6,0,P|120:187|144:88,1,220.499993270874,12|0,0:0|0:0,0:0:0:0:
145,89,59657,6,0,B|186:74|215:31|215:31|188:240,1,299.249992009163,12|0,0:0|0:0,0:0:0:0:
90,239,60408,6,0,B|187:216|148:309|260:284,1,180,14|8,0:0|0:0,0:0:0:0:
429,145,60969,2,0,P|436:190|420:232,1,90,2|2,0:0|0:0,0:0:0:0:
339,271,61344,1,2,0:0:0:0:
285,195,61532,2,0,L|296:100,1,90,8|0,0:0|0:0,0:0:0:0:
372,64,61813,5,2,0:0:0:0:
372,64,61907,2,0,B|398:153|398:153|401:192|367:235,1,180,2|8,0:0|0:0,0:0:0:0:
231,30,62469,1,2,0:0:0:0:
203,119,62657,1,2,0:0:0:0:
295,105,62844,1,2,0:0:0:0:
123,82,63032,2,0,P|115:125|130:167,1,90,8|0,0:0|0:0,0:0:0:0:
214,240,63407,6,0,P|144:198|43:231,1,180,2|8,0:0|0:0,0:0:0:0:
172,316,63969,2,0,B|214:332|214:332|256:318,1,90,2|2,0:0|0:0,0:0:0:0:
441,326,64344,1,2,0:0:0:0:
351,239,64532,2,0,L|340:332,1,90,8|0,0:0|0:0,0:0:0:0:
176,226,64907,6,0,P|171:177|266:199,1,180,2|8,0:0|0:0,0:0:0:0:
126,98,65469,2,0,P|163:74|212:69,1,90,2|2,0:0|0:0,0:0:0:0:
65,217,65844,1,2,0:0:0:0:
14,124,66032,2,0,L|25:32,1,90,8|0,0:0|0:0,0:0:0:0:
228,167,66407,6,0,B|129:152|163:232|64:216,1,180,2|8,0:0|0:0,0:0:0:0:
336,171,66969,2,0,L|317:83,1,90,2|2,0:0|0:0,0:0:0:0:
433,166,67344,1,2,0:0:0:0:
302,262,67532,2,0,P|350:264|389:245,1,90,8|0,0:0|0:0,0:0:0:0:
228,167,67907,6,0,L|214:355,1,180,2|8,0:0|0:0,0:0:0:0:
141,129,68469,2,0,B|125:175|125:175|138:217,1,90,2|2,0:0|0:0,0:0:0:0:
34,365,68844,1,2,0:0:0:0:
120,314,69032,2,0,P|78:276|46:259,1,90,8|0,0:0|0:0,0:0:0:0:
257,97,69407,6,0,P|229:182|220:272,1,180,2|8,0:0|0:0,0:0:0:0:
392,103,69969,2,0,L|486:92,1,90,2|2,0:0|0:0,0:0:0:0:
448,221,70344,1,2,0:0:0:0:
353,259,70532,2,0,B|333:219|333:219|335:173,1,90,8|0,0:0|0:0,0:0:0:0:
448,221,70813,5,2,0:0:0:0:
448,221,70907,2,0,L|435:310,1,90,2|2,0:0|0:0,0:0:0:0:
335,173,71282,2,0,L|322:84,1,90,8|2,0:0|0:0,0:0:0:0:
434,310,71657,1,2,0:0:0:0:
349,359,71844,1,2,0:0:0:0:
448,221,72032,2,0,L|435:132,1,90,8|0,0:0|0:0,0:0:0:0:
244,32,72407,6,0,L|231:121,1,90,2|2,0:0|0:0,0:0:0:0:
275,255,72782,1,8,0:0:0:0:
175,195,72969,1,2,0:0:0:0:
321,83,73157,2,0,P|325:131|305:169,1,90,2|2,0:0|0:0,0:0:0:0:
107,241,73532,2,0,B|93:197|93:197|105:152,1,90,8|0,0:0|0:0,0:0:0:0:
10,130,73813,5,2,0:0:0:0:
10,130,73907,2,0,B|108:148|81:67|178:86,1,180,2|8,0:0|0:0,0:0:0:0:
33,42,74469,1,2,0:0:0:0:
181,174,74657,5,2,0:0:0:0:
259,123,74844,1,2,0:0:0:0:
175,85,75032,1,8,0:0:0:0:
342,251,75219,5,0,0:0:0:0:
359,258,75313,1,2,0:0:0:0:
379,253,75407,2,0,P|391:209|384:162,1,90,2|2,0:0|0:0,0:0:0:0:
468,318,75782,1,8,0:0:0:0:
355,358,75969,2,0,L|268:328,1,90,2|2,0:0|0:0,0:0:0:0:
468,318,76344,1,2,0:0:0:0:
385,165,76532,2,0,P|345:185|302:199,1,90,8|0,0:0|0:0,0:0:0:0:
42,235,76907,6,0,L|62:323,1,90,12|0,0:0|0:0,0:0:0:0:
223,151,77188,1,2,0:0:0:0:
223,151,77282,2,0,L|212:249,1,99.0000030212403,12|0,0:0|0:0,0:0:0:0:
49,180,77563,5,2,0:0:0:0:
49,180,77657,2,0,B|39:205|39:205|42:238,1,56.25,8|0,0:0|0:0,0:0:0:0:
221,309,77844,6,0,L|211:247,1,60.7500002317429,14|0,0:0|0:0,0:0:0:0:
420,335,78032,5,2,0:0:0:0:
406,302,78125,1,2,0:0:0:0:
370,304,78219,1,2,0:0:0:0:
385,336,78313,1,2,0:0:0:0:
420,335,78407,6,0,P|466:277|439:179,1,180,14|8,0:0|0:0,0:0:0:0:
303,141,78969,2,0,L|201:129,1,90,2|2,0:0|0:0,0:0:0:0:
207,322,79344,1,2,0:0:0:0:
306,224,79532,2,0,B|287:184|287:184|303:141,1,90,8|0,0:0|0:0,0:0:0:0:
398,249,79813,5,2,0:0:0:0:
398,249,79907,2,0,B|299:236|345:322|222:301,1,180,2|8,0:0|0:0,0:0:0:0:
141,196,80469,1,0,0:0:0:0:
146,221,80563,1,2,0:0:0:0:
151,245,80657,1,2,0:0:0:0:
122,90,80844,1,2,0:0:0:0:
211,132,81032,2,0,L|299:116,1,90,8|0,0:0|0:0,0:0:0:0:
390,146,81313,5,2,0:0:0:0:
390,146,81407,2,0,L|210:131,1,180,2|8,0:0|0:0,0:0:0:0:
53,44,81969,2,0,P|78:80|121:89,1,90,2|2,0:0|0:0,0:0:0:0:
286,55,82344,1,2,0:0:0:0:
414,161,82532,2,0,P|425:199|399:249,1,90,8|0,0:0|0:0,0:0:0:0:
210,131,82907,6,0,B|277:129|277:129|317:142|317:142|388:137,1,180,2|8,0:0|0:0,0:0:0:0:
465,30,83469,1,0,0:0:0:0:
477,51,83563,1,2,0:0:0:0:
471,73,83657,1,2,0:0:0:0:
383,57,83844,5,2,0:0:0:0:
469,194,84032,1,8,0:0:0:0:
345,166,84219,1,2,0:0:0:0:
272,261,84407,6,0,P|357:250|418:314,1,180,2|8,0:0|0:0,0:0:0:0:
179,228,84969,2,0,B|181:193|181:193|186:183|186:183|187:139,1,90,2|2,0:0|0:0,0:0:0:0:
234,58,85344,1,2,0:0:0:0:
74,210,85531,2,0,B|76:244|76:244|80:257|80:257|82:299,1,90,8|0,0:0|0:0,0:0:0:0:
31,136,85813,5,2,0:0:0:0:
31,136,85907,2,0,B|42:212|42:212|38:246|38:246|48:318,1,180,2|8,0:0|0:0,0:0:0:0:
211,335,86469,1,0,0:0:0:0:
232,319,86563,1,2,0:0:0:0:
260,325,86657,1,2,0:0:0:0:
356,362,86844,5,2,0:0:0:0:
437,243,87032,1,8,0:0:0:0:
362,169,87219,1,2,0:0:0:0:
448,81,87407,6,0,P|476:164|436:242,1,180,2|8,0:0|0:0,0:0:0:0:
277,174,87969,2,0,P|283:134|314:93,1,90,2|2,0:0|0:0,0:0:0:0:
186,32,88344,1,2,0:0:0:0:
75,131,88532,2,0,L|166:118,1,90,8|0,0:0|0:0,0:0:0:0:
186,32,88813,5,2,0:0:0:0:
186,32,88907,2,0,L|275:44,1,90,2|2,0:0|0:0,0:0:0:0:
80,218,89282,2,0,B|68:173|68:173|74:130,1,90,8|0,0:0|0:0,0:0:0:0:
201,216,89563,1,2,0:0:0:0:
201,216,89657,2,0,L|189:306,1,90,2|2,0:0|0:0,0:0:0:0:
330,222,90032,2,0,L|318:132,1,90,8|0,0:0|0:0,0:0:0:0:
484,24,90407,6,0,P|474:74|447:100,1,90,2|2,0:0|0:0,0:0:0:0:
220,135,90782,2,0,P|229:90|259:59,1,90,8|2,0:0|0:0,0:0:0:0:
425,172,91157,2,0,B|396:171|396:171|374:161|374:161|336:158,1,90,2|2,0:0|0:0,0:0:0:0:
235,79,91532,2,0,B|204:77|204:77|183:68|183:68|147:64,1,90,8|0,0:0|0:0,0:0:0:0:
82,34,91813,5,2,0:0:0:0:
82,34,91907,2,0,P|121:113|85:192,1,180,2|8,0:0|0:0,0:0:0:0:
51,272,92469,1,2,0:0:0:0:
277,290,92657,5,2,0:0:0:0:
277,204,92844,1,2,0:0:0:0:
202,243,93032,1,8,0:0:0:0:
461,248,93219,5,0,0:0:0:0:
461,248,93313,1,2,0:0:0:0:
461,248,93407,2,0,B|399:229|356:256|356:256|381:271,1,135,12|2,0:0|0:0,0:0:0:0:
378,269,93782,1,8,0:0:0:0:
385,94,93969,2,0,B|354:151|288:179|288:179|312:134,1,180,6|2,0:0|0:0,0:0:0:0:
206,372,94532,6,0,B|175:314|126:303|126:303|133:331,1,135,8|2,0:0|0:0,0:0:0:0:
132,328,94907,1,8,0:0:0:0:
132,194,95094,2,0,B|97:139|106:67|106:67|133:110,1,180,6|2,0:0|0:0,0:0:0:0:
313,28,95657,5,8,0:0:0:0:
385,124,95844,1,2,0:0:0:0:
289,190,96032,1,2,0:0:0:0:
217,97,96219,1,2,0:0:0:0:
302,108,96407,5,6,0:0:0:0:
302,108,97532,1,0,0:0:0:0:
312,124,97719,1,0,0:0:0:0:
303,138,97907,1,2,0:0:0:0:
302,108,99219,5,2,0:0:0:0:
312,124,99313,1,2,0:0:0:0:
303,138,99407,2,0,L|253:130,1,45,6|0,0:0|0:0,0:0:0:0:
181,114,99595,2,0,L|137:122,1,45,2|0,0:0|0:0,0:0:0:0:
67,78,99782,1,8,0:0:0:0:
230,297,99969,6,0,L|91:277,1,135,2|2,0:0|0:0,0:0:0:0:
71,289,100344,1,8,0:3:0:0:
299,197,100532,1,8,0:0:0:0:
317,227,100625,1,8,0:3:0:0:
305,264,100719,1,2,0:0:0:0:
324,292,100813,1,2,0:0:0:0:
330,328,100907,6,0,P|350:316|372:308,1,45,6|0,0:0|0:0,0:0:0:0:
423,199,101095,2,0,P|423:222|419:245,1,45,8|8,0:0|0:0,0:0:0:0:
487,342,101282,2,0,P|466:330|448:315,1,45,8|8,0:0|0:0,0:0:0:0:
308,126,101469,6,0,L|446:109,1,135,6|2,0:0|0:0,0:0:0:0:
467,122,101844,1,2,0:0:0:0:
235,41,102032,1,8,0:0:0:0:
27,99,102407,6,0,B|121:83|97:152|203:136,1,180,6|8,0:0|0:0,0:0:0:0:
294,249,102969,1,2,0:0:0:0:
186,296,103157,1,2,0:0:0:0:
312,243,103344,5,2,0:0:0:0:
203,160,103532,1,2,0:0:0:0:
332,235,103719,2,0,L|376:220,1,45,10|2,0:0|0:0,0:0:0:0:
129,219,103907,5,14,0:0:0:0:
88,130,104094,1,2,0:0:0:0:
155,64,104282,1,2,0:0:0:0:
65,284,104469,5,14,0:0:0:0:
186,151,104657,1,2,0:0:0:0:
88,130,104844,1,2,0:0:0:0:
226,264,105032,5,12,0:0:0:0:
221,283,105407,6,0,P|188:270|161:238,1,72,6|0,0:0|0:0,0:0:0:0:
304,260,105782,2,0,L|310:335,1,72,8|2,0:0|0:0,0:0:0:0:
397,199,106157,2,0,L|391:274,1,72,8|0,0:0|0:0,0:0:0:0:
345,132,106532,1,10,0:0:0:0:
345,132,106719,1,2,0:0:0:0:
469,52,106907,6,0,P|436:60|398:66,1,72,10|0,0:0|0:0,0:0:0:0:
345,132,107282,1,10,0:0:0:0:
277,284,107469,2,0,P|271:251|269:204,1,72,2|8,0:0|0:0,0:0:0:0:
222,106,107844,1,0,0:0:0:0:
268,212,108032,1,10,0:0:0:0:
165,185,108219,5,2,3:2:0:0:
165,185,108407,2,0,P|125:178|90:177,1,72,10|2,3:2|0:0,0:0:0:0:
117,83,108782,2,0,P|77:90|42:91,1,72,10|2,0:0|0:0,0:0:0:0:
276,110,109157,2,0,P|236:103|201:102,1,72,8|0,0:0|0:0,0:0:0:0:
300,193,109532,2,0,P|335:191|371:184,1,72,10|2,0:0|0:0,0:0:0:0:
226,230,109907,6,0,L|210:375,1,144,8|8,0:0|0:0,0:0:0:0:
71,221,110469,1,2,0:0:0:0:
95,321,110657,1,10,0:0:0:0:
153,256,110844,1,0,0:0:0:0:
18,286,111032,1,10,0:0:0:0:
130,164,111219,1,0,3:0:0:0:
70,98,111407,6,0,P|117:129|204:118,1,144,10|10,0:0|0:0,0:0:0:0:
336,122,111969,2,0,B|262:144|297:185|225:207,1,144,2|2,0:0|0:0,0:0:0:0:
301,320,112532,2,0,P|272:298|238:289,1,72,8|2,0:0|3:2,0:0:0:0:
477,291,112907,6,0,B|422:240|404:291|348:239,1,144,10|10,3:2|0:0,0:0:0:0:
446,112,113469,2,0,L|454:187,1,72,2|8,0:0|0:0,0:0:0:0:
365,69,113844,1,2,0:0:0:0:
267,160,114032,2,0,P|305:151|357:155,1,72,10|0,0:0|3:0,0:0:0:0:
209,226,114407,6,0,P|224:169|212:79,1,144,8|8,0:0|0:0,0:0:0:0:
147,26,114969,1,2,0:0:0:0:
71,73,115157,2,0,L|-8:62,1,72,8|2,0:0|0:0,0:0:0:0:
147,26,115532,1,8,0:0:0:0:
156,115,115719,1,2,0:0:0:0:
121,198,115907,5,2,0:0:0:0:
111,185,116469,1,2,0:0:0:0:
105,197,116563,1,2,0:0:0:0:
109,208,116657,1,2,0:0:0:0:
219,211,116844,1,2,0:0:0:0:
284,298,117032,1,8,0:0:0:0:
330,209,117219,2,0,L|324:171,1,36,2|2,0:0|0:0,0:0:0:0:
136,300,117407,6,0,B|228:286|197:351|290:337,1,161.999995056153,6|8,0:0|0:0,0:0:0:0:
432,308,117969,2,0,L|422:225,1,80.9999975280763,2|2,0:0|0:0,0:0:0:0:
372,363,118344,1,2,0:0:0:0:
499,164,118532,1,8,0:0:0:0:
396,63,118719,5,0,0:0:0:0:
396,63,118907,2,0,P|398:99|413:154,1,80.9999975280763,2|0,0:0|0:0,0:0:0:0:
154,101,119282,1,8,0:0:0:0:
110,180,119469,2,0,L|191:190,1,80.9999975280763,2|0,0:0|0:0,0:0:0:0:
319,247,119844,1,2,0:0:0:0:
178,318,120032,2,0,B|137:330|137:330|99:328|99:328|59:337,1,121.499996292114,8|2,0:0|0:0,0:0:0:0:
41,328,120407,5,14,0:0:0:0:
252,271,120657,2,0,L|259:210,1,53.9999983520508,8|8,0:0|0:0,0:0:0:0:
326,187,120907,2,0,L|319:126,1,53.9999983520508,8|8,0:0|0:0,0:0:0:0:
357,68,121157,5,14,0:0:0:0:
83,91,121407,2,8,P|108:102|143:104,1,53.9999983520508,8|8,0:3|0:3,0:0:0:0:
199,71,121657,2,0,P|232:65|262:68,1,53.9999983520508,8|8,0:3|0:3,0:0:0:0:
201,147,121907,5,14,0:0:0:0:
193,359,122157,2,0,L|260:347,1,53.9999983520508,8|8,0:0|0:0,0:0:0:0:
230,278,122407,2,0,L|163:290,1,53.9999983520508,8|8,0:0|0:0,0:0:0:0:
301,301,122657,5,2,0:0:0:0:
301,301,122844,2,0,L|470:288,1,161.999995056153,14|0,0:0|0:0,0:0:0:0:
497,217,123313,1,8,0:0:0:0:
483,198,123407,6,0,B|395:212|417:144|332:165,1,161.999995056153,2|8,0:0|0:0,0:0:0:0:
246,102,123969,1,2,0:0:0:0:
145,223,124157,1,2,0:0:0:0:
249,206,124344,1,2,0:0:0:0:
153,139,124532,1,8,0:0:0:0:
201,289,124719,2,0,L|191:334,1,40.4999987640381,0|2,0:0|0:0,0:0:0:0:
54,261,124907,6,0,L|41:99,1,161.999995056153,2|8,0:0|0:0,0:0:0:0:
194,33,125469,2,0,B|206:73|206:73|197:116,1,80.9999975280763,2|2,0:0|0:0,0:0:0:0:
304,207,125844,2,0,P|343:196|386:194,1,80.9999975280763,2|8,0:0|0:0,0:0:0:0:
201,210,126219,1,0,0:0:0:0:
300,108,126407,6,0,B|359:109|359:109|405:92|405:92|459:97,1,161.999995056153,2|8,0:0|0:0,0:0:0:0:
485,196,126969,2,0,P|481:239|488:283,1,80.9999975280763,2|2,0:0|0:0,0:0:0:0:
290,309,127344,1,2,0:0:0:0:
388,266,127532,1,8,0:0:0:0:
236,173,127719,5,0,0:0:0:0:
223,191,127813,1,2,0:0:0:0:
232,213,127907,2,0,P|273:203|316:201,1,80.9999975280763,2|0,0:0|0:0,0:0:0:0:
165,75,128282,2,0,P|206:85|249:87,1,80.9999975280763,8|0,0:0|0:0,0:0:0:0:
106,163,128657,1,0,0:0:0:0:
99,181,128750,1,2,0:0:0:0:
108,199,128844,1,2,0:0:0:0:
185,173,129032,5,8,0:0:0:0:
52,42,129219,2,0,L|39:83,1,40.4999987640381,2|8,0:0|0:0,0:0:0:0:
14,279,129407,5,12,0:0:0:0:
100,359,129594,1,12,0:0:0:0:
90,257,129782,1,2,0:0:0:0:
94,246,130157,1,2,0:0:0:0:
98,235,130532,1,2,0:0:0:0:
225,166,130719,5,2,0:0:0:0:
226,186,130813,1,8,0:0:0:0:
216,201,130907,1,2,0:0:0:0:
208,214,131282,1,2,0:0:0:0:
365,220,131469,5,8,0:0:0:0:
327,290,131657,1,2,0:0:0:0:
306,168,131844,1,8,0:0:0:0:
400,311,132032,1,2,0:0:0:0:
460,115,132219,5,8,0:0:0:0:
452,144,132313,1,2,0:0:0:0:
444,172,132407,1,8,0:0:0:0:
244,238,132594,1,12,0:0:0:0:
375,105,132782,1,2,0:0:0:0:
372,93,133157,1,2,0:0:0:0:
368,80,133532,1,2,0:0:0:0:
198,169,133719,1,8,0:0:0:0:
358,193,133907,5,2,0:0:0:0:
370,188,134282,1,2,0:0:0:0:
248,236,134469,5,8,0:0:0:0:
385,282,134657,1,2,0:0:0:0:
289,308,134844,5,8,0:0:0:0:
441,224,135032,1,2,0:0:0:0:
265,153,135219,5,8,0:0:0:0:
238,160,135313,1,2,0:0:0:0:
208,169,135407,1,8,0:0:0:0:
42,90,135594,1,12,0:0:0:0:
238,44,135782,1,2,0:0:0:0:
228,52,136157,1,2,0:0:0:0:
220,60,136532,1,2,0:0:0:0:
55,170,136719,1,8,0:0:0:0:
252,215,136907,5,2,0:0:0:0:
210,347,137282,1,2,0:0:0:0:
139,247,137657,5,2,0:0:0:0:
104,322,137844,1,8,0:0:0:0:
65,186,138032,1,2,0:0:0:0:
228,126,138219,5,0,0:0:0:0:
239,140,138313,1,2,0:0:0:0:
235,157,138407,1,2,0:0:0:0:
296,311,138782,1,2,0:0:0:0:
384,274,139157,1,2,0:0:0:0:
454,359,139532,5,2,0:0:0:0:
308,331,139719,1,8,0:0:0:0:
462,225,139907,5,2,0:0:0:0:
505,295,140094,1,8,0:0:0:0:
462,190,140282,5,4,0:3:0:0:
400,298,140469,1,8,0:3:0:0:
258,127,140657,5,4,0:3:0:0:
373,197,140844,1,8,0:3:0:0:
386,105,141032,5,4,0:3:0:0:
285,239,141219,2,0,L|242:229,1,40.4999987640381,8|2,0:0|0:0,0:0:0:0:
464,53,141407,6,0,L|452:191,1,135.000005149842,6|8,0:0|0:0,0:0:0:0:
268,327,142157,1,8,0:0:0:0:
71,211,142532,1,2,0:0:0:0:
79,202,142625,1,2,0:0:0:0:
88,210,142719,1,2,0:0:0:0:
92,222,142813,1,2,0:0:0:0:
83,230,142907,6,0,L|89:158,2,67.5000025749208,2|2|8,0:0|0:0|0:0,0:0:0:0:
227,121,143657,2,0,L|221:49,2,67.5000025749208,8|2|8,0:0|0:0|0:0,0:0:0:0:
382,219,144407,6,0,B|281:202|310:304|184:273,1,202.500007724762,2|2,0:0|0:0,0:0:0:0:
129,219,145157,1,8,0:0:0:0:
115,302,145344,1,2,0:0:0:0:
43,172,145532,1,2,0:0:0:0:
45,272,145719,5,0,0:0:0:0:
52,260,145813,1,2,0:0:0:0:
57,249,145907,2,0,L|72:97,1,135.000005149842,2|2,0:0|0:0,0:0:0:0:
137,58,146469,1,2,0:0:0:0:
54,32,146657,5,12,0:0:0:0:
179,132,146844,2,0,L|252:119,1,67.5000025749208,0|2,0:0|0:0,0:0:0:0:
442,80,147219,2,0,P|446:104|440:119,1,33.7500012874604,2|2,0:0|0:0,0:0:0:0:
197,46,147407,5,6,0:0:0:0:
206,24,147782,1,2,0:0:0:0:
152,139,147969,1,2,0:0:0:0:
288,108,148157,1,2,0:0:0:0:
119,227,148344,1,2,0:0:0:0:
60,146,148532,1,2,0:0:0:0:
271,240,148719,5,8,0:0:0:0:
141,336,148907,1,2,0:0:0:0:
293,231,149094,1,2,0:0:0:0:
174,110,149282,1,2,0:0:0:0:
314,224,149469,5,8,0:0:0:0:
174,238,149657,1,2,0:0:0:0:
386,303,149844,5,8,0:0:0:0:
151,226,150032,1,2,0:0:0:0:
485,191,150219,2,0,L|476:239,1,40.4999987640381,2|2,0:0|0:0,0:0:0:0:
343,68,150407,5,12,0:0:0:0:
416,129,150594,1,2,0:0:0:0:
399,258,150782,1,2,0:0:0:0:
202,140,150969,5,12,0:0:0:0:
283,180,151157,1,2,0:0:0:0:
287,335,151344,1,2,0:0:0:0:
64,246,151532,5,12,0:0:0:0:
151,226,151719,1,2,0:0:0:0:
287,335,151907,1,2,0:0:0:0:
57,345,152094,5,12,0:0:0:0:
151,226,152282,1,12,0:0:0:0:
44,132,152469,1,2,0:0:0:0:
146,12,152657,1,4,0:0:0:0:
37,232,152844,5,2,0:0:0:0:
37,232,152938,1,2,0:0:0:0:
37,232,153032,1,2,0:0:0:0:
37,232,153125,1,2,0:0:0:0:
37,232,153219,1,2,0:0:0:0:
37,232,153313,1,2,0:0:0:0:
37,232,153407,6,0,B|126:220|109:294|210:272,1,180,14|8,0:0|0:0,0:0:0:0:
347,162,153969,2,0,P|346:213|317:245,1,90,2|2,0:0|0:0,0:0:0:0:
177,191,154344,1,2,0:0:0:0:
319,68,154532,2,0,L|414:57,1,90,8|0,0:0|0:0,0:0:0:0:
153,103,154907,2,0,L|58:92,1,90,2|0,0:0|0:0,0:0:0:0:
322,242,155282,2,0,B|324:198|324:198|300:158,1,90,8|0,0:0|0:0,0:0:0:0:
177,190,155657,2,0,B|175:234|175:234|199:274,1,90,2|2,0:0|0:0,0:0:0:0:
312,318,156032,1,8,0:0:0:0:
493,288,156219,5,0,0:0:0:0:
486,283,156313,1,2,0:0:0:0:
480,277,156407,2,0,B|378:257|411:339|302:317,1,180,2|8,0:0|0:0,0:0:0:0:
268,100,156969,1,0,0:0:0:0:
288,113,157063,1,2,0:0:0:0:
286,140,157157,2,0,P|245:167|197:179,1,90,2|2,0:0|0:0,0:0:0:0:
92,298,157532,2,0,L|108:208,1,90,8|0,0:0|0:0,0:0:0:0:
108,35,157907,1,2,0:0:0:0:
140,116,158094,1,2,0:0:0:0:
29,171,158282,6,0,B|45:129|45:129|29:84,1,90,8|0,0:0|0:0,0:0:0:0:
0,22,158563,1,2,0:0:0:0:
0,22,158657,2,0,P|46:34|91:34,1,90,2|2,0:0|0:0,0:0:0:0:
273,76,159032,1,8,0:0:0:0:
175,184,159219,2,0,L|188:139,1,45,0|2,0:0|0:0,0:0:0:0:
385,98,159407,6,0,L|365:6,1,90,6|2,0:0|0:0,0:0:0:0:
345,200,159782,1,8,0:0:0:0:
494,145,159969,2,0,B|482:191|443:222,1,90,2|2,0:0|0:0,0:0:0:0:
299,284,160344,1,2,0:0:0:0:
427,326,160532,1,8,0:0:0:0:
207,319,160719,5,0,0:0:0:0:
196,297,160813,1,2,0:0:0:0:
209,275,160907,2,0,P|253:283|300:283,1,90,2|2,0:0|0:0,0:0:0:0:
163,182,161282,1,8,0:0:0:0:
57,282,161469,1,0,0:0:0:0:
63,305,161563,1,2,0:0:0:0:
80,316,161657,1,2,0:0:0:0:
154,97,161844,1,2,0:0:0:0:
46,174,162032,1,8,0:0:0:0:
114,228,162219,1,2,0:0:0:0:
267,108,162407,6,0,P|230:82|186:80,1,90,2|2,0:0|0:0,0:0:0:0:
476,55,162782,1,8,0:0:0:0:
447,144,162969,2,0,L|358:161,1,90,2|2,0:0|0:0,0:0:0:0:
75,242,163344,1,2,0:0:0:0:
139,172,163532,2,0,L|228:189,1,90,8|2,0:0|0:0,0:0:0:0:
452,343,163907,1,2,0:0:0:0:
370,246,164094,2,0,P|363:294|359:345,1,90,2|8,0:0|0:0,0:0:0:0:
117,293,164469,5,0,0:0:0:0:
97,282,164563,1,2,0:0:0:0:
80,272,164657,2,0,L|35:266,1,45,2|0,0:0|0:0,0:0:0:0:
130,371,164845,2,0,L|174:376,1,45,2|0,0:0|0:0,0:0:0:0:
276,202,165032,5,2,0:0:0:0:
262,171,165126,1,2,0:0:0:0:
233,175,165220,1,2,0:0:0:0:
242,204,165313,1,2,0:0:0:0:
276,202,165407,6,0,P|321:146|303:39,1,180,14|8,0:0|0:0,0:0:0:0:
450,159,165969,2,0,P|431:213|427:262,1,90,2|2,0:0|0:0,0:0:0:0:
395,73,166344,1,2,0:0:0:0:
242,113,166532,2,0,L|146:100,1,90,8|0,0:0|0:0,0:0:0:0:
27,241,166907,1,2,0:0:0:0:
106,200,167094,1,2,0:0:0:0:
29,37,167282,2,0,B|37:73|37:73|38:91|38:91|45:128,1,90,8|0,0:0|0:0,0:0:0:0:
209,189,167657,2,0,B|201:225|201:225|200:243|200:243|195:278,1,90,2|2,0:0|0:0,0:0:0:0:
294,100,168032,1,8,0:0:0:0:
465,48,168219,5,0,0:0:0:0:
456,68,168313,1,2,0:0:0:0:
441,82,168407,2,0,P|393:78|352:56,1,90,6|0,0:0|0:0,0:0:0:0:
475,193,168782,1,8,0:0:0:0:
383,258,168969,2,0,B|373:214|373:214|382:167,1,90,2|2,0:0|0:0,0:0:0:0:
386,357,169344,1,2,0:0:0:0:
209,321,169532,2,0,P|250:308|306:306,1,90,8|0,0:0|0:0,0:0:0:0:
486,266,169907,1,2,0:0:0:0:
386,357,170094,1,2,0:0:0:0:
297,223,170282,6,0,L|314:132,1,90,8|0,0:0|0:0,0:0:0:0:
132,42,170657,1,2,0:0:0:0:
136,60,170750,1,2,0:0:0:0:
139,78,170844,1,2,0:0:0:0:
143,96,170938,1,2,0:0:0:0:
146,115,171032,2,0,L|154:161,1,45,8|0,0:0|0:0,0:0:0:0:
63,260,171219,2,0,L|70:216,1,45,2|0,0:0|0:0,0:0:0:0:
194,263,171407,6,0,P|167:328|98:353,1,135,2|2,0:0|0:0,0:0:0:0:
110,352,171782,1,8,0:0:0:0:
274,144,171969,2,0,B|300:199|260:216|287:278,1,135,2|2,0:0|0:0,0:0:0:0:
286,275,172344,1,8,0:0:0:0:
491,66,172532,6,0,B|498:109|466:143|425:147|425:147|415:154|415:154|407:146|407:146|359:131|341:90|358:43,1,270,12|2,0:0|0:0,0:0:0:0:
394,240,173282,1,8,0:0:0:0:
423,75,173469,2,0,L|400:216,1,135,12|2,0:0|0:0,0:0:0:0:
401,208,173844,1,2,0:0:0:0:
429,315,174032,1,8,0:3:0:0:
283,314,174219,5,0,0:0:0:0:
281,329,174313,1,8,0:3:0:0:
292,342,174407,1,6,0:0:0:0:
256,192,174594,12,4,177407,0:0:0:0:
343,201,189407,5,2,0:0:0:0:
343,201,189782,2,0,P|348:236|346:258,1,53.9999983520508,2|0,0:0|0:0,0:0:0:0:
272,233,190157,2,0,P|257:259|238:275,1,53.9999983520508,2|0,0:0|0:0,0:0:0:0:
240,164,190532,2,0,L|246:108,1,53.9999983520508,2|0,0:0|0:0,0:0:0:0:
297,54,190907,5,2,0:0:0:0:
102,120,191282,1,2,0:0:0:0:
211,193,191657,1,2,0:0:0:0:
312,260,192032,1,2,0:0:0:0:
48,365,192407,6,0,P|110:333|159:354,1,107.999996704102,2|2,0:0|0:0,0:0:0:0:
284,376,193157,1,2,0:0:0:0:
432,363,193532,1,2,0:0:0:0:
432,363,193907,6,0,B|408:278|470:300|439:181,1,161.999995056153,2|0,0:0|0:0,0:0:0:0:
472,129,194657,2,0,P|414:188|385:129,1,161.999995056153,2|0,0:0|0:0,0:0:0:0:
419,74,195407,5,2,0:0:0:0:
254,104,195782,2,0,L|125:86,2,107.999996704102,2|2|2,0:0|0:0|0:0,0:0:0:0:
207,185,196907,6,0,L|78:167,2,107.999996704102,2|2|2,0:0|0:0|0:0,0:0:0:0:
247,262,198032,2,0,L|305:255,1,53.9999983520508,2|0,0:0|0:0,0:0:0:0:
187,316,198407,5,2,0:0:0:0:
129,270,199157,1,2,0:0:0:0:
154,201,199907,6,0,B|147:175|121:146|121:146|65:125|72:70|113:33|172:46|199:105|168:145|121:146|121:146|82:151|58:185,1,377.999988464356,2|0,0:0|0:0,0:0:0:0:
22,52,201407,6,0,B|135:28|94:135|218:110,1,215.999993408203,2|2,0:0|0:0,0:0:0:0:
281,68,202344,2,0,L|270:13,2,53.9999983520508,2|2|2,0:0|0:0|0:0,0:0:0:0:
359,88,202907,6,0,L|353:206,1,107.999996704102,2|0,0:0|0:0,0:0:0:0:
342,87,203657,2,0,L|353:195,1,107.999996704102,2|0,0:0|0:0,0:0:0:0:
410,250,204407,5,2,0:0:0:0:
368,317,204594,1,2,0:0:0:0:
429,366,204782,1,2,0:0:0:0:
468,300,204969,1,2,0:0:0:0:
286,296,205344,2,0,L|229:290,1,53.9999983520508,2|2,0:0|0:0,0:0:0:0:
67,326,205907,5,2,0:0:0:0:
94,245,206094,1,2,0:0:0:0:
63,169,206282,1,2,0:0:0:0:
66,87,206469,1,2,0:0:0:0:
179,188,206844,2,0,L|171:247,2,53.9999983520508,2|2|2,0:0|0:0|0:0,0:0:0:0:
224,114,207407,5,2,0:0:0:0:
244,97,207594,1,2,0:0:0:0:
325,131,207782,1,2,0:0:0:0:
431,82,207969,5,2,0:0:0:0:
491,270,208344,1,2,0:0:0:0:
384,229,208532,1,2,0:0:0:0:
317,273,208719,1,2,0:0:0:0:
411,330,208907,5,2,0:0:0:0:
347,119,209469,5,2,0:0:0:0:
91,246,210032,2,0,P|73:253|47:253,1,45,2|0,0:0|0:0,0:0:0:0:
62,173,210219,1,8,0:0:0:0:
62,173,210313,1,8,0:0:0:0:
62,173,210407,6,0,B|132:162|132:162|183:182|183:182|255:171,1,198.000006042481,14|8,0:0|0:0,0:0:0:0:
369,220,210969,2,0,P|378:170|392:120,1,99.0000030212403,2|2,0:0|0:0,0:0:0:0:
311,293,211344,1,2,0:0:0:0:
463,202,211532,1,8,0:0:0:0:
376,13,211719,5,0,0:0:0:0:
378,19,211813,1,2,0:0:0:0:
380,25,211907,2,0,L|389:123,1,99.0000030212403,2|0,0:0|0:0,0:0:0:0:
142,252,212282,1,8,0:0:0:0:
230,296,212469,2,0,L|221:198,1,99.0000030212403,2|2,0:0|0:0,0:0:0:0:
119,80,212844,1,2,0:0:0:0:
288,25,213032,2,0,P|280:82|260:123,1,99.0000030212403,8|0,0:0|0:0,0:0:0:0:
35,234,213407,5,2,0:0:0:0:
35,234,213782,1,8,0:0:0:0:
202,156,213969,1,2,0:0:0:0:
27,126,214157,1,2,0:0:0:0:
151,253,214344,1,2,0:0:0:0:
119,80,214532,1,8,0:0:0:0:
230,224,214719,5,0,0:0:0:0:
244,207,214813,1,2,0:0:0:0:
252,189,214907,2,0,B|265:142|265:142|254:93,1,99.0000030212403,2|0,0:0|0:0,0:0:0:0:
93,249,215282,2,0,P|114:311|123:354,1,99.0000030212403,8|2,0:0|0:0,0:0:0:0:
30,187,215657,1,2,0:0:0:0:
189,256,215844,1,2,0:0:0:0:
34,328,216032,1,8,0:0:0:0:
152,172,216219,1,0,0:0:0:0:
289,290,216407,6,0,P|216:353|121:343,1,198.000006042481,2|8,0:0|0:0,0:0:0:0:
346,191,216969,1,2,0:0:0:0:
424,246,217157,2,0,B|403:289|403:289|412:342,1,99.0000030212403,2|2,0:0|0:0,0:0:0:0:
241,188,217532,2,0,P|254:151|261:87,1,99.0000030212403,8|0,0:0|0:0,0:0:0:0:
208,32,217813,5,2,0:0:0:0:
208,32,217907,2,0,B|280:50|280:50|328:33|328:33|401:44,1,198.000006042481,2|8,0:0|0:0,0:0:0:0:
485,178,218469,1,2,0:0:0:0:
487,48,218657,1,2,0:0:0:0:
346,125,218844,1,2,0:0:0:0:
429,107,219032,1,8,0:0:0:0:
255,53,219219,1,0,0:0:0:0:
191,263,219407,6,0,B|284:274|266:194|378:207,1,198.000006042481,2|8,0:0|0:0,0:0:0:0:
183,177,219969,2,0,L|84:185,1,99.0000030212403,2|2,0:0|0:0,0:0:0:0:
290,112,220344,1,2,0:0:0:0:
191,263,220532,2,0,P|156:285|108:332,1,99.0000030212403,8|0,0:0|0:0,0:0:0:0:
373,317,220907,6,0,P|330:293|316:357,1,112.5,12|0,0:0|0:0,0:0:0:0:
447,269,221188,1,2,0:0:0:0:
447,269,221282,2,0,B|435:226|435:226|439:199|439:199|430:158,1,112.5,12|0,0:0|0:0,0:0:0:0:
497,37,221563,5,4,0:0:0:0:
497,37,221657,2,0,P|487:66|470:91,1,56.25,8|0,0:0|0:0,0:0:0:0:
240,159,221844,6,0,L|168:151,1,60.7500002317429,14|0,0:0|0:0,0:0:0:0:
29,329,222032,5,2,0:0:0:0:
50,342,222125,1,2,0:0:0:0:
75,333,222219,1,2,0:0:0:0:
56,310,222313,1,2,0:0:0:0:
29,329,222407,6,0,B|102:313|102:313|131:283|131:283|213:262,1,198.000006042481,14|8,0:0|0:0,0:0:0:0:
367,173,222969,2,0,P|342:228|303:250,1,99.0000030212403,2|2,0:0|0:0,0:0:0:0:
146,159,223344,1,2,0:0:0:0:
284,62,223532,2,0,L|270:165,1,99.0000030212403,8|0,0:0|0:0,0:0:0:0:
84,100,223907,6,0,B|128:78|128:78|184:81,1,99.0000030212403,2|0,0:0|0:0,0:0:0:0:
306,246,224282,1,8,0:0:0:0:
437,256,224469,1,0,0:0:0:0:
448,238,224563,1,2,0:0:0:0:
448,214,224657,2,0,B|411:181|411:181|356:169,1,99.0000030212403,2|2,0:0|0:0,0:0:0:0:
211,302,225032,1,8,0:0:0:0:
318,345,225219,1,0,0:0:0:0:
125,355,225407,6,0,P|164:289|189:161,1,198.000006042481,2|8,0:0|0:0,0:0:0:0:
28,125,225969,2,0,L|41:21,1,99.0000030212403,2|2,0:0|0:0,0:0:0:0:
213,83,226344,1,2,0:0:0:0:
96,193,226532,2,0,P|144:170|192:171,1,99.0000030212403,8|0,0:0|0:0,0:0:0:0:
392,122,226907,6,0,B|420:171|420:171|383:320,1,198.000006042481,2|8,0:0|0:0,0:0:0:0:
244,190,227469,1,0,0:0:0:0:
237,167,227563,1,2,0:0:0:0:
253,147,227657,1,2,0:0:0:0:
331,185,227844,5,2,0:0:0:0:
252,298,228032,1,8,0:0:0:0:
145,225,228219,1,0,0:0:0:0:
63,337,228407,6,0,P|95:267|103:141,1,198.000006042481,2|8,0:0|0:0,0:0:0:0:
177,33,228969,2,0,L|280:43,1,99.0000030212403,2|2,0:0|0:0,0:0:0:0:
488,99,229344,1,2,0:0:0:0:
415,44,229532,2,0,B|390:85|390:85|402:137,1,99.0000030212403,8|0,0:0|0:0,0:0:0:0:
449,196,229813,5,2,0:0:0:0:
449,196,229907,2,0,P|400:186|340:185,1,99.0000030212403,2|0,0:0|0:0,0:0:0:0:
415,44,230282,2,0,P|366:54|306:55,1,99.0000030212403,8|2,0:0|0:0,0:0:0:0:
260,146,230657,1,2,0:0:0:0:
306,275,230844,1,2,0:0:0:0:
157,332,231032,1,8,0:0:0:0:
225,235,231219,1,0,0:0:0:0:
450,328,231407,6,0,B|339:289|375:378|259:353,1,198.000006042481,2|8,0:0|0:0,0:0:0:0:
133,269,231969,2,0,P|140:228|130:166,1,99.0000030212403,2|2,0:0|0:0,0:0:0:0:
194,92,232344,1,2,0:0:0:0:
33,191,232532,2,0,L|51:298,1,99.0000030212403,8|0,0:0|0:0,0:0:0:0:
16,368,232813,5,2,0:0:0:0:
16,368,232907,2,0,B|59:343|59:343|117:353,1,99.0000030212403,2|0,0:0|0:0,0:0:0:0:
201,189,233282,2,0,B|179:233|179:233|188:284,1,99.0000030212403,8|0,0:0|0:0,0:0:0:0:
272,293,233563,1,2,0:0:0:0:
272,293,233657,2,0,B|294:249|294:249|285:198,1,99.0000030212403,2|2,0:0|0:0,0:0:0:0:
168,95,234032,1,8,0:0:0:0:
79,170,234219,1,0,0:0:0:0:
35,10,234407,6,0,P|54:53|88:93,1,99.0000030212403,2|0,0:0|0:0,0:0:0:0:
265,90,234782,2,0,P|218:84|166:94,1,99.0000030212403,8|2,0:0|0:0,0:0:0:0:
80,248,235157,2,0,P|107:210|125:160,1,99.0000030212403,2|2,0:0|0:0,0:0:0:0:
327,31,235532,2,0,P|343:77|372:117,1,99.0000030212403,8|0,0:0|0:0,0:0:0:0:
437,155,235813,5,2,0:0:0:0:
437,155,235907,2,0,B|372:142|372:142|319:160|319:160|235:147,1,198.000006042481,2|8,0:0|0:0,0:0:0:0:
392,255,236469,1,0,0:0:0:0:
405,275,236563,1,2,0:0:0:0:
395,300,236657,1,2,0:0:0:0:
76,338,236844,5,2,0:0:0:0:
243,369,237032,1,8,0:0:0:0:
310,281,237219,1,0,0:0:0:0:
90,257,237407,6,0,P|86:322|147:307,1,148.50000453186,12|2,0:0|0:0,0:0:0:0:
146,307,237782,1,8,0:0:0:0:
81,92,237969,2,0,B|105:69|81:32|20:42|14:96|47:120|47:120|74:135|88:174,1,198.000006042481,6|2,0:0|0:0,0:0:0:0:
336,106,238532,6,0,B|273:98|273:98|245:106|245:106|188:99,1,148.50000453186,8|2,0:0|0:0,0:0:0:0:
189,99,238907,1,8,0:0:0:0:
107,298,239094,2,0,B|155:282|177:236|177:236|228:212|275:227,1,198.000006042481,6|2,0:0|0:0,0:0:0:0:
440,341,239657,5,8,0:0:0:0:
350,373,239844,1,8,0:0:0:0:
276,228,240032,1,2,0:0:0:0:
359,280,240219,1,2,0:0:0:0:
412,132,240407,5,6,0:0:0:0:
412,132,241532,1,2,0:0:0:0:
337,181,241719,5,2,0:0:0:0:
337,181,241813,1,2,0:0:0:0:
337,181,241907,2,0,B|387:125|360:82|316:52|275:98|275:98|273:106|273:106|267:99|267:99|213:84|178:161|213:202|282:205|282:205|320:209|337:237|337:237|352:280|326:313,1,540,2|2,0:0|0:0,0:0:0:0:
424,344,243407,6,0,L|232:331,1,180,14|8,0:0|0:0,0:0:0:0:
72,258,243969,2,0,P|121:248|161:228,1,90,2|2,0:0|0:0,0:0:0:0:
239,196,244344,1,2,0:0:0:0:
134,71,244532,2,0,B|127:116|127:116|155:151,1,90,8|0,0:0|0:0,0:0:0:0:
407,136,244907,6,0,L|227:113,1,180,2|8,0:0|0:0,0:0:0:0:
329,300,245469,2,0,P|360:269|380:226,1,90,2|2,0:0|0:0,0:0:0:0:
228,113,245844,1,2,0:0:0:0:
151,185,246032,2,0,L|161:278,1,90,8|0,0:0|0:0,0:0:0:0:
27,364,246407,6,0,L|52:178,1,180,2|8,0:0|0:0,0:0:0:0:
143,54,246969,2,0,P|97:68|47:68,1,90,2|2,0:0|0:0,0:0:0:0:
230,95,247344,1,2,0:0:0:0:
90,169,247532,2,0,P|135:171|178:185,1,90,8|0,0:0|0:0,0:0:0:0:
329,227,247907,6,0,B|232:213|267:288|160:273,1,180,2|8,0:0|0:0,0:0:0:0:
412,196,248469,2,0,B|419:243|419:243|402:294,1,90,2|2,0:0|0:0,0:0:0:0:
263,138,248844,1,2,0:0:0:0:
395,75,249032,2,0,L|500:82,1,90,8|0,0:0|0:0,0:0:0:0:
184,174,249407,6,0,P|192:89|276:51,1,180,2|8,0:0|0:0,0:0:0:0:
89,163,249969,2,0,B|105:204|112:254,1,90,2|2,0:0|0:0,0:0:0:0:
166,342,250344,1,2,0:0:0:0:
379,342,250532,1,8,0:0:0:0:
391,330,250625,1,2,0:0:0:0:
410,311,250719,1,2,0:0:0:0:
421,298,250813,1,2,0:0:0:0:
438,277,250907,6,0,L|419:96,1,180,2|8,0:0|0:0,0:0:0:0:
245,52,251469,2,0,P|287:73|331:68,1,90,2|2,0:0|0:0,0:0:0:0:
479,25,251844,1,2,0:0:0:0:
355,170,252032,2,0,L|252:151,1,90,8|0,0:0|0:0,0:0:0:0:
175,185,252313,5,2,0:0:0:0:
175,185,252407,2,0,L|361:169,1,180,2|8,0:0|0:0,0:0:0:0:
229,266,252969,1,2,0:0:0:0:
299,326,253157,1,2,0:0:0:0:
132,265,253344,1,2,0:0:0:0:
175,185,253532,1,8,0:0:0:0:
323,235,253719,1,0,0:0:0:0:
157,354,253907,6,0,B|145:282|145:282|136:218|175:185,1,180,2|8,0:0|0:0,0:0:0:0:
411,249,254469,2,0,L|316:233,1,90,2|2,0:0|0:0,0:0:0:0:
253,302,254844,1,2,0:0:0:0:
483,189,255032,2,0,P|475:138|476:94,1,90,8|0,0:0|0:0,0:0:0:0:
348,35,255407,5,14,0:0:0:0:
327,54,255782,5,8,0:0:0:0:
236,106,255969,1,2,0:0:0:0:
54,112,256157,5,8,0:0:0:0:
183,185,256344,1,2,0:0:0:0:
431,137,256532,5,8,0:0:0:0:
268,255,256719,1,2,0:0:0:0:
236,106,256907,5,8,0:0:0:0:
245,138,257282,5,8,0:0:0:0:
208,242,257469,1,2,0:0:0:0:
298,231,257657,5,8,0:0:0:0:
329,363,257844,1,2,0:0:0:0:
388,228,258032,5,8,0:0:0:0:
230,330,258219,1,2,0:0:0:0:
289,148,258407,5,8,0:0:0:0:
390,125,258594,1,2,0:0:0:0:
480,193,258782,1,2,0:0:0:0:
512,178,258969,1,8,0:0:0:0:
266,281,259157,5,8,0:0:0:0:
230,195,259344,1,2,0:0:0:0:
268,92,259532,1,2,0:0:0:0:
251,58,259719,1,8,0:0:0:0:
65,217,259907,5,8,0:0:0:0:
86,234,260094,1,2,0:0:0:0:
212,313,260282,1,2,0:0:0:0:
79,347,260469,1,8,0:0:0:0:
255,195,260657,5,8,0:0:0:0:
356,284,260844,1,2,0:0:0:0:
145,153,261032,5,8,0:0:0:0:
286,104,261219,1,2,0:0:0:0:
21,85,261407,6,0,P|49:132|129:140,1,135,6|2,0:0|0:0,0:0:0:0:
145,153,261782,2,0,L|136:244,1,90,8|2,0:0|0:0,0:0:0:0:
310,278,262157,2,0,P|267:254|220:256,1,90,8|2,0:0|0:0,0:0:0:0:
200,337,262532,2,0,P|242:360|289:358,1,90,8|2,0:0|0:0,0:0:0:0:
399,140,262907,5,8,0:0:0:0:
457,213,263094,2,0,P|445:260|442:306,1,90,2|8,0:0|0:0,0:0:0:0:
329,223,263469,1,2,0:0:0:0:
314,204,263563,1,2,0:0:0:0:
319,178,263657,1,8,0:0:0:0:
456,129,263844,1,2,0:0:0:0:
337,84,264032,1,4,0:3:0:0:
219,157,264219,1,4,0:3:0:0:
140,123,264407,5,6,0:0:0:0:
121,135,265190,5,2,0:0:0:0:
128,211,265386,5,2,0:0:0:0:
96,275,265582,5,2,0:0:0:0:
110,309,265778,5,2,0:0:0:0:
105,331,265974,5,2,0:0:0:0:
106,347,266904,5,2,0:0:0:0:
102,359,267419,5,2,0:0:0:0:
256,192,268198,12,2,273619,0:0:0:0:
