osu file format v14

[General]
AudioFilename: audio.mp3
AudioLeadIn: 0
PreviewTime: 53897
Countdown: 0
SampleSet: Soft
StackLeniency: 0.7
Mode: 0
LetterboxInBreaks: 0
WidescreenStoryboard: 0

[Editor]
Bookmarks: 53995,66544
DistanceSpacing: 1.1
BeatDivisor: 2
GridSize: 32
TimelineZoom: 1

[Metadata]
Title:Hologram
TitleUnicode:ホログラム
Artist:ClariS
ArtistUnicode:ClariS
Creator:Yasaija 714
Version:Normal
Source:
Tags:fairy castle clara alice Karen [C_u_r_i] Asuka_-
BeatmapID:1425097
BeatmapSetID:673365

[Difficulty]
HPDrainRate:4
CircleSize:3
OverallDifficulty:4
ApproachRate:5
SliderMultiplier:1.1
SliderTickRate:1

[Events]
//Background and Video events
0,0,"BG.jpg",0,0
//Break Periods
//Storyboard Layer 0 (Background)
//Storyboard Layer 1 (Fail)
//Storyboard Layer 2 (Pass)
//Storyboard Layer 3 (Foreground)
//Storyboard Sound Samples

[TimingPoints]
-906,392.156862745098,4,2,1,40,1,0
662,-100,4,2,1,60,0,0
13211,-125,4,2,1,40,0,0
25760,-100,4,2,1,50,0,0
38309,-100,4,2,1,60,0,0
50858,-100,4,2,1,40,0,0
52427,-100,4,2,1,60,0,0
53995,-100,4,2,1,80,0,1
77525,-100,4,2,1,70,0,0

[Colours]
Combo1 : 255,149,149
Combo2 : 81,255,255
Combo3 : 147,198,119
Combo4 : 255,136,255

[HitObjects]
68,171,270,6,0,P|68:202|74:230,2,55,2|2|6,0:0|0:0|0:0,0:0:0:0:
121,62,1054,1,2,0:0:0:0:
121,62,1250,2,0,P|182:77|234:74,2,110,6|2|6,0:0|0:0|0:0,0:0:0:0:
454,182,3799,6,0,P|393:197|341:194,1,110,6|2,0:0|0:0,0:0:0:0:
291,168,4388,2,0,P|306:229|303:281,1,110,6|2,0:0|0:0,0:0:0:0:
209,351,5172,2,0,B|155:344|155:344|100:356,1,110,6|0,0:0|0:0,0:0:0:0:
42,371,5760,1,2,0:0:0:0:
42,371,5956,2,0,P|25:277|47:192,1,165,2|8,0:0|0:0,0:0:0:0:
96,103,6937,6,0,P|150:109|213:89,1,110,6|8,0:0|0:0,0:0:0:0:
262,105,7525,2,0,P|316:111|379:91,1,110,2|2,0:0|0:0,0:0:0:0:
474,36,8309,2,0,B|464:91|464:91|474:146,1,110,2|2,0:0|0:0,0:0:0:0:
487,203,8897,1,8,0:0:0:0:
487,203,9094,2,0,B|497:258|497:258|487:313,1,110,2|0,0:0|0:0,0:0:0:0:
464,367,9682,1,8,0:0:0:0:
362,300,10074,6,0,P|304:288|249:296,1,110,6|2,0:0|0:0,0:0:0:0:
199,321,10662,2,0,P|141:333|33:300,1,165,2|8,0:0|0:0,0:0:0:0:
19,248,11446,1,2,0:0:0:0:
97,155,11839,1,2,0:0:0:0:
211,194,12231,2,0,P|269:206|377:173,1,165,2|0,0:0|0:0,0:0:0:0:
424,70,13211,6,0,B|337:51|337:51|260:78,1,132,2|0,0:0|0:0,0:0:0:0:
166,130,14388,1,2,0:0:0:0:
69,128,14780,2,0,L|77:218,1,88,2|2,0:0|0:0,0:0:0:0:
123,228,15368,2,0,L|115:318,1,88,0|0,0:0|0:0,0:0:0:0:
81,350,15956,1,2,0:0:0:0:
174,373,16348,6,0,P|244:366|304:314,1,132,2|0,0:0|0:0,0:0:0:0:
332,190,17525,1,2,0:0:0:0:
267,117,17917,2,0,P|320:79|385:74,1,132,2|0,0:0|0:0,0:0:0:0:
479,185,19094,2,0,L|474:240,1,44,2|0,0:0|0:0,0:0:0:0:
466,276,19486,6,0,P|408:269|363:277,1,88,2|2,0:0|0:0,0:0:0:0:
338,299,20074,2,0,P|280:306|235:298,1,88,0|0,0:0|0:0,0:0:0:0:
207,281,20662,1,2,0:0:0:0:
243,191,21054,6,0,P|256:138|249:85,1,88,2|2,0:0|0:0,0:0:0:0:
233,60,21643,2,0,P|180:47|127:54,1,88,0|0,0:0|0:0,0:0:0:0:
103,70,22231,1,2,0:0:0:0:
75,162,22623,6,0,P|90:249|56:328,1,176,2|2,0:0|0:0,0:0:0:0:
141,373,23799,1,0,0:0:0:0:
226,327,24192,2,0,P|192:247|207:161,1,176,2|2,0:0|0:0,0:0:0:0:
283,102,25368,2,0,L|333:112,1,44,0|8,0:0|0:0,0:0:0:0:
384,125,25760,6,0,P|390:180|378:237,1,110,4|8,0:0|0:0,0:0:0:0:
313,334,26544,2,0,L|204:322,1,110,0|8,0:0|0:0,0:0:0:0:
144,308,27133,1,0,0:0:0:0:
144,308,27329,2,0,P|133:254|139:199,1,110,2|8,0:0|0:0,0:0:0:0:
179,154,27917,2,0,L|70:142,1,110,2|0,0:0|0:0,0:0:0:0:
17,173,28505,1,8,0:0:0:0:
9,52,28897,6,0,P|65:33|121:48,1,110,2|8,0:0|0:0,0:0:0:0:
166,73,29486,2,0,P|222:92|278:77,1,110,2|0,0:0|0:0,0:0:0:0:
319,45,30074,1,8,0:0:0:0:
419,112,30466,2,0,L|404:220,1,110,2|8,0:0|0:0,0:0:0:0:
353,253,31054,1,2,0:0:0:0:
353,253,31250,2,0,L|368:361,1,110,0|8,0:0|0:0,0:0:0:0:
249,334,32035,6,0,P|170:325|115:334,1,110,4|8,0:0|0:0,0:0:0:0:
83,350,32623,1,2,0:0:0:0:
30,241,33015,1,2,0:0:0:0:
82,131,33407,1,0,0:0:0:0:
82,131,33603,2,0,P|154:140|226:124,1,110,2|8,0:0|0:0,0:0:0:0:
284,58,34388,2,0,L|338:64,1,55,2|0,0:0|0:0,0:0:0:0:
375,112,34780,2,0,L|429:106,1,55,8|0,0:0|0:0,0:0:0:0:
480,73,35172,5,2,0:0:0:0:
500,192,35564,1,2,0:0:0:0:
442,298,35956,1,2,0:0:0:0:
326,334,36348,1,2,0:0:0:0:
215,283,36741,2,0,P|185:273|144:272,1,55,2|2,0:0|0:0,0:0:0:0:
43,294,37329,2,0,P|38:219|45:169,1,110,2|0,0:0|0:0,0:0:0:0:
68,130,37917,1,8,0:0:0:0:
159,50,38309,6,0,P|224:57|285:53,1,110,4|8,0:0|0:0,0:0:0:0:
308,100,38897,2,0,P|301:165|305:226,2,110,4|0|0,0:0|0:0|0:0,0:0:0:0:
348,54,39878,6,0,P|413:47|474:51,1,110,4|8,0:0|0:0,0:0:0:0:
500,91,40466,2,0,P|507:156|503:217,1,110,4|0,0:0|0:0,0:0:0:0:
477,254,41054,1,8,0:0:0:0:
377,322,41446,6,0,P|296:298|234:304,1,110,2|8,0:0|0:0,0:0:0:0:
215,322,42035,2,0,P|146:288|133:167,1,165,2|8,0:0|0:0,0:0:0:0:
200,128,43015,2,0,P|230:135|263:134,1,55,2|0,0:0|0:0,0:0:0:0:
311,117,43407,1,8,0:0:0:0:
311,117,43603,2,0,P|368:109|429:117,1,110,0|0,0:0|0:0,0:0:0:0:
472,144,44192,1,8,0:0:0:0:
494,262,44584,6,0,L|366:262,1,110,4|8,0:0|0:0,0:0:0:0:
338,301,45172,2,0,L|338:173,2,110,4|0|8,0:0|0:0|0:0,0:0:0:0:
290,338,46152,6,0,L|162:338,1,110,4|8,0:0|0:0,0:0:0:0:
132,301,46741,2,0,L|132:173,1,110,4|0,0:0|0:0,0:0:0:0:
176,78,47525,1,8,0:0:0:0:
176,78,47721,6,0,P|234:88|289:83,1,110,0|8,0:0|0:0,0:0:0:0:
399,46,48505,1,2,0:0:0:0:
399,46,48701,2,0,P|408:133|396:181,1,110,2|0,0:0|0:0,0:0:0:0:
353,187,49290,2,0,B|299:177|299:177|244:200,1,110,2|8,0:0|0:0,0:0:0:0:
146,263,50074,2,0,B|95:284|95:284|41:274,1,110,0|8,0:0|0:0,0:0:0:0:
3,226,50662,1,8,0:0:0:0:
3,226,50858,6,0,L|13:152,2,55,2|0|2,0:0|0:0|0:0,0:0:0:0:
109,168,51643,2,0,L|101:113,2,55,2|2|2,0:0|0:0|0:0,0:0:0:0:
195,83,52427,6,0,P|260:74|275:76,1,55,6|2,0:0|0:0,0:0:0:0:
293,114,52819,2,0,P|358:123|373:121,1,55,10|10,0:0|0:0,0:0:0:0:
403,103,53211,6,0,P|412:167|406:218,1,110,8|8,0:0|0:0,0:0:0:0:
339,311,53995,6,0,P|283:300|208:306,1,110,4|8,0:0|0:0,0:0:0:0:
187,258,54584,2,0,P|133:276|71:319,1,110,2|2,0:0|0:0,0:0:0:0:
13,209,55368,2,0,P|67:191|129:148,1,110,2|0,0:0|0:0,0:0:0:0:
141,110,55956,2,0,P|156:90|184:74,1,55,8|2,0:0|0:0,0:0:0:0:
241,77,56348,2,0,P|264:63|281:41,2,55,0|0|8,0:0|0:0|0:0,0:0:0:0:
188,186,57133,6,0,B|199:241|199:241|178:296,1,110,2|8,0:0|0:0,0:0:0:0:
121,307,57721,1,2,0:0:0:0:
217,377,58113,1,2,0:0:0:0:
325,324,58505,2,0,P|312:270|319:216,1,110,2|0,0:0|0:0,0:0:0:0:
363,175,59093,2,0,L|431:187,1,55,8|2,0:0|0:0,0:0:0:0:
453,232,59486,2,0,L|521:220,2,55,0|2|10,0:0|0:0|0:0,0:0:0:0:
367,317,60270,6,0,P|305:327|230:281,1,110,4|8,0:0|0:0,0:0:0:0:
210,342,60858,2,0,P|151:319|109:242,1,110,2|2,0:0|0:0,0:0:0:0:
78,174,61643,2,0,L|201:176,1,110,2|0,0:0|0:0,0:0:0:0:
248,179,62231,1,8,0:0:0:0:
248,179,62427,2,0,P|270:121|273:60,1,110,2|0,0:0|0:0,0:0:0:0:
243,21,63015,1,8,0:0:0:0:
122,25,63407,6,0,P|127:79|147:130,1,110,4|8,0:0|0:0,0:0:0:0:
187,175,63995,1,6,0:0:0:0:
111,269,64388,2,0,P|112:298|116:325,1,55,0|8,0:0|0:0,0:0:0:0:
163,361,64780,2,0,P|232:334|270:334,1,110,2|0,0:0|0:0,0:0:0:0:
323,352,65368,2,0,P|332:297|337:242,2,110,8|8|8,0:0|0:0|0:0,0:0:0:0:
425,286,66544,6,0,P|423:197|385:152,1,110,4|8,0:0|0:0,0:0:0:0:
444,128,67133,2,0,P|397:51|342:31,1,110,2|2,0:0|0:0,0:0:0:0:
261,34,67917,2,0,L|143:72,1,110,2|0,0:0|0:0,0:0:0:0:
111,108,68505,2,0,P|113:137|126:176,1,55,8|0,0:0|0:0,0:0:0:0:
171,192,68897,2,0,P|169:220|162:246,2,55,2|2|10,0:0|0:0|0:0,0:0:0:0:
80,273,69682,6,0,P|116:322|164:335,1,110,2|8,0:0|0:0,0:0:0:0:
221,331,70270,1,2,0:0:0:0:
287,229,70662,1,2,0:0:0:0:
177,178,71054,2,0,P|167:118|179:63,1,110,2|0,0:0|0:0,0:0:0:0:
223,32,71643,2,0,L|288:41,1,55,10|2,0:0|0:0,0:0:0:0:
327,73,72035,2,0,L|392:82,2,55,0|2|8,0:0|0:0|0:0,0:0:0:0:
407,163,72819,6,0,P|405:230|385:295,1,110,4|8,0:0|0:0,0:0:0:0:
342,302,73407,2,0,P|287:288|222:289,1,110,2|2,0:0|0:0,0:0:0:0:
118,323,74192,2,0,B|101:269|101:269|110:216,1,110,2|0,0:0|0:0,0:0:0:0:
155,176,74780,2,0,L|141:108,1,55,8|2,0:0|0:0,0:0:0:0:
92,90,75172,2,0,L|106:22,2,55,0|0|8,0:0|0:0|0:0,0:0:0:0:
24,190,75956,6,0,P|27:252|94:307,1,110,4|8,0:0|0:0,0:0:0:0:
102,326,76544,2,0,P|181:301|217:301,1,110,14|8,0:0|0:0,0:0:0:0:
264,321,77133,2,0,P|298:325|353:323,1,55,10|8,0:0|0:0,0:0:0:0:
373,299,77525,1,12,0:0:0:0:
373,299,79094,5,6,0:0:0:0:
