osu file format v14

[General]
AudioFilename: audio.mp3
AudioLeadIn: 0
PreviewTime: 53897
Countdown: 0
SampleSet: Soft
StackLeniency: 0.7
Mode: 0
LetterboxInBreaks: 0
WidescreenStoryboard: 0

[Editor]
Bookmarks: 53995,66544
DistanceSpacing: 1.3
BeatDivisor: 4
GridSize: 32
TimelineZoom: 1

[Metadata]
Title:Hologram
TitleUnicode:ホログラム
Artist:ClariS
ArtistUnicode:ClariS
Creator:Yasaija 714
Version:Asuka_-'s Insane
Source:
Tags:fairy castle clara alice Karen [C_u_r_i] Asuka_-
BeatmapID:1425091
BeatmapSetID:673365

[Difficulty]
HPDrainRate:6
CircleSize:4.5
OverallDifficulty:8
ApproachRate:9
SliderMultiplier:1.7
SliderTickRate:1

[Events]
//Background and Video events
0,0,"BG.jpg",0,0
//Break Periods
//Storyboard Layer 0 (Background)
//Storyboard Layer 1 (Fail)
//Storyboard Layer 2 (Pass)
//Storyboard Layer 3 (Foreground)
//Storyboard Sound Samples

[TimingPoints]
-906,392.156862745098,4,2,1,50,1,0
662,-125,4,2,2,50,0,0
2819,-125,4,2,1,50,0,0
3799,-125,4,2,2,50,0,0
11741,-125,4,2,2,5,0,0
11839,-125,4,2,2,50,0,0
12133,-125,4,2,2,5,0,0
12231,-125,4,2,2,50,0,0
12623,-125,4,2,2,20,0,0
13211,-125,4,2,1,30,0,0
25760,-125,4,2,2,30,0,0
38309,-125,4,2,2,40,0,0
41446,-111.111111111111,4,2,2,40,0,0
44584,-125,4,2,2,50,0,0
53211,-125,4,2,2,35,0,0
53995,-100,4,2,2,60,0,1
79094,-100,4,2,2,60,0,0

[Colours]
Combo1 : 255,149,149
Combo2 : 81,255,255
Combo3 : 147,198,119
Combo4 : 255,136,255

[HitObjects]
33,352,270,5,2,0:0:0:0:
55,349,368,1,2,0:0:0:0:
77,348,466,1,2,0:0:0:0:
99,345,564,1,2,0:0:0:0:
119,344,662,5,6,0:0:0:0:
252,314,858,1,0,0:0:0:0:
166,234,1054,1,8,0:0:0:0:
285,348,1250,2,0,L|297:258,1,68,2|0,0:0|0:0,0:0:0:0:
412,215,1643,2,0,L|422:303,1,68,2|0,0:0|0:0,0:0:0:0:
482,109,2035,6,0,P|372:82|312:157,1,204,6|0,0:0|0:0,0:0:0:0:
206,228,2819,2,2,P|179:233|153:236,1,34
97,182,3015,1,2,0:0:0:0:
188,72,3211,1,8,0:0:0:0:
188,72,3309,1,8,0:0:0:0:
188,72,3407,1,8,0:0:0:0:
293,164,3603,1,2,0:0:0:0:
308,161,3701,1,2,0:0:0:0:
321,159,3799,5,6,0:0:0:0:
451,119,3995,1,0,0:0:0:0:
359,24,4192,1,8,0:0:0:0:
439,164,4388,2,0,P|476:159|521:146,1,68,2|0,0:0|0:0,0:0:0:0:
352,308,4780,2,0,P|386:315|432:330,1,68,2|8,0:0|0:0,0:0:0:0:
248,115,5172,6,0,P|243:154|236:191,1,68,6|0,0:0|0:0,0:0:0:0:
164,323,5564,1,2,0:0:0:0:
82,206,5760,1,8,0:0:0:0:
248,289,5956,2,0,P|282:286|341:276,1,68,2|0,0:0|0:0,0:0:0:0:
458,241,6348,2,0,P|457:229|456:207,1,34,2|2,0:0|0:0,0:0:0:0:
397,120,6544,1,8,0:0:0:0:
366,103,6643,1,8,0:0:0:0:
332,103,6741,1,8,0:0:0:0:
304,117,6839,1,8,0:0:0:0:
283,142,6937,5,6,0:0:0:0:
153,94,7133,1,0,0:0:0:0:
257,18,7329,1,8,0:0:0:0:
159,191,7525,2,0,P|123:197|81:199,1,68,2|0,0:0|0:0,0:0:0:0:
238,348,7917,2,0,P|200:339|148:331,1,68,2|8,0:0|0:0,0:0:0:0:
350,144,8309,6,0,P|341:185|337:233,1,68,2|0,0:0|0:0,0:0:0:0:
435,320,8701,1,0,0:0:0:0:
352,240,8897,1,8,0:0:0:0:
238,348,9094,2,0,P|233:317|219:256,1,68,2|0,0:0|0:0,0:0:0:0:
128,153,9486,1,0,0:0:0:0:
225,81,9682,1,8,0:0:0:0:
141,244,9878,1,2,0:0:0:0:
141,244,9976,1,2,0:0:0:0:
141,244,10074,5,2,0:0:0:0:
43,159,10270,1,2,0:0:0:0:
225,81,10466,1,8,0:0:0:0:
325,251,10662,2,0,P|332:216|347:160,1,68,2|0,0:0|0:0,0:0:0:0:
413,70,11054,1,2,0:0:0:0:
452,195,11250,1,8,0:0:0:0:
297,348,11446,6,0,P|248:338|186:335,1,102,2|0,0:0|0:0,0:0:0:0:
336,331,11839,2,0,P|291:307|237:290,1,102,2|0,0:0|0:0,0:0:0:0:
377,333,12231,1,6,0:0:0:0:
242,291,12623,5,0,3:0:0:0:
242,291,12721,1,0,3:0:0:0:
242,291,12819,1,2,0:3:0:0:
36,312,13211,5,6,0:0:0:0:
69,243,13407,1,0,0:0:0:0:
140,275,13603,1,0,0:0:0:0:
108,346,13799,1,2,0:0:0:0:
83,218,13995,1,0,0:0:0:0:
189,343,14192,2,0,P|220:348|280:348,1,68
362,275,14584,1,0,0:0:0:0:
362,275,14780,6,0,P|358:313|357:357,1,68,2|0,0:0|0:0,0:0:0:0:
433,210,15172,1,0,0:0:0:0:
433,210,15368,2,0,P|363:247|285:216,1,136,2|0,0:0|0:0,0:0:0:0:
199,173,15956,1,0,0:0:0:0:
227,253,16152,1,0,0:0:0:0:
261,109,16348,5,2,0:0:0:0:
172,169,16544,1,0,0:0:0:0:
81,119,16741,1,0,0:0:0:0:
18,260,16937,2,0,P|14:228|8:191,1,68,2|0,0:0|0:0,0:0:0:0:
0,57,17329,1,0,0:0:0:0:
81,119,17525,1,0,0:0:0:0:
104,14,17721,1,0,0:0:0:0:
291,194,17917,5,2,0:0:0:0:
178,235,18113,1,0,0:0:0:0:
203,116,18309,1,0,0:0:0:0:
305,212,18505,2,0,P|355:232|430:193,1,136,2|0,0:0|0:0,0:0:0:0:
506,64,19094,1,0,0:0:0:0:
426,112,19290,1,2,0:0:0:0:
301,34,19486,6,0,P|267:38|223:40,1,68
138,3,19878,1,0,0:0:0:0:
32,98,20074,2,0,P|29:128|45:174,1,68,2|0,0:0|0:0,0:0:0:0:
173,223,20466,2,0,P|175:180|156:138,1,68
56,295,20858,1,0,0:0:0:0:
144,369,21054,6,0,L|7:385,1,136,2|0,0:0|0:0,0:0:0:0:
233,284,21643,1,2,0:0:0:0:
122,241,21839,1,0,0:0:0:0:
250,173,22035,1,0,0:0:0:0:
128,210,22231,1,0,0:0:0:0:
140,87,22427,1,0,0:0:0:0:
250,173,22623,6,0,P|319:180|370:133,1,136,2|0,0:0|0:0,0:0:0:0:
357,43,23211,1,2,0:0:0:0:
135,18,23407,6,0,L|148:167,1,136
128,242,23995,1,0,0:0:0:0:
297,126,24192,6,0,P|360:171|347:247,1,136,2|0,0:0|0:0,0:0:0:0:
282,297,24780,1,2,0:0:0:0:
128,242,24976,2,0,L|143:155,1,68
80,86,25368,1,4,0:3:0:0:
0,153,25564,1,8,0:3:0:0:
0,153,25662,1,8,0:3:0:0:
0,153,25760,5,6,0:0:0:0:
46,269,25956,1,0,0:0:0:0:
139,174,26152,1,8,0:0:0:0:
195,294,26348,1,0,0:0:0:0:
283,196,26544,1,2,0:0:0:0:
183,60,26741,2,0,P|148:67|107:72,1,68,0|8,0:0|0:0,0:0:0:0:
310,24,27133,1,0,0:0:0:0:
391,142,27329,6,0,P|374:84|423:22,1,136,2|8,0:0|0:0,0:0:0:0:
511,223,27917,2,0,P|479:230|433:233,1,68,2|0,0:0|0:0,0:0:0:0:
293,203,28309,1,0,0:0:0:0:
391,142,28505,1,8,0:0:0:0:
346,311,28701,1,2,0:0:0:0:
346,311,28799,1,2,0:0:0:0:
346,311,28897,6,0,P|305:308|261:300,1,68,6|0,0:0|0:0,0:0:0:0:
164,290,29290,1,8,0:0:0:0:
60,169,29486,2,0,P|51:205|47:254,1,68,2|0,0:0|0:0,0:0:0:0:
158,94,29878,1,2,0:0:0:0:
274,177,30074,2,0,P|310:174|352:159,1,68,8|0,0:0|0:0,0:0:0:0:
443,106,30466,5,2,0:0:0:0:
459,286,30662,2,0,P|429:276|381:271,1,68,2|8,0:0|0:0,0:0:0:0:
272,330,31054,1,2,0:0:0:0:
153,273,31250,1,2,0:0:0:0:
260,213,31446,1,0,0:0:0:0:
105,355,31643,1,8,0:0:0:0:
26,171,31839,1,0,0:0:0:0:
153,273,32035,6,0,P|189:281|248:284,1,68,6|0,0:0|0:0,0:0:0:0:
396,253,32427,1,8,0:0:0:0:
271,113,32623,2,0,P|234:121|197:141,1,68,2|0,0:0|0:0,0:0:0:0:
396,253,33015,2,0,P|433:245|469:222,1,68,2|8,0:0|0:0,0:0:0:0:
219,284,33407,1,0,0:0:0:0:
415,118,33603,6,0,P|404:185|396:252,1,136,2|8,0:0|0:0,0:0:0:0:
271,108,34192,1,2,0:0:0:0:
373,42,34388,1,2,0:0:0:0:
276,209,34584,1,0,0:0:0:0:
170,59,34780,1,8,0:0:0:0:
271,108,34976,1,2,0:0:0:0:
130,198,35172,6,0,P|96:197|44:185,1,68,2|0,0:0|0:0,0:0:0:0:
197,317,35564,2,0,P|163:329|125:329,1,68,2|0,0:0|0:0,0:0:0:0:
391,201,35956,2,0,P|421:202|471:220,1,68,2|0,0:0|0:0,0:0:0:0:
320,89,36348,2,0,P|359:75|402:68,1,68,2|0,0:0|0:0,0:0:0:0:
200,35,36741,5,2,0:0:0:0:
285,218,36937,2,0,P|290:257|293:308,1,68,2|0,0:0|0:0,0:0:0:0:
160,143,37329,1,2,0:0:0:0:
333,47,37525,2,0,P|371:53|420:60,1,68,2|0,0:0|0:0,0:0:0:0:
462,167,37917,1,8,0:0:0:0:
416,159,38015,1,8,0:0:0:0:
372,151,38113,1,8,0:0:0:0:
332,143,38211,1,8,0:0:0:0:
291,133,38309,5,12,0:0:0:0:
268,150,38701,1,2,0:0:0:0:
154,33,38897,2,0,L|165:105,1,68,6|0,0:0|0:0,0:0:0:0:
111,241,39290,1,2,0:0:0:0:
24,133,39486,1,8,0:0:0:0:
177,184,39682,1,8,0:0:0:0:
177,184,39780,1,8,0:0:0:0:
177,184,39878,5,12,0:0:0:0:
202,206,40270,1,2,0:0:0:0:
333,103,40466,2,0,L|320:183,1,68,6|0,0:0|0:0,0:0:0:0:
352,335,40858,1,2,0:0:0:0:
261,248,41054,1,8,0:0:0:0:
397,213,41250,1,8,0:0:0:0:
397,213,41348,1,8,0:0:0:0:
397,213,41446,5,8,0:0:0:0:
341,351,41643,1,2,0:0:0:0:
233,254,41839,1,8,0:0:0:0:
96,327,42035,2,0,P|85:294|81:235,1,76.4999976654053,2|0,0:0|0:0,0:0:0:0:
145,94,42427,1,2,0:0:0:0:
16,141,42623,1,8,0:0:0:0:
102,21,42819,1,0,0:0:0:0:
265,152,43015,5,2,0:0:0:0:
145,94,43211,1,2,0:0:0:0:
251,15,43407,1,8,0:0:0:0:
161,254,43603,2,0,P|117:249|66:239,1,76.4999976654053,2|0,0:0|0:0,0:0:0:0:
265,152,43995,1,2,0:0:0:0:
344,294,44192,1,8,0:0:0:0:
479,139,44388,1,8,0:0:0:0:
479,139,44486,1,8,0:0:0:0:
479,139,44584,5,12,0:0:0:0:
463,171,44976,1,8,0:0:0:0:
377,54,45172,2,0,P|371:88|368:128,1,68,6|0,0:0|0:0,0:0:0:0:
362,252,45564,1,2,0:0:0:0:
275,172,45760,1,8,0:0:0:0:
254,166,45858,1,8,0:0:0:0:
238,181,45956,1,8,0:0:0:0:
249,204,46054,1,8,0:0:0:0:
273,198,46152,5,6,0:0:0:0:
282,217,46544,1,8,0:0:0:0:
148,157,46741,2,0,P|156:195|161:233,1,68,6|0,0:0|0:0,0:0:0:0:
114,368,47133,1,2,0:0:0:0:
236,301,47329,1,8,0:0:0:0:
85,208,47525,1,8,0:0:0:0:
85,208,47623,1,8,0:0:0:0:
85,208,47721,5,6,0:0:0:0:
206,110,47917,1,2,0:0:0:0:
86,53,48113,1,8,0:0:0:0:
200,203,48309,1,0,0:0:0:0:
325,102,48505,1,2,0:0:0:0:
439,266,48701,2,0,P|447:235|455:189,1,68,2|8,0:0|0:0,0:0:0:0:
427,60,49093,1,0,0:0:0:0:
282,210,49290,5,2,0:0:0:0:
212,101,49486,1,2,0:0:0:0:
291,7,49682,1,8,0:0:0:0:
163,176,49878,2,0,P|134:182|69:186,1,68,2|0,0:0|0:0,0:0:0:0:
372,105,50270,2,8,P|367:131|364:152,1,34
434,209,50466,5,8,0:0:0:0:
440,177,50564,1,8,0:0:0:0:
449,137,50662,1,8,0:0:0:0:
457,94,50760,1,8,0:0:0:0:
465,53,50858,5,2,0:0:0:0:
290,118,51054,1,2,0:0:0:0:
385,280,51250,1,2,0:0:0:0:
371,166,51446,1,2,0:0:0:0:
262,294,51643,1,2,0:0:0:0:
202,127,51840,1,2,0:0:0:0:
375,170,52035,1,2,0:0:0:0:
161,278,52231,1,2,0:0:0:0:
331,48,52427,5,8,0:0:0:0:
42,17,52623,1,8,0:0:0:0:
161,278,52819,1,8,0:0:0:0:
331,48,53015,1,8,0:0:0:0:
108,130,53211,5,8,0:0:0:0:
243,144,53407,1,2,0:0:0:0:
243,144,53505,1,2,0:0:0:0:
243,144,53603,1,12,0:0:0:0:
243,144,53995,5,6,0:0:0:0:
435,195,54192,1,0,0:0:0:0:
291,328,54388,1,8,0:0:0:0:
489,139,54584,2,0,P|512:183|499:246,1,85,2|0,0:0|0:0,0:0:0:0:
291,328,54976,2,0,P|269:297|269:239,1,85,2|8,0:0|0:0,0:0:0:0:
389,47,55368,1,0,0:0:0:0:
182,131,55564,5,2,0:0:0:0:
349,263,55760,1,0,0:0:0:0:
389,47,55956,1,8,0:0:0:0:
212,250,56152,1,8,0:0:0:0:
212,250,56250,1,8,0:0:0:0:
212,250,56348,1,8,0:0:0:0:
182,131,56544,1,2,0:0:0:0:
311,174,56741,2,0,P|353:169|400:163,1,85,8|0,0:0|0:0,0:0:0:0:
272,6,57133,5,2,0:0:0:0:
439,53,57329,1,0,0:0:0:0:
311,174,57525,1,8,0:0:0:0:
145,106,57721,2,0,P|139:152|137:212,1,85,2|0,0:0|0:0,0:0:0:0:
379,370,58113,2,0,P|423:366|487:349,1,85,2|8,0:0|0:0,0:0:0:0:
136,190,58505,6,0,P|103:185|45:183,1,85,2|0,0:0|0:0,0:0:0:0:
416,82,58897,1,2,0:0:0:0:
253,230,59093,1,8,0:0:0:0:
176,16,59290,2,0,L|184:100,1,85,2|0,0:0|0:0,0:0:0:0:
204,348,59682,1,2,0:0:0:0:
51,182,59878,1,8,0:0:0:0:
277,136,60074,1,8,0:0:0:0:
277,136,60172,1,8,0:0:0:0:
277,136,60270,5,6,0:0:0:0:
112,291,60466,1,0,0:0:0:0:
45,71,60662,1,8,0:0:0:0:
339,189,60858,2,0,P|356:151|354:104,1,85,2|0,0:0|0:0,0:0:0:0:
45,71,61250,2,0,P|28:110|42:174,1,85,2|8,0:0|0:0,0:0:0:0:
293,364,61643,6,0,L|408:353,1,85,2|0,0:0|0:0,0:0:0:0:
509,141,62035,1,2,0:0:0:0:
277,125,62231,1,8,0:0:0:0:
378,347,62427,1,2,0:0:0:0:
323,59,62623,2,0,P|274:48|216:67,1,85,2|0,0:0|0:0,0:0:0:0:
100,307,63015,2,0,P|96:262|93:213,1,85,8|0,0:0|0:0,0:0:0:0:
60,46,63407,5,6,0:0:0:0:
75,57,63799,1,2,0:0:0:0:
242,120,63995,1,6,0:0:0:0:
93,222,64192,1,0,0:0:0:0:
250,141,64388,1,2,0:0:0:0:
331,363,64584,1,8,0:0:0:0:
512,176,64780,6,0,P|470:188|408:187,1,85,6|0,0:0|0:0,0:0:0:0:
250,141,65172,1,2,0:0:0:0:
250,141,65270,1,2,0:0:0:0:
250,141,65368,1,2,0:0:0:0:
93,222,65564,1,2,0:0:0:0:
93,222,65662,1,2,0:0:0:0:
93,222,65760,1,2,0:0:0:0:
234,332,65956,1,2,0:0:0:0:
234,332,66054,1,2,0:0:0:0:
234,332,66152,2,8,L|244:285,1,42.5
376,232,66348,2,10,L|368:191,1,42.5
190,105,66544,5,6,0:0:0:0:
382,18,66741,1,0,0:0:0:0:
376,232,66937,1,8,0:0:0:0:
112,148,67133,2,0,P|99:102|129:43,1,85,2|0,0:0|0:0,0:0:0:0:
382,18,67525,2,0,P|395:57|375:116,1,85,2|8,0:0|0:0,0:0:0:0:
250,321,67917,6,0,P|206:326|154:328,1,85,2|0,0:0|0:0,0:0:0:0:
419,214,68309,1,2,0:0:0:0:
227,140,68505,1,8,0:0:0:0:
400,15,68701,1,8,0:0:0:0:
400,15,68799,1,8,0:0:0:0:
400,15,68897,1,8,0:0:0:0:
334,153,69094,1,2,0:0:0:0:
232,46,69290,2,0,P|189:46|147:42,1,85,8|0,0:0|0:0,0:0:0:0:
143,266,69682,5,2,0:0:0:0:
0,164,69878,1,0,0:0:0:0:
147,42,70074,1,8,0:0:0:0:
312,190,70270,2,0,P|320:147|326:97,1,85,2|0,0:0|0:0,0:0:0:0:
461,344,70662,2,0,P|419:353|377:356,1,85,2|8,0:0|0:0,0:0:0:0:
110,158,71054,6,0,P|68:148|11:146,1,85,2|0,0:0|0:0,0:0:0:0:
355,138,71446,1,2,0:0:0:0:
251,366,71643,1,8,0:0:0:0:
110,158,71839,2,0,P|103:119|102:74,1,85,2|0,0:0|0:0,0:0:0:0:
330,35,72231,1,2,0:0:0:0:
110,158,72427,1,8,0:0:0:0:
317,285,72623,1,8,0:0:0:0:
317,285,72721,1,8,0:0:0:0:
317,285,72819,5,6,0:0:0:0:
168,47,73015,1,0,0:0:0:0:
42,281,73211,1,8,0:0:0:0:
379,344,73407,2,0,P|396:306|394:259,1,85,2|0,0:0|0:0,0:0:0:0:
168,47,73799,2,0,P|151:86|165:150,1,85,2|8,0:0|0:0,0:0:0:0:
476,24,74192,6,0,L|490:141,1,85,2|0,0:0|0:0,0:0:0:0:
355,339,74584,1,2,0:0:0:0:
222,99,74780,1,8,0:0:0:0:
487,109,74976,1,0,0:0:0:0:
255,299,75172,2,0,P|201:296|156:279,1,85,2|0,0:0|0:0,0:0:0:0:
30,17,75564,2,0,P|32:59|36:101,1,85,8|0,0:0|0:0,0:0:0:0:
54,316,75956,5,2,0:0:0:0:
219,201,76152,1,2,0:0:0:0:
219,201,76250,1,2,0:0:0:0:
219,201,76348,1,8,0:0:0:0:
36,101,76544,1,2,0:0:0:0:
36,101,76643,1,2,0:0:0:0:
36,101,76741,1,2,0:0:0:0:
176,347,76937,6,8,P|202:347|222:332,1,42.5
219,201,77133,2,8,P|211:180|179:161,1,42.5
66,238,77329,2,8,P|60:265|61:289,1,42.5
176,347,77525,1,6,0:0:0:0:
408,62,78701,1,8,0:0:0:0:
440,72,78799,1,8,0:0:0:0:
440,106,78897,1,8,0:0:0:0:
407,117,78995,1,8,0:0:0:0:
388,89,79094,5,6,0:0:0:0:
