osu file format v14

[General]
AudioFilename: audio.mp3
AudioLeadIn: 0
PreviewTime: 53897
Countdown: 0
SampleSet: Soft
StackLeniency: 0.7
Mode: 0
LetterboxInBreaks: 0
WidescreenStoryboard: 0

[Editor]
Bookmarks: 53995,66544
DistanceSpacing: 1
BeatDivisor: 4
GridSize: 32
TimelineZoom: 1.4

[Metadata]
Title:Hologram
TitleUnicode:ホログラム
Artist:ClariS
ArtistUnicode:ClariS
Creator:Yasaija 714
Version:Insane
Source:
Tags:fairy castle clara alice Karen [C_u_r_i] Asuka_-
BeatmapID:1425095
BeatmapSetID:673365

[Difficulty]
HPDrainRate:6
CircleSize:4
OverallDifficulty:7
ApproachRate:8
SliderMultiplier:1.5
SliderTickRate:1

[Events]
//Background and Video events
0,0,"BG.jpg",0,0
//Break Periods
//Storyboard Layer 0 (Background)
//Storyboard Layer 1 (Fail)
//Storyboard Layer 2 (Pass)
//Storyboard Layer 3 (Foreground)
//Storyboard Sound Samples

[TimingPoints]
-906,392.156862745098,4,2,1,40,1,0
662,-100,4,2,1,60,0,0
13211,-125,4,2,1,40,0,0
25760,-100,4,2,1,50,0,0
38309,-100,4,2,1,60,0,0
50858,-125,4,2,1,40,0,0
52427,-100,4,2,1,60,0,0
53995,-90.9090909090909,4,2,1,80,0,1
77525,-100,4,2,1,70,0,0

[Colours]
Combo1 : 255,149,149
Combo2 : 81,255,255
Combo3 : 147,198,119
Combo4 : 255,136,255

[HitObjects]
140,188,270,5,2,0:0:0:0:
146,205,368,1,2,0:0:0:0:
152,222,466,1,2,0:0:0:0:
158,239,564,1,2,0:0:0:0:
164,256,662,6,0,L|156:332,1,75,6|0,0:0|0:0,0:0:0:0:
64,354,1054,1,2,0:0:0:0:
234,364,1250,2,0,L|253:209,1,150,6|2,0:0|0:0,0:0:0:0:
252,215,2035,1,6,0:0:0:0:
252,215,3211,6,0,L|255:161,1,37.5
260,97,3407,2,0,P|321:105|359:93,1,75,8|2,0:0|0:0,0:0:0:0:
417,67,3701,1,2,0:0:0:0:
417,67,3799,6,0,L|402:154,1,75,6|0,0:0|0:0,0:0:0:0:
460,229,4192,1,2,0:0:0:0:
333,102,4388,2,0,L|305:260,1,150,6|2,0:0|0:0,0:0:0:0:
306,249,4976,1,8,0:0:0:0:
174,317,5172,6,0,P|98:308|17:346,1,150,6|0,0:0|0:0,0:0:0:0:
28,215,5760,1,2,0:0:0:0:
28,215,5956,2,0,P|76:212|118:199,1,75,2|8,0:0|0:0,0:0:0:0:
185,146,6348,1,2,0:0:0:0:
185,146,6446,1,8,0:0:0:0:
185,146,6544,2,0,L|192:190,1,37.5,8|8,0:0|0:0,0:0:0:0:
266,97,6741,2,0,L|271:59,1,37.5,2|2,0:0|0:0,0:0:0:0:
343,150,6937,6,0,P|382:141|450:157,1,75,6|0,0:0|0:0,0:0:0:0:
494,211,7329,1,8,0:0:0:0:
397,366,7525,2,0,P|378:294|385:220,1,150,2|2,0:0|0:0,0:0:0:0:
416,143,8113,1,8,0:0:0:0:
266,97,8309,6,0,P|272:171|253:243,1,150,2|2,0:0|0:0,0:0:0:0:
136,298,8897,1,8,0:0:0:0:
136,298,9094,2,0,B|175:329|175:329|298:330,1,150,2|0,0:0|0:0,0:0:0:0:
355,361,9682,1,8,0:0:0:0:
253,243,9878,1,2,0:0:0:0:
253,243,9976,1,2,0:0:0:0:
253,243,10074,6,0,P|269:198|272:158,1,75,6|0,0:0|0:0,0:0:0:0:
228,93,10466,1,2,0:0:0:0:
23,160,10662,2,0,P|68:176|143:169,1,112.5,2|0,0:0|0:0,0:0:0:0:
178,161,11054,1,8,0:0:0:0:
110,262,11250,1,8,0:0:0:0:
86,90,11446,5,2,0:0:0:0:
328,141,11839,1,2,0:0:0:0:
178,337,12231,1,2,0:0:0:0:
228,17,12819,5,0,0:0:0:0:
228,17,13211,6,0,L|234:100,1,60,2|0,0:0|0:0,0:0:0:0:
287,146,13603,1,2,0:0:0:0:
287,146,13799,2,0,P|352:153|408:132,1,120
457,74,14388,1,2,0:0:0:0:
476,237,14780,6,0,P|478:271|475:306,1,60,2|0,0:0|0:0,0:0:0:0:
423,361,15172,1,2,0:0:0:0:
423,361,15368,2,0,B|365:349|365:349|299:365,1,120
221,374,15956,1,2,0:0:0:0:
74,282,16348,6,0,P|107:273|152:269,1,60,2|0,0:0|0:0,0:0:0:0:
217,281,16741,1,2,0:0:0:0:
217,281,16937,2,0,P|210:206|220:138,1,120
265,98,17525,1,2,0:0:0:0:
420,161,17917,6,0,P|425:205|421:236,1,60,2|0,0:0|0:0,0:0:0:0:
370,281,18309,1,2,0:0:0:0:
370,281,18505,2,0,P|302:272|246:286,1,120
192,345,19094,2,0,P|157:349|117:346,1,60,2|0,0:0|0:0,0:0:0:0:
38,284,19486,6,0,P|34:249|34:215,1,60,2|0,0:0|0:0,0:0:0:0:
75,151,19878,1,2,0:0:0:0:
75,151,20074,2,0,B|134:165|134:165|197:146,1,120
254,90,20662,1,2,0:0:0:0:
398,185,21054,6,0,P|395:239|400:272,1,60,2|0,0:0|0:0,0:0:0:0:
450,309,21446,1,2,0:0:0:0:
450,309,21643,2,0,B|370:327|370:327|324:317,1,120
259,276,22231,2,0,L|195:291,1,60,2|0,0:0|0:0,0:0:0:0:
100,315,22623,6,0,P|81:242|98:193,1,120,2|0,0:0|0:0,0:0:0:0:
159,140,23211,1,0,0:0:0:0:
159,140,23407,2,0,P|239:149|289:121,1,120,2|0,0:0|0:0,0:0:0:0:
405,26,24192,6,0,L|422:149,1,120,2|0,0:0|0:0,0:0:0:0:
503,93,24780,1,0,0:0:0:0:
503,93,24976,2,0,L|486:216,1,120,2|0,0:0|0:0,0:0:0:0:
429,290,25564,1,8,0:0:0:0:
429,290,25662,1,8,0:0:0:0:
429,290,25760,6,0,P|381:284|346:296,1,75,4|0,0:0|0:0,0:0:0:0:
287,357,26152,1,8,0:0:0:0:
223,287,26348,1,0,0:0:0:0:
356,290,26544,1,0,0:0:0:0:
244,215,26741,2,0,L|220:296,1,75,0|8,0:0|0:0,0:0:0:0:
327,206,27133,1,0,0:0:0:0:
140,149,27329,6,0,L|164:230,1,75,2|0,0:0|0:0,0:0:0:0:
216,91,27721,1,8,0:0:0:0:
108,53,27917,2,0,P|70:57|22:74,1,75,2|0,0:0|0:0,0:0:0:0:
180,28,28309,1,0,0:0:0:0:
63,146,28505,2,0,P|52:182|49:220,1,75,8|0,0:0|0:0,0:0:0:0:
216,186,28897,6,0,P|261:177|296:178,1,75,2|0,0:0|0:0,0:0:0:0:
289,177,29192,1,0,0:0:0:0:
289,177,29290,1,8,0:0:0:0:
396,290,29486,2,0,B|430:213|368:210|393:145,1,150,2|0,0:0|0:0,0:0:0:0:
437,63,30074,1,8,0:0:0:0:
479,172,30270,1,0,0:0:0:0:
336,82,30466,6,0,L|262:96,1,75,2|0,0:0|0:0,0:0:0:0:
171,21,30858,1,8,0:0:0:0:
101,161,31054,2,0,P|77:228|113:316,1,150,2|0,0:0|0:0,0:0:0:0:
188,361,31643,1,8,0:0:0:0:
185,232,31839,1,8,0:0:0:0:
38,355,32035,6,0,P|87:332|156:345,1,112.5,4|0,0:0|0:0,0:0:0:0:
188,361,32427,1,8,0:0:0:0:
185,232,32623,2,0,P|165:186|165:153,1,75,2|0,0:0|0:0,0:0:0:0:
348,161,33015,2,0,P|344:198|327:231,1,75,2|8,0:0|0:0,0:0:0:0:
225,297,33407,1,0,0:0:0:0:
378,295,33603,6,0,P|420:223|426:145,1,150,2|8,0:0|0:0,0:0:0:0:
357,57,34192,1,0,0:0:0:0:
265,140,34388,2,0,L|286:226,1,75,2|0,0:0|0:0,0:0:0:0:
196,334,34780,2,0,L|178:261,1,75,8|0,0:0|0:0,0:0:0:0:
117,79,35172,5,2,0:0:0:0:
108,169,35564,1,2,0:0:0:0:
99,259,35956,1,2,0:0:0:0:
90,349,36348,1,2,0:0:0:0:
117,79,36741,5,2,0:0:0:0:
117,79,36937,2,0,P|166:92|202:91,1,75,2|0,0:0|0:0,0:0:0:0:
276,37,37329,2,0,P|325:24|361:25,1,75,2|0,0:0|0:0,0:0:0:0:
440,70,37721,1,0,0:0:0:0:
420,194,37917,1,8,0:0:0:0:
420,194,38015,1,8,0:0:0:0:
420,194,38113,1,8,0:0:0:0:
272,162,38309,6,0,L|286:257,1,75,4|0,0:0|0:0,0:0:0:0:
305,332,38701,1,8,0:0:0:0:
177,200,38897,2,0,L|199:353,1,150,4|0,0:0|0:0,0:0:0:0:
84,244,39486,1,8,0:0:0:0:
102,354,39682,2,0,L|96:313,1,37.5
74,170,39878,6,0,L|155:178,1,75,4|0,0:0|0:0,0:0:0:0:
246,190,40270,1,8,0:0:0:0:
99,77,40466,2,0,L|259:93,1,150,4|0,0:0|0:0,0:0:0:0:
347,105,41054,1,8,0:0:0:0:
326,257,41250,1,8,0:0:0:0:
326,257,41348,1,8,0:0:0:0:
326,257,41446,6,0,P|346:307|369:337,1,75,2|0,0:0|0:0,0:0:0:0:
454,349,41839,1,8,0:0:0:0:
508,193,42035,2,0,B|410:202|410:202|354:186,1,150,2|0,0:0|0:0,0:0:0:0:
270,132,42623,1,8,0:0:0:0:
237,269,42819,1,0,0:0:0:0:
237,269,42917,1,0,0:0:0:0:
237,269,43015,6,0,P|185:261|141:270,1,75,2|0,0:0|0:0,0:0:0:0:
37,328,43407,2,0,P|89:336|133:327,1,75,8|0,0:0|0:0,0:0:0:0:
112,193,43799,1,0,0:0:0:0:
237,269,43995,1,0,0:0:0:0:
297,134,44192,1,8,0:0:0:0:
458,193,44388,1,0,0:0:0:0:
458,193,44486,1,0,0:0:0:0:
458,193,44584,6,0,L|453:283,1,75,4|0,0:0|0:0,0:0:0:0:
383,335,44976,1,8,0:0:0:0:
287,177,45172,2,0,L|280:330,1,150,4|0,0:0|0:0,0:0:0:0:
155,357,45760,1,8,0:0:0:0:
155,357,45858,1,8,0:0:0:0:
155,357,45956,1,8,0:0:0:0:
155,357,46054,1,8,0:0:0:0:
155,357,46152,6,0,L|65:315,1,75,4|0,0:0|0:0,0:0:0:0:
47,232,46544,1,8,0:0:0:0:
230,214,46741,2,0,L|94:150,1,150,4|0,0:0|0:0,0:0:0:0:
93,33,47329,1,8,0:0:0:0:
218,106,47525,1,8,0:0:0:0:
218,106,47623,1,8,0:0:0:0:
218,106,47721,6,0,P|265:109|302:101,1,75
451,45,48113,2,0,P|404:48|367:40,1,75,8|0,0:0|0:0,0:0:0:0:
252,19,48505,1,2,0:0:0:0:
300,145,48701,1,2,0:0:0:0:
178,119,48897,1,8,0:0:0:0:
226,245,49093,1,0,0:0:0:0:
226,245,49192,1,0,0:0:0:0:
226,245,49290,6,0,P|221:289|214:323,1,75,2|0,0:0|0:0,0:0:0:0:
120,351,49682,1,8,0:0:0:0:
14,212,49878,2,0,P|101:210|181:177,1,150,2|2,0:0|0:0,0:0:0:0:
226,98,50466,1,8,0:0:0:0:
255,102,50564,1,8,0:0:0:0:
284,107,50662,1,8,0:0:0:0:
313,112,50760,1,8,0:0:0:0:
339,117,50858,6,0,L|322:194,1,60,2|0,0:0|0:0,0:0:0:0:
243,237,51250,1,2,0:0:0:0:
392,253,51446,1,2,0:0:0:0:
214,336,51643,1,2,0:0:0:0:
394,355,51839,1,2,0:0:0:0:
217,222,52035,1,2,0:0:0:0:
425,244,52231,1,2,0:0:0:0:
339,42,52427,6,0,L|339:128,1,75,6|2,0:0|0:0,0:0:0:0:
319,359,52819,1,10,0:0:0:0:
499,194,53015,1,10,0:0:0:0:
257,131,53211,5,8,0:0:0:0:
248,317,53407,1,0,0:0:0:0:
248,317,53505,1,0,0:0:0:0:
248,317,53603,2,0,L|224:204,1,112.5,8|0,0:0|0:0,0:0:0:0:
248,119,53995,6,0,P|300:130|337:127,1,82.5000025177003,4|0,0:0|0:0,0:0:0:0:
422,85,54388,1,8,0:0:0:0:
227,26,54584,2,0,L|242:122,1,82.5000025177003,2|0,0:0|0:0,0:0:0:0:
98,158,54976,2,0,P|150:147|187:150,1,82.5000025177003,2|8,0:0|0:0,0:0:0:0:
279,218,55368,1,0,0:0:0:0:
151,258,55564,6,0,P|147:312|156:350,1,82.5000025177003,2|0,0:0|0:0,0:0:0:0:
268,368,55956,1,8,0:0:0:0:
236,210,56152,2,0,P|186:174|74:195,1,165.000005035401,2|0,0:0|0:0,0:0:0:0:
25,338,56741,2,0,P|19:297|24:257,1,82.5000025177003,8|0,0:0|0:0,0:0:0:0:
151,258,57133,5,2,0:0:0:0:
0,178,57329,1,0,0:0:0:0:
25,338,57525,1,8,0:0:0:0:
87,184,57721,2,0,L|65:98,1,82.5000025177003,2|0,0:0|0:0,0:0:0:0:
224,34,58113,2,0,L|203:113,1,82.5000025177003,2|8,0:0|0:0,0:0:0:0:
151,258,58505,6,0,P|240:245|313:276,1,165.000005035401,2|0,0:0|0:0,0:0:0:0:
435,346,59093,2,0,P|454:310|462:256,1,82.5000025177003,8|2,0:0|0:0,0:0:0:0:
361,204,59486,2,0,P|359:162|346:123,1,82.5000025177003,0|2,0:0|0:0,0:0:0:0:
227,117,59878,2,0,P|205:82|162:48,1,82.5000025177003,10|2,0:0|0:0,0:0:0:0:
83,33,60172,1,0,0:0:0:0:
83,33,60270,6,0,L|95:124,1,82.5000025177003,4|0,0:0|0:0,0:0:0:0:
167,213,60662,1,8,0:0:0:0:
174,55,60858,2,0,P|229:37|291:45,1,82.5000025177003,2|0,0:0|0:0,0:0:0:0:
346,123,61250,2,0,P|359:162|361:204,1,82.5000025177003,2|8,0:0|0:0,0:0:0:0:
258,296,61643,6,0,B|373:318|373:318|428:303,1,165.000005035401,2|0,0:0|0:0,0:0:0:0:
504,224,62231,1,8,0:0:0:0:
504,224,62427,2,0,P|486:178|479:133,1,82.5000025177003,2|0,0:0|0:0,0:0:0:0:
487,29,62819,1,0,0:0:0:0:
487,29,63015,2,0,P|421:52|368:42,1,123.75000377655,8|0,0:0|0:0,0:0:0:0:
286,9,63407,5,4,0:0:0:0:
365,306,63799,1,8,0:0:0:0:
294,188,63995,2,0,L|212:180,1,82.5000025177003,6|0,0:0|0:0,0:0:0:0:
369,116,64388,2,0,L|451:108,1,82.5000025177003,0|8,0:0|0:0,0:0:0:0:
410,226,64780,1,2,0:0:0:0:
283,102,64976,6,0,L|201:94,1,82.5000025177003,2|0,0:0|0:0,0:0:0:0:
120,125,65270,1,0,0:0:0:0:
120,125,65368,2,0,P|129:177|128:224,1,82.5000025177003,8|0,0:0|0:0,0:0:0:0:
28,286,65760,5,8,0:0:0:0:
60,289,65858,1,2,0:0:0:0:
92,291,65956,1,2,0:0:0:0:
124,293,66054,1,2,0:0:0:0:
160,337,66152,5,10,0:0:0:0:
192,334,66250,1,2,0:0:0:0:
224,332,66348,1,2,0:0:0:0:
256,330,66446,1,2,0:0:0:0:
289,284,66544,6,0,L|382:290,1,82.5000025177003,4|0,0:0|0:0,0:0:0:0:
472,338,66937,1,8,0:0:0:0:
422,222,67133,2,0,P|414:173|414:135,1,82.5000025177003,2|0,0:0|0:0,0:0:0:0:
266,83,67525,2,0,P|315:75|353:75,1,82.5000025177003,2|8,0:0|0:0,0:0:0:0:
247,172,67917,6,0,P|177:113|188:42,1,165.000005035401,2|0,0:0|0:0,0:0:0:0:
276,2,68505,1,8,0:0:0:0:
345,145,68701,2,0,P|343:168|336:189,1,41.2500012588501
236,243,68897,1,2,0:0:0:0:
236,243,69094,1,2,0:0:0:0:
266,83,69290,2,0,P|268:132|259:182,1,82.5000025177003,10|0,0:0|0:0,0:0:0:0:
118,262,69682,5,2,0:0:0:0:
297,331,69878,1,0,0:0:0:0:
174,186,70074,1,8,0:0:0:0:
127,366,70270,2,0,L|217:350,1,82.5000025177003,2|0,0:0|0:0,0:0:0:0:
285,254,70662,2,0,L|375:270,1,82.5000025177003,2|8,0:0|0:0,0:0:0:0:
496,341,71054,6,0,P|482:254|490:172,1,165.000005035401,2|0,0:0|0:0,0:0:0:0:
504,78,71643,1,10,0:0:0:0:
399,158,71839,1,2,0:0:0:0:
291,31,72035,2,0,P|289:72|304:128,1,82.5000025177003,0|2,0:0|0:0,0:0:0:0:
349,225,72427,1,8,0:0:0:0:
316,216,72525,1,0,0:0:0:0:
283,216,72623,1,2,0:0:0:0:
251,224,72721,1,2,0:0:0:0:
223,241,72819,6,0,P|178:258|116:256,1,82.5000025177003,4|0,0:0|0:0,0:0:0:0:
32,180,73211,1,8,0:0:0:0:
27,329,73407,2,0,P|72:346|134:344,1,82.5000025177003,2|0,0:0|0:0,0:0:0:0:
223,241,73799,2,0,P|268:224|330:226,1,82.5000025177003,2|8,0:0|0:0,0:0:0:0:
449,300,74192,6,0,B|412:216|479:215|447:133,1,165.000005035401,2|0,0:0|0:0,0:0:0:0:
369,41,74780,1,8,0:0:0:0:
369,41,74976,2,0,P|314:45|264:43,1,82.5000025177003,2|0,0:0|0:0,0:0:0:0:
154,22,75368,1,0,0:0:0:0:
154,22,75564,2,0,B|180:110|180:110|163:176,1,123.75000377655,8|0,0:0|0:0,0:0:0:0:
113,212,75956,5,4,0:0:0:0:
465,248,76348,1,8,0:0:0:0:
330,132,76544,1,14,0:0:0:0:
332,326,76741,1,8,0:0:0:0:
436,172,76937,2,0,L|405:113,1,41.2500012588501,8|2,0:0|0:0,0:0:0:0:
341,40,77133,1,10,0:0:0:0:
300,45,77231,1,2,0:0:0:0:
259,50,77329,1,8,0:0:0:0:
218,56,77427,1,8,0:0:0:0:
181,62,77525,5,12,0:0:0:0:
181,62,78701,5,2,0:0:0:0:
218,56,78799,1,2,0:0:0:0:
259,50,78897,1,2,0:0:0:0:
300,45,78995,1,2,0:0:0:0:
341,40,79094,5,6,0:0:0:0:
