osu file format v14

[General]
AudioFilename: audio.mp3
AudioLeadIn: 0
PreviewTime: 53897
Countdown: 0
SampleSet: Soft
StackLeniency: 0.7
Mode: 0
LetterboxInBreaks: 0
WidescreenStoryboard: 0

[Editor]
Bookmarks: 53995,66544
DistanceSpacing: 1.5
BeatDivisor: 4
GridSize: 32
TimelineZoom: 1.6

[Metadata]
Title:Hologram
TitleUnicode:ホログラム
Artist:ClariS
ArtistUnicode:ClariS
Creator:Yasaija 714
Version:Hard
Source:
Tags:fairy castle clara alice Karen [C_u_r_i] Asuka_-
BeatmapID:1425094
BeatmapSetID:673365

[Difficulty]
HPDrainRate:5
CircleSize:4
OverallDifficulty:6
ApproachRate:7
SliderMultiplier:1.3
SliderTickRate:1

[Events]
//Background and Video events
0,0,"BG.jpg",0,0
//Break Periods
//Storyboard Layer 0 (Background)
//Storyboard Layer 1 (Fail)
//Storyboard Layer 2 (Pass)
//Storyboard Layer 3 (Foreground)
//Storyboard Sound Samples

[TimingPoints]
-906,392.156862745098,4,2,1,40,1,0
662,-100,4,2,1,60,0,0
13211,-125,4,2,1,40,0,0
25760,-100,4,2,1,50,0,0
38309,-100,4,2,1,60,0,0
50858,-125,4,2,1,40,0,0
52427,-100,4,2,1,60,0,0
53995,-90.9090909090909,4,2,1,80,0,1
77525,-100,4,2,1,70,0,0

[Colours]
Combo1 : 255,149,149
Combo2 : 81,255,255
Combo3 : 147,198,119
Combo4 : 255,136,255

[HitObjects]
74,159,270,6,0,L|115:164,3,32.5,2|2|2|2,0:0|0:0|0:0|0:0,0:0:0:0:
154,169,662,6,0,B|166:72|166:72|137:40,1,130,6|2,0:0|0:0,0:0:0:0:
49,28,1250,2,0,L|41:92,1,65,6|0,0:0|0:0,0:0:0:0:
74,159,1643,1,2,0:0:0:0:
14,309,2035,1,6,0:0:0:0:
485,156,3799,6,0,P|424:142|343:152,1,130,6|2,0:0|0:0,0:0:0:0:
286,188,4388,2,0,L|298:261,1,65,6|0,0:0|0:0,0:0:0:0:
215,244,4780,2,0,L|226:309,1,65,2|8,0:0|0:0,0:0:0:0:
316,348,5172,6,0,B|345:333|380:330|380:330|366:300|372:248,1,130,6|0,0:0|0:0,0:0:0:0:
415,197,5760,1,2,0:0:0:0:
415,197,5956,2,0,P|335:183|277:189,1,130,2|2,0:0|0:0,0:0:0:0:
215,244,6544,2,0,L|197:298,3,32.5,8|8|2|2,0:0|0:0|0:0|0:0,0:0:0:0:
163,304,6937,6,0,P|100:317|29:312,1,130,6|8,0:0|0:0,0:0:0:0:
9,218,7525,2,0,L|25:146,1,65,2|0,0:0|0:0,0:0:0:0:
118,129,7917,2,0,L|132:192,1,65,2|8,0:0|0:0,0:0:0:0:
215,244,8309,6,0,P|278:257|349:252,1,130,2|2,0:0|0:0,0:0:0:0:
411,198,8897,1,8,0:0:0:0:
411,198,9094,2,0,P|433:256|392:325,1,130,2|0,0:0|0:0,0:0:0:0:
319,356,9682,1,8,0:0:0:0:
203,168,10074,6,0,B|137:175|137:175|72:212,1,130,6|2,0:0|0:0,0:0:0:0:
94,345,10662,2,0,P|99:306|90:266,1,65,2|0,0:0|0:0,0:0:0:0:
202,317,11054,2,0,P|186:280|159:250,1,65,8|8,0:0|0:0,0:0:0:0:
82,207,11446,5,2,0:0:0:0:
277,224,11839,1,2,0:0:0:0:
183,52,12231,1,2,0:0:0:0:
202,317,12819,5,0,0:0:0:0:
281,184,13211,6,0,L|294:294,1,104,2|2,0:0|0:0,0:0:0:0:
366,337,13799,2,0,L|378:233,1,104
440,169,14388,1,2,0:0:0:0:
333,56,14780,6,0,P|272:48|217:63,1,104,2|2,0:0|0:0,0:0:0:0:
168,119,15368,2,0,P|116:127|66:118,1,104,0|0,0:0|0:0,0:0:0:0:
17,44,15956,1,2,0:0:0:0:
14,201,16348,6,0,B|25:253|25:253|17:313,1,104,2|2,0:0|0:0,0:0:0:0:
101,268,16937,2,0,B|94:318|94:318|105:370,1,104,0|0,0:0|0:0,0:0:0:0:
176,316,17525,1,2,0:0:0:0:
164,159,17917,6,0,P|198:107|244:86,1,104,2|2,0:0|0:0,0:0:0:0:
295,151,18505,2,0,P|261:203|215:224,1,104,0|0,0:0|0:0,0:0:0:0:
164,159,19094,2,0,L|145:105,1,52,2|0,0:0|0:0,0:0:0:0:
171,25,19486,6,0,P|222:36|289:26,1,104,2|2,0:0|0:0,0:0:0:0:
336,94,20074,2,0,P|387:83|454:93,1,104,0|0,0:0|0:0,0:0:0:0:
499,152,20662,1,2,0:0:0:0:
420,285,21054,6,0,B|418:208|418:208|401:177,1,104,2|2,0:0|0:0,0:0:0:0:
319,165,21643,2,0,B|295:177|295:177|218:179,1,104,0|0,0:0|0:0,0:0:0:0:
130,173,22231,2,0,L|130:236,1,52,2|0,0:0|0:0,0:0:0:0:
128,321,22623,6,0,P|208:302|242:315,1,104,2|0,0:0|0:0,0:0:0:0:
303,352,23211,1,0,0:0:0:0:
303,352,23407,2,0,P|383:371|417:358,1,104,2|0,0:0|0:0,0:0:0:0:
487,210,24192,6,0,B|470:160|470:160|425:128,1,104,2|0,0:0|0:0,0:0:0:0:
355,82,24780,1,0,0:0:0:0:
355,82,24976,2,0,B|313:52|313:52|296:2,1,104,2|0,0:0|0:0,0:0:0:0:
236,188,25760,6,0,P|178:189|153:199,1,65,4|0,0:0|0:0,0:0:0:0:
93,250,26152,1,8,0:0:0:0:
93,250,26348,1,0,0:0:0:0:
168,312,26544,1,0,0:0:0:0:
168,312,26741,2,0,P|232:294|294:315,1,130
374,363,27329,6,0,L|381:297,1,65,2|0,0:0|0:0,0:0:0:0:
464,247,27721,1,8,0:0:0:0:
464,247,27917,2,0,P|408:204|341:209,1,130,2|0,0:0|0:0,0:0:0:0:
267,252,28505,2,0,L|273:316,1,65,8|0,0:0|0:0,0:0:0:0:
158,357,28897,6,0,P|164:283|151:209,1,130,2|8,0:0|0:0,0:0:0:0:
94,151,29486,2,0,P|168:157|242:144,1,130,2|0,0:0|0:0,0:0:0:0:
315,117,30074,1,8,0:0:0:0:
315,117,30270,1,0,0:0:0:0:
402,166,30466,6,0,B|421:229|421:229|408:301,1,130,2|8,0:0|0:0,0:0:0:0:
317,323,31054,2,0,B|298:260|298:260|311:188,1,130,2|0,0:0|0:0,0:0:0:0:
402,166,31643,2,0,P|437:172|475:168,1,65,8|8,0:0|0:0,0:0:0:0:
386,78,32035,6,0,P|304:68|236:80,1,130,4|8,0:0|0:0,0:0:0:0:
181,134,32623,2,0,P|187:198|177:262,2,130,2|2|0,0:0|0:0|0:0,0:0:0:0:
133,34,33603,6,0,L|260:75,1,130,2|8,0:0|0:0,0:0:0:0:
326,143,34192,1,0,0:0:0:0:
413,100,34388,2,0,P|421:137|414:191,1,65,2|0,0:0|0:0,0:0:0:0:
356,239,34780,2,0,P|348:276|355:330,1,65,8|0,0:0|0:0,0:0:0:0:
470,347,35172,6,0,B|484:280|484:280|457:208,1,130,2|2,0:0|0:0,0:0:0:0:
284,108,35956,2,0,B|262:165|262:165|276:232,1,130,2|2,0:0|0:0,0:0:0:0:
366,45,36741,1,2,0:0:0:0:
366,45,36937,2,0,L|304:24,1,65,2|0,0:0|0:0,0:0:0:0:
210,68,37329,2,0,L|148:89,1,65,2|0,0:0|0:0,0:0:0:0:
61,145,37721,1,0,0:0:0:0:
61,145,37917,2,0,L|66:192,2,32.5,8|8|8,0:0|0:0|0:0,0:0:0:0:
76,249,38309,5,4,0:0:0:0:
252,169,38701,1,8,0:0:0:0:
252,169,38897,2,0,L|250:244,1,65,4|0,0:0|0:0,0:0:0:0:
182,305,39290,2,0,L|180:380,1,65,0|8,0:0|0:0,0:0:0:0:
326,311,39682,1,0,0:0:0:0:
326,311,39780,1,0,0:0:0:0:
326,311,39878,5,4,0:0:0:0:
142,199,40270,1,8,0:0:0:0:
142,199,40466,2,0,P|145:155|142:129,1,65,4|0,0:0|0:0,0:0:0:0:
93,53,40858,2,0,P|137:56|163:53,2,65,0|8|8,0:0|0:0|0:0,0:0:0:0:
4,117,41446,6,0,L|20:197,1,65,2|0,0:0|0:0,0:0:0:0:
65,268,41839,1,8,0:0:0:0:
65,268,42035,2,0,P|148:240|205:246,1,130,2|0,0:0|0:0,0:0:0:0:
272,293,42623,1,8,0:0:0:0:
321,208,42819,1,0,0:0:0:0:
353,334,43015,6,0,P|393:338|433:334,1,65,2|0,0:0|0:0,0:0:0:0:
479,256,43407,2,0,P|439:252|399:256,1,65,8|0,0:0|0:0,0:0:0:0:
321,208,43799,1,0,0:0:0:0:
321,208,43995,1,0,0:0:0:0:
413,146,44192,2,0,P|419:74|406:30,1,97.5,8|0,0:0|0:0,0:0:0:0:
376,6,44584,5,4,0:0:0:0:
222,124,44976,1,8,0:0:0:0:
222,124,45172,2,0,L|231:198,1,65,4|0,0:0|0:0,0:0:0:0:
155,254,45564,2,0,L|146:328,1,65,0|8,0:0|0:0,0:0:0:0:
280,285,45956,1,8,0:0:0:0:
280,285,46054,1,8,0:0:0:0:
280,285,46152,5,4,0:0:0:0:
394,130,46544,1,8,0:0:0:0:
394,130,46741,2,0,P|344:146|308:168,1,65,4|0,0:0|0:0,0:0:0:0:
421,201,47133,2,0,P|471:185|507:163,1,65,0|8,0:0|0:0,0:0:0:0:
501,85,47525,1,8,0:0:0:0:
386,24,47721,6,0,P|388:61|392:92,1,65,0|0,0:0|0:0,0:0:0:0:
421,201,48113,1,8,0:0:0:0:
421,201,48309,1,0,0:0:0:0:
308,176,48505,2,0,P|310:138|314:108,2,65,2|2|8,0:0|0:0|0:0,0:0:0:0:
334,273,49093,1,0,0:0:0:0:
202,292,49290,6,0,P|182:230|176:154,1,130,2|8,0:0|0:0,0:0:0:0:
225,40,49878,2,0,P|228:81|221:117,1,65,2|0,0:0|0:0,0:0:0:0:
135,98,50270,2,0,P|102:94|70:97,1,65,2|8,0:0|0:0,0:0:0:0:
70,96,50564,1,8,0:0:0:0:
70,96,50662,1,8,0:0:0:0:
38,178,50858,6,0,L|6:238,1,52,2|0,0:0|0:0,0:0:0:0:
105,229,51250,2,0,L|107:296,1,52,2|2,0:0|0:0,0:0:0:0:
190,239,51643,2,0,L|226:295,1,52,2|2,0:0|0:0,0:0:0:0:
269,205,52035,2,0,L|328:236,1,52,2|2,0:0|0:0,0:0:0:0:
324,126,52427,5,6,0:0:0:0:
324,126,52623,1,2,0:0:0:0:
423,70,52819,1,10,0:0:0:0:
423,70,53015,1,10,0:0:0:0:
458,173,53211,2,0,L|446:246,1,65,8|0,0:0|0:0,0:0:0:0:
447,237,53505,1,0,0:0:0:0:
447,237,53603,1,8,0:0:0:0:
290,327,53995,6,0,L|281:252,1,71.5000021820069,4|0,0:0|0:0,0:0:0:0:
262,149,54388,1,8,0:0:0:0:
177,214,54584,2,0,P|157:158|186:73,1,143.000004364014,2|2,0:0|0:0,0:0:0:0:
262,149,55172,1,8,0:0:0:0:
177,214,55368,1,0,0:0:0:0:
281,256,55564,6,0,P|332:232|363:232,1,71.5000021820069,2|0,0:0|0:0,0:0:0:0:
464,263,55956,2,0,P|413:287|382:287,1,71.5000021820069,8|2,0:0|0:0,0:0:0:0:
376,159,56348,1,0,0:0:0:0:
376,159,56544,2,0,P|384:110|380:62,2,71.5000021820069,0|8|0,0:0|0:0|0:0,0:0:0:0:
281,256,57133,6,0,L|197:280,1,71.5000021820069,2|0,0:0|0:0,0:0:0:0:
122,335,57525,1,8,0:0:0:0:
122,335,57721,2,0,P|90:262|85:195,1,143.000004364014,2|2,0:0|0:0,0:0:0:0:
117,112,58309,1,8,0:0:0:0:
175,225,58505,6,0,P|248:227|316:191,1,143.000004364014,2|0,0:0|0:0,0:0:0:0:
381,118,59093,2,0,L|392:196,1,71.5000021820069,8|2,0:0|0:0,0:0:0:0:
291,121,59486,2,0,L|300:50,1,71.5000021820069,0|2,0:0|0:0,0:0:0:0:
447,58,59878,2,0,L|456:128,1,71.5000021820069,10|2,0:0|0:0,0:0:0:0:
482,248,60270,6,0,P|444:250|384:270,1,71.5000021820069,4|0,0:0|0:0,0:0:0:0:
321,317,60662,1,8,0:0:0:0:
230,261,60858,2,0,P|140:279|74:260,1,143.000004364014,2|2,0:0|0:0,0:0:0:0:
37,190,61446,1,8,0:0:0:0:
123,62,61643,6,0,P|142:116|115:204,1,143.000004364014,2|0,0:0|0:0,0:0:0:0:
16,264,62231,1,8,0:0:0:0:
16,264,62427,2,0,B|107:297|107:297|164:280,1,143.000004364014,2|0,0:0|0:0,0:0:0:0:
250,239,63015,2,0,P|260:274|254:316,1,71.5000021820069,8|0,0:0|0:0,0:0:0:0:
153,371,63407,5,4,0:0:0:0:
352,371,63799,1,8,0:0:0:0:
352,371,63995,2,0,L|342:293,1,71.5000021820069,6|0,0:0|0:0,0:0:0:0:
432,213,64388,2,0,L|422:283,1,71.5000021820069,0|8,0:0|0:0,0:0:0:0:
342,177,64780,6,0,P|264:182|185:157,1,143.000004364014,2|0,0:0|0:0,0:0:0:0:
78,85,65368,2,0,P|66:123|67:163,1,71.5000021820069,8|0,0:0|0:0,0:0:0:0:
121,280,65760,2,0,P|133:242|132:202,1,71.5000021820069,8|2,0:0|0:0,0:0:0:0:
52,325,66152,2,0,P|53:345|61:363,3,35.7500010910034,10|2|2|2,0:0|0:0|0:0|0:0,0:0:0:0:
117,375,66544,6,0,P|170:360|190:358,1,71.5000021820069,4|0,0:0|0:0,0:0:0:0:
306,377,66937,1,8,0:0:0:0:
264,278,67133,2,0,P|255:211|277:122,1,143.000004364014,2|2,0:0|0:0,0:0:0:0:
362,87,67721,1,8,0:0:0:0:
241,33,67917,6,0,P|163:38|86:82,1,143.000004364014,2|0,0:0|0:0,0:0:0:0:
44,153,68505,2,0,L|61:225,1,71.5000021820069,8|0,0:0|0:0,0:0:0:0:
138,296,68897,1,2,0:0:0:0:
138,296,69094,2,0,L|121:368,2,71.5000021820069,2|10|0,0:0|0:0|0:0,0:0:0:0:
191,202,69682,6,0,P|227:196|277:201,1,71.5000021820069,2|0,0:0|0:0,0:0:0:0:
362,246,70074,1,8,0:0:0:0:
362,246,70270,2,0,P|355:138|359:84,1,143.000004364014,2|2,0:0|0:0,0:0:0:0:
425,46,70858,1,8,0:0:0:0:
280,84,71054,6,0,P|191:98|127:90,1,143.000004364014,2|0,0:0|0:0,0:0:0:0:
41,44,71643,2,0,L|50:124,1,71.5000021820069,10|2,0:0|0:0,0:0:0:0:
150,180,72035,2,0,L|141:260,1,71.5000021820069,0|2,0:0|0:0,0:0:0:0:
245,310,72427,2,0,L|254:390,1,71.5000021820069,8|2,0:0|0:0,0:0:0:0:
331,274,72819,6,0,P|303:237|268:218,1,71.5000021820069,4|0,0:0|0:0,0:0:0:0:
142,251,73211,1,8,0:0:0:0:
233,160,73407,2,0,P|245:77|232:15,1,143.000004364014,2|2,0:0|0:0,0:0:0:0:
233,19,73995,1,8,0:0:0:0:
332,120,74192,6,0,P|418:141|486:134,1,143.000004364014,2|0,0:0|0:0,0:0:0:0:
506,236,74780,1,8,0:0:0:0:
506,236,74976,2,0,B|492:329|492:329|456:368,1,143.000004364014,2|0,0:0|0:0,0:0:0:0:
379,289,75564,2,0,L|388:218,1,71.5000021820069,8|0,0:0|0:0,0:0:0:0:
412,89,75956,5,4,0:0:0:0:
170,116,76348,2,0,L|179:186,1,71.5000021820069,8|14,0:0|0:0,0:0:0:0:
236,281,76741,1,8,0:0:0:0:
123,270,76937,1,8,0:0:0:0:
123,270,77035,1,2,0:0:0:0:
123,270,77133,2,0,L|116:325,3,35.7500010910034,10|2|8|8,0:0|0:0|0:0|0:0,0:0:0:0:
115,360,77525,5,12,0:0:0:0:
234,369,78701,2,0,L|228:327,3,32.5,2|2|2|2,0:0|0:0|0:0|0:0,0:0:0:0:
218,285,79094,5,6,0:0:0:0:
