osu file format v14

[General]
AudioFilename: audio.mp3
AudioLeadIn: 0
PreviewTime: 53897
Countdown: 0
SampleSet: Soft
StackLeniency: 0.7
Mode: 0
LetterboxInBreaks: 0
WidescreenStoryboard: 0

[Editor]
Bookmarks: 53995,66544
DistanceSpacing: 1
BeatDivisor: 2
GridSize: 32
TimelineZoom: 1

[Metadata]
Title:Hologram
TitleUnicode:ホログラム
Artist:ClariS
ArtistUnicode:ClariS
Creator:Yasaija 714
Version:Easy
Source:
Tags:fairy castle clara alice Karen [C_u_r_i] Asuka_-
BeatmapID:1425093
BeatmapSetID:673365

[Difficulty]
HPDrainRate:3
CircleSize:2.5
OverallDifficulty:3
ApproachRate:3
SliderMultiplier:0.9
SliderTickRate:1

[Events]
//Background and Video events
0,0,"BG.jpg",0,0
//Break Periods
//Storyboard Layer 0 (Background)
//Storyboard Layer 1 (Fail)
//Storyboard Layer 2 (Pass)
//Storyboard Layer 3 (Foreground)
//Storyboard Sound Samples

[TimingPoints]
-906,392.156862745098,4,2,1,40,1,0
662,-100,4,2,1,60,0,0
13211,-100,4,2,1,40,0,0
25760,-100,4,2,1,50,0,0
38309,-100,4,2,1,60,0,0
50858,-100,4,2,1,40,0,0
52427,-100,4,2,1,60,0,0
53995,-100,4,2,1,80,0,1
77525,-100,4,2,1,70,0,0

[Colours]
Combo1 : 255,149,149
Combo2 : 81,255,255
Combo3 : 147,198,119
Combo4 : 255,136,255

[HitObjects]
350,331,270,6,0,P|333:288|332:230,1,90,2|6,0:0|0:0,0:0:0:0:
363,113,1250,2,0,P|315:108|265:124,2,90,6|2|6,0:0|0:0|0:0,0:0:0:0:
55,66,3799,6,0,P|139:89|194:86,1,135,6|6,0:0|0:0,0:0:0:0:
256,30,4780,1,2,0:0:0:0:
275,118,5172,2,0,L|264:213,2,90,6|0|2,0:0|0:0|0:0,0:0:0:0:
390,49,6544,1,8,0:0:0:0:
446,119,6937,6,0,P|462:189|448:256,1,135,6|8,0:0|0:0,0:0:0:0:
388,315,7917,1,0,0:0:0:0:
305,351,8309,2,0,P|217:354|114:292,1,180
46,218,9682,1,8,0:0:0:0:
98,145,10074,6,0,P|181:144|242:100,1,135,6|2,0:0|0:0,0:0:0:0:
287,55,11054,1,8,0:0:0:0:
347,121,11446,2,0,P|344:173|358:223,2,90,2|2|2,0:0|0:0|0:0,0:0:0:0:
155,239,13211,6,0,P|91:268|-2:249,2,135,2|0|2,0:0|0:0|0:0,0:0:0:0:
219,170,14780,2,0,P|225:100|288:29,2,135,2|0|2,0:0|0:0|0:0,0:0:0:0:
264,248,16348,2,0,B|314:236|349:221|349:221|405:230,2,135,2|0|2,0:0|0:0|0:0,0:0:0:0:
203,315,17917,2,0,B|158:324|118:342|118:342|72:334,2,135,2|0|2,0:0|0:0|0:0,0:0:0:0:
264,248,19486,6,0,P|293:311|274:371,2,135,2|0|2,0:0|0:0|0:0,0:0:0:0:
197,187,21054,2,0,P|168:124|187:64,2,135,2|0|2,0:0|0:0|0:0,0:0:0:0:
258,121,22623,2,0,B|349:82|348:164|459:122,1,180,2|2,0:0|0:0,0:0:0:0:
388,305,24192,2,0,B|297:266|298:348|187:306,1,180,2|2,0:0|0:0,0:0:0:0:
82,192,25760,6,0,P|68:148|66:98,2,90,4|8|0,0:0|0:0|0:0,0:0:0:0:
153,246,26937,1,8,0:0:0:0:
208,174,27329,2,0,B|252:164|252:164|304:171,1,90,2|8,0:0|0:0,0:0:0:0:
370,221,28113,2,0,B|375:265|375:265|365:309,1,90,0|8,0:0|0:0,0:0:0:0:
286,354,28897,6,0,P|199:375|103:355,1,180,2|0,0:0|0:0,0:0:0:0:
54,288,30074,1,8,0:0:0:0:
103,212,30466,2,0,P|113:164|109:121,2,90,2|8|0,0:0|0:0|0:0,0:0:0:0:
160,281,31643,1,8,0:0:0:0:
232,228,32035,6,0,P|320:208|371:217,2,135,4|2|8,0:0|0:0|0:0,0:0:0:0:
160,281,33603,2,0,P|144:240|153:186,1,90,2|8,0:0|0:0,0:0:0:0:
207,126,34388,2,0,P|251:131|292:115,1,90,2|8,0:0|0:0,0:0:0:0:
350,45,35172,6,0,L|458:57,2,90,2|2|2,0:0|0:0|0:0,0:0:0:0:
262,23,36348,1,2,0:0:0:0:
175,47,36741,2,0,P|151:132|169:199,1,135,2|2,0:0|0:0,0:0:0:0:
229,291,37917,1,8,0:0:0:0:
312,323,38309,6,0,B|352:297|352:297|448:305,2,135,4|4|8,0:0|0:0|0:0,0:0:0:0:
229,291,39878,2,0,B|189:317|189:317|93:309,2,135,4|4|8,0:0|0:0|0:0,0:0:0:0:
163,228,41446,6,0,P|149:185|180:98,1,135,2|0,0:0|0:0,0:0:0:0:
251,52,42427,1,0,0:0:0:0:
365,127,43015,2,0,L|467:136,2,90,2|8|0,0:0|0:0|0:0,0:0:0:0:
283,165,44192,1,8,0:0:0:0:
356,216,44584,6,0,B|377:256|377:256|359:348,2,135,4|4|8,0:0|0:0|0:0,0:0:0:0:
283,165,46152,2,0,B|262:125|262:125|280:33,2,135,4|4|8,0:0|0:0|0:0,0:0:0:0:
225,234,47721,6,0,P|174:236|124:265,1,90,0|8,0:0|0:0,0:0:0:0:
140,342,48505,2,0,P|181:359|225:360,1,90,2|8,0:0|0:0,0:0:0:0:
290,296,49290,2,0,P|350:268|438:305,1,135,2|2,0:0|0:0,0:0:0:0:
358,354,50270,1,0,0:0:0:0:
225,360,50858,6,0,P|204:320|202:270,1,90,2|2,0:0|0:0,0:0:0:0:
265,213,51643,2,0,P|286:173|288:123,1,90,2|2,0:0|0:0,0:0:0:0:
231,59,52427,6,0,B|142:76|142:76|93:65,2,135,6|10|8,0:0|0:0|0:0,0:0:0:0:
312,21,53995,6,0,P|381:24|440:66,1,135,4|2,0:0|0:0,0:0:0:0:
477,139,54976,1,2,0:0:0:0:
425,263,55564,2,0,P|389:208|386:141,2,135,2|2|8,0:0|0:0|0:0,0:0:0:0:
469,343,57133,6,0,B|381:361|381:361|325:349,1,135,2|2,0:0|0:0,0:0:0:0:
252,320,58113,1,2,0:0:0:0:
170,282,58505,2,0,B|125:272|125:272|37:290,1,135,2|8,0:0|0:0,0:0:0:0:
2,207,59486,2,0,L|99:187,1,90,0|10,0:0|0:0,0:0:0:0:
178,174,60270,6,0,P|165:105|205:48,1,135,4|2,0:0|0:0,0:0:0:0:
253,125,61250,1,2,0:0:0:0:
328,75,61643,2,0,P|341:144|301:201,1,135,2|8,0:0|0:0,0:0:0:0:
233,245,62623,2,0,P|231:287|239:338,1,90,0|8,0:0|0:0,0:0:0:0:
325,360,63407,6,0,B|369:374|369:374|471:360,2,135,4|6|8,0:0|0:0|0:0,0:0:0:0:
238,334,64976,2,0,B|192:326|192:326|142:333,1,90,2|8,0:0|0:0,0:0:0:0:
59,338,65760,2,0,B|51:292|51:292|58:242,1,90,8|8,0:0|0:0,0:0:0:0:
91,165,66544,6,0,P|147:165|221:110,1,135,4|2,0:0|0:0,0:0:0:0:
259,46,67525,1,2,0:0:0:0:
306,122,67917,2,0,P|360:160|426:163,1,135,2|8,0:0|0:0,0:0:0:0:
508,125,68897,2,0,P|512:191|490:228,1,90,2|10,0:0|0:0,0:0:0:0:
426,259,69682,6,0,B|336:251|336:251|290:275,1,135,2|2,0:0|0:0,0:0:0:0:
236,338,70662,1,2,0:0:0:0:
161,286,71054,2,0,P|142:220|172:154,1,135,2|10,0:0|0:0,0:0:0:0:
248,124,72035,2,0,L|341:137,1,90,0|8,0:0|0:0,0:0:0:0:
424,156,72819,6,0,B|431:245|431:245|414:302,1,135,4|2,0:0|0:0,0:0:0:0:
347,344,73799,1,2,0:0:0:0:
265,304,74192,2,0,P|184:295|124:320,1,135,2|8,0:0|0:0,0:0:0:0:
51,345,75172,2,0,P|37:297|32:254,1,90,0|8,0:0|0:0,0:0:0:0:
70,176,75956,5,4,0:0:0:0:
35,45,76544,2,0,P|84:54|135:46,1,90,14|8,0:0|0:0,0:0:0:0:
210,24,77329,2,0,L|212:80,1,45,8|12,0:0|0:0,0:0:0:0:
257,192,79094,5,6,0:0:0:0:
