osu file format v14

[General]
AudioFilename: audio.mp3
AudioLeadIn: 0
PreviewTime: 54899
Countdown: 1
SampleSet: None
StackLeniency: 0.4
Mode: 0
LetterboxInBreaks: 0
WidescreenStoryboard: 1

[Editor]
Bookmarks: 12717,24353,41808,54899
DistanceSpacing: 1
BeatDivisor: 4
GridSize: 32
TimelineZoom: 1.3

[Metadata]
Title:Hitorigoto -TV MiX-
TitleUnicode:ヒトリゴト -TV MiX-
Artist:ClariS
ArtistUnicode:ClariS
Creator:N1czt3r
Version:Expert
Source:エロマンガ先生
Tags:
BeatmapID:1606122
BeatmapSetID:763047

[Difficulty]
HPDrainRate:6
CircleSize:4.3
OverallDifficulty:8
ApproachRate:9
SliderMultiplier:1.6
SliderTickRate:1

[Events]
//Background and Video events
0,0,"thumb-1920-828363.png",0,0
//Break Periods
//Storyboard Layer 0 (Background)
//Storyboard Layer 1 (Fail)
//Storyboard Layer 2 (Pass)
//Storyboard Layer 3 (Foreground)
//Storyboard Sound Samples

[TimingPoints]
1081,363.636363636364,4,2,69,80,1,0
2353,-100,4,2,69,40,0,0
2535,-100,4,2,69,80,0,0
3808,-100,4,2,69,40,0,0
3990,-100,4,2,69,80,0,0
5262,-100,4,2,69,40,0,0
5444,-100,4,2,69,80,0,0
8171,-100,4,2,69,40,0,0
8353,-100,4,2,69,80,0,0
9626,-100,4,2,69,40,0,0
9808,-100,4,2,69,80,0,0
11081,-100,4,2,69,40,0,0
11262,-100,4,2,69,80,0,0
35990,-133.333333333333,4,2,69,80,0,0
41808,-100,4,2,69,80,0,0
53444,-83.3333333333333,4,2,69,80,0,0
54353,-83.3333333333333,4,2,69,40,0,0
54899,-83.3333333333333,4,2,70,80,0,1
86899,-83.3333333333333,4,2,69,80,0,0

[HitObjects]
85,224,1081,5,4,0:0:0:0:
312,147,1262,1,2,0:0:0:0:
176,68,1444,2,0,P|123:61|84:72,1,80
188,224,1808,2,0,P|220:181|230:142,1,80
47,155,2171,2,0,P|67:204|96:232,1,80
351,111,2535,5,4,0:0:0:0:
137,144,2717,1,0,0:0:0:0:
229,306,2899,6,0,B|271:313|271:313|314:305,1,80
351,111,3262,2,0,B|323:143|323:143|309:185,1,80
466,309,3626,2,0,B|451:269|451:269|422:235,1,80
145,223,3990,5,4,0:0:0:0:
351,246,4171,1,0,0:0:0:0:
182,117,4353,1,0,0:0:0:0:
229,306,4535,1,0,0:0:0:0:
314,81,4717,1,0,0:0:0:0:
269,236,4899,1,0,0:0:0:0:
113,81,5081,1,0,0:0:0:0:
145,223,5262,1,0,0:0:0:0:
226,30,5444,5,4,0:0:0:0:
328,172,5626,2,0,P|368:183|420:173,1,80
372,65,5990,1,0,0:0:0:0:
265,240,6171,2,0,P|213:252|169:245,1,80,2|0,0:0|0:0,0:0:0:0:
129,165,6444,2,0,P|144:113|172:79,1,80,2|0,0:0|0:0,0:0:0:0:
262,82,6717,1,2,0:0:0:0:
101,239,6899,5,4,0:0:0:0:
359,254,7081,1,0,0:0:0:0:
199,382,7262,2,0,P|151:387|115:380,1,80
205,231,7626,2,0,P|233:270|245:304,1,80
61,307,7990,2,0,P|80:262|104:235,1,80
386,274,8353,5,4,0:0:0:0:
161,303,8535,1,0,0:0:0:0:
307,137,8717,6,0,B|346:132|346:132|397:137,1,80
205,231,9081,2,0,B|181:199|181:199|160:153,1,80
342,270,9444,2,0,B|326:306|326:306|297:347,1,80
61,238,9808,5,4,0:0:0:0:
290,210,9990,1,0,0:0:0:0:
165,335,10171,1,0,0:0:0:0:
88,141,10353,1,0,0:0:0:0:
205,231,10535,1,0,0:0:0:0:
240,53,10717,1,0,0:0:0:0:
104,239,10899,1,0,0:0:0:0:
79,59,11081,1,0,0:0:0:0:
273,130,11262,5,4,0:0:0:0:
104,239,11444,2,0,P|56:251|11:237,1,80
166,89,11808,1,0,0:0:0:0:
312,240,11990,2,0,P|318:293|304:329,1,80,2|0,0:0|0:0,0:0:0:0:
226,365,12262,2,0,P|177:343|152:313,1,80,2|0,0:0|0:0,0:0:0:0:
172,233,12535,1,2,0:0:0:0:
324,102,12717,6,0,P|389:100|429:107,1,80
172,233,13081,2,0,P|132:235|92:232,1,80,8|0,0:0|0:0,0:0:0:0:
262,152,13444,1,0,0:0:0:0:
159,324,13626,1,0,0:0:0:0:
48,164,13808,1,8,0:0:0:0:
278,283,13990,6,0,P|286:334|269:382,1,80
137,147,14353,2,0,P|130:107|138:68,1,80,0|8,0:0|0:0,0:0:0:0:
365,27,14717,1,0,0:0:0:0:
240,106,14899,1,0,0:0:0:0:
408,195,15081,1,0,0:0:0:0:
208,106,15262,1,8,0:0:0:0:
482,21,15444,1,2,0:0:0:0:
482,21,15535,1,2,0:0:0:0:
482,21,15626,6,0,P|488:85|478:125,1,80,2|0,0:0|0:0,0:0:0:0:
293,250,15990,2,0,P|289:210|296:170,1,80,8|0,0:0|0:0,0:0:0:0:
482,21,16353,1,0,0:0:0:0:
375,216,16535,1,0,0:0:0:0:
262,36,16717,1,8,0:0:0:0:
453,215,16899,6,0,P|412:221|369:214,1,80
183,35,17262,2,0,P|222:29|261:35,1,80,0|8,0:0|0:0,0:0:0:0:
292,256,17626,1,0,0:0:0:0:
218,113,17808,1,0,0:0:0:0:
297,290,17990,1,0,0:0:0:0:
376,74,18171,1,8,0:0:0:0:
200,246,18353,1,2,0:0:0:0:
200,246,18444,1,2,0:0:0:0:
200,246,18535,6,0,P|152:253|112:242,1,80,2|0,0:0|0:0,0:0:0:0:
375,161,18899,2,0,P|414:153|453:161,1,80,8|0,0:0|0:0,0:0:0:0:
297,290,19262,1,0,0:0:0:0:
298,103,19444,1,0,0:0:0:0:
412,247,19626,1,8,0:0:0:0:
202,162,19808,6,0,P|150:155|112:165,1,80
259,358,20171,2,0,P|299:365|337:356,1,80,0|8,0:0|0:0,0:0:0:0:
410,213,20535,1,0,0:0:0:0:
298,276,20717,1,0,0:0:0:0:
512,269,20899,1,0,0:0:0:0:
410,107,21081,1,8,0:0:0:0:
305,283,21262,1,2,0:0:0:0:
305,283,21353,1,2,0:0:0:0:
305,283,21444,6,0,P|294:336|310:381,1,80,2|0,0:0|0:0,0:0:0:0:
486,143,21808,2,0,P|491:103|480:65,1,80,8|0,0:0|0:0,0:0:0:0:
250,197,22171,1,0,0:0:0:0:
410,107,22353,1,0,0:0:0:0:
243,36,22535,1,8,0:0:0:0:
401,216,22717,6,0,P|407:270|398:306,1,80
168,167,23081,2,0,P|162:113|171:77,1,80,0|8,0:0|0:0,0:0:0:0:
258,292,23444,1,2,0:0:0:0:
258,292,23535,1,2,0:0:0:0:
258,292,23626,1,10,0:0:0:0:
109,215,23808,1,2,0:0:0:0:
109,215,23899,1,2,0:0:0:0:
109,215,23990,2,0,L|64:215,1,40,10|2,0:0|0:0,0:0:0:0:
242,125,24171,2,0,L|287:125,1,40,2|2,0:0|0:0,0:0:0:0:
439,182,24353,6,0,P|445:231|433:274,1,80
257,370,24717,2,0,P|251:321|263:278,1,80,8|0,0:0|0:0,0:0:0:0:
369,220,25081,1,0,0:0:0:0:
323,327,25262,1,0,0:0:0:0:
256,221,25444,1,8,0:0:0:0:
397,297,25626,1,0,0:0:0:0:
299,156,25808,6,0,P|249:150|211:160,1,80
86,326,26171,2,0,P|125:332|164:326,1,80,8|0,0:0|0:0,0:0:0:0:
218,148,26535,1,0,0:0:0:0:
132,258,26717,1,0,0:0:0:0:
274,273,26899,1,8,0:0:0:0:
147,180,27081,1,0,0:0:0:0:
274,351,27262,5,0,0:0:0:0:
343,161,27444,1,0,0:0:0:0:
274,273,27626,1,8,0:0:0:0:
185,130,27808,1,0,0:0:0:0:
204,318,27990,1,0,0:0:0:0:
305,62,28171,1,0,0:0:0:0:
226,220,28353,1,8,0:0:0:0:
135,73,28535,1,0,0:0:0:0:
347,165,28717,5,0,0:0:0:0:
347,165,28899,2,0,P|401:173|444:164,1,80,0|8,0:0|0:0,0:0:0:0:
208,68,29262,2,0,P|168:64|129:72,1,80
80,273,29626,1,0,0:0:0:0:
172,140,29808,1,8,0:0:0:0:
32,39,29990,1,0,0:0:0:0:
32,39,30081,1,0,0:0:0:0:
32,39,30171,6,0,B|10:59|10:59|10:117,1,80
197,330,30535,2,0,B|219:310|219:310|219:252,1,80,8|0,0:0|0:0,0:0:0:0:
69,144,30899,1,0,0:0:0:0:
139,273,31081,1,0,0:0:0:0:
219,138,31262,1,8,0:0:0:0:
63,238,31444,1,0,0:0:0:0:
176,75,31626,6,0,P|239:66|265:72,1,80
394,278,31990,2,0,P|354:281|315:271,1,80,8|0,0:0|0:0,0:0:0:0:
219,138,32353,1,0,0:0:0:0:
359,202,32535,1,0,0:0:0:0:
230,288,32717,1,8,0:0:0:0:
317,122,32899,1,0,0:0:0:0:
330,363,33081,5,0,0:0:0:0:
150,244,33262,1,0,0:0:0:0:
315,271,33444,1,8,0:0:0:0:
113,346,33626,1,0,0:0:0:0:
132,155,33808,1,0,0:0:0:0:
219,324,33990,1,0,0:0:0:0:
305,147,34171,1,8,0:0:0:0:
181,246,34353,1,0,0:0:0:0:
266,74,34535,5,0,0:0:0:0:
266,74,34717,2,0,P|322:70|358:78,1,80,0|8,0:0|0:0,0:0:0:0:
181,246,35081,2,0,P|141:251|101:246,1,80
37,69,35444,1,0,0:0:0:0:
147,170,35626,1,0,0:0:0:0:
25,357,35808,1,2,0:0:0:0:
25,357,35899,1,2,0:0:0:0:
25,357,35990,6,0,B|12:298|12:298|33:229,1,120.000004577637,2|2,0:0|0:0,0:0:0:0:
241,285,36717,2,0,P|196:310|121:295,1,120.000004577637,8|2,0:0|0:0,0:0:0:0:
112,117,37262,1,2,0:0:0:0:
176,237,37444,1,2,0:0:0:0:
29,240,37626,1,2,0:0:0:0:
110,84,37808,1,2,0:0:0:0:
110,84,38171,2,0,P|180:99|235:78,1,120.000004577637,8|2,0:0|0:0,0:0:0:0:
356,17,38717,1,2,0:0:0:0:
458,130,38899,6,0,L|456:267,1,120.000004577637,2|2,0:0|0:0,0:0:0:0:
244,214,39626,2,0,P|288:173|370:185,1,120.000004577637,8|2,0:0|0:0,0:0:0:0:
378,363,40171,1,2,0:0:0:0:
316,240,40353,1,2,0:0:0:0:
456,249,40535,1,2,0:0:0:0:
286,343,40717,1,2,0:0:0:0:
286,343,41081,2,0,L|236:347,2,40.000001525879,2|2|2,0:0|0:0|0:0,0:0:0:0:
179,231,41444,2,0,L|129:227,2,40.000001525879,2|2|2,0:0|0:0|0:0,0:0:0:0:
45,276,41808,6,0,P|36:229|54:172,1,80
264,147,42171,1,8,0:0:0:0:
139,227,42353,1,0,0:0:0:0:
223,76,42535,2,0,P|264:65|324:79,1,80
332,284,42899,1,8,0:0:0:0:
264,147,43081,1,0,0:0:0:0:
422,243,43262,2,0,P|428:305|416:338,1,80
227,357,43626,5,8,0:0:0:0:
332,284,43808,1,0,0:0:0:0:
158,251,43990,1,0,0:0:0:0:
373,172,44171,2,0,P|424:163|473:176,1,80,0|8,0:0|0:0,0:0:0:0:
332,284,44535,1,0,0:0:0:0:
187,111,44717,6,0,P|139:108|103:116,1,80
67,313,45081,1,8,0:0:0:0:
151,191,45262,1,0,0:0:0:0:
32,72,45444,2,0,P|21:119|33:163,1,80
239,228,45808,1,8,0:0:0:0:
108,114,45990,1,0,0:0:0:0:
197,303,46171,2,0,P|241:310|289:298,1,80
322,102,46535,5,8,0:0:0:0:
239,228,46717,1,0,0:0:0:0:
425,216,46899,1,0,0:0:0:0:
322,73,47081,2,0,P|280:67|237:75,1,80,0|8,0:0|0:0,0:0:0:0:
239,255,47444,1,0,0:0:0:0:
403,120,47626,6,0,P|414:74|407:38,1,80
307,224,47990,1,8,0:0:0:0:
512,166,48171,1,0,0:0:0:0:
322,73,48353,2,0,P|280:67|237:75,1,80
167,267,48717,1,8,0:0:0:0:
287,146,48899,1,0,0:0:0:0:
136,35,49081,2,0,P|126:83|140:136,1,80
294,264,49444,5,8,0:0:0:0:
239,68,49626,1,0,0:0:0:0:
125,247,49808,1,0,0:0:0:0:
336,147,49990,1,0,0:0:0:0:
130,113,50171,1,8,0:0:0:0:
405,200,50353,1,0,0:0:0:0:
405,200,50535,6,0,P|417:143|412:117,1,80
217,238,50899,2,0,P|213:277|225:315,1,80,8|0,0:0|0:0,0:0:0:0:
410,337,51262,1,0,0:0:0:0:
336,147,51444,1,0,0:0:0:0:
290,265,51626,1,8,0:0:0:0:
435,220,51808,1,0,0:0:0:0:
210,131,51990,5,0,0:0:0:0:
225,315,52171,1,0,0:0:0:0:
332,109,52353,1,8,0:0:0:0:
361,330,52535,1,0,0:0:0:0:
151,211,52717,1,0,0:0:0:0:
375,182,52899,1,0,0:0:0:0:
268,376,53081,1,8,0:0:0:0:
94,276,53262,1,2,0:0:0:0:
94,276,53353,1,2,0:0:0:0:
94,276,53444,5,2,0:0:0:0:
248,150,53626,2,0,P|262:99|253:50,1,95.9999970703126,0|8,0:0|0:0,0:0:0:0:
110,97,53990,1,2,0:0:0:0:
110,97,54081,1,2,0:0:0:0:
110,97,54171,1,10,0:0:0:0:
235,266,54353,5,2,0:0:0:0:
263,281,54443,1,2,0:0:0:0:
293,290,54534,1,8,0:0:0:0:
325,294,54625,1,2,0:0:0:0:
357,292,54716,1,2,0:0:0:0:
388,283,54807,1,2,0:0:0:0:
416,269,54898,5,2,0:0:0:0:
338,92,55081,1,0,0:0:0:0:
338,92,55262,2,0,P|326:161|344:220,1,95.9999970703126,8|0,0:0|0:0,0:0:0:0:
428,46,55626,5,0,0:0:0:0:
198,143,55808,1,0,0:0:0:0:
416,269,55990,1,8,0:0:0:0:
274,55,56171,1,0,0:0:0:0:
122,252,56353,5,4,0:0:0:0:
122,252,56535,2,0,P|113:308|131:361,1,95.9999970703126,0|8,0:0|0:0,0:0:0:0:
289,164,56899,1,0,0:0:0:0:
187,295,57081,1,4,0:0:0:0:
96,93,57262,1,0,0:0:0:0:
234,234,57444,1,8,0:0:0:0:
355,78,57626,1,2,0:0:0:0:
355,78,57717,1,2,0:0:0:0:
355,78,57808,5,2,0:0:0:0:
157,213,57990,5,0,0:0:0:0:
317,239,58171,1,8,0:0:0:0:
263,91,58353,1,0,0:0:0:0:
237,304,58535,5,0,0:0:0:0:
369,152,58717,1,0,0:0:0:0:
343,367,58899,1,8,0:0:0:0:
248,181,59081,1,0,0:0:0:0:
406,323,59262,5,4,0:0:0:0:
406,323,59444,2,0,P|465:330|509:320,1,95.9999970703126,0|8,0:0|0:0,0:0:0:0:
505,63,59808,1,0,0:0:0:0:
447,242,59990,1,4,0:0:0:0:
299,75,60171,1,0,0:0:0:0:
405,322,60353,1,8,0:0:0:0:
399,78,60535,1,2,0:0:0:0:
399,78,60626,1,2,0:0:0:0:
399,78,60717,5,2,0:0:0:0:
223,250,60899,1,0,0:0:0:0:
223,250,61081,2,0,P|270:253|327:249,1,95.9999970703126,8|0,0:0|0:0,0:0:0:0:
402,38,61444,1,0,0:0:0:0:
279,159,61626,1,0,0:0:0:0:
435,307,61808,1,8,0:0:0:0:
326,84,61990,6,0,P|273:76|231:86,1,95.9999970703126
111,306,62353,1,0,0:0:0:0:
279,159,62535,1,8,0:0:0:0:
83,78,62717,1,0,0:0:0:0:
243,301,62899,2,0,P|295:309|349:303,1,95.9999970703126
499,85,63262,2,0,P|449:80|401:88,1,95.9999970703126,8|0,0:0|0:0,0:0:0:0:
338,305,63626,5,4,0:0:0:0:
453,162,63808,1,0,0:0:0:0:
433,310,63990,1,8,0:0:0:0:
299,177,64171,1,0,0:0:0:0:
356,375,64353,1,4,0:0:0:0:
372,166,64535,1,0,0:0:0:0:
236,378,64717,1,8,0:0:0:0:
220,169,64899,1,0,0:0:0:0:
316,324,65081,5,4,0:0:0:0:
111,231,65262,1,0,0:0:0:0:
320,128,65444,1,12,0:0:0:0:
226,307,65626,1,0,0:0:0:0:
135,80,65808,1,12,0:0:0:0:
391,220,65990,1,4,0:0:0:0:
102,313,66171,1,12,0:0:0:0:
262,59,66353,1,2,0:0:0:0:
262,59,66444,1,2,0:0:0:0:
262,59,66535,5,2,0:0:0:0:
396,224,66717,1,0,0:0:0:0:
396,224,66899,2,0,P|402:288|391:328,1,95.9999970703126,8|0,0:0|0:0,0:0:0:0:
135,364,67262,1,0,0:0:0:0:
304,269,67444,1,0,0:0:0:0:
123,176,67626,1,8,0:0:0:0:
333,268,67808,1,0,0:0:0:0:
171,107,67990,6,0,P|106:103|63:110,1,95.9999970703126,4|0,0:0|0:0,0:0:0:0:
26,288,68353,1,8,0:0:0:0:
259,159,68535,2,0,P|269:99|261:58,1,95.9999970703126,0|4,0:0|0:0,0:0:0:0:
188,258,68899,1,0,0:0:0:0:
411,132,69081,1,8,0:0:0:0:
193,27,69262,1,2,0:0:0:0:
193,27,69353,1,2,0:0:0:0:
193,27,69444,5,2,0:0:0:0:
298,271,69626,5,0,0:0:0:0:
340,82,69808,1,8,0:0:0:0:
202,276,69990,1,0,0:0:0:0:
154,91,70171,1,0,0:0:0:0:
369,241,70353,1,0,0:0:0:0:
129,230,70535,1,8,0:0:0:0:
273,38,70717,1,0,0:0:0:0:
440,192,70899,6,0,P|446:254|437:300,1,95.9999970703126,4|0,0:0|0:0,0:0:0:0:
320,384,71262,1,8,0:0:0:0:
129,230,71444,2,0,P|177:213|232:224,1,95.9999970703126,0|4,0:0|0:0,0:0:0:0:
52,335,71808,1,0,0:0:0:0:
144,113,71990,1,8,0:0:0:0:
329,287,72171,1,2,0:0:0:0:
329,287,72262,1,2,0:0:0:0:
329,287,72353,5,0,0:0:0:0:
189,46,72535,2,0,P|118:43|74:56,1,95.9999970703126,0|8,0:0|0:0,0:0:0:0:
54,290,72899,1,0,0:0:0:0:
144,113,73081,1,0,0:0:0:0:
255,287,73262,1,0,0:0:0:0:
53,168,73444,1,8,0:0:0:0:
261,34,73626,6,0,P|316:28|367:38,1,95.9999970703126
322,254,73990,2,0,P|298:194|307:154,1,95.9999970703126,0|8,0:0|0:0,0:0:0:0:
426,323,74353,1,0,0:0:0:0:
426,323,74535,2,0,P|386:373|346:385,1,95.9999970703126
414,194,74899,2,0,P|477:203|508:231,1,95.9999970703126,8|0,0:0|0:0,0:0:0:0:
322,254,75262,5,4,0:0:0:0:
382,55,75444,1,0,0:0:0:0:
501,222,75626,1,8,0:0:0:0:
376,23,75808,1,0,0:0:0:0:
244,207,75990,2,0,P|235:266|250:324,1,95.9999970703126,4|0,0:0|0:0,0:0:0:0:
385,369,76353,1,8,0:0:0:0:
279,105,76535,1,0,0:0:0:0:
125,255,76717,6,0,P|114:313|122:354,1,95.9999970703126
350,144,77081,2,0,P|356:96|345:50,1,95.9999970703126,8|0,0:0|0:0,0:0:0:0:
110,30,77444,1,0,0:0:0:0:
110,30,77535,1,0,0:0:0:0:
110,30,77626,1,0,0:0:0:0:
279,105,77808,1,8,0:0:0:0:
99,186,77990,1,0,0:0:0:0:
343,217,78171,6,0,P|369:272|311:390,1,191.999994140625,4|8,0:0|0:0,0:0:0:0:
123,272,78717,1,0,0:0:0:0:
123,272,78899,2,0,P|184:266|230:282,1,95.9999970703126,4|0,0:0|0:0,0:0:0:0:
436,220,79262,2,0,P|375:226|329:210,1,95.9999970703126,8|0,0:0|0:0,0:0:0:0:
388,32,79626,6,0,L|390:138,1,95.9999970703126
123,272,79990,2,0,L|125:166,1,95.9999970703126,8|0,0:0|0:0,0:0:0:0:
317,59,80353,1,0,0:0:0:0:
317,59,80444,1,0,0:0:0:0:
317,59,80535,1,0,0:0:0:0:
206,255,80717,1,8,0:0:0:0:
107,65,80899,1,0,0:0:0:0:
329,187,81081,6,0,B|377:239|377:239|339:374,1,191.999994140625,4|8,0:0|0:0,0:0:0:0:
200,296,81626,1,0,0:0:0:0:
287,114,81808,2,0,P|362:109|395:124,1,95.9999970703126,4|0,0:0|0:0,0:0:0:0:
200,296,82171,2,0,P|153:306|106:297,1,95.9999970703126,8|0,0:0|0:0,0:0:0:0:
72,140,82535,5,0,0:0:0:0:
148,231,82717,1,0,0:0:0:0:
73,45,82899,1,8,0:0:0:0:
5,247,83081,1,0,0:0:0:0:
245,182,83262,1,0,0:0:0:0:
73,45,83444,1,0,0:0:0:0:
200,296,83626,1,8,0:0:0:0:
372,70,83808,1,0,0:0:0:0:
120,272,83990,6,0,P|113:305|246:371,1,191.999994140625,4|8,0:0|0:0,0:0:0:0:
160,190,84535,1,0,0:0:0:0:
160,190,84717,2,0,P|106:187|65:198,1,95.9999970703126,4|0,0:0|0:0,0:0:0:0:
301,328,85081,2,0,P|347:339|395:335,1,95.9999970703126,8|0,0:0|0:0,0:0:0:0:
369,103,85444,6,0,L|357:228,1,95.9999970703126
169,285,85808,2,0,L|157:160,1,95.9999970703126,8|0,0:0|0:0,0:0:0:0:
278,36,86171,1,2,0:0:0:0:
322,18,86261,1,2,0:0:0:0:
370,12,86352,1,2,0:0:0:0:
417,16,86443,1,2,0:0:0:0:
462,32,86535,2,0,P|476:83|475:104,1,47.9999985351563,10|2,0:0|0:0,0:0:0:0:
359,198,86717,2,0,P|363:174|371:152,1,47.9999985351563,2|2,0:0|0:0,0:0:0:0:
476,308,86899,5,4,0:0:0:0:
256,192,87081,12,4,88353,0:0:0:0:
