osu file format v14

[General]
AudioFilename: audio.mp3
AudioLeadIn: 0
PreviewTime: 54354
Countdown: 0
SampleSet: Normal
StackLeniency: 0.7
Mode: 1
LetterboxInBreaks: 0
WidescreenStoryboard: 1

[Editor]
DistanceSpacing: 0.5
BeatDivisor: 3
GridSize: 4
TimelineZoom: 2.3

[Metadata]
Title:Hitorigoto -TV MIX-
TitleUnicode:ヒトリゴト -TV MIX-
Artist:ClariS
ArtistUnicode:ClariS
Creator:asuasu_yura
Version:nass
Source:エロマンガ先生
Tags:yura Pheon KTYN KitajimaYN KamizonoShinobu Chocola_2287 Pettsu yyyyyyyyyyypetu komasy nananass Consified Peaceful MetalStream eromanga sensei ero manga eromanga-sensei eromangasensei op opening tv size anime japanese
BeatmapID:1317689
BeatmapSetID:624087

[Difficulty]
HPDrainRate:5
CircleSize:2
OverallDifficulty:6
ApproachRate:10
SliderMultiplier:1.4
SliderTickRate:1

[Events]
//Background and Video events
0,0,"62520783_p0.png",0,0
//Break Periods
//Storyboard Layer 0 (Background)
//Storyboard Layer 1 (Fail)
//Storyboard Layer 2 (Pass)
//Storyboard Layer 3 (Foreground)
//Storyboard Layer 4 (Overlay)
//Storyboard Sound Samples

[TimingPoints]
536,363.636363636364,4,1,0,90,1,0
12354,-66.6666666666667,4,1,0,90,0,0
23990,-80,4,1,0,90,0,0
26899,-66.6666666666667,4,1,0,90,0,0
29808,-80,4,1,0,90,0,0
32717,-66.6666666666667,4,1,0,90,0,0
35445,-71.4285714285714,4,1,0,90,0,0
35808,-83.3333333333333,4,1,0,90,0,0
36172,-100,4,1,0,90,0,0
36536,-111.111111111111,4,1,0,90,0,0
36717,-125,4,1,0,90,0,0
36899,-142.857142857143,4,1,0,90,0,0
37263,-166.666666666667,4,1,0,90,0,0
37626,-200,4,1,0,90,0,0
37990,-208.333333333333,4,1,0,90,0,0
38172,-217.391304347826,4,1,0,90,0,0
38354,-222.222222222222,4,1,0,90,0,0
38717,-227.272727272727,4,1,0,90,0,0
39081,-232.558139534884,4,1,0,90,0,0
39445,-238.095238095238,4,1,0,90,0,0
39626,-243.90243902439,4,1,0,90,0,0
39808,-250,4,1,0,90,0,0
40536,-200,4,1,0,90,0,0
40657,-196.078431372549,4,1,0,90,0,0
40778,-188.679245283019,4,1,0,90,0,0
40899,-178.571428571429,4,1,0,90,0,0
41020,-166.666666666667,4,1,0,90,0,0
41142,-153.846153846154,4,1,0,90,0,0
41263,-142.857142857143,4,1,0,90,0,0
41445,-142.857142857143,4,1,0,90,0,0
42717,-125,4,1,0,90,0,0
43626,-117.647058823529,4,1,0,90,0,0
43990,-111.111111111111,4,1,0,90,0,0
44172,-100,4,1,0,90,0,0
45626,-98.0392156862745,4,1,0,90,0,0
46536,-97.0873786407767,4,1,0,90,0,0
46899,-96.1538461538461,4,1,0,90,0,0
47081,-95.2380952380952,4,1,0,90,0,0
49263,-93.4579439252336,4,1,0,90,0,0
51445,-91.743119266055,4,1,0,90,0,0
52899,-90.0900900900901,4,1,0,90,0,0
53081,-88.4955752212389,4,1,0,90,0,0
53445,-86.9565217391304,4,1,0,90,0,0
53990,-83.3333333333333,4,1,0,90,0,0
54354,-76.9230769230769,4,1,0,95,0,1
65990,-71.4285714285714,4,1,0,95,0,1
74717,-66.6666666666667,4,1,0,95,0,1
86354,-100,4,1,0,90,0,0

[HitObjects]
256,192,536,5,4,0:0:0:0:
256,192,717,1,4,0:0:0:0:
256,192,899,1,2,0:0:0:0:
256,192,1081,1,2,0:0:0:0:
256,192,1172,1,2,0:0:0:0:
256,192,1263,1,0,0:0:0:0:
256,192,1445,1,0,0:0:0:0:
256,192,1626,1,2,0:0:0:0:
256,192,1808,1,0,0:0:0:0:
256,192,1990,1,6,0:0:0:0:
256,192,2172,1,6,0:0:0:0:
256,192,2354,1,0,0:0:0:0:
256,192,2536,1,2,0:0:0:0:
256,192,2626,1,2,0:0:0:0:
256,192,2717,1,0,0:0:0:0:
256,192,2899,1,0,0:0:0:0:
256,192,2990,1,0,0:0:0:0:
256,192,3081,1,2,0:0:0:0:
256,192,3263,1,2,0:0:0:0:
256,192,3445,1,4,0:0:0:0:
256,192,3626,1,4,0:0:0:0:
256,192,3808,1,2,0:0:0:0:
256,192,3990,1,0,0:0:0:0:
256,192,4081,1,0,0:0:0:0:
256,192,4172,1,2,0:0:0:0:
256,192,4354,1,0,0:0:0:0:
256,192,4536,1,2,0:0:0:0:
256,192,4717,1,0,0:0:0:0:
256,192,4899,1,6,0:0:0:0:
256,192,5081,1,0,0:0:0:0:
256,192,5172,1,0,0:0:0:0:
256,192,5263,1,0,0:0:0:0:
256,192,5445,1,6,0:0:0:0:
256,192,5626,1,0,0:0:0:0:
256,192,5717,1,0,0:0:0:0:
256,192,5808,1,2,0:0:0:0:
256,192,5899,1,0,0:0:0:0:
256,192,5990,1,2,0:0:0:0:
256,192,6081,1,2,0:0:0:0:
256,192,6172,1,2,0:0:0:0:
256,192,6354,1,4,0:0:0:0:
256,192,6536,1,4,0:0:0:0:
256,192,6717,1,2,0:0:0:0:
256,192,6899,1,0,0:0:0:0:
256,192,6990,1,0,0:0:0:0:
256,192,7081,1,2,0:0:0:0:
256,192,7263,1,0,0:0:0:0:
256,192,7445,1,2,0:0:0:0:
256,192,7536,1,2,0:0:0:0:
256,192,7626,1,0,0:0:0:0:
256,192,7808,1,6,0:0:0:0:
256,192,7990,1,6,0:0:0:0:
256,192,8172,1,0,0:0:0:0:
256,192,8354,1,2,0:0:0:0:
256,192,8445,1,2,0:0:0:0:
256,192,8536,1,0,0:0:0:0:
256,192,8717,1,0,0:0:0:0:
256,192,8808,1,0,0:0:0:0:
256,192,8899,1,2,0:0:0:0:
256,192,9081,1,2,0:0:0:0:
256,192,9263,1,4,0:0:0:0:
256,192,9445,1,4,0:0:0:0:
256,192,9626,1,2,0:0:0:0:
256,192,9808,1,0,0:0:0:0:
256,192,9990,1,2,0:0:0:0:
256,192,10081,1,2,0:0:0:0:
256,192,10172,1,0,0:0:0:0:
256,192,10354,1,2,0:0:0:0:
256,192,10536,1,2,0:0:0:0:
256,192,10717,1,4,0:0:0:0:
256,192,10899,1,2,0:0:0:0:
256,192,10990,1,2,0:0:0:0:
256,192,11081,1,2,0:0:0:0:
256,192,11263,1,0,0:0:0:0:
256,192,11536,1,0,0:0:0:0:
256,192,11626,1,2,0:0:0:0:
256,192,11808,1,0,0:0:0:0:
256,192,11899,1,0,0:0:0:0:
256,192,11990,1,2,0:0:0:0:
256,192,12081,1,2,0:0:0:0:
256,192,12172,1,0,0:0:0:0:
256,192,12354,1,2,0:0:0:0:
256,192,12445,1,2,0:0:0:0:
256,192,12536,1,0,0:0:0:0:
256,192,12596,1,0,0:0:0:0:
256,192,12657,1,0,0:0:0:0:
256,192,12717,1,2,0:0:0:0:
256,192,12808,1,2,0:0:0:0:
256,192,12899,1,0,0:0:0:0:
256,192,12960,1,0,0:0:0:0:
256,192,13020,1,0,0:0:0:0:
256,192,13081,1,2,0:0:0:0:
256,192,13172,1,2,0:0:0:0:
256,192,13263,1,0,0:0:0:0:
256,192,13354,1,0,0:0:0:0:
256,192,13445,1,2,0:0:0:0:
256,192,13490,1,2,0:0:0:0:
256,192,13536,1,2,0:0:0:0:
256,192,13626,1,0,0:0:0:0:
256,192,13717,1,0,0:0:0:0:
256,192,13808,1,2,0:0:0:0:
256,192,13854,1,2,0:0:0:0:
256,192,13899,1,2,0:0:0:0:
256,192,13990,1,0,0:0:0:0:
256,192,14081,1,0,0:0:0:0:
256,192,14172,1,2,0:0:0:0:
256,192,14217,1,2,0:0:0:0:
256,192,14263,1,0,0:0:0:0:
256,192,14354,1,2,0:0:0:0:
256,192,14445,1,0,0:0:0:0:
256,192,14536,1,2,0:0:0:0:
256,192,14581,1,2,0:0:0:0:
256,192,14626,1,2,0:0:0:0:
256,192,14717,1,0,0:0:0:0:
256,192,14808,1,0,0:0:0:0:
256,192,14899,1,2,0:0:0:0:
256,192,14960,1,2,0:0:0:0:
256,192,15020,1,2,0:0:0:0:
256,192,15081,1,0,0:0:0:0:
256,192,15172,1,0,0:0:0:0:
256,192,15263,1,2,0:0:0:0:
256,192,15323,1,0,0:0:0:0:
256,192,15384,1,0,0:0:0:0:
256,192,15445,1,2,0:0:0:0:
256,192,15536,1,2,0:0:0:0:
256,192,15626,1,0,0:0:0:0:
256,192,15717,1,2,0:0:0:0:
256,192,15808,1,0,0:0:0:0:
256,192,15854,1,0,0:0:0:0:
256,192,15899,1,0,0:0:0:0:
256,192,15990,1,2,0:0:0:0:
256,192,16051,1,0,0:0:0:0:
256,192,16111,1,0,0:0:0:0:
256,192,16172,1,2,0:0:0:0:
256,192,16263,1,0,0:0:0:0:
256,192,16354,1,2,0:0:0:0:
256,192,16399,1,2,0:0:0:0:
256,192,16445,1,2,0:0:0:0:
256,192,16536,1,0,0:0:0:0:
256,192,16626,1,0,0:0:0:0:
256,192,16717,1,2,0:0:0:0:
256,192,16763,1,2,0:0:0:0:
256,192,16808,1,0,0:0:0:0:
256,192,16899,1,2,0:0:0:0:
256,192,16990,1,0,0:0:0:0:
256,192,17081,1,2,0:0:0:0:
256,192,17126,1,2,0:0:0:0:
256,192,17172,1,2,0:0:0:0:
256,192,17263,1,0,0:0:0:0:
256,192,17354,1,0,0:0:0:0:
256,192,17445,1,2,0:0:0:0:
256,192,17490,1,2,0:0:0:0:
256,192,17536,1,0,0:0:0:0:
256,192,17581,1,0,0:0:0:0:
256,192,17626,1,2,0:0:0:0:
256,192,17717,1,0,0:0:0:0:
256,192,17808,1,2,0:0:0:0:
256,192,17869,1,2,0:0:0:0:
256,192,17929,1,2,0:0:0:0:
256,192,17990,1,0,0:0:0:0:
256,192,18081,1,0,0:0:0:0:
256,192,18172,1,2,0:0:0:0:
256,192,18263,1,0,0:0:0:0:
256,192,18354,1,2,0:0:0:0:
256,192,18399,1,2,0:0:0:0:
256,192,18445,1,0,0:0:0:0:
256,192,18536,1,2,0:0:0:0:
256,192,18626,1,0,0:0:0:0:
256,192,18717,1,2,0:0:0:0:
256,192,18778,1,0,0:0:0:0:
256,192,18839,1,0,0:0:0:0:
256,192,18899,1,2,0:0:0:0:
256,192,18960,1,0,0:0:0:0:
256,192,19020,1,0,0:0:0:0:
256,192,19081,1,2,0:0:0:0:
256,192,19172,1,0,0:0:0:0:
256,192,19263,1,2,0:0:0:0:
256,192,19308,1,2,0:0:0:0:
256,192,19354,1,2,0:0:0:0:
256,192,19445,1,0,0:0:0:0:
256,192,19536,1,0,0:0:0:0:
256,192,19626,1,2,0:0:0:0:
256,192,19672,1,2,0:0:0:0:
256,192,19717,1,2,0:0:0:0:
256,192,19808,1,0,0:0:0:0:
256,192,19899,1,0,0:0:0:0:
256,192,19990,1,2,0:0:0:0:
256,192,20036,1,2,0:0:0:0:
256,192,20081,1,0,0:0:0:0:
256,192,20172,1,2,0:0:0:0:
256,192,20263,1,0,0:0:0:0:
256,192,20354,1,2,0:0:0:0:
256,192,20399,1,2,0:0:0:0:
256,192,20445,1,2,0:0:0:0:
256,192,20536,1,0,0:0:0:0:
256,192,20596,1,0,0:0:0:0:
256,192,20657,1,0,0:0:0:0:
256,192,20717,1,2,0:0:0:0:
256,192,20808,1,2,0:0:0:0:
256,192,20899,1,0,0:0:0:0:
256,192,20990,1,0,0:0:0:0:
256,192,21081,1,2,0:0:0:0:
256,192,21172,1,0,0:0:0:0:
256,192,21263,1,2,0:0:0:0:
256,192,21308,1,2,0:0:0:0:
256,192,21354,1,0,0:0:0:0:
256,192,21445,1,2,0:0:0:0:
256,192,21505,1,2,0:0:0:0:
256,192,21566,1,2,0:0:0:0:
256,192,21626,1,0,0:0:0:0:
256,192,21717,1,0,0:0:0:0:
256,192,21808,1,2,0:0:0:0:
256,192,21869,1,0,0:0:0:0:
256,192,21929,1,0,0:0:0:0:
256,192,21990,1,2,0:0:0:0:
256,192,22081,1,0,0:0:0:0:
256,192,22172,1,2,0:0:0:0:
256,192,22217,1,2,0:0:0:0:
256,192,22263,1,2,0:0:0:0:
256,192,22354,1,0,0:0:0:0:
256,192,22445,1,0,0:0:0:0:
256,192,22536,1,2,0:0:0:0:
256,192,22581,1,2,0:0:0:0:
256,192,22626,1,2,0:0:0:0:
256,192,22717,1,0,0:0:0:0:
256,192,22808,1,0,0:0:0:0:
256,192,22899,1,2,0:0:0:0:
256,192,22945,1,2,0:0:0:0:
256,192,22990,1,0,0:0:0:0:
256,192,23081,1,2,0:0:0:0:
256,192,23172,1,0,0:0:0:0:
256,192,23217,1,0,0:0:0:0:
256,192,23263,1,2,0:0:0:0:
256,192,23354,1,0,0:0:0:0:
256,192,23445,1,2,0:0:0:0:
256,192,23490,1,2,0:0:0:0:
256,192,23536,1,2,0:0:0:0:
256,192,23626,1,0,0:0:0:0:
256,192,23717,1,2,0:0:0:0:
256,192,23808,1,0,0:0:0:0:
256,192,23990,1,2,0:0:0:0:
256,192,24051,1,2,0:0:0:0:
256,192,24111,1,2,0:0:0:0:
256,192,24172,1,0,0:0:0:0:
256,192,24263,1,0,0:0:0:0:
256,192,24354,1,2,0:0:0:0:
256,192,24445,1,2,0:0:0:0:
256,192,24536,1,0,0:0:0:0:
256,192,24626,1,0,0:0:0:0:
256,192,24717,1,2,0:0:0:0:
256,192,24808,1,2,0:0:0:0:
256,192,24899,1,0,0:0:0:0:
256,192,24960,1,0,0:0:0:0:
256,192,25020,1,0,0:0:0:0:
256,192,25081,1,2,0:0:0:0:
256,192,25172,1,2,0:0:0:0:
256,192,25263,1,0,0:0:0:0:
256,192,25354,1,0,0:0:0:0:
256,192,25445,1,2,0:0:0:0:
256,192,25536,1,2,0:0:0:0:
256,192,25626,1,0,0:0:0:0:
256,192,25687,1,0,0:0:0:0:
256,192,25748,1,0,0:0:0:0:
256,192,25808,1,2,0:0:0:0:
256,192,25899,1,2,0:0:0:0:
256,192,25990,1,0,0:0:0:0:
256,192,26081,1,0,0:0:0:0:
256,192,26172,1,2,0:0:0:0:
256,192,26232,1,2,0:0:0:0:
256,192,26293,1,2,0:0:0:0:
256,192,26354,1,0,0:0:0:0:
256,192,26445,1,0,0:0:0:0:
256,192,26536,1,2,0:0:0:0:
256,192,26717,1,0,0:0:0:0:
256,192,26899,1,2,0:0:0:0:
256,192,26990,1,0,0:0:0:0:
256,192,27081,1,2,0:0:0:0:
256,192,27126,1,2,0:0:0:0:
256,192,27172,1,2,0:0:0:0:
256,192,27263,1,0,0:0:0:0:
256,192,27354,1,0,0:0:0:0:
256,192,27445,1,2,0:0:0:0:
256,192,27490,1,2,0:0:0:0:
256,192,27536,1,0,0:0:0:0:
256,192,27626,1,2,0:0:0:0:
256,192,27717,1,2,0:0:0:0:
256,192,27808,1,0,0:0:0:0:
256,192,27854,1,0,0:0:0:0:
256,192,27899,1,0,0:0:0:0:
256,192,27990,1,2,0:0:0:0:
256,192,28081,1,2,0:0:0:0:
256,192,28172,1,0,0:0:0:0:
256,192,28217,1,0,0:0:0:0:
256,192,28263,1,0,0:0:0:0:
256,192,28308,1,0,0:0:0:0:
256,192,28354,1,2,0:0:0:0:
256,192,28536,1,0,0:0:0:0:
256,192,28717,1,2,0:0:0:0:
256,192,28763,1,2,0:0:0:0:
256,192,28808,1,2,0:0:0:0:
256,192,28899,1,0,0:0:0:0:
256,192,28990,1,0,0:0:0:0:
256,192,29081,1,2,0:0:0:0:
256,192,29126,1,2,0:0:0:0:
256,192,29172,1,0,0:0:0:0:
256,192,29217,1,0,0:0:0:0:
256,192,29263,1,2,0:0:0:0:
256,192,29323,1,2,0:0:0:0:
256,192,29384,1,0,0:0:0:0:
256,192,29445,1,2,0:0:0:0:
256,192,29490,1,2,0:0:0:0:
256,192,29536,1,2,0:0:0:0:
256,192,29581,1,2,0:0:0:0:
256,192,29626,1,0,0:0:0:0:
256,192,29808,1,2,0:0:0:0:
256,192,29899,1,0,0:0:0:0:
256,192,29990,1,2,0:0:0:0:
256,192,30051,1,2,0:0:0:0:
256,192,30111,1,2,0:0:0:0:
256,192,30172,1,0,0:0:0:0:
256,192,30263,1,0,0:0:0:0:
256,192,30354,1,2,0:0:0:0:
256,192,30414,1,0,0:0:0:0:
256,192,30475,1,0,0:0:0:0:
256,192,30536,1,2,0:0:0:0:
256,192,30626,1,0,0:0:0:0:
256,192,30717,1,2,0:0:0:0:
256,192,30778,1,0,0:0:0:0:
256,192,30839,1,0,0:0:0:0:
256,192,30899,1,2,0:0:0:0:
256,192,30990,1,2,0:0:0:0:
256,192,31081,1,0,0:0:0:0:
256,192,31142,1,0,0:0:0:0:
256,192,31202,1,0,0:0:0:0:
256,192,31263,1,2,0:0:0:0:
256,192,31354,1,2,0:0:0:0:
256,192,31445,1,0,0:0:0:0:
256,192,31505,1,0,0:0:0:0:
256,192,31566,1,0,0:0:0:0:
256,192,31626,1,2,0:0:0:0:
256,192,31717,1,0,0:0:0:0:
256,192,31808,1,2,0:0:0:0:
256,192,31869,1,0,0:0:0:0:
256,192,31929,1,0,0:0:0:0:
256,192,31990,1,2,0:0:0:0:
256,192,32051,1,0,0:0:0:0:
256,192,32111,1,0,0:0:0:0:
256,192,32172,1,2,0:0:0:0:
256,192,32232,1,2,0:0:0:0:
256,192,32293,1,0,0:0:0:0:
256,192,32354,1,2,0:0:0:0:
256,192,32445,1,2,0:0:0:0:
256,192,32536,1,0,0:0:0:0:
256,192,32717,1,2,0:0:0:0:
256,192,32808,1,0,0:0:0:0:
256,192,32899,1,2,0:0:0:0:
256,192,32945,1,2,0:0:0:0:
256,192,32990,1,0,0:0:0:0:
256,192,33036,1,0,0:0:0:0:
256,192,33081,1,2,0:0:0:0:
256,192,33172,1,0,0:0:0:0:
256,192,33263,1,2,0:0:0:0:
256,192,33308,1,2,0:0:0:0:
256,192,33354,1,0,0:0:0:0:
256,192,33445,1,2,0:0:0:0:
256,192,33490,1,2,0:0:0:0:
256,192,33536,1,0,0:0:0:0:
256,192,33626,1,2,0:0:0:0:
256,192,33672,1,0,0:0:0:0:
256,192,33717,1,0,0:0:0:0:
256,192,33808,1,2,0:0:0:0:
256,192,33854,1,0,0:0:0:0:
256,192,33899,1,0,0:0:0:0:
256,192,33990,1,2,0:0:0:0:
256,192,34036,1,2,0:0:0:0:
256,192,34081,1,0,0:0:0:0:
256,192,34126,1,0,0:0:0:0:
256,192,34172,1,2,0:0:0:0:
256,192,34232,1,0,0:0:0:0:
256,192,34293,1,0,0:0:0:0:
256,192,34354,1,2,0:0:0:0:
256,192,34399,1,0,0:0:0:0:
256,192,34445,1,0,0:0:0:0:
256,192,34490,1,0,0:0:0:0:
256,192,34536,1,2,0:0:0:0:
256,192,34626,1,0,0:0:0:0:
256,192,34717,1,2,0:0:0:0:
256,192,34778,1,2,0:0:0:0:
256,192,34839,1,2,0:0:0:0:
256,192,34899,1,0,0:0:0:0:
256,192,34960,1,0,0:0:0:0:
256,192,35020,1,0,0:0:0:0:
256,192,35081,1,2,0:0:0:0:
256,192,35172,1,0,0:0:0:0:
256,192,35263,1,2,0:0:0:0:
256,192,35308,1,2,0:0:0:0:
256,192,35354,1,2,0:0:0:0:
256,192,35445,1,0,0:0:0:0:
256,192,35808,1,2,0:0:0:0:
256,192,36172,1,0,0:0:0:0:
256,192,36536,1,2,0:0:0:0:
256,192,36717,1,2,0:0:0:0:
256,192,36899,1,0,0:0:0:0:
256,192,37263,1,0,0:0:0:0:
256,192,37626,1,2,0:0:0:0:
256,192,37990,1,0,0:0:0:0:
256,192,38172,1,0,0:0:0:0:
256,192,38354,1,2,0:0:0:0:
256,192,38717,1,0,0:0:0:0:
256,192,39081,1,2,0:0:0:0:
256,192,39445,1,0,0:0:0:0:
256,192,39626,1,2,0:0:0:0:
256,192,39808,1,0,0:0:0:0:
256,192,39990,1,0,0:0:0:0:
256,192,40172,1,2,0:0:0:0:
256,192,40354,1,0,0:0:0:0:
256,192,40536,1,2,0:0:0:0:
256,192,40657,1,2,0:0:0:0:
256,192,40778,1,2,0:0:0:0:
256,192,40899,1,0,0:0:0:0:
256,192,41020,1,0,0:0:0:0:
256,192,41142,1,0,0:0:0:0:
256,192,41263,1,0,0:0:0:0:
256,192,41445,1,2,0:0:0:0:
256,192,41536,1,2,0:0:0:0:
256,192,41626,1,0,0:0:0:0:
256,192,41808,1,2,0:0:0:0:
256,192,41990,1,0,0:0:0:0:
256,192,42172,1,2,0:0:0:0:
256,192,42354,1,0,0:0:0:0:
256,192,42445,1,0,0:0:0:0:
256,192,42536,1,2,0:0:0:0:
256,192,42717,1,0,0:0:0:0:
256,192,42899,1,2,0:0:0:0:
256,192,42990,1,2,0:0:0:0:
256,192,43081,1,0,0:0:0:0:
256,192,43263,1,2,0:0:0:0:
256,192,43445,1,0,0:0:0:0:
256,192,43626,1,6,0:0:0:0:
256,192,43990,1,6,0:0:0:0:
256,192,44172,1,0,0:0:0:0:
256,192,44354,1,2,0:0:0:0:
256,192,44445,1,2,0:0:0:0:
256,192,44536,1,0,0:0:0:0:
256,192,44717,1,2,0:0:0:0:
256,192,44899,1,0,0:0:0:0:
256,192,45081,1,2,0:0:0:0:
256,192,45172,1,0,0:0:0:0:
256,192,45263,1,0,0:0:0:0:
256,192,45445,1,2,0:0:0:0:
256,192,45626,1,0,0:0:0:0:
256,192,45808,1,2,0:0:0:0:
256,192,45899,1,2,0:0:0:0:
256,192,45990,1,0,0:0:0:0:
256,192,46172,1,2,0:0:0:0:
256,192,46354,1,0,0:0:0:0:
256,192,46536,1,6,0:0:0:0:
256,192,46899,1,6,0:0:0:0:
256,192,47081,1,0,0:0:0:0:
256,192,47263,1,2,0:0:0:0:
256,192,47354,1,2,0:0:0:0:
256,192,47445,1,2,0:0:0:0:
256,192,47626,1,0,0:0:0:0:
256,192,47808,1,2,0:0:0:0:
256,192,47990,1,0,0:0:0:0:
256,192,48081,1,0,0:0:0:0:
256,192,48172,1,2,0:0:0:0:
256,192,48354,1,0,0:0:0:0:
256,192,48536,1,2,0:0:0:0:
256,192,48717,1,0,0:0:0:0:
256,192,48808,1,0,0:0:0:0:
256,192,48899,1,2,0:0:0:0:
256,192,48990,1,0,0:0:0:0:
256,192,49081,1,0,0:0:0:0:
256,192,49263,1,2,0:0:0:0:
256,192,49445,1,0,0:0:0:0:
256,192,49536,1,0,0:0:0:0:
256,192,49626,1,0,0:0:0:0:
256,192,49808,1,2,0:0:0:0:
256,192,49990,1,0,0:0:0:0:
256,192,50172,1,2,0:0:0:0:
256,192,50263,1,2,0:0:0:0:
256,192,50354,1,0,0:0:0:0:
256,192,50536,1,2,0:0:0:0:
256,192,50717,1,0,0:0:0:0:
256,192,50899,1,2,0:0:0:0:
256,192,50990,1,2,0:0:0:0:
256,192,51081,1,2,0:0:0:0:
256,192,51263,1,0,0:0:0:0:
256,192,51445,1,2,0:0:0:0:
256,192,51536,1,2,0:0:0:0:
256,192,51626,1,0,0:0:0:0:
256,192,51717,1,0,0:0:0:0:
256,192,51808,1,2,0:0:0:0:
256,192,51899,1,2,0:0:0:0:
256,192,51990,1,0,0:0:0:0:
256,192,52081,1,0,0:0:0:0:
256,192,52172,1,2,0:0:0:0:
256,192,52263,1,2,0:0:0:0:
256,192,52354,1,2,0:0:0:0:
256,192,52445,1,2,0:0:0:0:
256,192,52536,1,0,0:0:0:0:
256,192,52626,1,0,0:0:0:0:
256,192,52717,1,0,0:0:0:0:
256,192,52808,1,0,0:0:0:0:
256,192,52899,1,6,0:0:0:0:
256,192,53081,1,6,0:0:0:0:
256,192,53445,1,4,0:0:0:0:
256,192,53990,1,2,0:0:0:0:
256,192,54051,1,2,0:0:0:0:
256,192,54111,1,2,0:0:0:0:
256,192,54172,1,2,0:0:0:0:
256,192,54232,1,2,0:0:0:0:
256,192,54293,1,2,0:0:0:0:
256,192,54354,1,0,0:0:0:0:
256,192,54445,1,0,0:0:0:0:
256,192,54536,1,2,0:0:0:0:
256,192,54581,1,2,0:0:0:0:
256,192,54626,1,0,0:0:0:0:
256,192,54672,1,0,0:0:0:0:
256,192,54717,1,2,0:0:0:0:
256,192,54778,1,0,0:0:0:0:
256,192,54839,1,0,0:0:0:0:
256,192,54899,1,2,0:0:0:0:
256,192,54960,1,0,0:0:0:0:
256,192,55020,1,0,0:0:0:0:
256,192,55081,1,2,0:0:0:0:
256,192,55142,1,2,0:0:0:0:
256,192,55202,1,0,0:0:0:0:
256,192,55263,1,2,0:0:0:0:
256,192,55323,1,0,0:0:0:0:
256,192,55384,1,0,0:0:0:0:
256,192,55445,1,2,0:0:0:0:
256,192,55490,1,2,0:0:0:0:
256,192,55536,1,0,0:0:0:0:
256,192,55626,1,2,0:0:0:0:
256,192,55717,1,0,0:0:0:0:
256,192,55808,1,2,0:0:0:0:
256,192,55854,1,2,0:0:0:0:
256,192,55899,1,2,0:0:0:0:
256,192,55945,1,2,0:0:0:0:
256,192,55990,1,0,0:0:0:0:
256,192,56051,1,0,0:0:0:0:
256,192,56111,1,0,0:0:0:0:
256,192,56172,1,2,0:0:0:0:
256,192,56232,1,0,0:0:0:0:
256,192,56293,1,0,0:0:0:0:
256,192,56354,1,2,0:0:0:0:
256,192,56414,1,0,0:0:0:0:
256,192,56475,1,0,0:0:0:0:
256,192,56536,1,2,0:0:0:0:
256,192,56581,1,2,0:0:0:0:
256,192,56626,1,0,0:0:0:0:
256,192,56672,1,0,0:0:0:0:
256,192,56717,1,2,0:0:0:0:
256,192,56778,1,0,0:0:0:0:
256,192,56839,1,0,0:0:0:0:
256,192,56899,1,2,0:0:0:0:
256,192,56960,1,0,0:0:0:0:
256,192,57020,1,0,0:0:0:0:
256,192,57081,1,2,0:0:0:0:
256,192,57172,1,2,0:0:0:0:
256,192,57263,1,0,0:0:0:0:
256,192,57354,1,0,0:0:0:0:
256,192,57445,1,2,0:0:0:0:
256,192,57490,1,0,0:0:0:0:
256,192,57536,1,0,0:0:0:0:
256,192,57626,1,2,0:0:0:0:
256,192,57687,1,0,0:0:0:0:
256,192,57748,1,0,0:0:0:0:
256,192,57808,1,2,0:0:0:0:
256,192,57854,1,2,0:0:0:0:
256,192,57899,1,0,0:0:0:0:
256,192,57945,1,0,0:0:0:0:
256,192,57990,1,2,0:0:0:0:
256,192,58081,1,0,0:0:0:0:
256,192,58172,1,2,0:0:0:0:
256,192,58232,1,2,0:0:0:0:
256,192,58293,1,2,0:0:0:0:
256,192,58354,1,0,0:0:0:0:
256,192,58399,1,0,0:0:0:0:
256,192,58445,1,0,0:0:0:0:
256,192,58490,1,0,0:0:0:0:
256,192,58536,1,2,0:0:0:0:
256,192,58626,1,0,0:0:0:0:
256,192,58717,1,2,0:0:0:0:
256,192,58763,1,2,0:0:0:0:
256,192,58808,1,0,0:0:0:0:
256,192,58854,1,0,0:0:0:0:
256,192,58899,1,2,0:0:0:0:
256,192,58945,1,2,0:0:0:0:
256,192,58990,1,0,0:0:0:0:
256,192,59036,1,0,0:0:0:0:
256,192,59081,1,2,0:0:0:0:
256,192,59142,1,0,0:0:0:0:
256,192,59202,1,0,0:0:0:0:
256,192,59263,1,2,0:0:0:0:
256,192,59323,1,0,0:0:0:0:
256,192,59384,1,0,0:0:0:0:
256,192,59445,1,2,0:0:0:0:
256,192,59536,1,0,0:0:0:0:
256,192,59626,1,2,0:0:0:0:
256,192,59672,1,2,0:0:0:0:
256,192,59717,1,2,0:0:0:0:
256,192,59763,1,2,0:0:0:0:
256,192,59808,1,0,0:0:0:0:
256,192,59869,1,0,0:0:0:0:
256,192,59929,1,0,0:0:0:0:
256,192,59990,1,2,0:0:0:0:
256,192,60081,1,2,0:0:0:0:
256,192,60172,1,0,0:0:0:0:
256,192,60232,1,0,0:0:0:0:
256,192,60293,1,0,0:0:0:0:
256,192,60354,1,2,0:0:0:0:
256,192,60399,1,2,0:0:0:0:
256,192,60445,1,0,0:0:0:0:
256,192,60536,1,2,0:0:0:0:
256,192,60581,1,2,0:0:0:0:
256,192,60626,1,0,0:0:0:0:
256,192,60717,1,2,0:0:0:0:
256,192,60778,1,2,0:0:0:0:
256,192,60839,1,0,0:0:0:0:
256,192,60899,1,2,0:0:0:0:
256,192,60990,1,0,0:0:0:0:
256,192,61081,1,2,0:0:0:0:
256,192,61126,1,2,0:0:0:0:
256,192,61172,1,2,0:0:0:0:
256,192,61263,1,0,0:0:0:0:
256,192,61323,1,0,0:0:0:0:
256,192,61384,1,0,0:0:0:0:
256,192,61445,1,2,0:0:0:0:
256,192,61536,1,2,0:0:0:0:
256,192,61626,1,0,0:0:0:0:
256,192,61672,1,0,0:0:0:0:
256,192,61717,1,0,0:0:0:0:
256,192,61808,1,2,0:0:0:0:
256,192,61869,1,2,0:0:0:0:
256,192,61929,1,0,0:0:0:0:
256,192,61990,1,2,0:0:0:0:
256,192,62051,1,2,0:0:0:0:
256,192,62111,1,0,0:0:0:0:
256,192,62172,1,2,0:0:0:0:
256,192,62232,1,2,0:0:0:0:
256,192,62293,1,0,0:0:0:0:
256,192,62354,1,2,0:0:0:0:
256,192,62399,1,2,0:0:0:0:
256,192,62445,1,0,0:0:0:0:
256,192,62490,1,0,0:0:0:0:
256,192,62536,1,2,0:0:0:0:
248,196,62581,1,2,0:0:0:0:
256,192,62626,1,0,0:0:0:0:
256,192,62672,1,0,0:0:0:0:
256,192,62717,1,2,0:0:0:0:
256,192,62778,1,0,0:0:0:0:
256,192,62839,1,0,0:0:0:0:
256,192,62899,1,2,0:0:0:0:
256,192,62945,1,2,0:0:0:0:
240,200,62990,1,0,0:0:0:0:
256,192,63036,1,0,0:0:0:0:
256,192,63081,1,2,0:0:0:0:
256,192,63142,1,0,0:0:0:0:
256,192,63202,1,0,0:0:0:0:
256,192,63263,1,2,0:0:0:0:
256,192,63323,1,0,0:0:0:0:
256,192,63384,1,0,0:0:0:0:
256,192,63445,1,2,0:0:0:0:
256,192,63505,1,0,0:0:0:0:
256,192,63566,1,0,0:0:0:0:
256,192,63626,1,2,0:0:0:0:
256,192,63687,1,0,0:0:0:0:
256,192,63748,1,0,0:0:0:0:
256,192,63808,1,2,0:0:0:0:
256,192,63869,1,2,0:0:0:0:
256,192,63929,1,0,0:0:0:0:
256,192,63990,1,2,0:0:0:0:
256,192,64051,1,2,0:0:0:0:
256,192,64111,1,0,0:0:0:0:
256,192,64172,1,2,0:0:0:0:
256,192,64217,1,2,0:0:0:0:
256,192,64263,1,2,0:0:0:0:
256,192,64308,1,2,0:0:0:0:
256,192,64354,1,0,0:0:0:0:
256,192,64414,1,0,0:0:0:0:
256,192,64475,1,0,0:0:0:0:
256,192,64536,1,2,0:0:0:0:
256,192,64596,1,0,0:0:0:0:
256,192,64657,1,0,0:0:0:0:
256,192,64717,1,2,0:0:0:0:
256,192,64778,1,0,0:0:0:0:
256,192,64839,1,0,0:0:0:0:
256,192,64899,1,2,0:0:0:0:
256,192,64960,1,0,0:0:0:0:
256,192,65020,1,0,0:0:0:0:
256,192,65081,1,2,0:0:0:0:
256,192,65142,1,2,0:0:0:0:
256,192,65202,1,2,0:0:0:0:
256,192,65263,1,0,0:0:0:0:
256,192,65323,1,0,0:0:0:0:
256,192,65384,1,2,0:0:0:0:
256,192,65445,1,0,0:0:0:0:
256,192,65505,1,0,0:0:0:0:
256,192,65566,1,2,0:0:0:0:
256,192,65626,1,0,0:0:0:0:
256,192,65687,1,0,0:0:0:0:
256,192,65748,1,0,0:0:0:0:
256,192,65808,1,2,0:0:0:0:
256,192,65854,1,2,0:0:0:0:
256,192,65899,1,2,0:0:0:0:
256,192,65945,1,2,0:0:0:0:
256,192,65990,1,0,0:0:0:0:
256,192,66081,1,0,0:0:0:0:
256,192,66172,1,2,0:0:0:0:
256,192,66217,1,2,0:0:0:0:
256,192,66263,1,0,0:0:0:0:
256,192,66354,1,2,0:0:0:0:
256,192,66399,1,2,0:0:0:0:
256,192,66445,1,0,0:0:0:0:
256,192,66536,1,2,0:0:0:0:
256,192,66581,1,2,0:0:0:0:
256,192,66626,1,0,0:0:0:0:
256,192,66717,1,2,0:0:0:0:
256,192,66763,1,0,0:0:0:0:
256,192,66808,1,0,0:0:0:0:
256,192,66899,1,2,0:0:0:0:
256,192,66945,1,0,0:0:0:0:
256,192,66990,1,0,0:0:0:0:
256,192,67081,1,2,0:0:0:0:
256,192,67142,1,0,0:0:0:0:
256,192,67202,1,0,0:0:0:0:
256,192,67263,1,2,0:0:0:0:
256,192,67354,1,0,0:0:0:0:
256,192,67445,1,2,0:0:0:0:
256,192,67490,1,2,0:0:0:0:
256,192,67536,1,2,0:0:0:0:
256,192,67581,1,2,0:0:0:0:
256,192,67626,1,0,0:0:0:0:
256,192,67687,1,0,0:0:0:0:
256,192,67748,1,0,0:0:0:0:
256,192,67808,1,2,0:0:0:0:
256,192,67869,1,0,0:0:0:0:
256,192,67929,1,0,0:0:0:0:
256,192,67990,1,2,0:0:0:0:
256,192,68051,1,0,0:0:0:0:
256,192,68111,1,0,0:0:0:0:
256,192,68172,1,2,0:0:0:0:
256,192,68217,1,2,0:0:0:0:
256,192,68263,1,0,0:0:0:0:
256,192,68308,1,0,0:0:0:0:
256,192,68354,1,2,0:0:0:0:
256,192,68414,1,0,0:0:0:0:
256,192,68475,1,0,0:0:0:0:
256,192,68536,1,2,0:0:0:0:
256,192,68596,1,0,0:0:0:0:
256,192,68657,1,0,0:0:0:0:
256,192,68717,1,2,0:0:0:0:
256,192,68808,1,0,0:0:0:0:
256,192,68899,1,2,0:0:0:0:
256,192,68990,1,0,0:0:0:0:
256,192,69036,1,0,0:0:0:0:
256,192,69081,1,2,0:0:0:0:
256,192,69172,1,0,0:0:0:0:
256,192,69217,1,0,0:0:0:0:
256,192,69263,1,2,0:0:0:0:
256,192,69354,1,0,0:0:0:0:
256,192,69445,1,2,0:0:0:0:
256,192,69490,1,2,0:0:0:0:
256,192,69536,1,0,0:0:0:0:
256,192,69626,1,2,0:0:0:0:
256,192,69672,1,2,0:0:0:0:
256,192,69717,1,0,0:0:0:0:
256,192,69763,1,0,0:0:0:0:
256,192,69808,1,2,0:0:0:0:
256,192,69869,1,0,0:0:0:0:
256,192,69929,1,0,0:0:0:0:
256,192,69990,1,2,0:0:0:0:
256,192,70036,1,2,0:0:0:0:
256,192,70081,1,0,0:0:0:0:
256,192,70126,1,0,0:0:0:0:
256,192,70172,1,2,0:0:0:0:
256,192,70232,1,0,0:0:0:0:
256,192,70293,1,0,0:0:0:0:
256,192,70354,1,2,0:0:0:0:
256,192,70414,1,2,0:0:0:0:
256,192,70475,1,0,0:0:0:0:
256,192,70536,1,2,0:0:0:0:
256,192,70596,1,2,0:0:0:0:
256,192,70657,1,0,0:0:0:0:
256,192,70717,1,2,0:0:0:0:
256,192,70763,1,2,0:0:0:0:
256,192,70808,1,2,0:0:0:0:
256,192,70854,1,2,0:0:0:0:
256,192,70899,1,0,0:0:0:0:
256,192,70960,1,0,0:0:0:0:
256,192,71020,1,0,0:0:0:0:
256,192,71081,1,2,0:0:0:0:
256,192,71126,1,2,0:0:0:0:
256,192,71172,1,0,0:0:0:0:
256,192,71217,1,0,0:0:0:0:
256,192,71263,1,2,0:0:0:0:
256,192,71323,1,0,0:0:0:0:
256,192,71384,1,0,0:0:0:0:
256,192,71445,1,2,0:0:0:0:
256,192,71505,1,0,0:0:0:0:
256,192,71566,1,0,0:0:0:0:
256,192,71626,1,2,0:0:0:0:
256,192,71672,1,2,0:0:0:0:
256,192,71717,1,2,0:0:0:0:
256,192,71763,1,2,0:0:0:0:
256,192,71808,1,0,0:0:0:0:
256,192,71899,1,0,0:0:0:0:
256,192,71990,1,2,0:0:0:0:
256,192,72051,1,0,0:0:0:0:
256,192,72111,1,0,0:0:0:0:
256,192,72172,1,2,0:0:0:0:
256,192,72263,1,0,0:0:0:0:
256,192,72354,1,2,0:0:0:0:
256,192,72399,1,0,0:0:0:0:
256,192,72445,1,0,0:0:0:0:
256,192,72536,1,2,0:0:0:0:
256,192,72581,1,2,0:0:0:0:
256,192,72626,1,0,0:0:0:0:
256,192,72717,1,2,0:0:0:0:
256,192,72763,1,2,0:0:0:0:
256,192,72808,1,0,0:0:0:0:
256,192,72899,1,2,0:0:0:0:
256,192,72945,1,2,0:0:0:0:
256,192,72990,1,0,0:0:0:0:
256,192,73036,1,0,0:0:0:0:
256,192,73081,1,2,0:0:0:0:
256,192,73126,1,0,0:0:0:0:
256,192,73172,1,0,0:0:0:0:
256,192,73217,1,0,0:0:0:0:
256,192,73263,1,2,0:0:0:0:
256,192,73354,1,0,0:0:0:0:
256,192,73399,1,0,0:0:0:0:
256,192,73445,1,2,0:0:0:0:
256,192,73536,1,0,0:0:0:0:
256,192,73626,1,2,0:0:0:0:
256,192,73672,1,2,0:0:0:0:
256,192,73717,1,2,0:0:0:0:
256,192,73808,1,0,0:0:0:0:
256,192,73854,1,0,0:0:0:0:
256,192,73899,1,0,0:0:0:0:
256,192,73990,1,2,0:0:0:0:
256,192,74036,1,2,0:0:0:0:
256,192,74081,1,0,0:0:0:0:
256,192,74126,1,0,0:0:0:0:
256,192,74172,1,2,0:0:0:0:
256,192,74232,1,0,0:0:0:0:
256,192,74293,1,0,0:0:0:0:
256,192,74354,1,2,0:0:0:0:
256,192,74445,1,0,0:0:0:0:
256,192,74536,1,2,0:0:0:0:
256,192,74581,1,2,0:0:0:0:
256,192,74626,1,2,0:0:0:0:
256,192,74717,1,0,0:0:0:0:
256,192,74763,1,0,0:0:0:0:
256,192,74808,1,0,0:0:0:0:
256,192,74854,1,0,0:0:0:0:
256,192,74899,1,2,0:0:0:0:
256,192,74960,1,0,0:0:0:0:
256,192,75020,1,0,0:0:0:0:
256,192,75081,1,2,0:0:0:0:
256,192,75142,1,0,0:0:0:0:
256,192,75202,1,0,0:0:0:0:
256,192,75263,1,2,0:0:0:0:
256,192,75308,1,2,0:0:0:0:
256,192,75354,1,0,0:0:0:0:
256,192,75399,1,0,0:0:0:0:
256,192,75445,1,2,0:0:0:0:
256,192,75505,1,2,0:0:0:0:
256,192,75566,1,0,0:0:0:0:
256,192,75626,1,2,0:0:0:0:
256,192,75687,1,2,0:0:0:0:
256,192,75748,1,0,0:0:0:0:
256,192,75808,1,2,0:0:0:0:
256,192,75869,1,0,0:0:0:0:
256,192,75929,1,0,0:0:0:0:
256,192,75990,1,2,0:0:0:0:
256,192,76051,1,0,0:0:0:0:
256,192,76111,1,0,0:0:0:0:
256,192,76172,1,2,0:0:0:0:
256,192,76263,1,0,0:0:0:0:
256,192,76308,1,0,0:0:0:0:
256,192,76354,1,2,0:0:0:0:
256,192,76445,1,0,0:0:0:0:
256,192,76536,1,2,0:0:0:0:
256,192,76626,1,0,0:0:0:0:
256,192,76672,1,0,0:0:0:0:
256,192,76717,1,2,0:0:0:0:
256,192,76808,1,0,0:0:0:0:
256,192,76899,1,2,0:0:0:0:
256,192,76945,1,2,0:0:0:0:
256,192,76990,1,2,0:0:0:0:
256,192,77081,1,0,0:0:0:0:
256,192,77172,1,0,0:0:0:0:
256,192,77263,1,2,0:0:0:0:
256,192,77308,1,2,0:0:0:0:
256,192,77354,1,2,0:0:0:0:
256,192,77445,1,0,0:0:0:0:
256,192,77536,1,0,0:0:0:0:
256,192,77626,1,2,0:0:0:0:
256,192,77717,1,0,0:0:0:0:
256,192,77763,1,0,0:0:0:0:
256,192,77808,1,2,0:0:0:0:
256,192,77899,1,0,0:0:0:0:
256,192,77990,1,2,0:0:0:0:
256,192,78036,1,2,0:0:0:0:
256,192,78081,1,0,0:0:0:0:
256,192,78172,1,2,0:0:0:0:
256,192,78217,1,2,0:0:0:0:
256,192,78263,1,0,0:0:0:0:
256,192,78354,1,2,0:0:0:0:
256,192,78445,1,0,0:0:0:0:
256,192,78490,1,0,0:0:0:0:
256,192,78536,1,2,0:0:0:0:
256,192,78626,1,0,0:0:0:0:
256,192,78717,1,2,0:0:0:0:
256,192,78763,1,2,0:0:0:0:
256,192,78808,1,2,0:0:0:0:
256,192,78899,1,0,0:0:0:0:
256,192,78945,1,0,0:0:0:0:
256,192,78990,1,0,0:0:0:0:
256,192,79081,1,2,0:0:0:0:
256,192,79172,1,0,0:0:0:0:
256,192,79217,1,0,0:0:0:0:
256,192,79263,1,2,0:0:0:0:
256,192,79354,1,0,0:0:0:0:
256,192,79445,1,2,0:0:0:0:
256,192,79490,1,2,0:0:0:0:
256,192,79536,1,0,0:0:0:0:
256,192,79626,1,2,0:0:0:0:
256,192,79672,1,2,0:0:0:0:
256,192,79717,1,0,0:0:0:0:
256,192,79808,1,2,0:0:0:0:
256,192,79899,1,0,0:0:0:0:
256,192,79945,1,0,0:0:0:0:
256,192,79990,1,2,0:0:0:0:
256,192,80081,1,0,0:0:0:0:
256,192,80172,1,2,0:0:0:0:
256,192,80217,1,2,0:0:0:0:
256,192,80263,1,2,0:0:0:0:
256,192,80308,1,2,0:0:0:0:
256,192,80354,1,0,0:0:0:0:
256,192,80399,1,0,0:0:0:0:
256,192,80445,1,0,0:0:0:0:
256,192,80490,1,0,0:0:0:0:
256,192,80536,1,2,0:0:0:0:
256,192,80626,1,0,0:0:0:0:
256,192,80672,1,0,0:0:0:0:
256,192,80717,1,0,0:0:0:0:
256,192,80808,1,2,0:0:0:0:
256,192,80899,1,0,0:0:0:0:
256,192,80990,1,2,0:0:0:0:
256,192,81036,1,2,0:0:0:0:
256,192,81081,1,2,0:0:0:0:
256,192,81172,1,0,0:0:0:0:
256,192,81263,1,2,0:0:0:0:
256,192,81308,1,2,0:0:0:0:
256,192,81354,1,2,0:0:0:0:
256,192,81445,1,0,0:0:0:0:
256,192,81536,1,0,0:0:0:0:
256,192,81626,1,2,0:0:0:0:
256,192,81672,1,2,0:0:0:0:
256,192,81717,1,2,0:0:0:0:
256,192,81763,1,2,0:0:0:0:
256,192,81808,1,0,0:0:0:0:
256,192,81899,1,2,0:0:0:0:
256,192,81990,1,0,0:0:0:0:
256,192,82036,1,0,0:0:0:0:
256,192,82081,1,2,0:0:0:0:
256,192,82172,1,0,0:0:0:0:
256,192,82217,1,0,0:0:0:0:
256,192,82263,1,2,0:0:0:0:
256,192,82354,1,0,0:0:0:0:
256,192,82399,1,0,0:0:0:0:
256,192,82445,1,2,0:0:0:0:
256,192,82536,1,0,0:0:0:0:
256,192,82581,1,0,0:0:0:0:
256,192,82626,1,2,0:0:0:0:
256,192,82717,1,0,0:0:0:0:
256,192,82763,1,0,0:0:0:0:
256,192,82808,1,0,0:0:0:0:
256,192,82854,1,0,0:0:0:0:
256,192,82899,1,2,0:0:0:0:
256,192,82990,1,0,0:0:0:0:
256,192,83081,1,2,0:0:0:0:
256,192,83126,1,0,0:0:0:0:
256,192,83172,1,0,0:0:0:0:
256,192,83217,1,0,0:0:0:0:
256,192,83263,1,2,0:0:0:0:
256,192,83354,1,0,0:0:0:0:
256,192,83445,1,2,0:0:0:0:
256,192,83490,1,2,0:0:0:0:
256,192,83536,1,0,0:0:0:0:
256,192,83626,1,2,0:0:0:0:
256,192,83672,1,2,0:0:0:0:
256,192,83717,1,0,0:0:0:0:
256,192,83808,1,2,0:0:0:0:
256,192,83854,1,2,0:0:0:0:
256,192,83899,1,0,0:0:0:0:
256,192,83945,1,0,0:0:0:0:
256,192,83990,1,2,0:0:0:0:
256,192,84081,1,0,0:0:0:0:
256,192,84172,1,2,0:0:0:0:
256,192,84217,1,2,0:0:0:0:
256,192,84263,1,2,0:0:0:0:
256,192,84354,1,0,0:0:0:0:
256,192,84445,1,0,0:0:0:0:
256,192,84536,1,2,0:0:0:0:
256,192,84581,1,2,0:0:0:0:
256,192,84626,1,2,0:0:0:0:
256,192,84717,1,0,0:0:0:0:
256,192,84808,1,2,0:0:0:0:
256,192,84899,1,0,0:0:0:0:
256,192,84945,1,0,0:0:0:0:
256,192,84990,1,0,0:0:0:0:
256,192,85036,1,0,0:0:0:0:
256,192,85081,1,2,0:0:0:0:
256,192,85172,1,0,0:0:0:0:
256,192,85263,1,2,0:0:0:0:
256,192,85308,1,2,0:0:0:0:
256,192,85354,1,0,0:0:0:0:
256,192,85399,1,0,0:0:0:0:
256,192,85445,1,2,0:0:0:0:
256,192,85536,1,0,0:0:0:0:
256,192,85626,1,2,0:0:0:0:
256,192,85672,1,2,0:0:0:0:
256,192,85717,1,2,0:0:0:0:
256,192,85763,1,2,0:0:0:0:
256,192,85808,1,0,0:0:0:0:
256,192,85899,1,2,0:0:0:0:
256,192,85990,1,0,0:0:0:0:
256,192,86036,1,0,0:0:0:0:
256,192,86081,1,2,0:0:0:0:
256,192,86126,1,0,0:0:0:0:
256,192,86172,1,0,0:0:0:0:
256,192,86263,1,2,0:0:0:0:
256,192,86354,1,0,0:0:0:0:
256,192,87717,1,4,0:0:0:0:
