osu file format v14

[General]
AudioFilename: audio.mp3
AudioLeadIn: 0
PreviewTime: 54354
Countdown: 0
SampleSet: Normal
StackLeniency: 0.7
Mode: 1
LetterboxInBreaks: 0
WidescreenStoryboard: 1

[Editor]
DistanceSpacing: 0.5
BeatDivisor: 4
GridSize: 4
TimelineZoom: 2.3

[Metadata]
Title:Hitorigoto -TV MIX-
TitleUnicode:ヒトリゴト -TV MIX-
Artist:ClariS
ArtistUnicode:ClariS
Creator:asuasu_yura
Version:Sagirified
Source:エロマンガ先生
Tags:yura Pheon KTYN KitajimaYN KamizonoShinobu Chocola_2287 Pettsu yyyyyyyyyyypetu komasy nananass Consified Peaceful MetalStream eromanga sensei ero manga eromanga-sensei eromangasensei op opening tv size anime japanese
BeatmapID:1318053
BeatmapSetID:624087

[Difficulty]
HPDrainRate:5
CircleSize:2
OverallDifficulty:6
ApproachRate:10
SliderMultiplier:1.4
SliderTickRate:1

[Events]
//Background and Video events
0,0,"62520783_p0.png",0,0
//Break Periods
//Storyboard Layer 0 (Background)
//Storyboard Layer 1 (Fail)
//Storyboard Layer 2 (Pass)
//Storyboard Layer 3 (Foreground)
//Storyboard Layer 4 (Overlay)
//Storyboard Sound Samples

[TimingPoints]
536,363.636363636364,4,1,0,90,1,0
3445,6000000.63636364,4,1,0,90,1,0
3535,363.636363636364,4,1,0,90,1,0
3625,6000000.63636364,4,1,0,90,1,0
3715,363.636363636364,4,1,0,90,1,0
3805,6000000.63636364,4,1,0,90,1,0
3895,363.636363636364,4,1,0,90,1,0
3985,6000000.63636364,4,1,0,90,1,0
4075,363.636363636364,4,1,0,90,1,0
4165,6000000.63636364,4,1,0,90,1,0
4255,363.636363636364,4,1,0,90,1,0
4345,6000000.63636364,4,1,0,90,1,0
4435,363.636363636364,4,1,0,90,1,0
4525,6000000.63636364,4,1,0,90,1,0
4615,363.636363636364,4,1,0,90,1,0
4705,6000000.63636364,4,1,0,90,1,0
4795,363.636363636364,4,1,0,90,1,0
4885,6000000.63636364,4,1,0,90,1,0
4975,363.636363636364,4,1,0,90,1,0
5065,6000000.63636364,4,1,0,90,1,0
5155,363.636363636364,4,1,0,90,1,0
5245,6000000.63636364,4,1,0,90,1,0
5335,363.636363636364,4,1,0,90,1,0
5425,6000000.63636364,4,1,0,90,1,0
5515,363.636363636364,4,1,0,90,1,0
5605,6000000.63636364,4,1,0,90,1,0
5695,363.636363636364,4,1,0,90,1,0
5785,6000000.63636364,4,1,0,90,1,0
5875,363.636363636364,4,1,0,90,1,0
5965,6000000.63636364,4,1,0,90,1,0
6055,363.636363636364,4,1,0,90,1,0
6145,6000000.63636364,4,1,0,90,1,0
6235,363.636363636364,4,1,0,90,1,0
6354,363.636363636364,4,1,0,90,1,0
54354,-100,4,1,0,90,0,1
87808,6000000,4,1,0,90,1,0

[HitObjects]
256,196,536,5,0,0:0:0:0:
256,196,717,1,0,0:0:0:0:
256,196,899,1,2,0:0:0:0:
256,196,1081,1,0,0:0:0:0:
256,196,1172,1,0,0:0:0:0:
256,196,1263,1,2,0:0:0:0:
256,196,1445,1,0,0:0:0:0:
256,196,1626,1,2,0:0:0:0:
256,196,1808,1,2,0:0:0:0:
256,196,1990,1,0,0:0:0:0:
256,196,2172,1,0,0:0:0:0:
256,196,2354,1,2,0:0:0:0:
256,196,2536,1,0,0:0:0:0:
256,196,2626,1,0,0:0:0:0:
256,196,2717,1,2,0:0:0:0:
256,196,2899,1,0,0:0:0:0:
256,196,3081,1,2,0:0:0:0:
256,196,3263,1,0,0:0:0:0:
256,196,3445,1,0,0:0:0:0:
256,196,3626,1,0,0:0:0:0:
256,196,3808,1,2,0:0:0:0:
256,196,3990,1,0,0:0:0:0:
256,196,4172,1,2,0:0:0:0:
256,196,4354,1,0,0:0:0:0:
256,196,4536,1,2,0:0:0:0:
256,196,4717,1,0,0:0:0:0:
256,196,4899,1,2,0:0:0:0:
256,196,5081,1,2,0:0:0:0:
256,196,5263,1,2,0:0:0:0:
256,196,5445,1,2,0:0:0:0:
256,196,5626,1,0,0:0:0:0:
256,196,5808,1,0,0:0:0:0:
256,196,5990,1,2,0:0:0:0:
256,196,6172,1,0,0:0:0:0:
256,196,6354,1,0,0:0:0:0:
256,196,6535,1,0,0:0:0:0:
256,196,6717,1,2,0:0:0:0:
256,196,6899,1,0,0:0:0:0:
256,196,6990,1,0,0:0:0:0:
256,196,7081,1,2,0:0:0:0:
256,196,7263,1,0,0:0:0:0:
256,196,7444,1,2,0:0:0:0:
256,196,7626,1,0,0:0:0:0:
256,196,7808,1,0,0:0:0:0:
256,196,7990,1,0,0:0:0:0:
256,196,8172,1,2,0:0:0:0:
256,196,8354,1,0,0:0:0:0:
256,196,8535,1,0,0:0:0:0:
256,196,8626,1,0,0:0:0:0:
256,196,8717,1,2,0:0:0:0:
256,196,8899,1,0,0:0:0:0:
256,196,9081,1,2,0:0:0:0:
256,196,9263,1,0,0:0:0:0:
256,196,9444,1,2,0:0:0:0:
256,196,9626,1,2,0:0:0:0:
256,196,9808,1,2,0:0:0:0:
256,196,9990,1,0,0:0:0:0:
256,196,10172,1,2,0:0:0:0:
256,196,10354,1,2,0:0:0:0:
256,196,10535,1,2,0:0:0:0:
256,192,10717,12,0,11444,0:0:0:0:
256,192,12172,5,2,0:0:0:0:
256,192,12263,1,0,0:0:0:0:
256,192,12354,1,0,0:0:0:0:
256,192,12444,1,0,0:0:0:0:
256,192,12535,1,2,0:0:0:0:
256,192,12626,1,0,0:0:0:0:
256,192,12717,1,0,0:0:0:0:
256,192,12808,1,0,0:0:0:0:
256,192,12899,1,2,0:0:0:0:
256,192,12990,1,0,0:0:0:0:
256,192,13081,1,2,0:0:0:0:
256,192,13172,1,0,0:0:0:0:
256,192,13263,1,2,0:0:0:0:
256,192,13354,1,0,0:0:0:0:
256,192,13444,1,2,0:0:0:0:
256,192,13535,1,0,0:0:0:0:
256,192,13626,1,0,0:0:0:0:
256,192,13717,1,0,0:0:0:0:
256,192,13808,1,2,0:0:0:0:
256,192,13899,1,0,0:0:0:0:
256,192,13990,1,0,0:0:0:0:
256,192,14081,1,0,0:0:0:0:
256,192,14172,1,2,0:0:0:0:
256,192,14263,1,0,0:0:0:0:
256,192,14354,1,0,0:0:0:0:
256,192,14444,1,0,0:0:0:0:
256,192,14535,1,2,0:0:0:0:
256,192,14626,1,0,0:0:0:0:
256,192,14717,1,0,0:0:0:0:
256,192,14808,1,0,0:0:0:0:
256,192,14899,1,2,0:0:0:0:
256,192,14990,1,0,0:0:0:0:
256,192,15081,1,0,0:0:0:0:
256,192,15172,1,0,0:0:0:0:
256,192,15263,1,2,0:0:0:0:
256,192,15354,1,0,0:0:0:0:
256,192,15444,1,2,0:0:0:0:
256,192,15535,1,2,0:0:0:0:
256,192,15626,1,0,0:0:0:0:
256,192,15717,1,2,0:0:0:0:
256,192,15808,1,0,0:0:0:0:
256,192,15899,1,0,0:0:0:0:
256,192,15990,1,2,0:0:0:0:
256,192,16081,1,0,0:0:0:0:
256,192,16172,1,2,0:0:0:0:
256,192,16263,1,2,0:0:0:0:
256,192,16354,1,0,0:0:0:0:
256,192,16444,1,2,0:0:0:0:
256,192,16535,1,0,0:0:0:0:
256,192,16626,1,0,0:0:0:0:
256,192,16717,1,0,0:0:0:0:
256,192,16808,1,2,0:0:0:0:
256,192,16899,1,2,0:0:0:0:
256,192,16990,1,2,0:0:0:0:
256,192,17081,1,0,0:0:0:0:
256,192,17172,1,2,0:0:0:0:
256,192,17263,1,2,0:0:0:0:
256,192,17354,1,2,0:0:0:0:
256,192,17444,1,0,0:0:0:0:
256,192,17535,1,2,0:0:0:0:
256,192,17626,1,0,0:0:0:0:
256,192,17717,1,2,0:0:0:0:
256,192,17808,1,0,0:0:0:0:
256,192,17899,1,2,0:0:0:0:
256,192,17990,1,0,0:0:0:0:
256,192,18081,1,0,0:0:0:0:
256,192,18172,1,0,0:0:0:0:
256,192,18263,1,0,0:0:0:0:
256,192,18353,1,2,0:0:0:0:
256,192,18444,1,0,0:0:0:0:
256,192,18535,1,0,0:0:0:0:
256,192,18626,1,0,0:0:0:0:
256,192,18717,1,2,0:0:0:0:
256,192,18808,1,0,0:0:0:0:
256,192,18899,1,2,0:0:0:0:
256,192,18990,1,0,0:0:0:0:
256,192,19081,1,2,0:0:0:0:
256,192,19172,1,0,0:0:0:0:
256,192,19263,1,2,0:0:0:0:
256,192,19353,1,0,0:0:0:0:
256,192,19444,1,0,0:0:0:0:
256,192,19535,1,0,0:0:0:0:
256,192,19626,1,2,0:0:0:0:
256,192,19717,1,0,0:0:0:0:
256,192,19808,1,0,0:0:0:0:
256,192,19899,1,0,0:0:0:0:
256,192,19990,1,2,0:0:0:0:
256,192,20081,1,0,0:0:0:0:
256,192,20172,1,0,0:0:0:0:
256,192,20263,1,0,0:0:0:0:
256,192,20353,1,2,0:0:0:0:
256,192,20444,1,0,0:0:0:0:
256,192,20535,1,0,0:0:0:0:
256,192,20626,1,0,0:0:0:0:
256,192,20717,1,2,0:0:0:0:
256,192,20808,1,0,0:0:0:0:
256,192,20899,1,0,0:0:0:0:
256,192,20990,1,0,0:0:0:0:
256,192,21081,1,2,0:0:0:0:
256,192,21172,1,2,0:0:0:0:
256,192,21263,1,0,0:0:0:0:
256,192,21353,1,0,0:0:0:0:
256,192,21444,1,0,0:0:0:0:
256,192,21535,1,2,0:0:0:0:
256,192,21626,1,2,0:0:0:0:
256,192,21717,1,0,0:0:0:0:
256,192,21808,1,0,0:0:0:0:
256,192,21899,1,0,0:0:0:0:
256,192,21990,1,2,0:0:0:0:
256,192,22081,1,2,0:0:0:0:
256,192,22172,1,2,0:0:0:0:
256,192,22263,1,0,0:0:0:0:
256,192,22353,1,0,0:0:0:0:
256,192,22444,1,2,0:0:0:0:
256,192,22535,1,2,0:0:0:0:
256,192,22626,1,0,0:0:0:0:
256,192,22717,1,2,0:0:0:0:
256,192,22808,1,2,0:0:0:0:
256,192,22899,1,0,0:0:0:0:
256,192,22990,1,2,0:0:0:0:
256,192,23081,1,2,0:0:0:0:
256,192,23172,1,0,0:0:0:0:
256,192,23263,1,2,0:0:0:0:
256,192,23353,1,2,0:0:0:0:
256,192,23444,1,0,0:0:0:0:
256,192,23535,1,2,0:0:0:0:
256,192,23626,1,0,0:0:0:0:
256,192,23717,1,0,0:0:0:0:
256,192,23808,1,0,0:0:0:0:
256,192,23990,1,0,0:0:0:0:
256,192,24172,1,2,0:0:0:0:
256,192,24354,1,0,0:0:0:0:
256,192,24535,1,2,0:0:0:0:
256,192,24717,1,0,0:0:0:0:
256,192,24899,1,2,0:0:0:0:
256,192,25081,1,2,0:0:0:0:
256,192,25172,1,2,0:0:0:0:
256,192,25263,1,2,0:0:0:0:
256,192,25444,1,0,0:0:0:0:
256,192,25626,1,2,0:0:0:0:
256,192,25717,1,2,0:0:0:0:
256,192,25808,1,2,0:0:0:0:
256,192,25899,1,2,0:0:0:0:
256,192,25990,1,2,0:0:0:0:
256,192,26172,1,0,0:0:0:0:
256,192,26354,1,2,0:0:0:0:
256,192,26535,1,2,0:0:0:0:
256,192,26717,1,0,0:0:0:0:
256,192,26899,1,0,0:0:0:0:
256,192,27081,1,2,0:0:0:0:
256,192,27172,1,2,0:0:0:0:
256,192,27263,1,0,0:0:0:0:
256,192,27354,1,0,0:0:0:0:
256,192,27444,1,2,0:0:0:0:
256,192,27535,1,2,0:0:0:0:
256,192,27626,1,2,0:0:0:0:
256,192,27717,1,0,0:0:0:0:
256,192,27808,1,0,0:0:0:0:
256,192,27899,1,0,0:0:0:0:
256,192,27990,1,2,0:0:0:0:
256,192,28081,1,2,0:0:0:0:
256,192,28172,1,2,0:0:0:0:
256,192,28354,1,2,0:0:0:0:
256,192,28717,1,2,0:0:0:0:
256,192,29081,1,2,0:0:0:0:
256,192,29263,1,2,0:0:0:0:
256,192,29444,1,2,0:0:0:0:
256,192,29626,1,0,0:0:0:0:
256,192,29717,1,0,0:0:0:0:
256,192,29808,1,0,0:0:0:0:
256,192,29899,1,0,0:0:0:0:
256,192,29990,1,2,0:0:0:0:
256,192,30081,1,0,0:0:0:0:
256,192,30172,1,0,0:0:0:0:
256,192,30263,1,0,0:0:0:0:
256,192,30354,1,2,0:0:0:0:
256,192,30444,1,0,0:0:0:0:
256,192,30535,1,0,0:0:0:0:
256,192,30626,1,0,0:0:0:0:
256,192,30717,1,2,0:0:0:0:
256,192,30808,1,0,0:0:0:0:
256,192,30899,1,0,0:0:0:0:
256,192,30990,1,0,0:0:0:0:
256,192,31081,1,2,0:0:0:0:
256,192,31172,1,0,0:0:0:0:
256,192,31263,1,0,0:0:0:0:
256,192,31354,1,0,0:0:0:0:
256,192,31444,1,2,0:0:0:0:
256,192,31535,1,0,0:0:0:0:
256,192,31626,1,0,0:0:0:0:
256,192,31717,1,0,0:0:0:0:
256,192,31808,1,2,0:0:0:0:
256,192,31899,1,0,0:0:0:0:
256,192,31990,1,0,0:0:0:0:
256,192,32081,1,0,0:0:0:0:
256,192,32172,1,2,0:0:0:0:
256,192,32263,1,0,0:0:0:0:
256,192,32354,1,0,0:0:0:0:
256,192,32444,1,0,0:0:0:0:
256,192,32717,1,0,0:0:0:0:
256,192,32899,1,2,0:0:0:0:
256,192,33081,1,0,0:0:0:0:
256,192,33263,1,2,0:0:0:0:
256,192,33444,1,0,0:0:0:0:
256,192,33626,1,2,0:0:0:0:
256,192,33808,1,2,0:0:0:0:
256,192,33990,1,2,0:0:0:0:
256,192,34172,1,2,0:0:0:0:
256,192,34535,1,2,0:0:0:0:
256,192,34899,1,2,0:0:0:0:
256,192,35081,1,2,0:0:0:0:
256,192,35263,1,2,0:0:0:0:
256,192,35444,1,0,0:0:0:0:
256,192,35626,1,0,0:0:0:0:
256,192,35990,1,0,0:0:0:0:
256,192,36172,1,2,0:0:0:0:
256,192,36354,1,0,0:0:0:0:
256,192,36535,1,0,0:0:0:0:
256,192,36899,1,2,0:0:0:0:
256,192,37081,1,0,0:0:0:0:
256,192,37263,1,0,0:0:0:0:
256,192,37444,1,2,0:0:0:0:
256,192,37626,1,0,0:0:0:0:
256,192,37990,1,2,0:0:0:0:
256,192,38354,1,0,0:0:0:0:
256,192,38717,1,0,0:0:0:0:
256,192,39081,1,2,0:0:0:0:
256,192,39444,1,2,0:0:0:0:
256,192,39808,1,0,0:0:0:0:
256,192,40172,1,2,0:0:0:0:
256,192,40535,1,0,0:0:0:0:
256,192,40899,1,2,0:0:0:0:
256,192,41263,1,0,0:0:0:0:
256,192,41354,1,0,0:0:0:0:
256,192,41444,1,0,0:0:0:0:
256,192,41535,1,2,0:0:0:0:
256,192,41626,1,2,0:0:0:0:
256,192,41717,1,2,0:0:0:0:
256,192,41808,1,0,0:0:0:0:
256,192,41899,1,0,0:0:0:0:
256,192,41990,1,2,0:0:0:0:
256,192,42081,1,2,0:0:0:0:
256,192,42172,1,2,0:0:0:0:
256,192,42263,1,0,0:0:0:0:
256,192,42354,1,0,0:0:0:0:
256,192,42444,1,2,0:0:0:0:
256,192,42535,1,2,0:0:0:0:
256,192,42626,1,2,0:0:0:0:
256,192,42717,1,0,0:0:0:0:
256,192,42808,1,0,0:0:0:0:
256,192,42899,1,2,0:0:0:0:
256,192,42990,1,2,0:0:0:0:
256,192,43081,1,0,0:0:0:0:
256,192,43172,1,2,0:0:0:0:
256,192,43263,1,0,0:0:0:0:
256,192,43354,1,2,0:0:0:0:
256,192,43444,1,0,0:0:0:0:
256,192,43535,1,0,0:0:0:0:
256,192,43626,1,0,0:0:0:0:
256,192,43717,1,0,0:0:0:0:
256,192,43808,1,2,0:0:0:0:
256,192,43899,1,0,0:0:0:0:
256,192,43990,1,0,0:0:0:0:
256,192,44081,1,2,0:0:0:0:
256,192,44354,1,0,0:0:0:0:
256,192,44535,1,0,0:0:0:0:
256,192,44626,1,2,0:0:0:0:
256,192,44717,1,0,0:0:0:0:
256,192,44808,1,0,0:0:0:0:
256,192,44899,1,2,0:0:0:0:
256,192,44990,1,2,0:0:0:0:
256,192,45081,1,0,0:0:0:0:
256,192,45172,1,0,0:0:0:0:
256,192,45263,1,2,0:0:0:0:
256,192,45354,1,2,0:0:0:0:
256,192,45444,1,2,0:0:0:0:
256,192,45535,1,0,0:0:0:0:
256,192,45626,1,0,0:0:0:0:
256,192,45717,1,2,0:0:0:0:
256,192,45808,1,2,0:0:0:0:
256,192,45899,1,0,0:0:0:0:
256,192,45990,1,0,0:0:0:0:
256,192,46081,1,2,0:0:0:0:
256,192,46172,1,2,0:0:0:0:
256,192,46263,1,2,0:0:0:0:
256,192,46354,1,0,0:0:0:0:
256,192,46444,1,0,0:0:0:0:
256,192,46535,1,2,0:0:0:0:
256,192,46626,1,2,0:0:0:0:
256,192,46717,1,2,0:0:0:0:
256,192,46808,1,0,0:0:0:0:
256,192,46899,1,0,0:0:0:0:
256,192,47081,1,0,0:0:0:0:
256,192,47263,1,2,0:0:0:0:
256,192,47444,1,0,0:0:0:0:
256,192,47535,1,0,0:0:0:0:
256,192,47626,1,2,0:0:0:0:
256,192,47808,1,0,0:0:0:0:
256,192,47990,1,2,0:0:0:0:
256,192,48171,1,0,0:0:0:0:
256,192,48262,1,0,0:0:0:0:
256,192,48353,1,2,0:0:0:0:
256,192,48535,1,0,0:0:0:0:
256,192,48717,1,2,0:0:0:0:
256,192,48898,1,0,0:0:0:0:
256,192,48989,1,0,0:0:0:0:
256,192,49080,1,2,0:0:0:0:
256,192,49263,1,0,0:0:0:0:
256,192,49444,1,2,0:0:0:0:
256,192,49535,1,2,0:0:0:0:
256,192,49626,1,0,0:0:0:0:
256,192,49717,1,0,0:0:0:0:
256,192,49808,1,2,0:0:0:0:
256,192,49990,1,0,0:0:0:0:
256,192,50081,1,0,0:0:0:0:
256,192,50172,1,0,0:0:0:0:
256,192,50263,1,0,0:0:0:0:
256,192,50354,1,2,0:0:0:0:
256,192,50444,1,2,0:0:0:0:
256,192,50535,1,2,0:0:0:0:
256,192,50626,1,2,0:0:0:0:
256,192,50717,1,0,0:0:0:0:
256,192,50808,1,0,0:0:0:0:
256,192,50899,1,2,0:0:0:0:
256,192,50990,1,2,0:0:0:0:
256,192,51081,1,0,0:0:0:0:
256,192,51172,1,2,0:0:0:0:
256,192,51263,1,0,0:0:0:0:
256,192,51444,1,0,0:0:0:0:
256,192,51535,1,0,0:0:0:0:
256,192,51626,1,2,0:0:0:0:
256,192,51717,1,2,0:0:0:0:
256,192,51808,1,0,0:0:0:0:
256,192,51899,1,0,0:0:0:0:
256,192,51990,1,2,0:0:0:0:
256,192,52081,1,2,0:0:0:0:
256,192,52172,1,0,0:0:0:0:
256,192,52263,1,0,0:0:0:0:
256,192,52354,1,2,0:0:0:0:
256,192,52444,1,2,0:0:0:0:
256,192,52535,1,0,0:0:0:0:
256,192,52626,1,2,0:0:0:0:
256,192,52717,1,0,0:0:0:0:
256,192,52899,2,0,L|408:192,1,140
256,192,53626,12,0,53990,0:0:0:0:
248,188,54354,5,0,0:0:0:0:
248,188,54444,1,0,0:0:0:0:
248,188,54535,1,2,0:0:0:0:
248,188,54626,1,0,0:0:0:0:
248,188,54717,1,2,0:0:0:0:
248,188,54808,1,0,0:0:0:0:
248,188,54899,1,0,0:0:0:0:
248,188,54990,1,0,0:0:0:0:
248,188,55081,1,2,0:0:0:0:
248,188,55172,1,0,0:0:0:0:
248,188,55263,1,2,0:0:0:0:
248,188,55354,1,0,0:0:0:0:
248,188,55444,1,2,0:0:0:0:
248,188,55535,1,0,0:0:0:0:
248,188,55626,1,2,0:0:0:0:
248,188,55717,1,0,0:0:0:0:
248,188,55808,1,2,0:0:0:0:
248,188,55899,1,2,0:0:0:0:
248,188,55990,1,2,0:0:0:0:
248,188,56081,1,2,0:0:0:0:
248,188,56172,1,0,0:0:0:0:
248,188,56263,1,0,0:0:0:0:
248,188,56354,1,2,0:0:0:0:
248,188,56444,1,2,0:0:0:0:
248,188,56535,1,0,0:0:0:0:
248,188,56626,1,0,0:0:0:0:
248,188,56717,1,2,0:0:0:0:
248,188,56808,1,2,0:0:0:0:
248,188,56899,1,2,0:0:0:0:
248,188,56990,1,2,0:0:0:0:
248,188,57081,1,0,0:0:0:0:
248,188,57172,1,0,0:0:0:0:
248,188,57263,1,2,0:0:0:0:
248,188,57354,1,2,0:0:0:0:
248,188,57444,1,2,0:0:0:0:
248,188,57535,1,0,0:0:0:0:
248,188,57626,1,0,0:0:0:0:
248,188,57717,1,2,0:0:0:0:
248,188,57808,1,2,0:0:0:0:
248,188,57899,1,2,0:0:0:0:
248,188,57990,1,0,0:0:0:0:
248,188,58081,1,2,0:0:0:0:
248,188,58172,1,2,0:0:0:0:
248,188,58263,1,2,0:0:0:0:
248,188,58354,1,0,0:0:0:0:
248,188,58444,1,2,0:0:0:0:
248,188,58535,1,2,0:0:0:0:
248,188,58626,1,2,0:0:0:0:
248,188,58717,1,0,0:0:0:0:
248,188,58808,1,0,0:0:0:0:
248,188,58899,1,2,0:0:0:0:
248,188,58990,1,0,0:0:0:0:
248,188,59081,1,2,0:0:0:0:
248,188,59172,1,2,0:0:0:0:
248,188,59263,5,0,0:0:0:0:
248,188,59353,1,0,0:0:0:0:
248,188,59444,1,2,0:0:0:0:
248,188,59535,1,2,0:0:0:0:
248,188,59626,1,2,0:0:0:0:
248,188,59717,1,2,0:0:0:0:
248,188,59808,1,0,0:0:0:0:
248,188,59899,1,0,0:0:0:0:
248,188,59990,1,0,0:0:0:0:
248,188,60081,1,0,0:0:0:0:
248,188,60172,1,2,0:0:0:0:
248,188,60263,1,0,0:0:0:0:
248,188,60353,1,2,0:0:0:0:
248,188,60444,1,0,0:0:0:0:
248,188,60535,1,2,0:0:0:0:
248,188,60626,1,0,0:0:0:0:
248,188,60717,1,0,0:0:0:0:
248,188,60808,1,0,0:0:0:0:
248,188,60899,1,2,0:0:0:0:
248,188,60990,1,0,0:0:0:0:
248,188,61081,1,2,0:0:0:0:
248,188,61172,1,0,0:0:0:0:
248,188,61263,1,2,0:0:0:0:
248,188,61353,1,0,0:0:0:0:
248,188,61444,1,2,0:0:0:0:
248,188,61535,1,0,0:0:0:0:
248,188,61626,1,0,0:0:0:0:
248,188,61717,1,0,0:0:0:0:
248,188,61808,1,2,0:0:0:0:
248,188,61899,1,0,0:0:0:0:
248,188,61990,1,0,0:0:0:0:
248,188,62081,1,0,0:0:0:0:
248,188,62172,1,0,0:0:0:0:
248,188,62263,1,0,0:0:0:0:
248,188,62353,1,2,0:0:0:0:
248,188,62444,1,0,0:0:0:0:
248,188,62535,1,2,0:0:0:0:
248,188,62626,1,0,0:0:0:0:
248,188,62717,1,0,0:0:0:0:
248,188,62808,1,0,0:0:0:0:
248,188,62899,1,2,0:0:0:0:
248,188,62990,1,0,0:0:0:0:
248,188,63081,1,2,0:0:0:0:
248,188,63172,1,0,0:0:0:0:
248,188,63263,1,0,0:0:0:0:
248,188,63353,1,0,0:0:0:0:
248,188,63444,1,2,0:0:0:0:
248,188,63535,1,0,0:0:0:0:
248,188,63626,1,0,0:0:0:0:
248,188,63717,1,0,0:0:0:0:
248,188,63808,1,2,0:0:0:0:
248,188,63899,1,0,0:0:0:0:
248,188,63990,1,0,0:0:0:0:
248,188,64081,1,2,0:0:0:0:
248,188,64172,5,0,0:0:0:0:
248,188,64262,1,0,0:0:0:0:
248,188,64353,1,2,0:0:0:0:
248,188,64444,1,2,0:0:0:0:
248,188,64535,1,0,0:0:0:0:
248,188,64626,1,2,0:0:0:0:
248,188,64717,1,0,0:0:0:0:
248,188,64808,1,2,0:0:0:0:
248,188,64899,1,0,0:0:0:0:
248,188,64990,1,2,0:0:0:0:
248,188,65081,1,0,0:0:0:0:
248,188,65172,1,2,0:0:0:0:
248,188,65262,1,0,0:0:0:0:
248,188,65353,1,0,0:0:0:0:
248,188,65444,1,0,0:0:0:0:
248,188,65535,1,0,0:0:0:0:
248,188,65626,1,0,0:0:0:0:
248,188,65717,1,0,0:0:0:0:
248,188,65808,1,0,0:0:0:0:
248,188,65899,1,0,0:0:0:0:
248,188,65990,1,0,0:0:0:0:
248,188,66081,1,0,0:0:0:0:
248,188,66172,1,2,0:0:0:0:
248,188,66262,1,0,0:0:0:0:
248,188,66353,1,2,0:0:0:0:
248,188,66444,1,0,0:0:0:0:
248,188,66535,1,2,0:0:0:0:
248,188,66626,1,0,0:0:0:0:
248,188,66717,1,2,0:0:0:0:
248,188,66808,1,0,0:0:0:0:
248,188,66899,1,2,0:0:0:0:
248,188,66990,1,0,0:0:0:0:
248,188,67081,1,2,0:0:0:0:
248,188,67172,1,0,0:0:0:0:
248,188,67262,1,2,0:0:0:0:
248,188,67353,1,0,0:0:0:0:
248,188,67444,1,2,0:0:0:0:
248,188,67535,1,2,0:0:0:0:
248,188,67626,1,2,0:0:0:0:
248,188,67717,1,2,0:0:0:0:
248,188,67808,1,0,0:0:0:0:
248,188,67899,1,0,0:0:0:0:
248,188,67990,1,2,0:0:0:0:
248,188,68081,1,2,0:0:0:0:
248,188,68172,1,2,0:0:0:0:
248,188,68262,1,0,0:0:0:0:
248,188,68353,1,2,0:0:0:0:
248,188,68444,1,2,0:0:0:0:
248,188,68535,1,2,0:0:0:0:
248,188,68626,1,0,0:0:0:0:
248,188,68717,1,2,0:0:0:0:
248,188,68808,1,0,0:0:0:0:
248,188,68899,1,0,0:0:0:0:
248,188,68990,1,0,0:0:0:0:
248,188,69081,5,2,0:0:0:0:
248,188,69171,1,0,0:0:0:0:
248,188,69262,1,2,0:0:0:0:
248,188,69353,1,0,0:0:0:0:
248,188,69444,1,2,0:0:0:0:
248,188,69535,1,0,0:0:0:0:
248,188,69626,1,2,0:0:0:0:
248,188,69717,1,0,0:0:0:0:
248,188,69808,1,0,0:0:0:0:
248,188,69899,1,0,0:0:0:0:
248,188,69990,1,0,0:0:0:0:
248,188,70081,1,0,0:0:0:0:
248,188,70171,1,2,0:0:0:0:
248,188,70262,1,0,0:0:0:0:
248,188,70353,1,0,0:0:0:0:
248,188,70444,1,0,0:0:0:0:
248,188,70535,1,0,0:0:0:0:
248,188,70626,1,0,0:0:0:0:
248,188,70717,1,0,0:0:0:0:
248,188,70808,1,0,0:0:0:0:
248,188,70899,1,0,0:0:0:0:
248,188,70990,1,0,0:0:0:0:
248,188,71081,1,0,0:0:0:0:
248,188,71172,1,0,0:0:0:0:
248,188,71262,1,2,0:0:0:0:
248,188,71353,1,2,0:0:0:0:
248,188,71444,1,2,0:0:0:0:
248,188,71535,1,2,0:0:0:0:
248,188,71626,1,0,0:0:0:0:
248,188,71717,1,0,0:0:0:0:
248,188,71808,1,2,0:0:0:0:
248,188,71899,1,0,0:0:0:0:
248,188,71990,1,2,0:0:0:0:
248,188,72081,1,2,0:0:0:0:
248,188,72171,1,0,0:0:0:0:
248,188,72262,1,0,0:0:0:0:
248,188,72353,1,2,0:0:0:0:
248,188,72444,1,2,0:0:0:0:
248,188,72535,1,2,0:0:0:0:
248,188,72626,1,2,0:0:0:0:
248,188,72717,1,2,0:0:0:0:
248,188,72808,1,2,0:0:0:0:
248,188,72899,1,2,0:0:0:0:
248,188,72990,1,2,0:0:0:0:
248,188,73081,1,0,0:0:0:0:
248,188,73171,1,0,0:0:0:0:
248,188,73262,1,0,0:0:0:0:
248,188,73354,1,0,0:0:0:0:
248,188,73444,1,0,0:0:0:0:
248,188,73535,1,0,0:0:0:0:
248,188,73626,1,0,0:0:0:0:
248,188,73717,1,0,0:0:0:0:
248,188,73808,1,0,0:0:0:0:
248,188,73899,1,0,0:0:0:0:
248,188,73990,5,2,0:0:0:0:
248,188,74080,1,0,0:0:0:0:
248,188,74171,1,0,0:0:0:0:
248,188,74262,1,0,0:0:0:0:
248,188,74353,1,0,0:0:0:0:
248,188,74444,1,0,0:0:0:0:
248,188,74535,1,0,0:0:0:0:
248,188,74626,1,0,0:0:0:0:
248,188,74717,2,0,L|536:192,1,280
248,188,75990,1,2,0:0:0:0:
248,188,76081,1,0,0:0:0:0:
248,188,76171,1,2,0:0:0:0:
248,188,76262,1,0,0:0:0:0:
248,188,76353,1,0,0:0:0:0:
248,188,76444,1,0,0:0:0:0:
248,188,76535,1,2,0:0:0:0:
248,188,76626,1,0,0:0:0:0:
248,188,76717,1,0,0:0:0:0:
248,188,76808,1,0,0:0:0:0:
248,188,76899,1,2,0:0:0:0:
248,188,76990,1,0,0:0:0:0:
248,188,77080,1,0,0:0:0:0:
248,188,77171,1,0,0:0:0:0:
248,188,77262,1,2,0:0:0:0:
248,188,77353,1,0,0:0:0:0:
248,188,77444,1,2,0:0:0:0:
248,188,77535,1,0,0:0:0:0:
248,188,77626,1,2,0:0:0:0:
248,188,77717,1,0,0:0:0:0:
248,188,77808,1,0,0:0:0:0:
248,188,77899,1,0,0:0:0:0:
248,188,77990,1,0,0:0:0:0:
248,188,78080,1,0,0:0:0:0:
248,188,78171,1,2,0:0:0:0:
248,188,78262,1,0,0:0:0:0:
248,188,78353,1,2,0:0:0:0:
248,188,78444,1,0,0:0:0:0:
248,188,78535,1,0,0:0:0:0:
248,188,78626,1,0,0:0:0:0:
248,188,78717,1,0,0:0:0:0:
248,188,78808,1,0,0:0:0:0:
248,188,78899,5,2,0:0:0:0:
248,188,78989,1,0,0:0:0:0:
248,188,79080,1,2,0:0:0:0:
248,188,79171,1,0,0:0:0:0:
248,188,79262,1,0,0:0:0:0:
248,188,79353,1,0,0:0:0:0:
248,188,79444,1,2,0:0:0:0:
248,188,79535,1,0,0:0:0:0:
248,188,79626,1,0,0:0:0:0:
248,188,79717,1,0,0:0:0:0:
248,188,79808,1,2,0:0:0:0:
248,188,79899,1,0,0:0:0:0:
248,188,79989,1,0,0:0:0:0:
248,188,80080,1,0,0:0:0:0:
248,188,80171,1,2,0:0:0:0:
248,188,80262,1,0,0:0:0:0:
248,188,80353,1,2,0:0:0:0:
248,188,80444,1,0,0:0:0:0:
248,188,80535,1,2,0:0:0:0:
248,188,80626,1,0,0:0:0:0:
248,188,80717,1,0,0:0:0:0:
248,188,80808,1,0,0:0:0:0:
248,188,80899,1,0,0:0:0:0:
248,188,80989,1,0,0:0:0:0:
248,188,81081,1,2,0:0:0:0:
248,188,81171,1,0,0:0:0:0:
248,188,81263,1,2,0:0:0:0:
248,188,81353,1,0,0:0:0:0:
248,188,81444,1,0,0:0:0:0:
248,188,81535,1,0,0:0:0:0:
248,188,81626,1,2,0:0:0:0:
248,188,81717,1,0,0:0:0:0:
248,188,81808,1,2,0:0:0:0:
248,188,81899,1,0,0:0:0:0:
248,188,81989,1,0,0:0:0:0:
248,188,82080,1,0,0:0:0:0:
248,188,82171,1,0,0:0:0:0:
248,188,82262,1,0,0:0:0:0:
248,188,82353,1,0,0:0:0:0:
248,188,82444,1,0,0:0:0:0:
248,188,82535,1,0,0:0:0:0:
248,188,82626,1,0,0:0:0:0:
248,188,82717,1,2,0:0:0:0:
248,188,82808,1,2,0:0:0:0:
248,188,82899,1,2,0:0:0:0:
248,188,82989,1,2,0:0:0:0:
248,188,83081,1,2,0:0:0:0:
248,188,83171,1,2,0:0:0:0:
248,188,83262,1,2,0:0:0:0:
248,188,83353,1,2,0:0:0:0:
248,188,83444,1,0,0:0:0:0:
248,188,83626,1,0,0:0:0:0:
248,188,83808,1,0,0:0:0:0:
248,188,83990,1,2,0:0:0:0:
248,188,84172,1,2,0:0:0:0:
248,188,84717,1,0,0:0:0:0:
248,188,84899,1,2,0:0:0:0:
248,188,85263,1,2,0:0:0:0:
248,188,85626,1,2,0:0:0:0:
248,188,85990,1,2,0:0:0:0:
248,188,86354,1,2,0:0:0:0:
248,188,86899,1,2,0:0:0:0:
252,192,87081,5,0,0:0:0:0:
252,192,87172,5,0,0:0:0:0:
252,192,87263,1,2,0:0:0:0:
252,192,87354,1,2,0:0:0:0:
252,192,87444,1,0,0:0:0:0:
252,192,87535,1,0,0:0:0:0:
252,192,87626,1,2,0:0:0:0:
252,192,87717,1,2,0:0:0:0:
252,192,87808,1,0,0:0:0:0:
