osu file format v14

[General]
AudioFilename: audio.mp3
AudioLeadIn: 0
PreviewTime: 54354
Countdown: 0
SampleSet: Normal
StackLeniency: 0.7
Mode: 1
LetterboxInBreaks: 0
WidescreenStoryboard: 1

[Editor]
DistanceSpacing: 1
BeatDivisor: 4
GridSize: 32
TimelineZoom: 1.7

[Metadata]
Title:Hitorigoto -TV MIX-
TitleUnicode:ヒトリゴト -TV MIX-
Artist:ClariS
ArtistUnicode:ClariS
Creator:asuasu_yura
Version:Pheon's Overmap
Source:エロマンガ先生
Tags:yura Pheon KTYN KitajimaYN KamizonoShinobu Chocola_2287 Pettsu yyyyyyyyyyypetu komasy nananass Consified Peaceful MetalStream eromanga sensei ero manga eromanga-sensei eromangasensei op opening tv size anime japanese
BeatmapID:1318099
BeatmapSetID:624087

[Difficulty]
HPDrainRate:5
CircleSize:2
OverallDifficulty:6
ApproachRate:10
SliderMultiplier:1.4
SliderTickRate:1

[Events]
//Background and Video events
0,0,"62520783_p0.png",0,0
//Break Periods
//Storyboard Layer 0 (Background)
//Storyboard Layer 1 (Fail)
//Storyboard Layer 2 (Pass)
//Storyboard Layer 3 (Foreground)
//Storyboard Layer 4 (Overlay)
//Storyboard Sound Samples

[TimingPoints]
536,363.636363636364,4,1,0,90,1,0
54354,-100,4,1,0,95,0,1
86354,-100,4,1,0,90,0,0

[HitObjects]
256,192,536,5,4,0:0:0:0:
256,192,717,1,4,0:0:0:0:
256,192,899,1,0,0:0:0:0:
256,192,1020,1,0,0:0:0:0:
256,192,1142,1,0,0:0:0:0:
256,192,1263,5,8,0:0:0:0:
256,192,1384,5,0,0:0:0:0:
256,192,1505,1,0,0:0:0:0:
256,192,1626,5,8,0:0:0:0:
256,192,1748,5,0,0:0:0:0:
256,192,1869,1,0,0:0:0:0:
256,192,1990,1,4,0:0:0:0:
256,192,2172,1,4,0:0:0:0:
256,192,2354,1,0,0:0:0:0:
256,192,2475,1,0,0:0:0:0:
256,192,2596,1,0,0:0:0:0:
256,192,2717,5,8,0:0:0:0:
256,192,2839,1,8,0:0:0:0:
256,192,2960,5,0,0:0:0:0:
256,192,3081,5,8,0:0:0:0:
256,192,3202,1,8,0:0:0:0:
256,192,3323,5,0,0:0:0:0:
256,192,3445,1,4,0:0:0:0:
256,192,3626,1,4,0:0:0:0:
256,192,3808,1,0,0:0:0:0:
256,192,3929,1,0,0:0:0:0:
256,192,4051,1,0,0:0:0:0:
256,192,4172,5,8,0:0:0:0:
256,192,4293,1,8,0:0:0:0:
256,192,4414,5,0,0:0:0:0:
256,192,4536,5,8,0:0:0:0:
256,192,4657,5,0,0:0:0:0:
256,192,4778,1,0,0:0:0:0:
256,192,4899,5,12,0:0:0:0:
256,192,5263,1,0,0:0:0:0:
256,192,5445,1,0,0:0:0:0:
256,192,5505,1,0,0:0:0:0:
256,192,5566,1,0,0:0:0:0:
256,192,5626,5,8,0:0:0:0:
256,192,5808,5,0,0:0:0:0:
256,192,5899,5,8,0:0:0:0:
256,192,6081,5,0,0:0:0:0:
256,192,6172,5,8,0:0:0:0:
256,192,6354,5,4,0:0:0:0:
256,192,6536,1,4,0:0:0:0:
256,192,6717,5,8,0:0:0:0:
256,192,6839,5,0,0:0:0:0:
256,192,6960,1,0,0:0:0:0:
256,192,7081,5,8,0:0:0:0:
256,192,7202,5,0,0:0:0:0:
256,192,7323,1,0,0:0:0:0:
256,192,7445,5,8,0:0:0:0:
256,192,7566,1,8,0:0:0:0:
256,192,7687,5,0,0:0:0:0:
256,192,7808,1,4,0:0:0:0:
256,192,7990,1,4,0:0:0:0:
256,192,8172,5,8,0:0:0:0:
256,192,8293,5,0,0:0:0:0:
256,192,8414,1,0,0:0:0:0:
256,192,8536,5,8,0:0:0:0:
256,192,8657,1,8,0:0:0:0:
256,192,8778,5,0,0:0:0:0:
256,192,8899,5,8,0:0:0:0:
256,192,9020,1,8,0:0:0:0:
256,192,9142,5,0,0:0:0:0:
256,192,9263,1,4,0:0:0:0:
256,192,9445,1,4,0:0:0:0:
256,192,9626,5,8,0:0:0:0:
256,192,9748,5,0,0:0:0:0:
256,192,9869,1,0,0:0:0:0:
256,192,9990,5,8,0:0:0:0:
256,192,10111,1,8,0:0:0:0:
256,192,10232,5,0,0:0:0:0:
256,192,10354,5,8,0:0:0:0:
256,192,10475,5,0,0:0:0:0:
256,192,10596,1,0,0:0:0:0:
256,192,10717,5,12,0:0:0:0:
256,192,11081,5,0,0:0:0:0:
256,192,11263,1,0,0:0:0:0:
256,192,11354,1,0,0:0:0:0:
256,192,11445,5,8,0:0:0:0:
256,192,11536,1,8,0:0:0:0:
256,192,11626,5,0,0:0:0:0:
256,192,11717,1,0,0:0:0:0:
256,192,11808,5,8,0:0:0:0:
256,192,11869,5,0,0:0:0:0:
256,192,11929,1,0,0:0:0:0:
256,192,11990,5,8,0:0:0:0:
256,192,12051,1,8,0:0:0:0:
256,192,12111,1,8,0:0:0:0:
256,192,12172,5,0,0:0:0:0:
256,192,12354,1,0,0:0:0:0:
256,192,12536,5,8,0:0:0:0:
256,192,12626,5,0,0:0:0:0:
256,192,12717,1,0,0:0:0:0:
256,192,12808,1,0,0:0:0:0:
256,192,12899,5,8,0:0:0:0:
256,192,12990,5,0,0:0:0:0:
256,192,13081,5,8,0:0:0:0:
256,192,13172,5,0,0:0:0:0:
256,192,13263,5,8,0:0:0:0:
256,192,13354,5,0,0:0:0:0:
256,192,13445,5,8,0:0:0:0:
256,192,13536,1,8,0:0:0:0:
256,192,13626,5,0,0:0:0:0:
256,192,13748,1,0,0:0:0:0:
256,192,13869,1,0,0:0:0:0:
256,192,13990,5,8,0:0:0:0:
256,192,14111,5,0,0:0:0:0:
256,192,14232,1,0,0:0:0:0:
256,192,14354,5,8,0:0:0:0:
256,192,14536,5,0,0:0:0:0:
256,192,14717,5,8,0:0:0:0:
256,192,14808,1,8,0:0:0:0:
256,192,14899,1,8,0:0:0:0:
256,192,14990,1,8,0:0:0:0:
256,192,15081,5,0,0:0:0:0:
256,192,15263,1,0,0:0:0:0:
256,192,15445,5,8,0:0:0:0:
256,192,15536,5,0,0:0:0:0:
256,192,15626,1,0,0:0:0:0:
256,192,15717,1,0,0:0:0:0:
256,192,15808,5,8,0:0:0:0:
256,192,15899,5,0,0:0:0:0:
256,192,15990,5,8,0:0:0:0:
256,192,16081,5,0,0:0:0:0:
256,192,16172,5,8,0:0:0:0:
256,192,16263,5,0,0:0:0:0:
256,192,16354,5,8,0:0:0:0:
256,192,16445,1,8,0:0:0:0:
256,192,16536,5,0,0:0:0:0:
256,192,16657,1,0,0:0:0:0:
256,192,16778,1,0,0:0:0:0:
256,192,16899,5,8,0:0:0:0:
256,192,17020,5,0,0:0:0:0:
256,192,17142,1,0,0:0:0:0:
256,192,17263,5,8,0:0:0:0:
256,192,17354,5,0,0:0:0:0:
256,192,17445,1,0,0:0:0:0:
256,192,17536,1,0,0:0:0:0:
256,192,17626,5,8,0:0:0:0:
256,192,17687,1,8,0:0:0:0:
256,192,17748,1,8,0:0:0:0:
256,192,17808,1,8,0:0:0:0:
256,192,17869,1,8,0:0:0:0:
256,192,17929,1,8,0:0:0:0:
256,192,17990,5,0,0:0:0:0:
256,192,18172,1,0,0:0:0:0:
256,192,18354,5,8,0:0:0:0:
256,192,18445,5,0,0:0:0:0:
256,192,18536,1,0,0:0:0:0:
256,192,18626,1,0,0:0:0:0:
256,192,18717,5,8,0:0:0:0:
256,192,18808,5,0,0:0:0:0:
256,192,18899,5,8,0:0:0:0:
256,192,18990,5,0,0:0:0:0:
256,192,19081,5,8,0:0:0:0:
256,192,19172,1,8,0:0:0:0:
256,192,19263,1,8,0:0:0:0:
256,192,19354,1,8,0:0:0:0:
256,192,19445,5,0,0:0:0:0:
256,192,19566,1,0,0:0:0:0:
256,192,19687,1,0,0:0:0:0:
256,192,19808,5,8,0:0:0:0:
256,192,19929,5,0,0:0:0:0:
256,192,20051,1,0,0:0:0:0:
256,192,20172,5,8,0:0:0:0:
256,192,20263,1,8,0:0:0:0:
256,192,20354,5,0,0:0:0:0:
256,192,20445,5,8,0:0:0:0:
256,192,20536,5,0,0:0:0:0:
256,192,20596,1,0,0:0:0:0:
256,192,20657,1,0,0:0:0:0:
256,192,20717,5,8,0:0:0:0:
256,192,20778,1,8,0:0:0:0:
256,192,20839,1,8,0:0:0:0:
256,192,20899,5,0,0:0:0:0:
256,192,21081,1,0,0:0:0:0:
256,192,21263,5,8,0:0:0:0:
256,192,21354,5,0,0:0:0:0:
256,192,21445,1,0,0:0:0:0:
256,192,21536,1,0,0:0:0:0:
256,192,21626,5,8,0:0:0:0:
256,192,21717,5,0,0:0:0:0:
256,192,21808,5,8,0:0:0:0:
256,192,21899,5,0,0:0:0:0:
256,192,21990,5,8,0:0:0:0:
256,192,22081,5,0,0:0:0:0:
256,192,22172,5,8,0:0:0:0:
256,192,22263,1,8,0:0:0:0:
256,192,22354,5,0,0:0:0:0:
256,192,22445,1,0,0:0:0:0:
256,192,22536,5,8,0:0:0:0:
256,192,22626,5,0,0:0:0:0:
256,192,22717,5,8,0:0:0:0:
256,192,22808,1,8,0:0:0:0:
256,192,22899,5,0,0:0:0:0:
256,192,22990,5,8,0:0:0:0:
256,192,23081,5,0,0:0:0:0:
256,192,23172,1,0,0:0:0:0:
256,192,23263,5,8,0:0:0:0:
256,192,23354,5,0,0:0:0:0:
256,192,23445,5,8,0:0:0:0:
256,192,23505,5,0,0:0:0:0:
256,192,23566,1,0,0:0:0:0:
256,192,23626,5,8,0:0:0:0:
256,192,23687,1,8,0:0:0:0:
256,192,23748,1,8,0:0:0:0:
256,192,23808,5,0,0:0:0:0:
256,192,23990,1,0,0:0:0:0:
256,192,24172,5,8,0:0:0:0:
256,192,24263,5,0,0:0:0:0:
256,192,24354,1,0,0:0:0:0:
256,192,24445,1,0,0:0:0:0:
256,192,24536,5,8,0:0:0:0:
256,192,24626,5,0,0:0:0:0:
256,192,24717,5,8,0:0:0:0:
256,192,24808,1,8,0:0:0:0:
256,192,24899,5,0,0:0:0:0:
256,192,24990,1,0,0:0:0:0:
256,192,25081,1,8,0:0:0:0:
256,192,25172,1,8,0:0:0:0:
256,192,25263,5,0,0:0:0:0:
256,192,25445,1,0,0:0:0:0:
256,192,25536,1,0,0:0:0:0:
256,192,25626,5,8,0:0:0:0:
256,192,25808,5,0,0:0:0:0:
256,192,25899,1,0,0:0:0:0:
256,192,25990,1,0,0:0:0:0:
256,192,26081,5,8,0:0:0:0:
256,192,26172,5,0,0:0:0:0:
256,192,26263,1,0,0:0:0:0:
256,192,26354,5,8,0:0:0:0:
256,192,26536,5,0,0:0:0:0:
256,192,26717,5,8,0:0:0:0:
256,192,26899,5,0,0:0:0:0:
256,192,26990,1,0,0:0:0:0:
256,192,27081,5,8,0:0:0:0:
256,192,27263,5,0,0:0:0:0:
256,192,27354,1,0,0:0:0:0:
256,192,27445,5,8,0:0:0:0:
256,192,27536,5,0,0:0:0:0:
256,192,27626,5,8,0:0:0:0:
256,192,27717,1,8,0:0:0:0:
256,192,27808,5,0,0:0:0:0:
256,192,27899,1,0,0:0:0:0:
256,192,27990,5,8,0:0:0:0:
256,192,28172,5,0,0:0:0:0:
256,192,28263,5,8,0:0:0:0:
256,192,28354,5,0,0:0:0:0:
256,192,28445,1,0,0:0:0:0:
256,192,28536,5,8,0:0:0:0:
256,192,28626,5,0,0:0:0:0:
256,192,28717,5,8,0:0:0:0:
256,192,28808,1,8,0:0:0:0:
256,192,28899,5,0,0:0:0:0:
256,192,29081,1,0,0:0:0:0:
256,192,29142,1,0,0:0:0:0:
256,192,29202,1,0,0:0:0:0:
256,192,29263,5,8,0:0:0:0:
256,192,29445,5,0,0:0:0:0:
256,192,29536,1,0,0:0:0:0:
256,192,29626,1,0,0:0:0:0:
256,192,29808,1,0,0:0:0:0:
256,192,29990,5,8,0:0:0:0:
256,192,30081,1,0,0:0:0:0:
256,192,30172,1,0,0:0:0:0:
256,192,30263,1,0,0:0:0:0:
256,192,30354,5,8,0:0:0:0:
256,192,30445,5,0,0:0:0:0:
256,192,30536,1,0,0:0:0:0:
256,192,30626,1,0,0:0:0:0:
256,192,30717,5,8,0:0:0:0:
256,192,30808,5,0,0:0:0:0:
256,192,30899,5,8,0:0:0:0:
256,192,30990,1,8,0:0:0:0:
256,192,31081,5,0,0:0:0:0:
256,192,31263,1,0,0:0:0:0:
256,192,31354,1,0,0:0:0:0:
256,192,31445,5,8,0:0:0:0:
256,192,31536,5,0,0:0:0:0:
256,192,31626,5,8,0:0:0:0:
256,192,31717,1,8,0:0:0:0:
256,192,31808,5,0,0:0:0:0:
256,192,31899,5,8,0:0:0:0:
256,192,31990,5,0,0:0:0:0:
256,192,32081,1,0,0:0:0:0:
256,192,32172,5,8,0:0:0:0:
256,192,32354,5,8,0:0:0:0:
256,192,32445,1,8,0:0:0:0:
256,192,32536,5,0,0:0:0:0:
256,192,32626,5,8,0:0:0:0:
256,192,32717,5,0,0:0:0:0:
256,192,32808,1,0,0:0:0:0:
256,192,32899,5,8,0:0:0:0:
256,192,33081,1,8,0:0:0:0:
256,192,33172,1,8,0:0:0:0:
256,192,33263,5,0,0:0:0:0:
256,192,33354,5,8,0:0:0:0:
256,192,33445,5,0,0:0:0:0:
256,192,33536,1,0,0:0:0:0:
256,192,33626,5,8,0:0:0:0:
256,192,33808,1,8,0:0:0:0:
256,192,33899,1,8,0:0:0:0:
256,192,33990,5,0,0:0:0:0:
256,192,34081,5,8,0:0:0:0:
256,192,34172,5,0,0:0:0:0:
256,192,34263,1,0,0:0:0:0:
256,192,34354,5,8,0:0:0:0:
256,192,34445,5,0,0:0:0:0:
256,192,34536,5,8,0:0:0:0:
256,192,34626,1,8,0:0:0:0:
256,192,34717,5,0,0:0:0:0:
256,192,34839,5,0,0:0:0:0:
256,192,34960,1,0,0:0:0:0:
256,192,35081,5,8,0:0:0:0:
256,192,35172,5,0,0:0:0:0:
256,192,35263,5,8,0:0:0:0:
256,192,35323,1,8,0:0:0:0:
256,192,35384,1,8,0:0:0:0:
256,192,35445,5,0,0:0:0:0:
256,192,35808,1,0,0:0:0:0:
256,192,35990,1,0,0:0:0:0:
256,192,36081,1,0,0:0:0:0:
256,192,36172,5,8,0:0:0:0:
256,192,36293,5,0,0:0:0:0:
256,192,36414,1,0,0:0:0:0:
256,192,36536,5,8,0:0:0:0:
256,192,36657,5,0,0:0:0:0:
256,192,36778,5,8,0:0:0:0:
256,192,36899,5,0,0:0:0:0:
256,192,37081,1,0,0:0:0:0:
256,192,37142,1,0,0:0:0:0:
256,192,37202,1,0,0:0:0:0:
256,192,37263,5,8,0:0:0:0:
256,192,37384,5,0,0:0:0:0:
256,192,37505,1,0,0:0:0:0:
256,192,37626,5,8,0:0:0:0:
256,192,37748,5,0,0:0:0:0:
256,192,37869,1,0,0:0:0:0:
256,192,37990,5,8,0:0:0:0:
256,192,38172,1,8,0:0:0:0:
256,192,38354,5,0,0:0:0:0:
256,192,38475,1,0,0:0:0:0:
256,192,38596,1,0,0:0:0:0:
256,192,38717,5,8,0:0:0:0:
256,192,38839,5,0,0:0:0:0:
256,192,38960,1,0,0:0:0:0:
256,192,39081,5,8,0:0:0:0:
256,192,39202,5,0,0:0:0:0:
256,192,39323,1,0,0:0:0:0:
256,192,39445,5,8,0:0:0:0:
256,192,39566,1,8,0:0:0:0:
256,192,39687,1,8,0:0:0:0:
256,192,39808,5,0,0:0:0:0:
256,192,39899,1,0,0:0:0:0:
256,192,39990,5,8,0:0:0:0:
256,192,40081,1,8,0:0:0:0:
256,192,40172,5,0,0:0:0:0:
256,192,40293,1,0,0:0:0:0:
256,192,40414,1,0,0:0:0:0:
256,192,40536,5,8,0:0:0:0:
256,192,40657,5,0,0:0:0:0:
256,192,40778,1,0,0:0:0:0:
256,192,40899,5,8,0:0:0:0:
256,192,41020,1,8,0:0:0:0:
256,192,41142,1,8,0:0:0:0:
256,192,41263,5,0,0:0:0:0:
256,192,41445,1,0,0:0:0:0:
256,192,41536,1,0,0:0:0:0:
256,192,41626,5,8,0:0:0:0:
256,192,41717,5,0,0:0:0:0:
256,192,41808,5,8,0:0:0:0:
256,192,41899,1,8,0:0:0:0:
256,192,41990,5,0,0:0:0:0:
256,192,42172,1,0,0:0:0:0:
256,192,42263,1,0,0:0:0:0:
256,192,42354,5,8,0:0:0:0:
256,192,42536,5,0,0:0:0:0:
256,192,42626,1,0,0:0:0:0:
256,192,42717,1,0,0:0:0:0:
256,192,42808,5,8,0:0:0:0:
256,192,42899,5,0,0:0:0:0:
256,192,42990,1,0,0:0:0:0:
256,192,43081,5,8,0:0:0:0:
256,192,43263,5,0,0:0:0:0:
256,192,43445,5,8,0:0:0:0:
256,192,43536,5,0,0:0:0:0:
256,192,43626,1,0,0:0:0:0:
256,192,43717,1,0,0:0:0:0:
256,192,43808,5,8,0:0:0:0:
256,192,43899,5,0,0:0:0:0:
256,192,43990,5,8,0:0:0:0:
256,192,44081,1,8,0:0:0:0:
256,192,44172,5,0,0:0:0:0:
256,192,44354,1,0,0:0:0:0:
256,192,44445,1,0,0:0:0:0:
256,192,44536,5,8,0:0:0:0:
256,192,44717,5,0,0:0:0:0:
256,192,44808,1,0,0:0:0:0:
256,192,44899,1,0,0:0:0:0:
256,192,44990,5,8,0:0:0:0:
256,192,45081,5,0,0:0:0:0:
256,192,45172,1,0,0:0:0:0:
256,192,45263,5,8,0:0:0:0:
256,192,45354,1,8,0:0:0:0:
256,192,45445,5,0,0:0:0:0:
256,192,45536,5,8,0:0:0:0:
256,192,45626,5,0,0:0:0:0:
256,192,45808,1,0,0:0:0:0:
256,192,45899,1,0,0:0:0:0:
256,192,45990,5,8,0:0:0:0:
256,192,46172,1,8,0:0:0:0:
256,192,46263,1,8,0:0:0:0:
256,192,46354,5,0,0:0:0:0:
256,192,46445,5,8,0:0:0:0:
256,192,46536,5,0,0:0:0:0:
256,192,46626,1,0,0:0:0:0:
256,192,46717,5,8,0:0:0:0:
256,192,46808,5,0,0:0:0:0:
256,192,46899,5,8,0:0:0:0:
256,192,46990,1,8,0:0:0:0:
256,192,47081,5,0,0:0:0:0:
256,192,47263,1,0,0:0:0:0:
256,192,47354,1,0,0:0:0:0:
256,192,47445,5,8,0:0:0:0:
256,192,47536,1,8,0:0:0:0:
256,192,47626,5,0,0:0:0:0:
256,192,47717,1,0,0:0:0:0:
256,192,47808,5,8,0:0:0:0:
256,192,47990,5,0,0:0:0:0:
256,192,48081,1,0,0:0:0:0:
256,192,48172,5,8,0:0:0:0:
256,192,48263,1,8,0:0:0:0:
256,192,48354,5,0,0:0:0:0:
256,192,48445,5,8,0:0:0:0:
256,192,48536,5,0,0:0:0:0:
256,192,48626,1,0,0:0:0:0:
256,192,48717,5,8,0:0:0:0:
256,192,48808,1,8,0:0:0:0:
256,192,48899,5,0,0:0:0:0:
256,192,48990,5,8,0:0:0:0:
256,192,49081,1,8,0:0:0:0:
256,192,49172,1,8,0:0:0:0:
256,192,49263,5,0,0:0:0:0:
256,192,49354,1,0,0:0:0:0:
256,192,49445,1,0,0:0:0:0:
256,192,49536,1,0,0:0:0:0:
256,192,49626,5,8,0:0:0:0:
256,192,49717,1,8,0:0:0:0:
256,192,49808,1,8,0:0:0:0:
256,192,49899,1,8,0:0:0:0:
256,192,49990,5,0,0:0:0:0:
256,192,50111,1,0,0:0:0:0:
256,192,50232,1,0,0:0:0:0:
256,192,50354,5,8,0:0:0:0:
256,192,50445,1,8,0:0:0:0:
256,192,50536,1,8,0:0:0:0:
256,192,50626,1,8,0:0:0:0:
256,192,50717,5,0,0:0:0:0:
256,192,50839,1,0,0:0:0:0:
256,192,50960,1,0,0:0:0:0:
256,192,51081,5,8,0:0:0:0:
256,192,51172,1,8,0:0:0:0:
256,192,51263,1,8,0:0:0:0:
256,192,51354,1,8,0:0:0:0:
256,192,51445,5,0,0:0:0:0:
256,192,51536,1,0,0:0:0:0:
256,192,51626,5,8,0:0:0:0:
256,192,51717,1,8,0:0:0:0:
256,192,51808,5,0,0:0:0:0:
256,192,51899,5,8,0:0:0:0:
256,192,51990,1,8,0:0:0:0:
256,192,52081,1,8,0:0:0:0:
256,192,52172,5,0,0:0:0:0:
256,192,52232,1,0,0:0:0:0:
256,192,52293,1,0,0:0:0:0:
256,192,52354,5,8,0:0:0:0:
256,192,52414,5,0,0:0:0:0:
256,192,52475,1,0,0:0:0:0:
256,192,52536,5,8,0:0:0:0:
256,192,52596,5,0,0:0:0:0:
256,192,52657,1,0,0:0:0:0:
256,192,52717,5,8,0:0:0:0:
256,192,52778,5,0,0:0:0:0:
256,192,52839,1,0,0:0:0:0:
256,192,52899,5,8,0:0:0:0:
256,192,53081,1,8,0:0:0:0:
256,192,53263,5,0,0:0:0:0:
256,192,53323,1,0,0:0:0:0:
256,192,53384,1,0,0:0:0:0:
256,192,53445,5,8,0:0:0:0:
256,192,53626,5,0,0:0:0:0:
256,192,53687,1,0,0:0:0:0:
256,192,53748,1,0,0:0:0:0:
256,192,53808,5,8,0:0:0:0:
256,192,53990,5,0,0:0:0:0:
256,192,54051,1,0,0:0:0:0:
256,192,54111,1,0,0:0:0:0:
256,192,54172,5,8,0:0:0:0:
256,192,54232,1,8,0:0:0:0:
256,192,54293,1,8,0:0:0:0:
256,192,54354,5,0,0:0:0:0:
256,192,54445,1,0,0:0:0:0:
256,192,54536,5,8,0:0:0:0:
256,192,54626,5,0,0:0:0:0:
256,192,54717,5,8,0:0:0:0:
256,192,54808,5,0,0:0:0:0:
256,192,54899,5,8,0:0:0:0:
256,192,54990,1,8,0:0:0:0:
256,192,55081,5,0,0:0:0:0:
256,192,55172,1,0,0:0:0:0:
256,192,55263,5,8,0:0:0:0:
256,192,55354,5,0,0:0:0:0:
256,192,55445,5,8,0:0:0:0:
256,192,55536,5,0,0:0:0:0:
256,192,55626,5,8,0:0:0:0:
256,192,55717,1,8,0:0:0:0:
256,192,55808,5,0,0:0:0:0:
256,192,55899,1,0,0:0:0:0:
256,192,55990,5,8,0:0:0:0:
256,192,56081,1,8,0:0:0:0:
256,192,56172,5,0,0:0:0:0:
256,192,56263,5,8,0:0:0:0:
256,192,56354,1,8,0:0:0:0:
256,192,56445,1,8,0:0:0:0:
256,192,56536,5,0,0:0:0:0:
256,192,56626,1,0,0:0:0:0:
256,192,56717,5,8,0:0:0:0:
256,192,56778,5,0,0:0:0:0:
256,192,56839,1,0,0:0:0:0:
256,192,56899,5,8,0:0:0:0:
256,192,56990,5,0,0:0:0:0:
256,192,57081,5,8,0:0:0:0:
256,192,57142,1,8,0:0:0:0:
256,192,57202,1,8,0:0:0:0:
256,192,57263,5,0,0:0:0:0:
256,192,57354,1,0,0:0:0:0:
256,192,57445,5,8,0:0:0:0:
256,192,57536,5,0,0:0:0:0:
256,192,57626,5,8,0:0:0:0:
256,192,57717,5,0,0:0:0:0:
256,192,57808,5,8,0:0:0:0:
256,192,57899,1,8,0:0:0:0:
256,192,57990,5,0,0:0:0:0:
256,192,58081,5,8,0:0:0:0:
256,192,58172,5,0,0:0:0:0:
256,192,58263,1,0,0:0:0:0:
256,192,58354,5,8,0:0:0:0:
256,192,58445,5,0,0:0:0:0:
256,192,58536,5,8,0:0:0:0:
256,192,58626,1,8,0:0:0:0:
256,192,58717,5,0,0:0:0:0:
256,192,58808,1,0,0:0:0:0:
256,192,58899,5,8,0:0:0:0:
256,192,58990,1,8,0:0:0:0:
256,192,59081,5,0,0:0:0:0:
256,192,59172,5,8,0:0:0:0:
256,192,59263,1,8,0:0:0:0:
256,192,59354,1,8,0:0:0:0:
256,192,59445,5,0,0:0:0:0:
256,192,59536,5,8,0:0:0:0:
256,192,59626,1,0,0:0:0:0:
256,192,59687,1,0,0:0:0:0:
256,192,59748,1,0,0:0:0:0:
256,192,59808,5,8,0:0:0:0:
256,192,59899,5,0,0:0:0:0:
256,192,59990,5,8,0:0:0:0:
256,192,60051,1,8,0:0:0:0:
256,192,60111,1,8,0:0:0:0:
256,192,60172,5,0,0:0:0:0:
256,192,60263,1,0,0:0:0:0:
256,192,60354,5,8,0:0:0:0:
256,192,60445,5,0,0:0:0:0:
256,192,60536,5,8,0:0:0:0:
256,192,60626,5,0,0:0:0:0:
256,192,60717,5,8,0:0:0:0:
256,192,60808,1,8,0:0:0:0:
256,192,60899,5,0,0:0:0:0:
256,192,60990,5,8,0:0:0:0:
256,192,61081,5,0,0:0:0:0:
256,192,61172,1,0,0:0:0:0:
256,192,61263,5,8,0:0:0:0:
256,192,61354,5,0,0:0:0:0:
256,192,61445,5,8,0:0:0:0:
256,192,61536,1,8,0:0:0:0:
256,192,61626,5,0,0:0:0:0:
256,192,61717,1,0,0:0:0:0:
256,192,61808,5,8,0:0:0:0:
256,192,61899,1,8,0:0:0:0:
256,192,61990,5,0,0:0:0:0:
256,192,62081,5,8,0:0:0:0:
256,192,62172,1,8,0:0:0:0:
256,192,62263,1,8,0:0:0:0:
256,192,62354,5,0,0:0:0:0:
256,192,62445,5,8,0:0:0:0:
256,192,62536,5,0,0:0:0:0:
256,192,62626,1,0,0:0:0:0:
256,192,62717,5,8,0:0:0:0:
256,192,62808,1,8,0:0:0:0:
256,192,62899,1,8,0:0:0:0:
256,192,62990,1,8,0:0:0:0:
256,192,63081,5,0,0:0:0:0:
256,192,63202,1,0,0:0:0:0:
256,192,63323,1,0,0:0:0:0:
256,192,63445,5,8,0:0:0:0:
256,192,63566,5,0,0:0:0:0:
256,192,63687,1,0,0:0:0:0:
256,192,63808,5,8,0:0:0:0:
256,192,63929,5,0,0:0:0:0:
256,192,64051,1,0,0:0:0:0:
256,192,64172,5,8,0:0:0:0:
256,192,64293,1,8,0:0:0:0:
256,192,64414,1,8,0:0:0:0:
256,192,64536,5,0,0:0:0:0:
256,192,64717,5,8,0:0:0:0:
256,192,64899,5,0,0:0:0:0:
256,192,65081,5,8,0:0:0:0:
256,192,65263,5,0,0:0:0:0:
256,192,65445,5,8,0:0:0:0:
256,192,65626,5,0,0:0:0:0:
256,192,65687,5,0,0:0:0:0:
256,192,65748,1,0,0:0:0:0:
256,192,65808,5,8,0:0:0:0:
256,192,65869,1,8,0:0:0:0:
256,192,65929,1,8,0:0:0:0:
256,192,65990,5,0,0:0:0:0:
256,192,66081,1,0,0:0:0:0:
256,192,66172,5,8,0:0:0:0:
256,192,66263,5,0,0:0:0:0:
256,192,66354,5,8,0:0:0:0:
256,192,66445,5,0,0:0:0:0:
256,192,66536,5,8,0:0:0:0:
256,192,66626,1,8,0:0:0:0:
256,192,66717,5,0,0:0:0:0:
256,192,66808,5,8,0:0:0:0:
256,192,66899,5,0,0:0:0:0:
256,192,66990,1,0,0:0:0:0:
256,192,67081,5,8,0:0:0:0:
256,192,67172,5,0,0:0:0:0:
256,192,67263,5,8,0:0:0:0:
256,192,67354,1,8,0:0:0:0:
256,192,67445,5,0,0:0:0:0:
256,192,67536,5,8,0:0:0:0:
256,192,67626,5,0,0:0:0:0:
256,192,67717,5,8,0:0:0:0:
256,192,67808,5,0,0:0:0:0:
256,192,67899,1,0,0:0:0:0:
256,192,67990,5,8,0:0:0:0:
256,192,68081,1,8,0:0:0:0:
256,192,68172,5,0,0:0:0:0:
256,192,68263,1,0,0:0:0:0:
256,192,68354,5,8,0:0:0:0:
256,192,68414,5,0,0:0:0:0:
256,192,68475,1,0,0:0:0:0:
256,192,68536,5,8,0:0:0:0:
256,192,68626,5,0,0:0:0:0:
256,192,68717,5,8,0:0:0:0:
256,192,68778,1,8,0:0:0:0:
256,192,68839,1,8,0:0:0:0:
256,192,68899,5,0,0:0:0:0:
256,192,68990,1,0,0:0:0:0:
256,192,69081,5,8,0:0:0:0:
256,192,69172,5,0,0:0:0:0:
256,192,69263,5,8,0:0:0:0:
256,192,69354,5,0,0:0:0:0:
256,192,69445,5,8,0:0:0:0:
256,192,69536,1,8,0:0:0:0:
256,192,69626,5,0,0:0:0:0:
256,192,69717,5,8,0:0:0:0:
256,192,69808,5,0,0:0:0:0:
256,192,69899,1,0,0:0:0:0:
256,192,69990,5,8,0:0:0:0:
256,192,70081,5,0,0:0:0:0:
256,192,70172,5,8,0:0:0:0:
256,192,70263,1,8,0:0:0:0:
256,192,70354,5,0,0:0:0:0:
256,192,70445,5,8,0:0:0:0:
256,192,70536,1,8,0:0:0:0:
256,192,70626,5,0,0:0:0:0:
256,192,70717,5,8,0:0:0:0:
256,192,70808,1,8,0:0:0:0:
256,192,70899,5,0,0:0:0:0:
256,192,70990,1,8,0:0:0:0:
256,192,71081,1,0,0:0:0:0:
256,192,71172,5,8,0:0:0:0:
256,192,71263,5,0,0:0:0:0:
256,192,71323,1,0,0:0:0:0:
256,192,71384,1,0,0:0:0:0:
256,192,71445,5,8,0:0:0:0:
256,192,71536,5,0,0:0:0:0:
256,192,71626,5,8,0:0:0:0:
256,192,71687,1,8,0:0:0:0:
256,192,71748,1,8,0:0:0:0:
256,192,71808,5,0,0:0:0:0:
256,192,71899,1,0,0:0:0:0:
256,192,71990,5,8,0:0:0:0:
256,192,72081,1,8,0:0:0:0:
256,192,72172,5,0,0:0:0:0:
256,192,72263,5,8,0:0:0:0:
256,192,72354,1,8,0:0:0:0:
256,192,72445,1,8,0:0:0:0:
256,192,72536,5,0,0:0:0:0:
256,192,72626,5,8,0:0:0:0:
256,192,72717,5,0,0:0:0:0:
256,192,72808,1,0,0:0:0:0:
256,192,72899,5,8,0:0:0:0:
256,192,72990,5,0,0:0:0:0:
256,192,73081,5,8,0:0:0:0:
256,192,73172,1,8,0:0:0:0:
256,192,73263,5,0,0:0:0:0:
256,192,73354,1,0,0:0:0:0:
256,192,73445,5,8,0:0:0:0:
256,192,73536,1,8,0:0:0:0:
256,192,73626,5,0,0:0:0:0:
256,192,73717,5,8,0:0:0:0:
256,192,73808,5,0,0:0:0:0:
256,192,73899,1,0,0:0:0:0:
256,192,73990,5,8,0:0:0:0:
256,192,74081,1,8,0:0:0:0:
256,192,74172,5,0,0:0:0:0:
256,192,74263,1,0,0:0:0:0:
256,192,74354,5,8,0:0:0:0:
256,192,74445,5,0,0:0:0:0:
256,192,74536,5,8,0:0:0:0:
256,192,74626,1,8,0:0:0:0:
256,192,74717,5,0,0:0:0:0:
256,192,74778,1,0,0:0:0:0:
256,192,74839,1,0,0:0:0:0:
256,192,74899,5,8,0:0:0:0:
256,192,74960,5,0,0:0:0:0:
256,192,75020,1,0,0:0:0:0:
256,192,75081,5,8,0:0:0:0:
256,192,75172,5,0,0:0:0:0:
256,192,75263,5,8,0:0:0:0:
256,192,75354,1,8,0:0:0:0:
256,192,75445,5,0,0:0:0:0:
256,192,75505,1,0,0:0:0:0:
256,192,75566,1,0,0:0:0:0:
256,192,75626,5,8,0:0:0:0:
256,192,75687,5,0,0:0:0:0:
256,192,75748,1,0,0:0:0:0:
256,192,75808,5,8,0:0:0:0:
256,192,75899,5,0,0:0:0:0:
256,192,75990,5,8,0:0:0:0:
256,192,76081,1,8,0:0:0:0:
256,192,76172,5,0,0:0:0:0:
256,192,76263,1,0,0:0:0:0:
256,192,76354,5,8,0:0:0:0:
256,192,76445,5,0,0:0:0:0:
256,192,76536,5,8,0:0:0:0:
256,192,76626,5,0,0:0:0:0:
256,192,76717,5,8,0:0:0:0:
256,192,76808,1,8,0:0:0:0:
256,192,76899,5,0,0:0:0:0:
256,192,76990,5,8,0:0:0:0:
256,192,77081,1,8,0:0:0:0:
256,192,77172,1,8,0:0:0:0:
256,192,77263,5,0,0:0:0:0:
256,192,77323,1,0,0:0:0:0:
256,192,77384,1,0,0:0:0:0:
256,192,77445,5,8,0:0:0:0:
256,192,77505,1,8,0:0:0:0:
256,192,77566,1,8,0:0:0:0:
256,192,77626,5,0,0:0:0:0:
256,192,77808,5,8,0:0:0:0:
256,192,77990,5,0,0:0:0:0:
256,192,78081,1,0,0:0:0:0:
256,192,78172,5,8,0:0:0:0:
256,192,78263,1,8,0:0:0:0:
256,192,78354,5,0,0:0:0:0:
256,192,78536,5,8,0:0:0:0:
256,192,78717,5,0,0:0:0:0:
256,192,78808,5,8,0:0:0:0:
256,192,78899,1,8,0:0:0:0:
256,192,78990,1,8,0:0:0:0:
256,192,79081,5,0,0:0:0:0:
256,192,79202,1,0,0:0:0:0:
256,192,79323,1,0,0:0:0:0:
256,192,79445,5,8,0:0:0:0:
256,192,79566,5,0,0:0:0:0:
256,192,79687,1,0,0:0:0:0:
256,192,79808,5,8,0:0:0:0:
256,192,79899,5,0,0:0:0:0:
256,192,79990,1,0,0:0:0:0:
256,192,80081,1,0,0:0:0:0:
256,192,80172,5,8,0:0:0:0:
256,192,80263,5,0,0:0:0:0:
256,192,80354,5,8,0:0:0:0:
256,192,80445,1,8,0:0:0:0:
256,192,80536,5,0,0:0:0:0:
256,192,80717,1,0,0:0:0:0:
256,192,80778,1,0,0:0:0:0:
256,192,80839,1,0,0:0:0:0:
256,192,80899,5,8,0:0:0:0:
256,192,80990,5,0,0:0:0:0:
256,192,81081,5,8,0:0:0:0:
256,192,81172,1,8,0:0:0:0:
256,192,81263,5,0,0:0:0:0:
256,192,81354,5,8,0:0:0:0:
256,192,81445,1,8,0:0:0:0:
256,192,81536,1,8,0:0:0:0:
256,192,81626,5,0,0:0:0:0:
256,192,81717,5,8,0:0:0:0:
256,192,81808,5,0,0:0:0:0:
256,192,81899,5,8,0:0:0:0:
256,192,81990,5,0,0:0:0:0:
256,192,82172,1,0,0:0:0:0:
256,192,82232,1,0,0:0:0:0:
256,192,82293,1,0,0:0:0:0:
256,192,82354,5,8,0:0:0:0:
256,192,82445,5,0,0:0:0:0:
256,192,82536,5,8,0:0:0:0:
256,192,82626,1,8,0:0:0:0:
256,192,82717,5,0,0:0:0:0:
256,192,82808,5,8,0:0:0:0:
256,192,82899,5,0,0:0:0:0:
256,192,82990,1,0,0:0:0:0:
256,192,83081,5,8,0:0:0:0:
256,192,83263,1,8,0:0:0:0:
256,192,83445,5,0,0:0:0:0:
256,192,83536,1,0,0:0:0:0:
256,192,83626,1,8,0:0:0:0:
256,192,83717,5,0,0:0:0:0:
256,192,83808,5,8,0:0:0:0:
256,192,83899,5,0,0:0:0:0:
256,192,83990,5,8,0:0:0:0:
256,192,84081,1,8,0:0:0:0:
256,192,84172,5,0,0:0:0:0:
256,192,84263,5,8,0:0:0:0:
256,192,84354,5,0,0:0:0:0:
256,192,84445,1,0,0:0:0:0:
256,192,84536,5,8,0:0:0:0:
256,192,84626,5,0,0:0:0:0:
256,192,84717,5,8,0:0:0:0:
256,192,84808,1,8,0:0:0:0:
256,192,84899,5,0,0:0:0:0:
256,192,84990,1,0,0:0:0:0:
256,192,85081,5,8,0:0:0:0:
256,192,85172,1,8,0:0:0:0:
256,192,85263,5,0,0:0:0:0:
256,192,85354,5,8,0:0:0:0:
256,192,85445,1,8,0:0:0:0:
256,192,85536,1,8,0:0:0:0:
256,192,85626,5,0,0:0:0:0:
256,192,85717,5,8,0:0:0:0:
256,192,85808,5,0,0:0:0:0:
256,192,85899,5,8,0:0:0:0:
256,192,85990,5,0,0:0:0:0:
256,192,86051,1,0,0:0:0:0:7
256,192,86111,1,0,0:0:0:0:
256,192,86172,5,8,0:0:0:0:
256,192,86232,1,8,0:0:0:0:
256,192,86293,1,8,0:0:0:0:
256,192,86354,12,8,87808,0:0:0:0:
