osu file format v14

[General]
AudioFilename: audio.mp3
AudioLeadIn: 0
PreviewTime: 54731
Countdown: 0
SampleSet: Soft
StackLeniency: 0.7
Mode: 0
LetterboxInBreaks: 0
WidescreenStoryboard: 0

[Editor]
DistanceSpacing: 1
BeatDivisor: 8
GridSize: 4
TimelineZoom: 1.5

[Metadata]
Title:Hitorigoto -TV MIX-
TitleUnicode:ヒトリゴト -TV MIX-
Artist:ClariS
ArtistUnicode:ClariS
Creator:Tofu1222
Version:RsAk's Easy
Source:エロマンガ先生
Tags:eromanga sensei ero manga eromanga-sensei opening tv size eromangasensei Suzuki_1112 1112deng kanor Level9 Ryuusei Aika RsAk Moeri Moecho [Kamiya] victorica_db [Emiria]
BeatmapID:1290480
BeatmapSetID:602861

[Difficulty]
HPDrainRate:2
CircleSize:3
OverallDifficulty:2
ApproachRate:3
SliderMultiplier:0.9
SliderTickRate:1

[Events]
//Background and Video events
0,0,"BG_RsAk.jpg",0,0
Video,0,"eromanga.avi"
//Break Periods
//Storyboard Layer 0 (Background)
//Storyboard Layer 1 (Fail)
//Storyboard Layer 2 (Pass)
//Storyboard Layer 3 (Foreground)
//Storyboard Sound Samples

[TimingPoints]
1095,363.636363636364,4,2,33,75,1,0
1095,-100,4,2,33,75,0,0
5458,-100,4,2,33,80,0,0
6185,-100,4,2,33,75,0,0
11276,-100,4,2,33,80,0,0
12004,-100,4,2,33,75,0,0
12731,-100,4,2,33,70,0,0
23822,-100,4,2,33,50,0,0
24367,-100,4,2,33,65,0,0
36004,-100,4,2,33,55,0,0
41095,-100,4,2,33,60,0,0
41458,-100,4,2,33,65,0,0
41822,-100,4,2,33,70,0,0
53458,-100,4,2,33,80,0,0
54913,-100,4,2,50,100,0,1
55095,-100,4,2,33,80,0,1
56367,-100,4,2,51,85,0,1
56549,-100,4,2,33,80,0,1
57095,-100,4,2,50,85,0,1
57276,-100,4,2,33,80,0,1
57822,-100,4,2,52,85,0,1
58004,-100,4,2,33,80,0,1
59276,-100,4,2,51,85,0,1
59458,-100,4,2,33,80,0,1
60004,-100,4,2,50,85,0,1
60185,-100,4,2,33,80,0,1
60731,-100,4,2,52,85,0,1
60913,-100,4,2,33,80,0,1
62185,-100,4,2,53,85,0,1
62367,-100,4,2,33,80,0,1
62913,-100,4,2,54,85,0,1
63095,-100,4,2,33,80,0,1
63640,-100,4,2,55,85,0,1
64004,-100,4,2,54,85,0,1
64367,-100,4,2,55,85,0,1
64731,-100,4,2,53,85,0,1
65095,-100,4,2,33,80,0,1
65458,-100,4,2,33,80,0,1
65822,-100,4,2,33,80,0,1
66185,-100,4,2,33,80,0,1
66549,-100,4,2,50,100,0,1
66731,-100,4,2,33,80,0,1
68004,-100,4,2,51,85,0,1
68185,-100,4,2,33,80,0,1
68731,-100,4,2,50,85,0,1
68913,-100,4,2,33,80,0,1
69458,-100,4,2,52,85,0,1
69640,-100,4,2,33,80,0,1
70913,-100,4,2,51,85,0,1
71095,-100,4,2,33,80,0,1
71640,-100,4,2,50,85,0,1
71822,-100,4,2,33,80,0,1
72367,-100,4,2,52,85,0,1
72549,-100,4,2,33,80,0,1
73822,-100,4,2,53,85,0,1
74004,-100,4,2,33,80,0,1
74549,-100,4,2,54,85,0,1
74731,-100,4,2,33,80,0,1
75276,-100,4,2,55,85,0,1
75458,-100,4,2,33,80,0,1
76004,-100,4,2,53,85,0,1
76185,-100,4,2,33,80,0,1
76731,-100,4,2,52,100,0,1
76913,-100,4,2,33,80,0,1
77458,-100,4,2,60,85,0,1
77640,-100,4,2,33,80,0,1
78185,-100,4,2,59,100,0,1
78367,-100,4,2,33,80,0,1
78913,-100,4,2,52,85,0,1
79095,-100,4,2,33,80,0,1
79640,-100,4,2,52,85,0,1
79822,-100,4,2,33,80,0,1
80367,-100,4,2,60,85,0,1
80549,-100,4,2,33,80,0,1
81095,-100,4,2,59,85,0,1
81276,-100,4,2,33,80,0,1
81822,-100,4,2,52,85,0,1
82004,-100,4,2,33,80,0,1
82549,-100,4,2,50,85,0,1
82731,-100,4,2,33,80,0,1
83276,-100,4,2,52,85,0,1
83458,-100,4,2,33,80,0,1
84004,-100,4,2,59,85,0,1
84185,-100,4,2,33,80,0,1
84731,-100,4,2,52,85,0,1
84913,-100,4,2,33,80,0,1
85458,-100,4,2,52,85,0,1
85640,-100,4,2,33,80,0,1
86185,-100,4,2,60,85,0,1
86367,-100,4,2,33,80,0,1
86913,-100,4,2,59,85,0,0
88276,-100,4,2,60,60,0,0

[Colours]
Combo1 : 215,215,183
Combo2 : 0,128,128
Combo3 : 192,192,192
Combo4 : 255,128,192

[HitObjects]
76,58,1095,6,0,L|130:60,1,45,8|8,3:2|0:0,0:0:0:0:
436,58,2549,2,0,L|382:60,1,45,8|8,3:2|0:0,0:0:0:0:
256,360,4004,6,0,L|256:306,1,45,8|8,3:2|0:0,0:0:0:0:
76,58,5458,2,0,L|165:66,1,90,4|0,3:2|0:0,0:0:0:0:
256,85,6185,2,0,L|345:76,1,90,12|0,3:2|0:0,0:0:0:0:
436,58,6913,6,0,L|440:102,1,45,12|8,3:2|3:2,0:0:0:0:
256,360,8367,2,0,L|256:306,1,45,8|8,3:2|0:0,0:0:0:0:
80,56,9822,6,0,L|75:100,1,45,12|8,3:2|3:2,0:0:0:0:
389,79,11276,2,0,L|397:168,1,90,4|0,3:2|0:0,0:0:0:0:
459,234,12003,2,0,L|450:323,1,90,12|0,3:2|0:0,0:0:0:0:
361,292,12731,6,0,P|319:279|275:284,1,90,6|10,0:0|0:0,0:0:0:0:
204,344,13458,2,0,P|137:351|73:330,1,135,2|0,0:0|3:0,0:0:0:0:
14,262,14367,2,0,L|14:172,1,90,0|0,3:0|3:0,0:0:0:0:
72,102,15095,2,0,P|133:75|195:97,1,135,0|4,3:0|0:0,0:0:0:0:
259,163,16004,5,8,0:0:0:0:
323,229,16367,2,0,P|385:250|445:224,1,135,2|0,0:0|3:0,0:0:0:0:
382,160,17277,1,0,3:0:0:0:
441,91,17640,2,0,L|464:4,2,90,2|0|6,3:2|3:0|3:2,0:0:0:0:
325,29,18913,5,10,0:0:0:0:
256,84,19276,2,0,L|121:84,1,135,2|0,0:0|3:0,0:0:0:0:
49,138,20185,2,0,L|39:227,1,90,0|0,3:0|3:0,0:0:0:0:
112,282,20913,2,0,L|247:282,1,135,0|6,3:0|0:0,0:0:0:0:
301,355,21822,5,10,0:0:0:0:
385,321,22185,2,0,P|406:257|401:190,1,135,2|0,0:0|3:0,0:0:0:0:
368,106,23095,1,0,3:0:0:0:
335,22,23458,2,0,L|424:13,2,90,2|2|14,3:2|3:2|0:0,0:0:0:0:
221,91,24731,6,0,L|41:106,1,180,8|8,3:2|3:2,0:0:0:0:
0,188,25822,2,0,L|16:368,1,180,0|0,3:0|3:0,0:0:0:0:
98,327,26913,1,8,3:2:0:0:
179,285,27276,6,0,P|264:256|352:273,1,180,0|0,3:0|3:0,0:0:0:0:
434,314,28367,1,8,3:2:0:0:
429,223,28731,2,0,L|420:88,2,135,0|2|8,3:0|0:0|3:2,0:0:0:0:
434,314,30185,5,4,3:2:0:0:
351,271,30549,2,0,P|264:255|180:284,1,180,8|8,3:2|3:2,0:0:0:0:
95,321,31640,2,0,L|74:142,1,180,0|0,3:0|3:0,0:0:0:0:
0,92,32731,1,8,3:2:0:0:
79,51,33095,6,0,P|160:20|236:63,1,180,0|0,3:0|3:0,0:0:0:0:
277,145,34185,1,8,3:2:0:0:
318,226,34549,2,0,L|454:234,2,135,0|2|8,3:0|0:0|3:2,0:0:0:0:
227,221,36004,6,0,B|162:217|162:217|118:241|118:241|52:239,1,180,4|8,3:2|0:0,0:0:0:0:
12,159,37095,1,0,0:0:0:0:
41,74,37458,2,0,P|126:48|215:56,1,180,0|8,3:0|0:0,0:0:0:0:
257,136,38549,1,0,3:0:0:0:
299,215,38913,6,0,B|364:211|364:211|408:235|408:235|472:233,1,180,4|8,3:2|0:0,0:0:0:0:
468,323,40004,1,0,0:0:0:0:
378,319,40367,2,0,L|288:323,1,90,0|0,3:0|3:0,0:0:0:0:
224,262,41095,2,0,L|134:257,1,90,8|8,0:0|0:0,0:0:0:0:
70,317,41822,6,0,P|51:231|122:169,1,180,4|0,0:0|3:0,0:0:0:0:
198,148,42913,1,8,0:0:0:0:
285,124,43276,2,0,L|294:33,1,90,0|8,3:0|0:0,0:0:0:0:
381,14,44004,2,0,L|472:23,1,90,0|8,3:0|0:0,0:0:0:0:
505,106,44731,6,0,P|516:195|491:281,1,180,0|0,3:0|3:0,0:0:0:0:
441,356,45822,1,8,0:0:0:0:
382,288,46185,2,0,L|292:282,1,90,0|8,3:0|0:0,0:0:0:0:
211,244,46913,2,0,L|121:249,1,90,0|8,3:0|0:0,0:0:0:0:
66,320,47640,6,0,P|32:240|85:167,1,180,4|0,3:2|3:0,0:0:0:0:
160,128,48731,1,10,0:0:0:0:
239,87,49095,2,0,L|328:105,1,90,0|10,3:0|0:0,0:0:0:0:
408,146,49822,2,0,L|389:234,1,90,0|10,3:0|0:0,0:0:0:0:
349,314,50549,6,0,B|284:318|284:318|240:294|240:294|176:296,1,180,0|0,3:0|3:0,0:0:0:0:
135,375,51640,1,10,0:0:0:0:
55,335,52004,2,0,P|51:293|62:246,1,90,0|10,3:0|3:2,0:0:0:0:
142,205,52731,2,0,P|145:161|135:117,1,90,0|10,3:0|3:2,0:0:0:0:
106,31,53458,6,0,L|241:31,1,135,0|4,3:0|3:2,0:0:0:0:
331,50,54367,1,8,3:2:0:0:
461,79,54913,6,0,P|492:161|464:248,1,180,6|0,1:2|3:0,0:0:0:0:
388,296,56004,1,8,3:2:0:0:
311,346,56367,2,0,L|219:348,1,90,2|8,1:2|3:2,0:0:0:0:
144,298,57095,2,0,L|52:295,1,90,2|8,1:2|3:2,0:0:0:0:
34,205,57822,6,0,P|48:118|115:57,1,180,6|0,1:2|3:0,0:0:0:0:
203,37,58913,1,8,3:2:0:0:
282,86,59276,2,0,L|372:92,1,90,2|8,1:2|3:2,0:0:0:0:
436,161,60004,2,0,L|429:250,1,90,2|8,1:2|3:2,0:0:0:0:
360,315,60731,6,0,P|281:348|209:300,1,180,6|0,1:2|3:0,0:0:0:0:
139,240,61821,1,8,3:2:0:0:
69,186,62185,2,0,P|145:152|224:209,1,180,6|2,1:2|1:2,0:0:0:0:
290,261,63276,1,8,3:2:0:0:
351,191,63640,6,0,L|363:102,1,90,6|10,1:2|1:2,0:0:0:0:
273,89,64367,2,0,L|183:76,1,90,6|10,1:2|1:2,0:0:0:0:
111,22,65095,2,0,P|95:64|100:111,1,90,8|8,3:2|3:2,0:0:0:0:
107,198,65822,2,0,P|111:242|94:286,1,90,8|8,3:2|3:2,0:0:0:0:
40,359,66549,6,0,P|121:325|208:353,1,180,6|0,1:2|3:0,0:0:0:0:
256,277,67640,1,8,3:2:0:0:
306,202,68004,2,0,L|402:197,1,90,2|8,1:2|3:2,0:0:0:0:
487,193,68731,2,0,L|507:98,1,90,2|8,1:2|3:2,0:0:0:0:
478,18,69458,6,0,P|397:52|313:25,1,180,6|0,1:2|3:0,0:0:0:0:
263,100,70549,1,8,3:2:0:0:
213,174,70913,2,0,L|117:179,1,90,2|8,1:2|3:2,0:0:0:0:
32,183,71640,2,0,L|12:278,1,90,2|8,1:2|3:2,0:0:0:0:
41,358,72367,6,0,B|131:363|131:363|214:330,1,180,6|0,1:2|3:0,0:0:0:0:
297,297,73458,1,8,3:2:0:0:
381,264,73822,2,0,B|430:188|430:188|443:100,1,180,6|2,1:2|1:2,0:0:0:0:
456,11,74913,1,8,3:2:0:0:
373,45,75276,6,0,P|331:60|284:55,1,90,6|8,1:2|3:2,0:0:0:0:
197,65,76004,2,0,P|152:60|110:75,1,90,6|8,1:2|3:2,0:0:0:0:
32,120,76731,2,0,L|32:210,1,90,2|8,1:2|3:2,0:0:0:0:
115,244,77458,2,0,L|115:334,1,90,2|8,1:2|3:2,0:0:0:0:
198,299,78185,6,0,P|282:274|367:299,1,180,6|2,1:2|1:2,0:0:0:0:
450,334,79276,1,8,3:2:0:0:
484,250,79640,2,0,L|493:160,1,90,2|8,1:2|3:2,0:0:0:0:
414,118,80367,2,0,L|423:28,1,90,2|8,1:2|3:2,0:0:0:0:
337,52,81094,6,0,P|249:69|168:35,1,180,6|2,1:2|1:2,0:0:0:0:
115,107,82185,1,8,3:2:0:0:
62,179,82549,2,0,L|51:268,1,90,2|8,1:2|3:2,0:0:0:0:
122,321,83276,2,0,L|214:331,1,90,2|8,1:2|3:2,0:0:0:0:
263,261,84004,6,0,P|345:230|421:273,1,180,6|2,1:2|1:2,0:0:0:0:
470,348,85095,1,8,3:2:0:0:
511,269,85458,2,0,L|501:179,1,90,2|8,1:2|3:2,0:0:0:0:
461,100,86185,2,0,L|470:10,1,90,2|8,1:2|3:2,0:0:0:0:
382,7,86913,6,0,B|370:127|370:127|313:201|313:201|297:322,1,337.5,6|4,1:2|3:2,0:0:0:0:
