osu file format v14

[General]
AudioFilename: audio.mp3
AudioLeadIn: 0
PreviewTime: 54731
Countdown: 0
SampleSet: None
StackLeniency: 0.7
Mode: 3
LetterboxInBreaks: 0
SpecialStyle: 0
WidescreenStoryboard: 0

[Editor]
DistanceSpacing: 0.85
BeatDivisor: 4
GridSize: 32
TimelineZoom: 2.000001

[Metadata]
Title:Hitorigoto -TV MIX-
TitleUnicode:ヒトリゴト -TV MIX-
Artist:ClariS
ArtistUnicode:ClariS
Creator:Tofu1222
Version:Manga
Source:エロマンガ先生
Tags:eromanga sensei ero manga eromanga-sensei opening tv size eromangasensei Suzuki_1112 1112deng kanor Level9 Ryuusei Aika RsAk Moeri Moecho [Kamiya] victorica_db [Emiria]
BeatmapID:1273380
BeatmapSetID:602861

[Difficulty]
HPDrainRate:8
CircleSize:4
OverallDifficulty:8
ApproachRate:5
SliderMultiplier:1.4
SliderTickRate:1

[Events]
//Background and Video events
Video,0,"eromanga.avi"
0,0,"BG_Tofu.jpg",0,0
//Break Periods
//Storyboard Layer 0 (Background)
//Storyboard Layer 1 (Fail)
//Storyboard Layer 2 (Pass)
//Storyboard Layer 3 (Foreground)
//Storyboard Sound Samples
Sample,12731,0,"D#4S_Eb4S_s.wav",100
Sample,18367,0,"B5S_s.wav",100
Sample,24185,0,"B5S_s.wav",100
Sample,27458,0,"G6S_s.wav",100
Sample,27822,0,"G6S_s.wav",100
Sample,28185,0,"G6S_s.wav",100
Sample,28549,0,"G6S_s.wav",100
Sample,29276,0,"F6S_s.wav",100
Sample,33276,0,"G6S_s.wav",100
Sample,33640,0,"G6S_s.wav",100
Sample,34004,0,"G6S_s.wav",100
Sample,34367,0,"G6S_s.wav",100
Sample,35095,0,"F6S_s.wav",100
Sample,36004,0,"C4S_s.wav",100
Sample,36004,0,"SCG_C3s.wav",30
Sample,36367,0,"A#6S_Bb6S_s.wav",100
Sample,36731,0,"SCG_G3s.wav",30
Sample,36731,0,"G6S_s.wav",100
Sample,37095,0,"A#6S_Bb6S_s.wav",100
Sample,37095,0,"SCG_C4s.wav",30
Sample,37458,0,"SCG_B3s.wav",30
Sample,37458,0,"G6S_s.wav",100
Sample,37822,0,"hihat03.wav",50
Sample,38004,0,"A#6S_Bb6S_s.wav",100
Sample,38549,0,"SCG_B3s.wav",30
Sample,38549,0,"A#6S_Bb6S_s.wav",100
Sample,38731,0,"A#6S_Bb6S_s.wav",100
Sample,38913,0,"SCG_A#3s.wav",30
Sample,38913,0,"Whistle 2.wav",70
Sample,38913,0,"C7S_s.wav",100
Sample,39276,0,"A#6S_Bb6S_s.wav",100
Sample,39640,0,"SCG_C4s.wav",30
Sample,39640,0,"G6S_s.wav",100
Sample,40004,0,"F6S_s.wav",100
Sample,40004,0,"SCG_A#3s.wav",30
Sample,40367,0,"SCG_A3s.wav",30
Sample,40367,0,"D#6S_Eb6S_s.wav",100
Sample,40913,0,"C6S.wav",100
Sample,40913,0,"SCG_F3s.wav",30
Sample,42367,0,"C6S_s.wav",100
Sample,43095,0,"C6S_s.wav",100
Sample,43822,0,"C6S_s.wav",100
Sample,44185,0,"F6S_s.wav",100
Sample,44549,0,"G6S_s.wav",100
Sample,45276,0,"C6S_s.wav",100
Sample,46004,0,"C6S_s.wav",100
Sample,46731,0,"C6S_s.wav",100
Sample,47095,0,"F6S_s.wav",100
Sample,47458,0,"G6S_s.wav",100
Sample,48185,0,"C6S_s.wav",100
Sample,48913,0,"C6S_s.wav",100
Sample,49640,0,"C6S_s.wav",100
Sample,50004,0,"F6S_s.wav",100
Sample,50367,0,"G6S.wav",100
Sample,51095,0,"F6S_s.wav",100
Sample,51822,0,"C6S_s.wav",100
Sample,54367,0,"D7S_s.wav",70
Sample,54913,0,"F5S_s.wav",70
Sample,63640,0,"D#6S_Eb6S_s.wav",100
Sample,64367,0,"D#6S_Eb6S_s.wav",100
Sample,65095,0,"LR_NBell_D5.wav",70
Sample,65095,0,"D6S_s.wav",100
Sample,65276,0,"LR_NBell_C5.wav",70
Sample,65276,0,"C6S_s.wav",100
Sample,65458,0,"D6S_s.wav",100
Sample,65458,0,"LR_NBell_D5.wav",70
Sample,65640,0,"C6S_s.wav",100
Sample,65640,0,"LR_NBell_C5.wav",70
Sample,65822,0,"LR_NBell_A#4.wav",70
Sample,66004,0,"LR_NBell_C5.wav",70
Sample,66549,0,"LR_NBell_D6.wav",70
Sample,75276,0,"D#6S_Eb6S_s.wav",100
Sample,76004,0,"F6S_s.wav",100
Sample,78185,0,"A6S_s.wav",100
Sample,80367,0,"G6S_s.wav",100
Sample,81095,0,"LR_NBell_A5.wav",70
Sample,81095,0,"A6S_s.wav",100
Sample,81822,0,"A#6S_Bb6S_s.wav",100
Sample,84004,0,"A6S_s.wav",100
Sample,85822,0,"A6S_s.wav",100
Sample,86185,0,"G6S_s.wav",100
Sample,86549,0,"LR_NBell_A5.wav",70
Sample,86549,0,"A6S_s.wav",100
Sample,86913,0,"A6S_s.wav",100
Sample,87640,0,"A#6S_Bb6S.wav",100

[TimingPoints]
1095,363.636363636364,4,3,0,30,1,0
54913,-100,4,3,0,30,0,1
86913,-100,4,3,0,30,0,0

[HitObjects]
64,192,1095,5,0,0:0:0:70:Bassdrum.wav
320,192,1095,1,0,0:0:0:70:Whistle 2.wav
448,192,1095,1,0,0:0:0:0:
64,192,1276,1,0,0:0:0:70:Bassdrum.wav
320,192,1276,1,0,0:0:0:0:
448,192,1276,1,0,0:0:0:0:
320,192,2004,128,0,2458:0:0:0:0:
448,192,2004,128,0,2458:0:0:0:0:
64,192,2549,1,0,0:0:0:70:Bassdrum.wav
192,192,2549,1,0,0:0:0:0:
448,192,2549,1,0,0:0:0:0:
64,192,2731,1,0,0:0:0:70:Bassdrum.wav
192,192,2731,1,0,0:0:0:0:
448,192,2731,1,0,0:0:0:0:
64,192,3458,128,0,3913:0:0:0:0:
192,192,3458,128,0,3913:0:0:0:0:
192,192,4004,1,0,0:0:0:70:Bassdrum.wav
320,192,4004,1,0,0:0:0:70:Whistle 2.wav
448,192,4004,1,0,0:0:0:0:
192,192,4185,1,0,0:0:0:70:Bassdrum.wav
448,192,4185,1,0,0:0:0:0:
320,192,4185,1,0,0:0:0:0:
448,192,4913,128,0,5367:0:0:0:0:
320,192,4913,128,0,5367:0:0:0:0:
64,192,5458,128,0,6095:0:0:0:70:Bassdrum.wav
192,192,5458,128,0,6095:0:0:0:70:cymbol.wav
448,192,5458,1,0,0:0:0:0:
448,192,6185,128,0,6307:0:0:0:0:
320,192,6185,128,0,6307:0:0:0:70:Crash.wav
64,192,6185,1,0,0:0:0:0:
64,192,6428,128,0,6549:0:0:0:70:Bassdrum.wav
448,192,6428,1,0,0:0:0:0:
192,192,6428,128,0,6549:0:0:0:0:
192,192,6670,1,0,0:0:0:70:Bassdrum.wav
320,192,6670,1,0,0:0:0:0:
448,192,6670,1,0,0:0:0:0:
64,192,6913,1,0,0:0:0:70:Bassdrum.wav
192,192,6913,1,0,0:0:0:70:Whistle 2.wav
448,192,6913,1,0,0:0:0:0:
64,192,7095,1,0,0:0:0:70:Bassdrum.wav
192,192,7095,1,0,0:0:0:0:
448,192,7095,1,0,0:0:0:0:
64,192,7822,128,0,8276:0:0:0:0:
192,192,7822,128,0,8276:0:0:0:0:
64,192,8367,1,0,0:0:0:70:Bassdrum.wav
320,192,8367,1,0,0:0:0:0:
448,192,8367,1,0,0:0:0:0:
64,192,8549,1,0,0:0:0:70:Bassdrum.wav
320,192,8549,1,0,0:0:0:0:
448,192,8549,1,0,0:0:0:0:
320,192,9276,128,0,9731:0:0:0:0:
448,192,9276,128,0,9731:0:0:0:0:
64,192,9822,1,0,0:0:0:70:Bassdrum.wav
192,192,9822,1,0,0:0:0:70:Whistle 2.wav
320,192,9822,1,0,0:0:0:0:
64,192,10004,1,0,0:0:0:70:Bassdrum.wav
320,192,10004,1,0,0:0:0:0:
192,192,10004,1,0,0:0:0:0:
192,192,10731,128,0,11185:0:0:0:0:
64,192,10731,128,0,11185:0:0:0:0:
64,192,11276,1,0,0:0:0:70:Bassdrum.wav
320,192,11276,128,0,11913:0:0:0:70:cymbol.wav
448,192,11276,128,0,11913:0:0:0:0:
64,192,12004,128,0,12125:0:0:0:70:Bassdrum.wav
320,192,12004,128,0,12125:0:0:0:70:Crash.wav
448,192,12004,1,0,0:0:0:50:FX_WindChimes.wav
64,192,12246,1,0,0:0:0:0:
192,192,12246,128,0,12367:0:0:0:0:
448,192,12246,128,0,12367:0:0:0:70:Bassdrum.wav
320,192,12488,1,0,0:0:0:0:
448,192,12488,1,0,0:0:0:0:
64,192,12488,1,0,0:0:0:70:Bassdrum.wav
64,192,12731,1,0,0:0:0:70:Bassdrum.wav
192,192,12731,1,0,0:0:0:70:cymbol.wav
448,192,12731,1,0,0:0:0:70:Crash.wav
320,192,12913,1,0,0:0:0:0:
192,192,13095,128,8,13276:0:0:0:70:Snare.wav
448,192,13095,1,0,0:0:0:100:A#5S_Bb5S_s.wav
64,192,13276,1,0,0:0:0:0:
192,192,13458,1,2,0:0:0:70:Bassdrum.wav
448,192,13458,128,0,13640:0:0:0:100:G5S_s.wav
320,192,13640,128,0,13822:0:0:0:100:G#5S_Ab5S_s.wav
192,192,13822,128,8,14004:0:0:0:70:Snare.wav
448,192,13822,1,0,0:0:0:100:A#5S_Bb5S_s.wav
64,192,14004,128,0,14185:0:0:0:100:D6S_s.wav
192,192,14185,1,2,0:0:0:70:Bassdrum.wav
448,192,14185,1,0,0:0:0:0:
64,192,14367,128,0,14549:0:0:0:100:D6S_s.wav
320,192,14549,1,8,0:0:0:70:Snare.wav
448,192,14549,1,0,0:0:0:0:
192,192,14731,128,0,14913:0:0:0:100:C6S_s.wav
64,192,14913,1,2,0:0:0:70:Bassdrum.wav
448,192,14913,1,0,0:0:0:0:
320,192,15095,128,0,15458:0:0:0:100:D6S_s.wav
64,192,15276,1,8,0:0:0:70:Snare.wav
448,192,15276,1,0,0:0:0:0:
192,192,15458,1,0,0:0:0:0:
64,192,15640,1,2,0:0:0:70:Bassdrum.wav
320,192,15640,1,0,0:0:0:70:Crash.wav
448,192,15640,1,0,0:0:0:100:G#4S_Ab4S_s.wav
192,192,15822,1,0,0:0:0:0:
320,192,16004,128,8,16185:0:0:0:70:Snare.wav
448,192,16004,1,0,0:0:0:100:D#6S_Eb6S_s.wav
192,192,16185,1,0,0:0:0:0:
64,192,16367,128,2,16549:0:0:0:70:Bassdrum.wav
320,192,16367,1,0,0:0:0:100:C6S_s.wav
192,192,16549,128,0,16731:0:0:0:100:D6S_s.wav
64,192,16731,1,8,0:0:0:70:Snare.wav
320,192,16731,128,0,16913:0:0:0:100:D#6S_Eb6S_s.wav
448,192,16913,128,0,17095:0:0:0:100:F#6S_Gb6S_s.wav
64,192,17095,1,2,0:0:0:70:Bassdrum.wav
320,192,17095,1,0,0:0:0:0:
448,192,17276,128,0,17458:0:0:0:100:F#6S_Gb6S_s.wav
64,192,17458,1,8,0:0:0:70:Snare.wav
192,192,17458,1,0,0:0:0:0:
320,192,17640,128,0,17822:0:0:0:100:F6S_s.wav
64,192,17822,1,2,0:0:0:70:Bassdrum.wav
448,192,17822,1,0,0:0:0:0:
192,192,18004,128,0,18367:0:0:0:100:D#6S_Eb6S_s.wav
64,192,18185,1,8,0:0:0:70:Snare.wav
448,192,18185,1,0,0:0:0:0:
320,192,18367,128,0,18549:0:0:0:70:Bassdrum.wav
64,192,18549,1,0,0:0:0:70:Bassdrum.wav
192,192,18549,1,0,0:0:0:70:Crash.wav
448,192,18549,1,0,0:0:0:100:D#4S_Eb4S_s.wav
320,192,18731,1,0,0:0:0:0:
192,192,18913,128,8,19095:0:0:0:70:Snare.wav
448,192,18913,1,0,0:0:0:100:A#5S_Bb5S_s.wav
64,192,19095,1,0,0:0:0:0:
192,192,19276,1,2,0:0:0:70:Bassdrum.wav
448,192,19276,128,0,19458:0:0:0:100:G5S_s.wav
320,192,19458,128,0,19640:0:0:0:100:G#5S_Ab5S_s.wav
192,192,19640,128,8,19822:0:0:0:70:Snare.wav
448,192,19640,1,0,0:0:0:100:A#5S_Bb5S_s.wav
64,192,19822,128,0,20004:0:0:0:100:D6S_s.wav
192,192,20004,1,2,0:0:0:70:Bassdrum.wav
448,192,20004,1,0,0:0:0:0:
64,192,20185,128,0,20367:0:0:0:100:D6S_s.wav
320,192,20367,1,8,0:0:0:70:Snare.wav
448,192,20367,1,0,0:0:0:0:
192,192,20549,128,0,20731:0:0:0:100:C6S_s.wav
64,192,20731,1,2,0:0:0:70:Bassdrum.wav
448,192,20731,1,0,0:0:0:0:
320,192,20913,128,0,21276:0:0:0:100:D6S_s.wav
64,192,21095,1,8,0:0:0:70:Snare.wav
448,192,21095,1,0,0:0:0:0:
192,192,21276,1,0,0:0:0:0:
64,192,21458,1,2,0:0:0:70:Bassdrum.wav
320,192,21458,1,0,0:0:0:70:Crash.wav
448,192,21458,1,0,0:0:0:100:G#4S_Ab4S_s.wav
192,192,21640,1,0,0:0:0:0:
320,192,21822,128,8,22004:0:0:0:70:Snare.wav
448,192,21822,1,0,0:0:0:100:D#6S_Eb6S_s.wav
192,192,22004,1,0,0:0:0:0:
64,192,22185,128,2,22367:0:0:0:70:Bassdrum.wav
320,192,22185,1,0,0:0:0:100:C6S_s.wav
192,192,22367,128,0,22549:0:0:0:100:D6S_s.wav
64,192,22549,1,8,0:0:0:70:Snare.wav
320,192,22549,128,0,22731:0:0:0:100:D#6S_Eb6S_s.wav
448,192,22731,128,0,22913:0:0:0:100:F#6S_Gb6S_s.wav
64,192,22913,1,2,0:0:0:70:Bassdrum.wav
320,192,22913,1,0,0:0:0:70:Crash.wav
448,192,23095,128,0,23276:0:0:0:100:F#6S_Gb6S_s.wav
64,192,23276,1,8,0:0:0:70:Snare.wav
192,192,23276,1,0,0:0:0:70:Crash.wav
320,192,23458,128,0,23640:0:0:0:100:F6S_s.wav
64,192,23640,1,2,0:0:0:70:Bassdrum.wav
448,192,23640,1,0,0:0:0:70:Crash.wav
192,192,23822,128,0,24004:0:0:0:100:D#6S_Eb6S_s.wav
64,192,24004,1,8,0:0:0:70:Snare.wav
448,192,24004,1,0,0:0:0:0:
320,192,24095,1,8,0:0:0:70:Snare.wav
192,192,24185,1,8,0:0:0:70:Snare.wav
64,192,24276,1,8,0:0:0:70:Snare.wav
192,192,24367,1,0,0:0:0:70:Bassdrum.wav
320,192,24367,1,0,0:0:0:70:cymbol.wav
448,192,24367,1,0,0:0:0:100:D#4S_Eb4S_s.wav
64,192,24549,1,0,0:0:0:50:hihat02.wav
192,192,24731,1,0,0:0:0:70:Snare.wav
320,192,24731,1,0,0:0:0:100:A#5S_Bb5S_s.wav
448,192,24731,1,0,0:0:0:0:
64,192,24913,1,0,0:0:0:50:hihat02.wav
192,192,25095,1,0,0:0:0:70:Bassdrum.wav
320,192,25095,1,0,0:0:0:100:D#6S_Eb6S_s.wav
448,192,25276,1,0,0:0:0:50:hihat02.wav
64,192,25458,1,0,0:0:0:70:Snare.wav
192,192,25458,1,0,0:0:0:100:F6S_s.wav
320,192,25458,1,0,0:0:0:0:
448,192,25640,1,0,0:0:0:50:hihat02.wav
64,192,25822,1,0,0:0:0:70:Bassdrum.wav
320,192,25822,1,0,0:0:0:100:G6S_s.wav
192,192,26004,1,0,0:0:0:50:hihat02.wav
64,192,26185,1,0,0:0:0:70:Snare.wav
320,192,26185,1,0,0:0:0:100:F6S_s.wav
448,192,26185,1,0,0:0:0:0:
192,192,26367,1,0,0:0:0:50:hihat02.wav
64,192,26549,1,0,0:0:0:70:Bassdrum.wav
448,192,26549,1,0,0:0:0:100:D#6S_Eb6S_s.wav
320,192,26731,1,0,0:0:0:50:hihat02.wav
64,192,26913,1,0,0:0:0:70:Snare.wav
192,192,26913,1,0,0:0:0:100:F6S_s.wav
448,192,26913,1,0,0:0:0:0:
320,192,27095,1,0,0:0:0:50:hihat02.wav
192,192,27276,1,0,0:0:0:70:Bassdrum.wav
448,192,27276,128,0,27640:0:0:0:0:
64,192,27458,1,0,0:0:0:50:hihat02.wav
192,192,27640,1,0,0:0:0:70:Snare.wav
320,192,27640,1,0,0:0:0:100:G#6S_Ab6S_s.wav
64,192,27822,1,0,0:0:0:50:hihat02.wav
192,192,28004,1,0,0:0:0:70:Bassdrum.wav
448,192,28004,128,0,28731:0:0:0:100:G#6S_Ab6S_s.wav
320,192,28185,1,0,0:0:0:50:hihat02.wav
64,192,28367,1,0,0:0:0:70:Snare.wav
192,192,28367,1,0,0:0:0:100:G#6S_Ab6S_s.wav
320,192,28549,1,0,0:0:0:50:hihat02.wav
64,192,28731,128,0,28913:0:0:0:70:Bassdrum.wav
192,192,28731,1,0,0:0:0:100:G#6S_Ab6S_s.wav
320,192,28913,1,0,0:0:0:50:hihat02.wav
448,192,28913,128,0,29095:0:0:0:100:A#6S_Bb6S_s.wav
64,192,29095,1,0,0:0:0:70:Snare.wav
192,192,29095,1,0,0:0:0:0:
320,192,29276,128,0,29458:0:0:0:50:hihat02.wav
64,192,29458,1,0,0:0:0:70:Bassdrum.wav
448,192,29458,1,0,0:0:0:0:
192,192,29640,128,0,29822:0:0:0:50:hihat02.wav
320,192,29640,1,0,0:0:0:100:D#6S_Eb6S_s.wav
64,192,29822,128,0,30004:0:0:0:70:Snare.wav
448,192,29822,1,0,0:0:0:100:F6S_s.wav
320,192,30004,1,0,0:0:0:70:Snare.wav
448,192,30004,1,0,0:0:0:100:D#6S_Eb6S_s.wav
192,192,30095,1,0,0:0:0:70:Snare.wav
64,192,30185,1,0,0:0:0:70:Bassdrum.wav
320,192,30185,1,0,0:0:0:70:Crash.wav
448,192,30185,1,0,0:0:0:100:D#4S_Eb4S_s.wav
192,192,30367,1,0,0:0:0:50:hihat02.wav
64,192,30549,1,0,0:0:0:70:Snare.wav
320,192,30549,1,0,0:0:0:100:A#5S_Bb5S_s.wav
448,192,30549,1,0,0:0:0:0:
192,192,30731,1,0,0:0:0:50:hihat02.wav
64,192,30913,1,0,0:0:0:70:Bassdrum.wav
320,192,30913,1,0,0:0:0:100:D#6S_Eb6S_s.wav
448,192,31095,1,0,0:0:0:50:hihat02.wav
64,192,31276,1,0,0:0:0:70:Snare.wav
192,192,31276,1,0,0:0:0:100:F6S_s.wav
320,192,31276,1,0,0:0:0:0:
448,192,31458,1,0,0:0:0:50:hihat02.wav
192,192,31640,1,0,0:0:0:70:Bassdrum.wav
320,192,31640,1,0,0:0:0:100:G6S_s.wav
64,192,31822,1,0,0:0:0:50:hihat02.wav
192,192,32004,1,0,0:0:0:70:Snare.wav
320,192,32004,1,0,0:0:0:100:F6S_s.wav
448,192,32004,1,0,0:0:0:0:
64,192,32185,1,0,0:0:0:50:hihat02.wav
192,192,32367,1,0,0:0:0:70:Bassdrum.wav
448,192,32367,1,0,0:0:0:100:D#6S_Eb6S_s.wav
320,192,32549,1,0,0:0:0:50:hihat02.wav
64,192,32731,1,0,0:0:0:70:Snare.wav
192,192,32731,1,0,0:0:0:100:F6S_s.wav
448,192,32731,1,0,0:0:0:0:
320,192,32913,1,0,0:0:0:50:hihat02.wav
64,192,33095,128,0,33458:0:0:0:70:Bassdrum.wav
192,192,33095,1,0,0:0:0:0:
448,192,33276,1,0,0:0:0:50:hihat02.wav
192,192,33458,1,0,0:0:0:70:Snare.wav
320,192,33458,1,0,0:0:0:100:G#6S_Ab6S_s.wav
448,192,33640,1,0,0:0:0:50:hihat02.wav
64,192,33822,128,0,34549:0:0:0:70:Bassdrum.wav
320,192,33822,1,0,0:0:0:100:G#6S_Ab6S_s.wav
192,192,34004,1,0,0:0:0:50:hihat02.wav
320,192,34185,1,0,0:0:0:70:Snare.wav
448,192,34185,1,0,0:0:0:100:G#6S_Ab6S_s.wav
192,192,34367,1,0,0:0:0:50:hihat02.wav
320,192,34549,1,0,0:0:0:70:Bassdrum.wav
448,192,34549,128,0,34731:0:0:0:100:G#6S_Ab6S_s.wav
64,192,34731,128,0,34913:0:0:0:50:hihat02.wav
192,192,34731,1,0,0:0:0:100:A#6S_Bb6S_s.wav
320,192,34913,1,0,0:0:0:70:Snare.wav
448,192,34913,1,0,0:0:0:0:
192,192,35095,128,0,35276:0:0:0:50:hihat02.wav
64,192,35276,1,0,0:0:0:70:Bassdrum.wav
448,192,35276,1,0,0:0:0:0:
192,192,35458,1,0,0:0:0:50:hihat02.wav
320,192,35458,128,0,35640:0:0:0:100:D#6S_Eb6S_s.wav
64,192,35640,1,0,0:0:0:70:Snare.wav
448,192,35640,128,0,35822:0:0:0:100:F6S_s.wav
64,192,35822,1,0,0:0:0:70:Snare.wav
192,192,35822,1,0,0:0:0:100:D#6S_Eb6S_s.wav
320,192,35913,1,0,0:0:0:70:Snare.wav
64,192,36004,128,0,37458:0:0:0:70:Bassdrum.wav
192,192,36004,1,0,0:0:0:70:Whistle 2.wav
448,192,36004,1,0,0:0:0:70:Crash.wav
320,192,36367,1,0,0:0:0:50:hihat03.wav
192,192,36731,1,0,0:0:0:50:Snare.wav
448,192,36731,1,0,0:0:0:50:hihat03.wav
448,192,37095,1,0,0:0:0:50:hihat03.wav
320,192,37276,1,0,0:0:0:50:Snare.wav
192,192,37458,128,0,38913:0:0:0:50:Bassdrum.wav
448,192,37458,1,0,0:0:0:50:hihat03.wav
320,192,37822,1,0,0:0:0:50:Bassdrum.wav
64,192,38004,1,0,0:0:0:30:SCG_G3s.wav
320,192,38185,1,0,0:0:0:50:Snare.wav
448,192,38185,1,0,0:0:0:50:hihat03.wav
64,192,38549,1,0,0:0:0:50:hihat03.wav
320,192,38731,1,0,0:0:0:50:Snare.wav
64,192,38913,128,0,40367:0:0:0:50:Bassdrum.wav
448,192,38913,1,0,0:0:0:70:Crash.wav
320,192,39276,1,0,0:0:0:50:hihat03.wav
192,192,39640,1,0,0:0:0:50:Snare.wav
448,192,39640,1,0,0:0:0:50:hihat03.wav
320,192,40004,1,0,0:0:0:50:hihat03.wav
192,192,40185,1,0,0:0:0:50:Snare.wav
448,192,40185,1,0,0:0:0:0:
320,192,40367,1,0,0:0:0:50:Bassdrum.wav
448,192,40367,1,0,0:0:0:50:hihat03.wav
64,192,40549,1,0,0:0:0:50:Snare.wav
192,192,40549,1,0,0:0:0:0:
320,192,40731,1,0,0:0:0:50:Bassdrum.wav
448,192,40731,1,0,0:0:0:50:hihat03.wav
64,192,41095,1,0,0:0:0:50:Bassdrum.wav
192,192,41095,1,0,0:0:0:0:
320,192,41216,1,0,0:0:0:70:Bassdrum.wav
448,192,41216,1,0,0:0:0:0:
64,192,41337,1,0,0:0:0:70:Bassdrum.wav
192,192,41337,1,0,0:0:0:0:
320,192,41458,1,0,0:0:0:70:Bassdrum.wav
448,192,41458,1,0,0:0:0:0:
64,192,41579,1,0,0:0:0:70:Bassdrum.wav
192,192,41579,1,0,0:0:0:0:
320,192,41701,1,0,0:0:0:70:Bassdrum.wav
448,192,41701,1,0,0:0:0:0:
64,192,41822,1,0,0:0:0:70:Bassdrum.wav
192,192,41822,1,0,0:0:0:70:cymbol.wav
448,192,41822,1,0,0:0:0:0:
320,192,42004,128,0,42185:0:0:0:70:hihat.wav
64,192,42185,1,0,0:0:0:70:Snare.wav
448,192,42185,1,0,0:0:0:100:D#6S_Eb6S_s.wav
192,192,42367,128,0,42549:0:0:0:70:hihat.wav
320,192,42549,1,0,0:0:0:70:Bassdrum.wav
448,192,42549,1,0,0:0:0:100:D#6S_Eb6S_s.wav
64,192,42731,128,0,42913:0:0:0:70:hihat.wav
320,192,42913,1,0,0:0:0:70:Snare.wav
448,192,42913,1,0,0:0:0:100:D#6S_Eb6S_s.wav
192,192,43095,128,0,43276:0:0:0:70:hihat.wav
64,192,43276,1,0,0:0:0:70:Bassdrum.wav
448,192,43276,1,0,0:0:0:100:D#6S_Eb6S_s.wav
320,192,43458,128,0,43640:0:0:0:70:hihat.wav
64,192,43640,1,0,0:0:0:70:Snare.wav
192,192,43640,1,0,0:0:0:100:D#6S_Eb6S_s.wav
448,192,43822,128,0,44004:0:0:0:70:hihat.wav
192,192,44004,128,0,44185:0:0:0:70:Bassdrum.wav
320,192,44004,1,0,0:0:0:100:D#6S_Eb6S_s.wav
320,192,44185,128,0,44367:0:0:0:70:hihat.wav
192,192,44367,1,0,0:0:0:70:Snare.wav
448,192,44367,1,0,0:0:0:0:
64,192,44549,128,0,44913:0:0:0:70:hihat.wav
192,192,44731,1,0,0:0:0:70:Bassdrum.wav
320,192,44731,1,0,0:0:0:0:
448,192,44731,1,0,0:0:0:0:
192,192,44913,128,0,45095:0:0:0:70:hihat.wav
64,192,45095,1,0,0:0:0:70:Snare.wav
448,192,45095,1,0,0:0:0:100:D#6S_Eb6S_s.wav
320,192,45276,128,0,45458:0:0:0:70:hihat.wav
64,192,45458,1,0,0:0:0:70:Bassdrum.wav
192,192,45458,1,0,0:0:0:100:D#6S_Eb6S_s.wav
448,192,45640,128,0,45822:0:0:0:70:hihat.wav
64,192,45822,1,0,0:0:0:70:Snare.wav
192,192,45822,1,0,0:0:0:100:D#6S_Eb6S_s.wav
320,192,46004,128,0,46185:0:0:0:70:hihat.wav
64,192,46185,1,0,0:0:0:70:Bassdrum.wav
448,192,46185,1,0,0:0:0:100:D#6S_Eb6S_s.wav
192,192,46367,128,0,46549:0:0:0:70:hihat.wav
320,192,46549,1,0,0:0:0:70:Snare.wav
448,192,46549,1,0,0:0:0:100:D#6S_Eb6S_s.wav
64,192,46731,128,0,46913:0:0:0:70:hihat.wav
192,192,46913,128,0,47095:0:0:0:70:Bassdrum.wav
448,192,46913,1,0,0:0:0:100:D#6S_Eb6S_s.wav
320,192,47095,128,0,47276:0:0:0:70:hihat.wav
64,192,47276,1,0,0:0:0:70:Snare.wav
192,192,47276,1,0,0:0:0:0:
448,192,47458,128,0,47822:0:0:0:70:hihat.wav
64,192,47640,1,0,0:0:0:70:Bassdrum.wav
192,192,47640,1,0,0:0:0:70:Crash.wav
320,192,47640,1,0,0:0:0:0:
320,192,47822,128,0,48004:0:0:0:70:hihat.wav
64,192,48004,1,0,0:0:0:70:Snare.wav
448,192,48004,1,0,0:0:0:100:D#6S_Eb6S_s.wav
192,192,48185,128,0,48367:0:0:0:70:hihat.wav
64,192,48367,1,0,0:0:0:70:Bassdrum.wav
448,192,48367,1,0,0:0:0:100:D#6S_Eb6S_s.wav
320,192,48549,128,0,48731:0:0:0:70:hihat.wav
64,192,48731,1,0,0:0:0:70:Snare.wav
192,192,48731,1,0,0:0:0:100:D#6S_Eb6S_s.wav
448,192,48913,128,0,49095:0:0:0:70:hihat.wav
64,192,49095,1,0,0:0:0:70:Bassdrum.wav
320,192,49095,1,0,0:0:0:100:D#6S_Eb6S_s.wav
192,192,49276,128,0,49458:0:0:0:70:hihat.wav
320,192,49458,1,0,0:0:0:70:Snare.wav
448,192,49458,128,0,49640:0:0:0:100:D#6S_Eb6S_s.wav
64,192,49640,128,0,49822:0:0:0:70:hihat.wav
192,192,49822,1,0,0:0:0:70:Bassdrum.wav
320,192,49822,128,0,50004:0:0:0:100:D#6S_Eb6S_s.wav
448,192,50004,128,0,50185:0:0:0:70:hihat.wav
64,192,50185,1,0,0:0:0:70:Snare.wav
192,192,50185,128,0,50367:0:0:0:0:
320,192,50367,128,0,50549:0:0:0:70:hihat.wav
192,192,50549,128,0,51276:0:0:0:70:Bassdrum.wav
448,192,50549,1,0,0:0:0:0:
320,192,50731,1,0,0:0:0:70:hihat.wav
64,192,50913,1,0,0:0:0:70:Snare.wav
448,192,50913,1,0,0:0:0:0:
320,192,51095,1,0,0:0:0:70:hihat.wav
64,192,51276,1,0,0:0:0:70:Bassdrum.wav
448,192,51276,128,0,52004:0:0:0:100:F6S_s.wav
192,192,51458,1,0,0:0:0:70:hihat.wav
64,192,51640,1,0,0:0:0:70:Snare.wav
320,192,51640,1,0,0:0:0:0:
192,192,51822,1,0,0:0:0:70:hihat.wav
64,192,52004,128,0,52731:0:0:0:70:Bassdrum.wav
320,192,52004,1,0,0:0:0:100:G#6S_Ab6S_s.wav
192,192,52185,1,0,0:0:0:70:hihat.wav
320,192,52367,1,0,0:0:0:70:Snare.wav
448,192,52367,1,0,0:0:0:100:G6S_s.wav
192,192,52549,1,0,0:0:0:70:hihat.wav
320,192,52731,1,0,0:0:0:70:Bassdrum.wav
448,192,52731,128,0,53276:0:0:0:100:D#6S_Eb6S_s.wav
192,192,52913,1,0,0:0:0:70:hihat.wav
64,192,53095,1,0,0:0:0:70:Snare.wav
320,192,53095,1,0,0:0:0:100:F6S.wav
64,192,53276,1,0,0:0:0:70:Snare.wav
192,192,53276,1,0,0:0:0:0:
320,192,53367,1,0,0:0:0:70:Snare.wav
64,192,53458,1,0,0:0:0:70:Bassdrum.wav
448,192,53458,1,0,0:0:0:0:
192,192,53458,1,0,0:0:0:0:
64,192,53640,1,0,0:0:0:70:Bassdrum.wav
320,192,53640,1,0,0:0:0:0:
448,192,53640,1,0,0:0:0:0:
64,192,54004,1,0,0:0:0:70:Crash.wav
192,192,54004,1,0,0:0:0:70:Bassdrum.wav
448,192,54004,1,0,0:0:0:0:
64,192,54367,1,0,0:0:0:50:FX_WindChimes.wav
192,192,54413,1,0,0:0:0:70:C7S_s.wav
320,192,54458,1,0,0:0:0:70:B6S_s.wav
448,192,54504,1,0,0:0:0:70:A6S_s.wav
64,192,54549,1,0,0:0:0:70:G6S_s.wav
192,192,54595,1,0,0:0:0:70:F6S_s.wav
448,192,54640,1,0,0:0:0:70:E6S_s.wav
320,192,54685,1,0,0:0:0:70:D6S_s.wav
192,192,54731,1,0,0:0:0:70:C6S_s.wav
64,192,54776,1,0,0:0:0:70:B5S_s.wav
448,192,54822,1,0,0:0:0:70:A5S_s.wav
320,192,54867,1,0,0:0:0:70:G5S_s.wav
64,192,54913,1,2,0:0:0:70:Bassdrum.wav
192,192,54913,1,0,0:0:0:100:Whistle 2.wav
448,192,54913,1,0,0:0:0:70:LR_NBell_D6.wav
64,192,55095,1,0,0:0:0:100:F6S_s.wav
320,192,55095,1,0,0:0:0:0:
448,192,55276,1,8,0:0:0:70:Snare.wav
320,192,55276,1,0,0:0:0:100:F6S_s.wav
192,192,55458,1,0,0:0:0:0:
64,192,55458,1,0,0:0:0:0:
64,192,55640,1,2,0:0:0:70:Bassdrum.wav
320,192,55640,1,0,0:0:0:100:F6S_s.wav
448,192,55640,1,0,0:0:0:0:
192,192,55822,1,0,0:0:0:100:D#6S_Eb6S_s.wav
448,192,55822,1,0,0:0:0:0:
64,192,56004,1,8,0:0:0:70:Snare.wav
320,192,56004,1,0,0:0:0:100:D6S_s.wav
192,192,56185,1,0,0:0:0:100:D#6S_Eb6S_s.wav
320,192,56185,1,0,0:0:0:0:
64,192,56367,1,2,0:0:0:70:Bassdrum.wav
320,192,56367,1,0,0:0:0:70:LR_NBell_C6.wav
448,192,56367,1,0,0:0:0:100:F6S_s.wav
192,192,56549,1,0,0:0:0:100:F6S_s.wav
448,192,56549,1,0,0:0:0:0:
64,192,56731,1,8,0:0:0:70:Snare.wav
192,192,56731,1,0,0:0:0:0:
448,192,56913,1,0,0:0:0:100:F6S_s.wav
320,192,56913,1,0,0:0:0:0:
64,192,57095,1,2,0:0:0:70:Bassdrum.wav
192,192,57095,1,0,0:0:0:70:LR_NBell_D6.wav
320,192,57095,1,0,0:0:0:0:
192,192,57276,128,0,57458:0:0:0:100:A#6S_Bb6S_s.wav
448,192,57276,1,0,0:0:0:0:
64,192,57458,1,8,0:0:0:70:Snare.wav
320,192,57458,128,0,57640:0:0:0:100:A6S_s.wav
192,192,57640,128,0,57822:0:0:0:100:A#6S_Bb6S_s.wav
448,192,57640,1,0,0:0:0:0:
64,192,57822,1,2,0:0:0:70:Bassdrum.wav
320,192,57822,1,0,0:0:0:70:Crash.wav
448,192,57822,1,0,0:0:0:70:LR_NBell_A#5.wav
192,192,58004,1,0,0:0:0:100:F6S_s.wav
448,192,58004,1,0,0:0:0:0:
64,192,58185,1,8,0:0:0:70:Snare.wav
192,192,58185,1,0,0:0:0:100:F6S_s.wav
192,192,58367,1,0,0:0:0:100:F6S_s.wav
320,192,58367,1,0,0:0:0:0:
64,192,58549,1,2,0:0:0:70:Bassdrum.wav
448,192,58549,1,0,0:0:0:100:F6S_s.wav
192,192,58549,1,0,0:0:0:0:
64,192,58731,1,0,0:0:0:100:D#6S_Eb6S_s.wav
320,192,58731,1,0,0:0:0:0:
192,192,58913,1,8,0:0:0:70:Snare.wav
448,192,58913,1,0,0:0:0:100:D6S_s.wav
192,192,59095,1,0,0:0:0:100:D#6S_Eb6S_s.wav
320,192,59095,1,0,0:0:0:0:
64,192,59276,1,2,0:0:0:70:Bassdrum.wav
192,192,59276,1,0,0:0:0:70:LR_NBell_C6.wav
448,192,59276,1,0,0:0:0:100:F6S_s.wav
320,192,59458,1,0,0:0:0:100:F6S_s.wav
64,192,59458,1,0,0:0:0:0:
320,192,59640,1,8,0:0:0:70:Snare.wav
448,192,59640,1,0,0:0:0:0:
64,192,59822,1,0,0:0:0:100:F6S_s.wav
192,192,59822,1,0,0:0:0:0:
192,192,60004,1,2,0:0:0:70:Bassdrum.wav
320,192,60004,1,0,0:0:0:70:LR_NBell_D6.wav
448,192,60004,1,0,0:0:0:0:
64,192,60185,1,0,0:0:0:100:D7S_s.wav
320,192,60185,128,0,60367:0:0:0:0:
192,192,60367,128,8,60549:0:0:0:70:Snare.wav
448,192,60367,1,0,0:0:0:100:C7S_s.wav
64,192,60549,1,0,0:0:0:100:A#6S_Bb6S_s.wav
320,192,60549,128,0,60731:0:0:0:0:
64,192,60731,1,2,0:0:0:70:Bassdrum.wav
192,192,60731,1,0,0:0:0:70:Crash.wav
448,192,60731,1,0,0:0:0:70:LR_NBell_A#5.wav
64,192,60913,1,0,0:0:0:100:G6S_s.wav
320,192,60913,1,0,0:0:0:0:
192,192,61095,1,8,0:0:0:70:Snare.wav
320,192,61095,1,0,0:0:0:100:G6S_s.wav
448,192,61276,1,0,0:0:0:0:
192,192,61276,1,0,0:0:0:0:
64,192,61458,1,2,0:0:0:70:Bassdrum.wav
320,192,61458,1,0,0:0:0:100:G6S_s.wav
448,192,61458,1,0,0:0:0:0:
192,192,61640,1,0,0:0:0:100:G6S_s.wav
320,192,61640,1,0,0:0:0:0:
64,192,61822,1,8,0:0:0:70:Snare.wav
448,192,61822,1,0,0:0:0:100:A6S_s.wav
192,192,62004,1,0,0:0:0:100:A#6S_Bb6S_s.wav
320,192,62004,1,0,0:0:0:0:
64,192,62185,1,2,0:0:0:70:Bassdrum.wav
192,192,62185,1,0,0:0:0:70:Crash.wav
448,192,62185,1,0,0:0:0:70:LR_NBell_F5.wav
64,192,62367,1,0,0:0:0:100:F6S_s.wav
320,192,62367,1,0,0:0:0:0:
192,192,62549,1,8,0:0:0:70:Snare.wav
320,192,62549,1,0,0:0:0:100:F6S_s.wav
448,192,62731,1,0,0:0:0:100:F6S_s.wav
320,192,62731,1,0,0:0:0:0:
64,192,62913,128,2,63095:0:0:0:70:Bassdrum.wav
192,192,62913,1,0,0:0:0:70:LR_NBell_D5.wav
448,192,62913,1,0,0:0:0:100:D6S_s.wav
320,192,63095,1,0,0:0:0:0:
64,192,63276,1,8,0:0:0:70:Snare.wav
448,192,63276,128,0,63458:0:0:0:100:F6S_s.wav
192,192,63458,1,0,0:0:0:0:
64,192,63640,1,2,0:0:0:70:Bassdrum.wav
320,192,63640,128,0,64004:0:0:0:70:Crash.wav
448,192,63640,1,0,0:0:0:70:LR_NBell_D#5.wav
64,192,64004,128,8,64367:0:0:0:70:Snare.wav
192,192,64004,1,0,0:0:0:70:LR_NBell_D5.wav
448,192,64004,1,0,0:0:0:100:D6S_s.wav
192,192,64367,1,2,0:0:0:70:Bassdrum.wav
320,192,64367,128,0,64731:0:0:0:70:cymbol.wav
448,192,64367,1,0,0:0:0:70:LR_NBell_D#5.wav
64,192,64731,1,8,0:0:0:70:Snare.wav
192,192,64731,1,0,0:0:0:70:LR_NBell_F5.wav
448,192,64731,128,0,65095:0:0:0:100:F6S_s.wav
64,192,65095,1,8,0:0:0:70:Snare.wav
192,192,65095,1,0,0:0:0:70:cymbol.wav
320,192,65276,1,2,0:0:0:70:Bassdrum.wav
448,192,65276,1,0,0:0:0:40:LR_NBell_F4.wav
64,192,65458,1,8,0:0:0:70:Snare.wav
192,192,65458,1,0,0:0:0:50:LR_NBell_G4.wav
448,192,65640,1,2,0:0:0:70:Bassdrum.wav
320,192,65640,1,0,0:0:0:60:LR_NBell_A4.wav
448,192,65822,1,2,0:0:0:70:Bassdrum.wav
64,192,65822,128,0,66004:0:0:0:50:FX_WindChimes.wav
192,192,66004,128,2,66185:0:0:0:70:Bassdrum.wav
320,192,66004,1,0,0:0:0:0:
64,192,66185,1,8,0:0:0:70:Snare.wav
448,192,66185,128,0,66367:0:0:0:70:LR_NBell_D5.wav
320,192,66367,128,8,66549:0:0:0:70:Snare.wav
192,192,66367,1,0,0:0:0:70:LR_NBell_D#5.wav
64,192,66549,1,2,0:0:0:70:Bassdrum.wav
192,192,66549,1,0,0:0:0:70:cymbol.wav
448,192,66549,1,0,0:0:0:100:Whistle 2.wav
320,192,66731,1,0,0:0:0:100:F6S_s.wav
448,192,66731,1,0,0:0:0:0:
320,192,66913,1,8,0:0:0:70:Snare.wav
64,192,66913,1,0,0:0:0:100:F6S_s.wav
192,192,67095,1,0,0:0:0:100:F6S_s.wav
320,192,67095,1,0,0:0:0:0:
64,192,67276,1,2,0:0:0:70:Bassdrum.wav
320,192,67276,1,0,0:0:0:100:F6S_s.wav
448,192,67276,1,0,0:0:0:0:
192,192,67458,1,0,0:0:0:100:D#6S_Eb6S_s.wav
448,192,67458,1,0,0:0:0:0:
64,192,67640,1,8,0:0:0:70:Snare.wav
320,192,67640,1,0,0:0:0:100:D6S_s.wav
192,192,67822,1,0,0:0:0:100:D#6S_Eb6S_s.wav
320,192,67822,1,0,0:0:0:0:
64,192,68004,1,2,0:0:0:70:Bassdrum.wav
192,192,68004,1,0,0:0:0:70:LR_NBell_C6.wav
448,192,68004,1,0,0:0:0:100:F6S_s.wav
320,192,68185,1,0,0:0:0:0:
64,192,68185,1,0,0:0:0:0:
192,192,68367,1,8,0:0:0:70:Snare.wav
448,192,68367,1,0,0:0:0:100:F6S_s.wav
320,192,68549,1,0,0:0:0:100:F6S_s.wav
448,192,68549,1,0,0:0:0:0:
192,192,68731,1,2,0:0:0:70:Bassdrum.wav
320,192,68731,1,0,0:0:0:70:LR_NBell_D6.wav
64,192,68731,1,0,0:0:0:0:
192,192,68913,128,0,69095:0:0:0:100:A#6S_Bb6S_s.wav
448,192,68913,1,0,0:0:0:0:
64,192,69095,1,8,0:0:0:70:Snare.wav
320,192,69095,128,0,69276:0:0:0:100:A6S_s.wav
192,192,69276,128,0,69458:0:0:0:100:A#6S_Bb6S_s.wav
448,192,69276,1,0,0:0:0:0:
64,192,69458,1,2,0:0:0:70:Bassdrum.wav
320,192,69458,1,0,0:0:0:70:Crash.wav
448,192,69458,1,0,0:0:0:70:LR_NBell_A#5.wav
192,192,69640,1,0,0:0:0:100:F6S_s.wav
64,192,69640,1,0,0:0:0:0:
192,192,69822,1,8,0:0:0:70:Snare.wav
448,192,69822,1,0,0:0:0:100:F6S_s.wav
320,192,70004,1,0,0:0:0:100:F6S_s.wav
192,192,70004,1,0,0:0:0:0:
64,192,70185,1,2,0:0:0:70:Bassdrum.wav
192,192,70185,1,0,0:0:0:100:F6S_s.wav
448,192,70185,1,0,0:0:0:0:
64,192,70367,1,0,0:0:0:100:D#6S_Eb6S_s.wav
320,192,70367,1,0,0:0:0:0:
192,192,70549,1,8,0:0:0:70:Snare.wav
448,192,70549,1,0,0:0:0:100:D6S_s.wav
192,192,70731,1,0,0:0:0:100:D#6S_Eb6S_s.wav
320,192,70731,1,0,0:0:0:0:
64,192,70913,1,2,0:0:0:70:Bassdrum.wav
320,192,70913,1,0,0:0:0:70:LR_NBell_C6.wav
448,192,70913,1,0,0:0:0:100:F6S_s.wav
192,192,71095,1,0,0:0:0:0:
448,192,71095,1,0,0:0:0:0:
64,192,71276,1,8,0:0:0:70:Snare.wav
320,192,71276,1,0,0:0:0:100:F6S_s.wav
64,192,71458,1,0,0:0:0:100:F6S_s.wav
192,192,71458,1,0,0:0:0:0:
192,192,71640,1,2,0:0:0:70:Bassdrum.wav
320,192,71640,1,0,0:0:0:70:LR_NBell_D6.wav
448,192,71640,1,0,0:0:0:0:
64,192,71822,1,0,0:0:0:100:D7S_s.wav
320,192,71822,128,0,72004:0:0:0:0:
192,192,72004,128,8,72185:0:0:0:70:Snare.wav
448,192,72004,1,0,0:0:0:100:C7S_s.wav
64,192,72185,1,0,0:0:0:100:A#6S_Bb6S_s.wav
320,192,72185,128,0,72367:0:0:0:0:
64,192,72367,1,2,0:0:0:70:Bassdrum.wav
192,192,72367,1,0,0:0:0:70:Crash.wav
448,192,72367,1,0,0:0:0:70:LR_NBell_A#5.wav
192,192,72549,1,0,0:0:0:100:G6S_s.wav
320,192,72549,1,0,0:0:0:0:
64,192,72731,1,8,0:0:0:70:Snare.wav
448,192,72731,1,0,0:0:0:0:
192,192,72913,1,0,0:0:0:100:G6S_s.wav
320,192,72913,1,0,0:0:0:0:
64,192,73095,1,2,0:0:0:70:Bassdrum.wav
192,192,73095,1,0,0:0:0:100:G6S_s.wav
448,192,73095,1,0,0:0:0:0:
192,192,73276,1,0,0:0:0:100:G6S_s.wav
448,192,73276,1,0,0:0:0:0:
64,192,73458,1,8,0:0:0:70:Snare.wav
320,192,73458,1,0,0:0:0:100:A6S_s.wav
192,192,73640,1,0,0:0:0:100:A#6S_Bb6S_s.wav
448,192,73640,1,0,0:0:0:0:
64,192,73822,1,2,0:0:0:70:Bassdrum.wav
320,192,73822,1,0,0:0:0:70:cymbol.wav
448,192,73822,1,0,0:0:0:70:LR_NBell_F5.wav
192,192,74004,1,0,0:0:0:100:F6S_s.wav
320,192,74004,1,0,0:0:0:0:
64,192,74185,1,8,0:0:0:70:Snare.wav
448,192,74185,1,0,0:0:0:0:
192,192,74367,1,0,0:0:0:100:F6S_s.wav
320,192,74367,1,0,0:0:0:0:
64,192,74549,128,2,74731:0:0:0:70:Bassdrum.wav
192,192,74549,1,0,0:0:0:70:LR_NBell_D5.wav
448,192,74549,1,0,0:0:0:100:D6S_s.wav
320,192,74731,1,0,0:0:0:0:
64,192,74913,1,8,0:0:0:70:Snare.wav
448,192,74913,128,0,75095:0:0:0:100:F6S_s.wav
192,192,75095,1,0,0:0:0:0:
64,192,75276,128,2,76004:0:0:0:70:Bassdrum.wav
320,192,75276,1,0,0:0:0:70:Crash.wav
448,192,75276,1,0,0:0:0:70:LR_NBell_D#5.wav
192,192,75458,1,0,0:0:0:0:
320,192,75640,1,8,0:0:0:70:Snare.wav
448,192,75640,1,0,0:0:0:0:
192,192,75822,1,0,0:0:0:0:
320,192,76004,1,2,0:0:0:70:Bassdrum.wav
448,192,76004,128,0,76367:0:0:0:70:LR_NBell_F5.wav
192,192,76185,1,0,0:0:0:0:
64,192,76367,1,8,0:0:0:70:Snare.wav
320,192,76367,1,0,0:0:0:0:
192,192,76549,128,0,76731:0:0:0:100:F6S_s.wav
64,192,76731,1,2,0:0:0:70:Bassdrum.wav
320,192,76731,1,0,0:0:0:70:LR_NBell_A#5.wav
448,192,76731,128,0,77095:0:0:0:100:A#6S_Bb6S_s.wav
64,192,77095,1,8,0:0:0:70:Snare.wav
192,192,77095,128,0,77458:0:0:0:70:LR_NBell_A5.wav
320,192,77095,1,0,0:0:0:100:A6S_s.wav
64,192,77458,1,2,0:0:0:70:Bassdrum.wav
320,192,77458,1,0,0:0:0:70:LR_NBell_G5.wav
448,192,77458,128,0,77822:0:0:0:100:G6S_s.wav
64,192,77822,1,8,0:0:0:70:Snare.wav
192,192,77822,128,0,78004:0:0:0:70:LR_NBell_A5.wav
320,192,77822,1,0,0:0:0:100:A6S_s.wav
320,192,78004,128,0,78185:0:0:0:100:A6S_s.wav
64,192,78185,128,2,78731:0:0:0:70:Bassdrum.wav
192,192,78185,1,0,0:0:0:70:cymbol.wav
448,192,78185,1,0,0:0:0:100:A6S_s.wav
320,192,78367,1,0,0:0:0:0:
192,192,78549,1,8,0:0:0:70:Snare.wav
448,192,78549,1,0,0:0:0:0:
320,192,78731,128,0,78913:0:0:0:100:A#6S_Bb6S_s.wav
64,192,78913,1,2,0:0:0:70:Bassdrum.wav
192,192,78913,1,0,0:0:0:70:LR_NBell_A#5.wav
448,192,78913,128,0,79276:0:0:0:100:A#6S_Bb6S_s.wav
320,192,79095,1,0,0:0:0:0:
64,192,79276,1,8,0:0:0:70:Snare.wav
192,192,79276,1,0,0:0:0:0:
320,192,79458,128,0,79640:0:0:0:100:F6S_s.wav
64,192,79640,128,2,80004:0:0:0:70:Bassdrum.wav
192,192,79640,1,0,0:0:0:70:LR_NBell_A#5.wav
448,192,79640,1,0,0:0:0:100:A#6S_Bb6S_s.wav
320,192,79822,1,0,0:0:0:0:
192,192,80004,1,8,0:0:0:70:Snare.wav
448,192,80004,128,0,80367:0:0:0:100:A6S_s.wav
320,192,80185,1,0,0:0:0:0:
64,192,80367,128,2,80731:0:0:0:70:Bassdrum.wav
192,192,80367,1,0,0:0:0:70:LR_NBell_G5.wav
320,192,80549,1,0,0:0:0:0:
192,192,80731,128,8,80913:0:0:0:70:Snare.wav
448,192,80731,1,0,0:0:0:100:A6S_s.wav
320,192,80913,128,0,81095:0:0:0:100:A6S_s.wav
64,192,81095,1,2,0:0:0:70:Bassdrum.wav
448,192,81095,128,0,81640:0:0:0:70:cymbol.wav
192,192,81276,1,0,0:0:0:0:
64,192,81458,1,8,0:0:0:70:Snare.wav
320,192,81458,1,0,0:0:0:0:
192,192,81640,128,0,81822:0:0:0:100:A#6S_Bb6S_s.wav
64,192,81822,128,2,82004:0:0:0:70:Bassdrum.wav
320,192,81822,1,0,0:0:0:70:LR_NBell_A#5.wav
448,192,82004,1,0,0:0:0:0:
64,192,82185,1,8,0:0:0:70:Snare.wav
320,192,82185,128,0,82367:0:0:0:100:C7S_s.wav
192,192,82367,128,0,82549:0:0:0:70:A6S_s.wav
64,192,82549,1,2,0:0:0:70:Bassdrum.wav
320,192,82549,1,0,0:0:0:70:LR_NBell_D6.wav
448,192,82549,128,0,83640:0:0:0:70:A#6S_Bb6S.wav
192,192,82731,1,0,0:0:0:0:
64,192,82913,1,8,0:0:0:70:Snare.wav
320,192,82913,1,0,0:0:0:0:
64,192,83095,1,0,0:0:0:0:
192,192,83276,1,2,0:0:0:70:Bassdrum.wav
320,192,83276,1,0,0:0:0:70:LR_NBell_A#5.wav
320,192,83458,1,0,0:0:0:0:
192,192,83640,1,0,0:0:0:0:
64,192,83640,1,8,0:0:0:70:Snare.wav
192,192,83822,1,0,0:0:0:0:
64,192,84004,1,2,0:0:0:70:Bassdrum.wav
320,192,84004,128,0,84367:0:0:0:70:Crash.wav
448,192,84004,1,0,0:0:0:70:LR_NBell_D#5.wav
192,192,84185,1,0,0:0:0:0:
64,192,84367,1,8,0:0:0:70:Snare.wav
448,192,84367,1,0,0:0:0:0:
320,192,84549,128,0,84731:0:0:0:100:A#6S_Bb6S_s.wav
64,192,84731,1,2,0:0:0:70:Bassdrum.wav
192,192,84731,1,0,0:0:0:70:LR_NBell_F5.wav
448,192,84731,128,0,85095:0:0:0:100:A#6S_Bb6S_s.wav
192,192,84913,1,0,0:0:0:0:
64,192,85095,1,8,0:0:0:70:Snare.wav
320,192,85095,1,0,0:0:0:0:
192,192,85276,128,0,85458:0:0:0:100:F6S_s.wav
64,192,85458,1,2,0:0:0:70:Bassdrum.wav
320,192,85458,1,0,0:0:0:70:LR_NBell_A#5.wav
448,192,85458,128,0,85822:0:0:0:100:A#6S_Bb6S_s.wav
192,192,85640,1,0,0:0:0:0:
64,192,85822,128,8,86185:0:0:0:70:Snare.wav
320,192,85822,1,0,0:0:0:70:LR_NBell_A5.wav
192,192,86004,1,0,0:0:0:0:
320,192,86185,128,2,86549:0:0:0:70:Bassdrum.wav
448,192,86185,1,0,0:0:0:70:LR_NBell_G5.wav
192,192,86367,1,0,0:0:0:0:
448,192,86549,128,0,86913:0:0:0:70:Crash.wav
64,192,86549,1,8,0:0:0:70:Snare.wav
192,192,86731,1,8,0:0:0:70:Snare.wav
64,192,86913,128,0,88185:0:0:0:50:Bassdrum.wav
320,192,86913,128,0,87458:0:0:0:70:LR_NBell_A5.wav
448,192,87458,128,0,87549:0:0:0:100:A#6S_Bb6S_s.wav
448,192,87640,128,0,88185:0:0:0:70:LR_NBell_A#5.wav
192,192,88004,1,0,0:0:0:50:Bassdrum.wav
320,192,88004,1,0,0:0:0:0:
64,192,88276,1,0,0:0:0:50:Bassdrum.wav
192,192,88276,1,0,0:0:0:40:FX_WindChimes.wav
320,192,88276,1,0,0:0:0:0:
448,192,88276,1,0,0:0:0:0:
