osu file format v14

[General]
AudioFilename: audio.mp3
AudioLeadIn: 0
PreviewTime: 54731
Countdown: 0
SampleSet: Soft
StackLeniency: 0.2
Mode: 0
LetterboxInBreaks: 0
WidescreenStoryboard: 0

[Editor]
DistanceSpacing: 1.1
BeatDivisor: 4
GridSize: 4
TimelineZoom: 3.899998

[Metadata]
Title:Hitorigoto -TV MIX-
TitleUnicode:ヒトリゴト -TV MIX-
Artist:ClariS
ArtistUnicode:ClariS
Creator:Tofu1222
Version:Kamiya's Hard
Source:エロマンガ先生
Tags:eromanga sensei ero manga eromanga-sensei opening tv size eromangasensei Suzuki_1112 1112deng kanor Level9 Ryuusei Aika RsAk Moeri Moecho [Kamiya] victorica_db [Emiria]
BeatmapID:1291030
BeatmapSetID:602861

[Difficulty]
HPDrainRate:5
CircleSize:4
OverallDifficulty:6.5
ApproachRate:7.5
SliderMultiplier:1.4
SliderTickRate:1

[Events]
//Background and Video events
0,0,"BG_Kamiya.jpg",0,0
Video,0,"eromanga.avi"
//Break Periods
//Storyboard Layer 0 (Background)
//Storyboard Layer 1 (Fail)
//Storyboard Layer 2 (Pass)
//Storyboard Layer 3 (Foreground)
//Storyboard Sound Samples

[TimingPoints]
1095,363.636363636364,4,2,33,75,1,0
1095,-100,4,2,33,75,0,0
11276,-100,4,2,33,80,0,0
12004,-100,4,2,33,75,0,0
12731,-100,4,2,33,70,0,1
23822,-100,4,2,33,50,0,1
24276,-125,4,2,33,50,0,0
24367,-100,4,2,33,65,0,0
36004,-125,4,2,33,55,0,0
41095,-125,4,2,33,60,0,0
41458,-125,4,2,33,65,0,0
41822,-125,4,2,33,70,0,0
42185,-100,4,2,33,70,0,0
53458,-100,4,2,33,80,0,0
54913,-90.9090909090909,4,2,50,100,0,1
55095,-90.9090909090909,4,2,33,80,0,1
56367,-90.9090909090909,4,2,51,85,0,1
56549,-90.9090909090909,4,2,33,80,0,1
57095,-90.9090909090909,4,2,50,85,0,1
57276,-90.9090909090909,4,2,33,80,0,1
57822,-90.9090909090909,4,2,52,85,0,1
58004,-90.9090909090909,4,2,33,80,0,1
59276,-90.9090909090909,4,2,51,85,0,1
59458,-90.9090909090909,4,2,33,80,0,1
60004,-90.9090909090909,4,2,50,85,0,1
60185,-90.9090909090909,4,2,33,80,0,1
60731,-90.9090909090909,4,2,52,85,0,1
60913,-90.9090909090909,4,2,33,80,0,1
62185,-90.9090909090909,4,2,53,85,0,1
62367,-90.9090909090909,4,2,33,80,0,1
62913,-90.9090909090909,4,2,54,85,0,1
63095,-90.9090909090909,4,2,33,80,0,1
63640,-100,4,2,55,85,0,0
64004,-100,4,2,54,85,0,0
64367,-100,4,2,55,85,0,0
64731,-100,4,2,53,85,0,0
64913,-100,4,2,33,80,0,0
65276,-100,4,2,56,85,0,0
65458,-100,4,2,33,80,0,0
65640,-100,4,2,57,85,0,0
65822,-100,4,2,33,80,0,0
66004,-100,4,2,58,85,0,0
66185,-100,4,2,33,80,0,0
66367,-100,4,2,55,85,0,0
66549,-90.9090909090909,4,2,50,100,0,1
66731,-90.9090909090909,4,2,33,80,0,1
68004,-90.9090909090909,4,2,51,85,0,1
68185,-90.9090909090909,4,2,33,80,0,1
68731,-90.9090909090909,4,2,50,85,0,1
68913,-90.9090909090909,4,2,33,80,0,1
69458,-90.9090909090909,4,2,52,85,0,1
69640,-90.9090909090909,4,2,33,80,0,1
70913,-90.9090909090909,4,2,51,85,0,1
71095,-90.9090909090909,4,2,33,80,0,1
71640,-90.9090909090909,4,2,50,85,0,1
71822,-90.9090909090909,4,2,33,80,0,1
72367,-90.9090909090909,4,2,52,85,0,1
72549,-90.9090909090909,4,2,33,80,0,1
73822,-90.9090909090909,4,2,53,85,0,1
74004,-90.9090909090909,4,2,33,80,0,1
74549,-90.9090909090909,4,2,54,85,0,1
74731,-90.9090909090909,4,2,33,80,0,1
75276,-90.9090909090909,4,2,55,85,0,1
75458,-90.9090909090909,4,2,33,80,0,1
76004,-90.9090909090909,4,2,53,85,0,1
76185,-90.9090909090909,4,2,33,80,0,1
76731,-90.9090909090909,4,2,52,100,0,1
76913,-90.9090909090909,4,2,33,80,0,1
77458,-90.9090909090909,4,2,60,85,0,1
77640,-90.9090909090909,4,2,33,80,0,1
78185,-90.9090909090909,4,2,59,100,0,1
78367,-90.9090909090909,4,2,33,80,0,1
78913,-90.9090909090909,4,2,52,85,0,1
79095,-90.9090909090909,4,2,33,80,0,1
79640,-90.9090909090909,4,2,52,85,0,1
79822,-90.9090909090909,4,2,33,80,0,1
80367,-90.9090909090909,4,2,60,85,0,1
80549,-90.9090909090909,4,2,33,80,0,1
81095,-90.9090909090909,4,2,59,85,0,1
81276,-90.9090909090909,4,2,33,80,0,1
81822,-90.9090909090909,4,2,52,85,0,1
82004,-90.9090909090909,4,2,33,80,0,1
82549,-90.9090909090909,4,2,50,85,0,1
82731,-90.9090909090909,4,2,33,80,0,1
83276,-90.9090909090909,4,2,52,85,0,1
83458,-90.9090909090909,4,2,33,80,0,1
84004,-90.9090909090909,4,2,59,85,0,1
84185,-90.9090909090909,4,2,33,80,0,1
84731,-90.9090909090909,4,2,52,85,0,1
84913,-90.9090909090909,4,2,33,80,0,1
85458,-90.9090909090909,4,2,52,85,0,1
85640,-90.9090909090909,4,2,33,80,0,1
86185,-90.9090909090909,4,2,60,85,0,1
86367,-90.9090909090909,4,2,33,80,0,1
86913,-125,4,2,59,85,0,0
88276,-125,4,2,60,60,0,0

[Colours]
Combo1 : 215,215,183
Combo2 : 0,128,128
Combo3 : 192,192,192
Combo4 : 255,128,192

[HitObjects]
340,344,1095,6,0,L|316:276,1,70,8|8,3:2|3:2,0:0:0:0:
292,204,1458,2,0,P|360:184|424:204,2,140,0|0|0,0:0|0:0|0:0,0:0:0:0:
156,276,2549,6,0,L|180:196,1,70,8|8,3:2|3:2,0:0:0:0:
192,132,2913,2,0,P|125:109|60:132,2,140,0|0|0,0:0|0:0|0:0,0:0:0:0:
336,188,4004,6,0,L|316:112,1,70,8|8,3:2|3:2,0:0:0:0:
296,48,4367,2,0,P|368:28|432:48,2,140,0|0|0,0:0|0:0|0:0,0:0:0:0:
132,192,5458,5,4,3:2:0:0:
180,132,5640,2,0,P|208:188|172:256,1,140,0|0,0:0|0:0,0:0:0:0:
108,288,6185,2,0,P|60:276|16:288,2,93.3333333333333,12|0|0,3:2|0:0|0:0,0:0:0:0:
248,344,6913,6,0,L|264:276,1,70,8|8,3:2|3:2,0:0:0:0:
276,200,7276,2,0,P|336:248|328:316,2,140,0|0|0,0:0|0:0|0:0,0:0:0:0:
132,256,8367,6,0,L|116:188,1,70,8|8,3:2|3:2,0:0:0:0:
104,112,8731,2,0,P|44:160|52:228,2,140
260,68,9822,6,0,L|332:68,1,70,8|8,3:2|3:2,0:0:0:0:
408,64,10185,2,0,P|432:127|405:190,2,140
256,192,11276,5,4,3:2:0:0:
192,152,11458,2,0,P|256:116|320:152,1,140
356,200,12004,2,0,L|360:276,1,70,12|0,3:2|0:0,0:0:0:0:
436,272,12367,2,0,L|436:316,3,35,2|2|8|8,3:2|3:2|3:2|3:2,0:0:0:0:
424,344,12731,6,0,P|356:368|288:340,1,140,6|10,0:0|0:0,0:0:0:0:
240,292,13276,1,0,3:0:0:0:
252,216,13458,2,0,L|264:136,1,70,2|0,0:0|3:0,0:0:0:0:
272,72,13822,1,10,0:0:0:0:
204,32,14004,2,0,P|172:20|132:28,1,70,0|2,3:0|0:0,0:0:0:0:
60,32,14367,2,0,P|84:84|112:96,1,70,0|10,3:0|0:0,0:0:0:0:
168,104,14731,2,0,P|176:144|168:172,2,70,0|2|0,3:0|0:0|3:0,0:0:0:0:
100,192,15276,2,0,P|132:232|220:220,1,140,10|6,0:0|0:0,0:0:0:0:
348,208,16004,5,10,0:0:0:0:
348,208,16367,2,0,P|372:188|384:144,1,70,2|0,0:0|3:0,0:0:0:0:
380,76,16731,1,10,0:0:0:0:
324,20,16913,2,0,P|304:52|304:92,1,70,0|2,3:0|0:0,0:0:0:0:
228,108,17276,2,0,P|256:148|288:160,1,70,0|10,3:0|0:0,0:0:0:0:
384,152,17640,2,0,P|448:136|512:184,1,140,0|0,3:0|3:0,0:0:0:0:
508,252,18185,1,10,0:0:0:0:
436,280,18367,2,0,L|436:200,1,70,2|6,3:2|0:0,0:0:0:0:
436,56,18913,5,10,0:0:0:0:
436,56,19276,2,0,L|368:72,1,70,2|0,0:0|3:0,0:0:0:0:
292,88,19640,1,10,0:0:0:0:
224,56,19822,2,0,P|216:96|228:132,1,70,0|2,3:0|0:0,0:0:0:0:
164,172,20185,2,0,P|192:196|240:200,1,70,0|10,3:0|0:0,0:0:0:0:
288,164,20549,2,0,P|332:152|364:160,2,70,0|2|0,3:0|0:0|3:0,0:0:0:0:
388,220,21095,2,0,P|428:152|384:92,1,140,10|6,0:0|0:0,0:0:0:0:
276,176,21822,5,10,0:0:0:0:
276,176,22185,2,0,L|276:248,1,70,2|0,0:0|3:0,0:0:0:0:
272,324,22549,1,10,0:0:0:0:
208,280,22731,2,0,L|168:204,1,70,0|6,3:0|0:0,0:0:0:0:
100,244,23095,2,0,L|104:164,1,70,0|14,3:0|0:0,0:0:0:0:
104,96,23458,1,0,3:0:0:0:
252,52,23822,2,0,L|284:80,5,35,2|2|14|10|10|10,3:2|3:2|0:0|0:0|0:0|0:0,0:0:0:0:
304,96,24367,1,4,3:2:0:0:
444,32,24731,6,0,P|468:96|444:172,1,140,8|0,3:2|3:0,0:0:0:0:
328,256,25458,1,8,3:2:0:0:
180,220,25822,2,0,P|216:160|292:164,1,140,0|8,3:0|3:2,0:0:0:0:
208,296,26549,2,0,P|132:284|100:220,1,140,0|8,3:0|3:2,0:0:0:0:
72,84,27276,5,0,3:0:0:0:
140,44,27458,1,2,0:0:0:0:
216,56,27640,2,0,L|280:104,1,70,8|2,3:2|0:0,0:0:0:0:
272,176,28004,2,0,P|312:188|348:176,1,70,0|2,3:0|0:0,0:0:0:0:
384,120,28367,2,0,P|424:112|460:124,1,70,8|2,3:2|0:0,0:0:0:0:
496,184,28731,1,0,3:0:0:0:
420,196,28913,2,0,L|420:56,1,140,2|2,3:2|0:0,0:0:0:0:
196,84,29640,1,2,0:0:0:0:
260,140,29822,1,8,3:2:0:0:
276,56,30004,1,10,0:0:0:0:
176,172,30185,5,4,3:2:0:0:
176,172,30549,2,0,P|232:228|304:220,1,140,8|0,3:2|3:0,0:0:0:0:
380,117,31276,1,8,3:2:0:0:
380,117,31640,2,0,P|308:101|252:157,1,140,0|8,3:0|3:2,0:0:0:0:
404,188,32367,2,0,P|452:140|440:68,1,140,0|8,3:0|3:2,0:0:0:0:
308,16,33095,5,0,3:0:0:0:
272,84,33276,1,2,0:0:0:0:
208,40,33458,2,0,L|132:28,1,70,8|2,3:2|0:0,0:0:0:0:
60,24,33822,2,0,P|68:64|92:92,1,70,0|2,3:0|0:0,0:0:0:0:
148,132,34185,2,0,P|176:152|188:192,1,70,8|2,3:2|0:0,0:0:0:0:
160,256,34549,1,0,3:0:0:0:
108,200,34731,2,0,L|240:116,1,140,2|2,3:2|0:0,0:0:0:0:
384,284,35458,1,2,0:0:0:0:
340,212,35640,1,8,3:2:0:0:
424,212,35822,1,10,0:0:0:0:
300,284,36004,6,0,P|244:308|192:288,1,112,4|0,3:2|0:0,0:0:0:0:
128,180,36731,2,0,P|177:156|230:171,1,112,8|0,0:0|0:0,0:0:0:0:
300,284,37458,1,0,3:0:0:0:
176,336,37822,2,0,L|116:360,2,56,0|0|8,3:0|0:0|0:0,0:0:0:0:
300,284,38549,1,0,3:0:0:0:
396,192,38913,6,0,P|416:136|392:88,1,112,4|0,3:2|0:0,0:0:0:0:
272,40,39640,2,0,P|250:90|271:141,1,112,8|0,0:0|0:0,0:0:0:0:
388,204,40367,2,0,L|388:268,1,56,0|0,3:0|0:0,0:0:0:0:
468,280,40731,2,0,L|468:216,1,56,0|0,3:0|0:0,0:0:0:0:
444,132,41095,6,0,B|392:104|336:132|336:132|288:156|232:116,1,224,8|4,0:0|3:2,0:0:0:0:
76,96,42185,6,0,L|104:180,1,70,8|0,0:0|0:0,0:0:0:0:
128,232,42549,1,0,3:0:0:0:
260,152,42913,2,0,P|252:112|228:88,1,70,8|0,0:0|0:0,0:0:0:0:
168,52,43276,1,0,3:0:0:0:
224,224,43640,2,0,P|272:232|296:224,1,70,8|0,0:0|0:0,0:0:0:0:
336,160,44004,1,0,3:0:0:0:
224,148,44185,2,0,P|156:196|164:268,1,140,0|8,3:0|0:0,0:0:0:0:
404,332,45095,6,0,L|444:256,1,70,8|0,0:0|0:0,0:0:0:0:
476,204,45458,1,0,3:0:0:0:
332,152,45822,2,0,P|308:180|304:216,1,70,8|0,0:0|0:0,0:0:0:0:
308,288,46185,1,0,3:0:0:0:
408,144,46549,2,0,P|396:108|368:84,1,70,8|0,0:0|0:0,0:0:0:0:
296,96,46913,1,0,3:0:0:0:
352,196,47095,2,0,P|432:216|480:168,1,140,0|12,3:0|0:0,0:0:0:0:
288,44,48004,6,0,L|260:112,1,70,10|0,0:0|0:0,0:0:0:0:
228,176,48367,1,0,3:0:0:0:
156,312,48731,2,0,P|192:332|224:332,1,70,10|0,0:0|0:0,0:0:0:0:
296,312,49095,1,0,3:0:0:0:
128,244,49458,2,0,P|96:268|84:300,1,70,10|0,0:0|0:0,0:0:0:0:
108,368,49822,1,0,3:0:0:0:
208,248,50004,2,0,P|196:200|176:180,1,70,0|10,0:0|0:0,0:0:0:0:
128,244,50367,1,0,3:0:0:0:
113,155,50549,2,0,P|166:112|232:128,2,140,0|10|0,3:0|0:0|3:0,0:0:0:0:
348,228,51640,5,10,0:0:0:0:
424,236,51822,1,0,0:0:0:0:
464,168,52004,2,0,L|436:92,1,70,0|0,3:0|0:0,0:0:0:0:
380,52,52367,2,0,P|312:44|252:92,2,140,10|0|10,3:2|3:0|3:2,0:0:0:0:
439,102,53276,1,2,0:0:0:0:
452,140,53367,1,10,0:0:0:0:
464,176,53458,5,0,3:0:0:0:
412,236,53640,1,0,3:0:0:0:
288,316,54004,2,0,B|332:248|284:188|284:188|232:120|296:56,1,280,4|2,3:2|0:0,0:0:0:0:
420,168,54913,5,6,1:2:0:0:
344,128,55095,1,2,0:0:0:0:
276,180,55276,2,0,P|232:192|192:180,1,77.0000023498536,8|2,3:2|0:0,0:0:0:0:
136,132,55640,2,0,P|96:124|56:136,1,77.0000023498536,0|2,3:0|0:0,0:0:0:0:
76,216,56004,1,8,3:2:0:0:
136,276,56185,1,2,0:0:0:0:
220,256,56367,6,0,P|232:216|220:176,1,77.0000023498536,2|2,1:2|0:0,0:0:0:0:
184,108,56731,2,0,P|172:60|184:32,1,77.0000023498536,8|2,3:2|0:0,0:0:0:0:
268,44,57095,1,2,1:2:0:0:
388,120,57276,2,0,P|344:108|308:120,2,77.0000023498536,2|8|10,0:0|3:2|3:2,0:0:0:0:
448,180,57822,5,6,1:2:0:0:
392,244,58004,1,2,0:0:0:0:
312,212,58185,2,0,P|268:200|232:212,1,77.0000023498536,8|2,3:2|0:0,0:0:0:0:
168,256,58549,2,0,P|124:268|84:256,1,77.0000023498536,0|2,3:0|0:0,0:0:0:0:
68,180,58913,1,8,3:2:0:0:
140,136,59095,1,2,0:0:0:0:
220,168,59276,6,0,P|232:212|220:248,1,77.0000023498536,2|2,1:2|0:0,0:0:0:0:
168,304,59640,2,0,P|156:340|168:384,1,77.0000023498536,8|2,3:2|0:0,0:0:0:0:
244,344,60004,1,2,1:2:0:0:
392,304,60185,2,0,P|356:291|320:304,2,77.0000023498536,2|8|10,0:0|3:2|3:2,0:0:0:0:
464,348,60731,5,6,1:2:0:0:
496,272,60913,1,2,0:0:0:0:
424,228,61095,2,0,P|412:184|424:148,1,77.0000023498536,8|2,3:2|0:0,0:0:0:0:
468,84,61458,2,0,L|384:76,1,77.0000023498536,0|2,3:0|0:0,0:0:0:0:
332,136,61822,2,0,L|228:128,1,77.0000023498536,8|2,3:2|0:0,3:2:0:0:
184,176,62185,5,6,1:2:0:0:
104,152,62367,2,0,P|84:96|100:64,1,77.0000023498536,2|8,0:0|3:2,0:0:0:0:
144,16,62731,1,2,0:0:0:0:
216,56,62913,2,0,P|244:132|216:200,1,154.000004699707,2|8,1:2|3:2,0:0:0:0:
340,292,63640,2,0,P|400:268|480:292,2,140,6|10|6,1:2|1:2|1:2,0:0:0:0:
204,364,64731,1,10,1:2:0:0:
72,284,65095,6,0,L|60:208,1,70,8|2,3:2|1:2,0:0:0:0:
128,164,65458,2,0,L|116:84,1,70,8|2,3:2|1:2,0:0:0:0:
172,32,65822,5,8,3:2:0:0:
216,104,66004,1,2,1:2:0:0:
284,156,66185,2,0,P|316:164|353:152,1,70,8|2,3:2|1:2,0:0:0:0:
420,104,66549,5,6,1:2:0:0:
376,32,66731,1,2,0:0:0:0:
315,86,66913,2,0,P|303:130|311:162,1,77.0000023498536,8|2,3:2|0:0,0:0:0:0:
376,212,67276,2,0,P|388:256|376:288,1,77.0000023498536,0|2,3:0|0:0,0:0:0:0:
300,312,67640,1,8,3:2:0:0:
232,260,67822,1,2,0:0:0:0:
196,184,68004,6,0,P|236:172|272:184,1,77.0000023498536,2|2,1:2|0:0,0:0:0:0:
328,244,68367,2,0,P|376:252|404:244,1,77.0000023498536,8|2,3:2|0:0,0:0:0:0:
436,168,68731,1,2,1:2:0:0:
364,68,68913,2,0,P|377:104|365:140,2,77.0000023498536,2|8|10,0:0|3:2|3:2,0:0:0:0:
276,16,69458,5,6,1:2:0:0:
220,80,69640,1,2,0:0:0:0:
152,28,69822,2,0,P|112:20|72:28,1,77.0000023498536,8|2,3:2|0:0,0:0:0:0:
24,92,70185,2,0,L|64:164,1,77.0000023498536,0|2,3:0|0:0,0:0:0:0:
148,152,70549,1,8,3:2:0:0:
136,236,70731,1,2,0:0:0:0:
216,212,70913,6,0,P|256:200|296:212,1,77.0000023498536,2|2,1:2|0:0,0:0:0:0:
352,264,71276,2,0,P|392:276|432:264,1,77.0000023498536,8|2,3:2|0:0,0:0:0:0:
460,188,71640,1,2,1:2:0:0:
382,66,71822,2,0,P|376:103|388:140,2,77.0000023498536,2|8|10,0:0|3:2|3:2,0:0:0:0:
460,100,72367,5,6,1:2:0:0:
460,188,72549,1,2,0:0:0:0:
387,139,72731,2,0,P|343:127|303:143,1,77.0000023498536,8|2,3:2|0:0,0:0:0:0:
232,164,73095,2,0,P|184:172|156:164,1,77.0000023498536,0|2,3:0|0:0,0:0:0:0:
88,116,73458,2,0,L|80:204,1,77.0000023498536,8|10,3:2|0:0,0:0:0:0:
16,248,73822,5,6,1:2:0:0:
88,296,74004,2,0,P|116:312|172:308,1,77.0000023498536,2|8,0:0|3:2,0:0:0:0:
232,268,74367,1,2,0:0:0:0:
144,232,74549,2,0,P|89:272|89:364,1,154.000004699707,2|8,1:2|3:2,0:0:0:0:
232,268,75276,6,0,P|229:193|171:147,1,154.000004699707,6|8,1:2|3:2,0:0:0:0:
336,180,76004,2,0,P|338:105|396:59,1,154.000004699707,6|8,1:2|3:2,0:0:0:0:
480,72,76549,1,2,3:2:0:0:
468,156,76731,6,0,L|444:316,2,154.000004699707,2|8|2,1:2|3:2|1:2,0:0:0:0:
312,36,77822,5,8,3:2:0:0:
344,116,78004,1,10,3:2:0:0:
376,192,78185,2,0,P|300:220|236:192,1,154.000004699707,6|8,1:2|3:2,0:0:0:0:
176,132,78731,1,2,0:0:0:0:
204,52,78913,2,0,P|136:60|96:148,1,154.000004699707,2|8,1:2|3:2,0:0:0:0:
88,212,79458,1,2,0:0:0:0:
152,268,79640,6,0,L|276:368,2,154.000004699707,2|8|2,1:2|3:2|1:2,0:0:0:0:
180,100,80731,5,8,3:2:0:0:
216,176,80913,1,10,3:2:0:0:
264,248,81095,2,0,P|348:272|408:244,1,154.000004699707,6|8,1:2|3:2,0:0:0:0:
464,184,81640,1,2,0:0:0:0:
496,104,81822,2,0,P|440:100|380:168,2,154.000004699707,2|8|2,1:2|3:2|1:2,0:0:0:0:
405,245,82913,1,8,3:2:0:0:
252,168,83276,2,0,L|104:88,1,154.000004699707,2|8,1:2|3:2,0:0:0:0:
188,248,84004,6,0,P|260:276|324:244,1,154.000004699707,6|8,1:2|3:2,0:0:0:0:
364,168,84549,1,2,0:0:0:0:
304,108,84731,2,0,P|376:80|444:136,1,154.000004699707,2|8,1:2|3:2,0:0:0:0:
476,192,85276,1,10,3:2:0:0:
416,252,85458,2,0,L|304:368,2,154.000004699707,2|8|2,1:2|3:2|1:2,0:0:0:0:
364,92,86549,5,8,3:2:0:0:
344,176,86731,1,2,3:2:0:0:
408,224,86913,2,0,B|372:272|304:252|304:252|356:300|340:356|340:356|380:312|440:332|440:332|396:288|412:248,1,420,6|4,1:2|3:2,0:0:0:0:
