osu file format v14

[General]
AudioFilename: audio.mp3
AudioLeadIn: 0
PreviewTime: 54731
Countdown: 0
SampleSet: Soft
StackLeniency: 0.7
Mode: 0
LetterboxInBreaks: 0
WidescreenStoryboard: 0

[Editor]
DistanceSpacing: 2
BeatDivisor: 4
GridSize: 4
TimelineZoom: 3.899998

[Metadata]
Title:Hitorigoto -TV MIX-
TitleUnicode:ヒトリゴト -TV MIX-
Artist:ClariS
ArtistUnicode:ClariS
Creator:Tofu1222
Version:kanor's Insane
Source:エロマンガ先生
Tags:eromanga sensei ero manga eromanga-sensei opening tv size eromangasensei Suzuki_1112 1112deng kanor Level9 Ryuusei Aika RsAk Moeri Moecho [Kamiya] victorica_db [Emiria]
BeatmapID:1405927
BeatmapSetID:602861

[Difficulty]
HPDrainRate:6
CircleSize:4
OverallDifficulty:8
ApproachRate:9.2
SliderMultiplier:1.62
SliderTickRate:1

[Events]
//Background and Video events
0,0,"BG_kanor.jpg",0,0
Video,0,"eromanga.avi"
//Break Periods
//Storyboard Layer 0 (Background)
//Storyboard Layer 1 (Fail)
//Storyboard Layer 2 (Pass)
//Storyboard Layer 3 (Foreground)
//Storyboard Sound Samples

[TimingPoints]
1095,363.636363636364,4,2,33,75,1,0
1095,-111.111111111111,4,2,33,75,0,0
5458,-100,4,2,33,80,0,0
6185,-100,4,2,33,75,0,0
11276,-100,4,2,33,80,0,0
12004,-100,4,2,33,75,0,0
12731,-100,4,2,33,70,0,0
23822,-100,4,2,33,50,0,0
24367,-100,4,2,33,65,0,0
36004,-125,4,2,33,55,0,0
41095,-125,4,2,33,60,0,0
41458,-125,4,2,33,65,0,0
41822,-111.111111111111,4,2,33,70,0,0
53458,-111.111111111111,4,2,33,80,0,0
54913,-111.111111111111,4,2,50,100,0,0
55095,-83.3333333333333,4,2,33,80,0,1
56367,-83.3333333333333,4,2,51,85,0,1
56549,-83.3333333333333,4,2,33,80,0,1
56640,-83.3333333333333,4,2,33,20,0,1
56731,-83.3333333333333,4,2,33,80,0,1
56822,-83.3333333333333,4,2,33,20,0,1
56913,-83.3333333333333,4,2,33,80,0,1
57004,-83.3333333333333,4,2,33,20,0,1
57095,-83.3333333333333,4,2,50,85,0,1
57276,-83.3333333333333,4,2,33,80,0,1
57367,-83.3333333333333,4,2,33,20,0,1
57458,-83.3333333333333,4,2,33,80,0,1
57549,-83.3333333333333,4,2,33,20,0,1
57640,-83.3333333333333,4,2,33,80,0,1
57731,-83.3333333333333,4,2,33,20,0,1
57822,-83.3333333333333,4,2,52,85,0,1
58004,-83.3333333333333,4,2,33,80,0,1
59276,-83.3333333333333,4,2,51,85,0,1
59458,-83.3333333333333,4,2,33,80,0,1
59549,-83.3333333333333,4,2,33,20,0,1
59640,-83.3333333333333,4,2,33,80,0,1
59731,-83.3333333333333,4,2,33,20,0,1
59822,-83.3333333333333,4,2,33,80,0,1
59913,-83.3333333333333,4,2,33,20,0,1
60004,-83.3333333333333,4,2,50,85,0,1
60185,-83.3333333333333,4,2,33,80,0,1
60276,-83.3333333333333,4,2,33,20,0,1
60367,-83.3333333333333,4,2,33,80,0,1
60458,-83.3333333333333,4,2,33,20,0,1
60549,-83.3333333333333,4,2,33,80,0,1
60640,-83.3333333333333,4,2,33,20,0,1
60731,-83.3333333333333,4,2,52,85,0,1
60913,-83.3333333333333,4,2,33,80,0,1
62185,-83.3333333333333,4,2,53,85,0,1
62367,-83.3333333333333,4,2,33,80,0,1
62913,-83.3333333333333,4,2,54,85,0,1
63095,-83.3333333333333,4,2,33,80,0,1
63640,-83.3333333333333,4,2,55,85,0,1
63822,-83.3333333333333,4,2,33,80,0,1
64004,-83.3333333333333,4,2,54,85,0,1
64185,-83.3333333333333,4,2,33,80,0,1
64367,-83.3333333333333,4,2,55,85,0,1
64549,-83.3333333333333,4,2,33,80,0,1
64731,-83.3333333333333,4,2,53,85,0,1
64913,-83.3333333333333,4,2,33,80,0,1
65276,-83.3333333333333,4,2,56,85,0,1
65458,-83.3333333333333,4,2,33,80,0,1
65640,-83.3333333333333,4,2,57,85,0,1
65822,-83.3333333333333,4,2,33,80,0,1
66004,-83.3333333333333,4,2,58,85,0,1
66185,-83.3333333333333,4,2,33,80,0,1
66367,-83.3333333333333,4,2,55,85,0,1
66549,-83.3333333333333,4,2,50,100,0,1
66731,-83.3333333333333,4,2,33,80,0,1
68004,-83.3333333333333,4,2,51,85,0,1
68185,-83.3333333333333,4,2,33,80,0,1
68276,-83.3333333333333,4,2,33,20,0,1
68367,-83.3333333333333,4,2,33,80,0,1
68458,-83.3333333333333,4,2,33,20,0,1
68549,-83.3333333333333,4,2,33,80,0,1
68640,-83.3333333333333,4,2,33,20,0,1
68731,-83.3333333333333,4,2,50,85,0,1
68913,-83.3333333333333,4,2,33,80,0,1
69004,-83.3333333333333,4,2,33,20,0,1
69095,-83.3333333333333,4,2,33,80,0,1
69185,-83.3333333333333,4,2,33,20,0,1
69276,-83.3333333333333,4,2,33,80,0,1
69367,-83.3333333333333,4,2,33,20,0,1
69458,-83.3333333333333,4,2,52,85,0,1
69640,-83.3333333333333,4,2,33,80,0,1
70913,-83.3333333333333,4,2,51,85,0,1
71095,-83.3333333333333,4,2,33,80,0,1
71185,-83.3333333333333,4,2,33,20,0,1
71276,-83.3333333333333,4,2,33,80,0,1
71367,-83.3333333333333,4,2,33,20,0,1
71458,-83.3333333333333,4,2,33,80,0,1
71549,-83.3333333333333,4,2,33,20,0,1
71640,-83.3333333333333,4,2,50,85,0,1
71822,-83.3333333333333,4,2,33,80,0,1
71913,-83.3333333333333,4,2,33,20,0,1
72004,-83.3333333333333,4,2,33,80,0,1
72095,-83.3333333333333,4,2,33,20,0,1
72185,-83.3333333333333,4,2,33,80,0,1
72276,-83.3333333333333,4,2,33,20,0,1
72367,-83.3333333333333,4,2,52,85,0,1
72549,-83.3333333333333,4,2,33,80,0,1
73822,-83.3333333333333,4,2,53,85,0,1
74004,-83.3333333333333,4,2,33,80,0,1
74276,-83.3333333333333,4,2,33,40,0,1
74367,-83.3333333333333,4,2,33,80,0,1
74549,-83.3333333333333,4,2,54,85,0,1
74731,-83.3333333333333,4,2,33,80,0,1
75276,-83.3333333333333,4,2,55,85,0,1
75458,-83.3333333333333,4,2,33,80,0,1
76004,-83.3333333333333,4,2,53,85,0,1
76185,-83.3333333333333,4,2,33,80,0,1
76731,-83.3333333333333,4,2,52,100,0,1
76913,-83.3333333333333,4,2,33,80,0,1
77458,-83.3333333333333,4,2,60,85,0,1
77640,-83.3333333333333,4,2,33,80,0,1
78185,-83.3333333333333,4,2,59,100,0,0
78367,-83.3333333333333,4,2,33,80,0,0
78913,-83.3333333333333,4,2,52,85,0,0
79095,-83.3333333333333,4,2,33,80,0,0
79640,-83.3333333333333,4,2,52,85,0,0
79822,-83.3333333333333,4,2,33,80,0,0
80367,-83.3333333333333,4,2,60,85,0,0
80549,-83.3333333333333,4,2,33,80,0,0
81095,-83.3333333333333,4,2,59,85,0,0
81276,-83.3333333333333,4,2,33,80,0,0
81822,-83.3333333333333,4,2,52,85,0,0
82004,-83.3333333333333,4,2,33,80,0,0
82549,-83.3333333333333,4,2,50,85,0,0
82731,-83.3333333333333,4,2,33,80,0,0
83276,-83.3333333333333,4,2,52,85,0,0
83458,-83.3333333333333,4,2,33,80,0,0
84004,-83.3333333333333,4,2,59,85,0,0
84185,-83.3333333333333,4,2,33,80,0,0
84731,-83.3333333333333,4,2,52,85,0,0
84913,-83.3333333333333,4,2,33,80,0,0
85458,-83.3333333333333,4,2,52,85,0,0
85640,-83.3333333333333,4,2,33,80,0,0
86185,-83.3333333333333,4,2,60,85,0,0
86276,-83.3333333333333,4,2,60,62,0,0
86367,-83.3333333333333,4,2,33,60,0,0
86458,-83.3333333333333,4,2,33,60,0,0
86549,-83.3333333333333,4,2,33,65,0,0
86640,-83.3333333333333,4,2,33,56,0,0
86731,-83.3333333333333,4,2,33,65,0,0
86822,-83.3333333333333,4,2,33,56,0,0
86913,-83.3333333333333,4,2,59,85,0,0
88276,-83.3333333333333,4,2,60,60,0,0

[Colours]
Combo1 : 215,215,183
Combo2 : 0,128,128
Combo3 : 192,192,192
Combo4 : 255,128,192

[HitObjects]
44,240,1095,5,8,3:2:0:0:
208,216,1276,1,8,3:2:0:0:
52,216,1458,1,2,0:0:0:0:
60,192,1822,5,0,0:0:0:0:
176,292,2004,1,2,0:0:0:0:
236,136,2185,1,0,0:0:0:0:
248,340,2367,1,0,0:0:0:0:
440,236,2549,5,8,3:2:0:0:
276,260,2730,1,8,3:2:0:0:
432,260,2912,1,2,0:0:0:0:
424,284,3276,5,0,0:0:0:0:
308,184,3458,1,2,0:0:0:0:
344,312,3639,1,0,0:0:0:0:
340,104,3821,1,0,0:0:0:0:
276,260,4004,5,8,3:2:0:0:
448,216,4185,1,8,3:2:0:0:
470,146,4367,6,0,L|446:221,1,72.8999977752686,2|0,0:0|0:0,0:0:0:0:
368,20,4731,2,0,L|444:3,1,72.8999977752686,0|2,0:0|0:0,0:0:0:0:
312,164,5095,2,0,L|259:105,1,72.8999977752686,0|0,0:0|0:0,0:0:0:0:
470,146,5458,5,4,3:2:0:0:
312,164,5640,1,0,0:0:0:0:
312,164,5822,1,0,0:0:0:0:
368,20,6004,1,0,0:0:0:0:
388,156,6185,6,0,P|380:200|364:216,1,54,12|0,3:2|0:0,0:0:0:0:
272,100,6428,2,0,P|299:91|348:96,1,54,8|0,0:0|0:0,0:0:0:0:
284,232,6670,2,0,P|248:204|240:164,1,54,8|0,0:0|0:0,0:0:0:0:
248,328,6913,5,8,3:2:0:0:
164,184,7095,1,8,3:2:0:0:
216,344,7276,1,2,0:0:0:0:
188,360,7640,5,0,0:0:0:0:
68,208,7822,1,2,0:0:0:0:
268,244,8004,1,0,0:0:0:0:
88,288,8185,1,0,0:0:0:0:
264,164,8367,5,8,3:2:0:0:
40,128,8549,1,8,3:2:0:0:
216,156,8730,1,2,0:0:0:0:
168,148,9094,5,0,0:0:0:0:
164,340,9276,1,2,0:0:0:0:
104,224,9458,1,0,0:0:0:0:
252,316,9639,1,0,0:0:0:0:
48,296,9822,5,8,3:2:0:0:
336,288,10004,1,8,3:2:0:0:
328,207,10185,6,0,L|336:292,1,81,2|0,0:0|0:0,0:0:0:0:
320,128,10549,2,0,L|328:212,1,81,0|2,0:0|0:0,0:0:0:0:
312,47,10913,2,0,L|320:131,1,81
228,44,11276,5,4,3:2:0:0:
388,24,11458,1,0,0:0:0:0:
248,196,11640,2,0,L|240:104,1,81,2|0,0:0|0:0,0:0:0:0:
228,268,12004,6,0,P|196:252|176:208,1,54,12|0,3:2|0:0,0:0:0:0:
304,248,12246,2,0,P|306:283|284:320,1,54,8|0,3:2|0:0,0:0:0:0:
248,196,12488,2,0,P|277:176|308:168,1,54,8|0,3:2|0:0,0:0:0:0:
200,320,12731,5,6,0:0:0:0:
176,300,12913,1,0,3:0:0:0:
56,208,13095,5,10,0:0:0:0:
80,228,13277,1,0,3:0:0:0:
180,204,13458,5,2,0:0:0:0:
80,320,13640,1,0,3:0:0:0:
156,124,13822,1,10,0:0:0:0:
208,280,14004,6,0,P|256:292|304:272,1,81,0|2,3:0|0:0,0:0:0:0:
492,216,14367,2,0,P|452:223|414:211,1,81,0|10,3:0|0:0,0:0:0:0:
228,184,14731,2,0,P|276:196|324:176,1,81,0|2,3:0|0:0,0:0:0:0:
512,120,15094,2,0,P|472:127|434:115,1,81,0|10,3:0|0:0,0:0:0:0:
256,88,15458,1,2,3:2:0:0:
256,88,15549,1,10,0:0:0:0:
256,88,15640,5,6,0:0:0:0:
272,120,15822,1,0,3:0:0:0:
480,52,16004,5,10,0:0:0:0:
464,24,16186,1,0,3:0:0:0:
236,60,16367,5,2,0:0:0:0:
372,152,16549,1,0,3:0:0:0:
376,12,16731,1,10,0:0:0:0:
364,232,16913,6,0,P|424:224|464:236,1,81,0|2,3:0|0:0,0:0:0:0:
220,284,17276,2,0,P|280:292|320:280,1,81,0|10,3:0|0:0,0:0:0:0:
176,192,17640,2,0,P|236:184|276:196,1,81,2|2,3:2|0:0,0:0:0:0:
32,244,18003,2,0,P|92:252|132:240,1,81,0|10,3:0|0:0,0:0:0:0:
8,172,18367,1,0,3:2:0:0:
56,328,18549,5,6,0:0:0:0:
104,340,18731,1,0,3:0:0:0:
268,272,18913,5,10,0:0:0:0:
220,284,19095,1,0,3:0:0:0:
376,328,19276,5,2,0:0:0:0:
332,164,19458,1,0,3:0:0:0:
300,344,19640,1,10,0:0:0:0:
476,236,19822,6,0,L|452:328,1,81,0|2,3:0|0:0,0:0:0:0:
332,164,20185,2,0,L|340:258,1,81,0|10,3:0|0:0,0:0:0:0:
176,132,20549,2,0,L|216:217,1,81,0|2,3:0|0:0,0:0:0:0:
16,156,20913,2,0,L|83:222,1,81,0|10,3:0|0:0,0:0:0:0:
88,40,21276,1,2,3:2:0:0:
88,40,21367,1,10,0:0:0:0:
88,40,21458,5,6,0:0:0:0:
100,124,21640,1,0,3:0:0:0:
200,292,21822,5,10,0:0:0:0:
212,208,22004,1,0,3:0:0:0:
56,296,22185,5,2,0:0:0:0:
280,260,22367,1,0,3:0:0:0:
108,356,22549,1,10,0:0:0:0:
348,300,22731,6,0,P|356:252|324:192,1,81,0|6,3:0|0:0,0:0:0:0:
131,253,23095,2,0,P|168:283|236:286,1,81,0|14,3:0|0:0,0:0:0:0:
268,96,23458,2,0,P|222:113|186:170,1,81,2|6,3:2|0:0,0:0:0:0:
348,300,23822,2,0,L|372:360,1,40.5,2|2,3:2|3:2,0:0:0:0:
360,220,24004,1,14,0:0:0:0:
372,200,24095,1,10,0:0:0:0:
380,184,24185,1,10,0:0:0:0:
392,164,24276,1,10,0:0:0:0:
404,148,24367,6,0,P|443:138|482:147,1,81,4|2,3:2|0:0,0:0:0:0:
256,88,24731,2,0,L|352:88,1,81,8|2,3:2|0:0,0:0:0:0:
244,168,25095,1,0,3:0:0:0:
244,168,25276,1,2,0:0:0:0:
232,16,25458,2,0,L|328:16,1,81,8|2,3:2|0:0,0:0:0:0:
284,236,25822,6,0,P|245:246|206:237,1,81,0|2,3:0|0:0,0:0:0:0:
356,272,26185,2,0,P|366:311|357:350,1,81,8|2,3:2|0:0,0:0:0:0:
396,208,26549,2,0,P|435:198|474:207,1,81,0|2,3:0|0:0,0:0:0:0:
324,168,26913,2,0,P|314:129|323:90,1,81,8|2,3:2|0:0,0:0:0:0:
388,128,27276,5,0,3:0:0:0:
244,168,27458,1,2,0:0:0:0:
208,100,27640,1,8,3:2:0:0:
172,32,27822,1,2,0:0:0:0:
136,236,28004,5,0,3:0:0:0:
208,100,28185,1,2,0:0:0:0:
244,304,28367,1,8,3:2:0:0:
172,168,28549,1,2,0:0:0:0:
100,304,28731,5,0,3:0:0:0:
28,164,28913,2,0,L|64:248,1,81,2|8,3:2|0:0,0:0:0:0:
288,248,29276,2,0,P|248:232|200:252,1,81,2|0,0:0|3:0,0:0:0:0:
248,308,29640,1,2,0:0:0:0:
328,184,29822,1,8,3:2:0:0:
356,352,30004,1,10,0:0:0:0:
356,352,30095,1,8,0:0:0:0:
356,352,30185,6,0,L|460:356,1,81,4|2,3:2|0:0,0:0:0:0:
256,232,30549,2,0,P|240:271|260:320,1,81,8|2,3:2|0:0,0:0:0:0:
328,184,30913,1,0,3:0:0:0:
328,184,31095,1,2,0:0:0:0:
176,320,31276,2,0,P|193:359|241:379,1,81,8|2,3:2|0:0,0:0:0:0:
104,272,31640,6,0,L|23:268,1,81,0|2,3:0|0:0,0:0:0:0:
96,196,32004,2,0,L|15:192,1,81,8|2,3:2|0:0,0:0:0:0:
184,160,32367,2,0,L|264:156,1,81,0|2,3:0|0:0,0:0:0:0:
176,84,32731,2,0,L|256:80,1,81,8|2,3:2|0:0,0:0:0:0:
256,79,33095,5,0,3:0:0:0:
276,232,33277,1,2,0:0:0:0:
336,171,33458,1,8,3:2:0:0:
358,253,33640,1,2,0:0:0:0:
192,208,33822,5,0,3:0:0:0:
424,196,34004,1,2,0:0:0:0:
296,312,34186,1,8,3:2:0:0:
256,152,34367,1,2,0:0:0:0:
380,332,34549,5,0,3:0:0:0:
444,120,34731,2,0,L|440:39,1,81,2|8,3:2|0:0,0:0:0:0:
256,80,35095,2,0,P|300:84|344:68,1,81,2|0,0:0|3:0,0:0:0:0:
288,12,35458,1,2,0:0:0:0:
224,156,35640,1,8,3:2:0:0:
144,24,35822,1,10,0:0:0:0:
144,24,35913,1,8,0:0:0:0:
144,24,36004,6,0,L|140:172,1,129.6,4|0,3:2|0:0,0:0:0:0:
32,224,36731,2,0,L|36:76,1,129.6,8|0,0:0|0:0,0:0:0:0:
140,153,37458,2,0,B|116:201|136:249|136:249|180:217,1,129.6,0|8,3:0|0:0,0:0:0:0:
240,212,38004,1,0,0:0:0:0:
240,212,38185,2,0,P|281:204|329:213,1,64.8,0|0,3:0|0:0,0:0:0:0:
388,228,38549,2,0,L|380:312,1,64.8,8|0,0:0|0:0,0:0:0:0:
472,208,38913,6,0,P|500:148|464:88,1,129.6,4|0,3:2|0:0,0:0:0:0:
364,208,39640,2,0,P|336:148|372:88,1,129.6,8|0,0:0|0:0,0:0:0:0:
416,152,40185,1,0,3:0:0:0:
240,192,40367,5,0,3:0:0:0:
328,172,40549,1,8,0:0:0:0:
416,152,40731,1,0,3:0:0:0:
240,192,41095,6,0,L|208:268,2,43.2,8|8|8,0:0|0:0|0:0,0:0:0:0:
172,120,41458,2,0,L|140:44,2,43.2,8|8|8,0:0|0:0|0:0,0:0:0:0:
136,208,41822,6,0,L|136:316,1,72.8999977752686,4|0,3:2|0:0,0:0:0:0:
52,244,42185,1,8,0:0:0:0:
52,244,42367,1,0,0:0:0:0:
212,248,42549,2,0,L|212:356,1,72.8999977752686,0|0,3:0|0:0,0:0:0:0:
136,280,42913,1,8,0:0:0:0:
136,280,43095,1,0,0:0:0:0:
288,208,43276,6,0,L|288:316,1,72.8999977752686,0|0,3:0|0:0,0:0:0:0:
208,164,43640,1,8,0:0:0:0:
364,164,43822,1,0,0:0:0:0:
288,280,44004,5,0,3:0:0:0:
284,88,44185,1,0,3:0:0:0:
316,72,44367,1,8,0:0:0:0:
348,60,44549,1,0,0:0:0:0:
428,244,44731,6,0,P|388:252|344:232,1,72.8999977752686,0|0,3:0|0:0,0:0:0:0:
484,176,45095,1,8,0:0:0:0:
484,176,45276,1,0,0:0:0:0:
488,308,45458,2,0,L|488:392,1,72.8999977752686,0|0,3:0|0:0,0:0:0:0:
396,176,45822,1,8,0:0:0:0:
396,176,46003,1,0,0:0:0:0:
400,308,46185,6,0,L|400:392,1,72.8999977752686,0|0,3:0|0:0,0:0:0:0:
244,244,46549,1,8,0:0:0:0:
428,244,46731,1,0,0:0:0:0:
212,324,46913,5,0,3:0:0:0:
276,160,47095,1,0,3:0:0:0:
312,200,47276,1,8,0:0:0:0:
348,240,47458,1,0,0:0:0:0:
92,252,47640,6,0,P|132:240|180:256,1,72.8999977752686,4|0,3:2|0:0,0:0:0:0:
132,312,48004,1,10,0:0:0:0:
16,240,48185,1,0,0:0:0:0:
176,175,48367,2,0,P|212:194|235:240,1,72.8999977752686,0|0,3:0|0:0,0:0:0:0:
161,245,48731,1,10,0:0:0:0:
130,112,48912,1,0,0:0:0:0:
289,179,49095,6,0,P|301:219|285:267,1,72.8999977752686,0|0,3:0|0:0,0:0:0:0:
229,219,49459,1,10,0:0:0:0:
301,103,49640,1,0,0:0:0:0:
376,216,49822,1,0,3:0:0:0:
224,128,50004,1,0,3:0:0:0:
440,128,50185,1,10,0:0:0:0:
364,297,50367,1,0,0:0:0:0:
332,128,50549,5,0,3:0:0:0:
484,41,50731,1,0,0:0:0:0:
288,40,50913,1,10,0:0:0:0:
440,128,51095,1,0,0:0:0:0:
236,124,51276,5,0,3:0:0:0:
376,216,51458,1,0,0:0:0:0:
184,208,51640,1,10,0:0:0:0:
332,128,51822,1,0,0:0:0:0:
156,344,52004,5,0,3:0:0:0:
134,141,52185,1,0,0:0:0:0:
230,273,52367,5,10,3:2:0:0:
28,295,52548,1,0,0:0:0:0:
272,152,52731,5,0,3:0:0:0:
294,355,52912,1,0,0:0:0:0:
184,208,53094,5,10,3:2:0:0:
387,186,53275,1,8,0:0:0:0:
230,273,53458,5,0,3:0:0:0:
166,65,53640,1,0,3:0:0:0:
356,320,53822,1,8,3:2:0:0:
104,236,54004,1,4,3:2:0:0:
256,192,54095,12,6,54913,1:2:0:0:
340,292,55095,5,2,0:0:0:0:
340,179,55276,1,8,3:2:0:0:
437,235,55458,1,2,0:0:0:0:
244,231,55640,5,0,3:0:0:0:
440,127,55821,1,2,0:0:0:0:
432,348,56004,1,8,3:2:0:0:
244,231,56185,1,2,0:0:0:0:
437,235,56367,5,2,1:2:0:0:
192,296,56549,2,0,L|132:292,1,48.5999985168458,2|0,0:0|0:0,0:0:0:0:
160,216,56731,2,0,L|104:212,1,48.5999985168458,8|0,3:2|0:0,0:0:0:0:
136,140,56913,2,0,L|84:136,1,48.5999985168458,2|0,0:0|0:0,0:0:0:0:
40,288,57095,5,2,1:2:0:0:
136,140,57276,2,0,L|188:145,1,48.5999985168458,2|0,0:0|0:0,0:0:0:0:
160,216,57458,2,0,L|212:221,1,48.5999985168458,8|0,3:2|0:0,0:0:0:0:
192,296,57640,2,0,L|244:301,1,48.5999985168458,10|0,3:2|0:0,0:0:0:0:
364,159,57822,5,6,1:2:0:0:
472,312,58004,1,2,0:0:0:0:
420,236,58185,1,8,3:2:0:0:
364,159,58367,5,2,0:0:0:0:
292,256,58549,1,0,3:0:0:0:
410,87,58731,1,2,0:0:0:0:
332,324,58913,1,8,3:2:0:0:
214,155,59095,1,2,0:0:0:0:
444,160,59276,5,2,1:2:0:0:
216,76,59458,2,0,L|280:100,1,48.5999985168458,2|0,0:0|0:0,0:0:0:0:
296,24,59640,2,0,L|344:64,1,48.5999985168458,8|0,3:2|0:0,0:0:0:0:
400,12,59822,2,0,L|432:68,1,48.5999985168458,2|0,0:0|0:0,0:0:0:0:
260,220,60004,5,2,1:2:0:0:
296,24,60185,2,0,L|344:64,1,48.5999985168458,2|0,0:0|0:0,0:0:0:0:
400,12,60367,2,0,L|432:68,1,48.5999985168458,8|0,3:2|0:0,0:0:0:0:
504,32,60549,2,0,L|512:92,1,48.5999985168458,10|0,3:2|0:0,0:0:0:0:
304,288,60731,5,6,1:2:0:0:
304,148,60913,1,2,0:0:0:0:
372,192,61095,1,8,3:2:0:0:
444,236,61276,1,2,0:0:0:0:
260,220,61458,5,0,3:0:0:0:
456,156,61640,1,2,0:0:0:0:
344,360,61822,1,8,3:2:0:0:
176,244,62004,2,0,L|168:132,1,97.1999970336915,2|6,0:0|1:2,0:0:0:0:
260,220,62367,5,2,0:0:0:0:
96,272,62549,1,8,3:2:0:0:
304,288,62731,1,2,0:0:0:0:
68,348,62913,2,0,L|168:360,1,97.1999970336915,2|2,1:2|0:0,0:0:0:0:
340,360,63276,2,0,L|232:368,1,97.1999970336915,8|2,3:2|0:0,0:0:0:0:
120,196,63640,5,6,1:2:0:0:
152,120,63822,1,2,0:0:0:0:
180,44,64004,5,10,1:2:0:0:
224,168,64185,1,2,0:0:0:0:
272,292,64367,5,6,1:2:0:0:
344,116,64549,1,2,0:0:0:0:
352,312,64731,5,10,1:2:0:0:
265,100,64913,1,2,0:0:0:0:
432,328,65095,5,8,3:2:0:0:
504,152,65277,1,2,1:2:0:0:
512,348,65459,1,8,3:2:0:0:
425,136,65641,1,2,1:2:0:0:
272,292,65822,5,8,3:2:0:0:
352,312,66004,1,2,1:2:0:0:
265,100,66186,1,8,3:2:0:0:
344,116,66368,1,2,1:2:0:0:
144,192,66549,5,6,1:2:0:0:
144,192,66731,1,2,0:0:0:0:
268,176,66913,1,8,3:2:0:0:
116,120,67095,1,2,0:0:0:0:
176,268,67276,5,0,3:0:0:0:
265,100,67458,1,2,0:0:0:0:
255,284,67640,1,8,3:2:0:0:
344,116,67822,1,2,0:0:0:0:
336,284,68004,5,2,1:2:0:0:
214,109,68185,2,0,L|244:52,1,48.5999985168458,2|0,0:0|0:0,0:0:0:0:
165,169,68367,2,0,L|100:171,1,48.5999985168458,8|0,3:2|0:0,0:0:0:0:
240,184,68549,2,0,L|274:238,1,48.5999985168458,2|0,0:0|0:0,0:0:0:0:
184,256,68731,5,2,1:2:0:0:
377,214,68913,2,0,L|356:152,1,48.5999985168458,2|0,0:0|0:0,0:0:0:0:
412,282,69095,2,0,L|475:295,1,48.5999985168458,8|0,3:2|0:0,0:0:0:0:
336,280,69277,2,0,L|292:328,1,48.5999985168458,10|0,3:2|0:0,0:0:0:0:
272,112,69458,5,6,1:2:0:0:
272,112,69640,1,2,0:0:0:0:
160,212,69822,1,8,3:2:0:0:
300,192,70004,1,2,0:0:0:0:
128,136,70185,5,0,3:0:0:0:
192,288,70367,1,2,0:0:0:0:
244,32,70549,1,8,3:2:0:0:
300,192,70731,1,2,0:0:0:0:
184,80,70913,5,2,1:2:0:0:
384,112,71095,2,0,L|380:200,1,48.5999985168458,2|0,0:0|0:0,0:0:0:0:
460,176,71276,2,0,L|426:257,1,48.5999985168458,8|0,3:2|0:0,0:0:0:0:
504,264,71458,2,0,L|444:328,1,48.5999985168458,2|0,0:0|0:0,0:0:0:0:
264,328,71640,5,2,1:2:0:0:
288,72,71822,2,0,L|314:156,1,48.5999985168458,2|0,0:0|0:0,0:0:0:0:
384,112,72004,2,0,L|380:200,1,48.5999985168458,8|0,3:2|0:0,0:0:0:0:
460,176,72185,2,0,L|426:257,1,48.5999985168458,10|0,3:2|0:0,0:0:0:0:
196,232,72367,5,6,1:2:0:0:
196,372,72549,1,2,0:0:0:0:
264,328,72731,1,8,3:2:0:0:
336,284,72912,1,2,0:0:0:0:
152,300,73094,5,0,3:0:0:0:
348,364,73276,1,2,0:0:0:0:
236,160,73458,1,8,3:2:0:0:
60,288,73640,2,0,L|108:376,1,97.1999970336915,2|6,0:0|1:2,0:0:0:0:
56,176,74004,6,0,B|99:147|131:167|175:199|231:167,1,145.799995550537,2|2,0:0|0:0,0:0:0:0:
236,160,74367,1,2,0:0:0:0:
312,32,74549,2,0,L|332:136,1,97.1999970336915,2|2,1:2|0:0,0:0:0:0:
476,268,74913,2,0,L|496:164,1,97.1999970336915,8|2,3:2|0:0,0:0:0:0:
272,272,75276,5,6,1:2:0:0:
432,332,75458,1,2,0:0:0:0:
196,264,75640,5,8,3:2:0:0:
401,265,75822,1,2,0:0:0:0:
120,280,76004,5,6,1:2:0:0:
351,196,76186,1,2,0:0:0:0:
64,328,76367,5,8,3:2:0:0:
290,138,76549,1,2,3:2:0:0:
168,344,76731,5,6,1:2:0:0:
162,119,76913,1,2,0:0:0:0:
268,352,77095,5,10,3:2:0:0:
67,243,77276,1,2,0:0:0:0:
203,209,77458,5,2,1:2:0:0:
12,326,77640,1,2,0:0:0:0:
272,252,77822,5,10,3:2:0:0:
128,204,78004,1,10,3:2:0:0:
328,172,78185,6,0,P|353:208|340:272,1,97.1999970336915,6|2,1:2|0:0,0:0:0:0:
232,152,78549,1,8,3:2:0:0:
408,104,78731,1,2,0:0:0:0:
348,259,78913,6,0,P|323:223|336:159,1,97.1999970336915,2|2,1:2|0:0,0:0:0:0:
456,292,79276,1,8,3:2:0:0:
280,340,79458,1,2,0:0:0:0:
232,152,79640,5,2,1:2:0:0:
376,194,79822,1,2,0:0:0:0:
232,236,80004,5,8,3:2:0:0:
88,278,80186,1,2,0:0:0:0:
228,316,80367,5,2,1:2:0:0:
372,358,80549,1,2,0:0:0:0:
448,144,80731,5,8,3:2:0:0:
444,324,80913,1,10,3:2:0:0:
356,133,81095,6,0,P|408:125|464:161,1,97.1999970336915,6|2,1:2|0:0,0:0:0:0:
300,192,81458,1,8,3:2:0:0:
300,192,81640,1,2,0:0:0:0:
368,48,81822,6,0,P|420:40|476:76,1,97.1999970336915,2|2,1:2|0:0,0:0:0:0:
396,200,82185,1,8,3:2:0:0:
264,32,82367,1,2,0:0:0:0:
212,236,82549,5,2,1:2:0:0:
300,192,82731,1,2,0:0:0:0:
112,220,82913,5,8,3:2:0:0:
106,318,83095,1,2,0:0:0:0:
180,144,83276,5,2,1:2:0:0:
98,89,83458,1,2,0:0:0:0:
24,268,83640,5,8,3:2:0:0:
288,284,83822,1,2,0:0:0:0:
127,289,84004,6,0,L|131:165,1,97.1999970336915,6|2,1:2|0:0,0:0:0:0:
287,284,84367,1,8,3:2:0:0:
207,324,84549,1,2,0:0:0:0:
51,252,84731,2,0,L|55:128,1,97.1999970336915,2|2,1:2|0:0,0:0:0:0:
207,246,85095,1,8,3:2:0:0:
127,289,85276,1,10,3:2:0:0:
55,155,85458,5,2,1:2:0:0:
135,198,85639,1,2,0:0:0:0:
312,60,85822,5,8,3:2:0:0:
232,103,86003,1,2,0:0:0:0:
52,253,86185,6,0,L|48:316,1,48.5999985168458,2|2,1:2|3:2,0:0:0:0:
132,296,86367,2,0,L|128:356,1,48.5999985168458,2|2,3:2|3:2,0:0:0:0:
312,152,86549,6,0,L|316:215,1,48.5999985168458,8|8,0:0|0:0,0:0:0:0:
232,195,86731,2,0,L|236:255,1,48.5999985168458,8|8,0:0|0:0,0:0:0:0:
412,300,86913,5,6,1:2:0:0:
256,192,87004,12,4,88276,3:2:0:0:
