osu file format v14

[General]
AudioFilename: audio.mp3
AudioLeadIn: 0
PreviewTime: 54731
Countdown: 0
SampleSet: Soft
StackLeniency: 0.7
Mode: 0
LetterboxInBreaks: 0
WidescreenStoryboard: 1

[Editor]
Bookmarks: 54913
DistanceSpacing: 1.3
BeatDivisor: 4
GridSize: 32
TimelineZoom: 2

[Metadata]
Title:Hitorigoto -TV MIX-
TitleUnicode:ヒトリゴト -TV MIX-
Artist:ClariS
ArtistUnicode:ClariS
Creator:Tofu1222
Version:Moecho's Normal
Source:エロマンガ先生
Tags:eromanga sensei ero manga eromanga-sensei opening tv size eromangasensei Suzuki_1112 1112deng kanor Level9 Ryuusei Aika RsAk Moeri Moecho [Kamiya] victorica_db [Emiria]
BeatmapID:1288742
BeatmapSetID:602861

[Difficulty]
HPDrainRate:4
CircleSize:3.5
OverallDifficulty:4
ApproachRate:5.5
SliderMultiplier:1.2
SliderTickRate:2

[Events]
//Background and Video events
0,0,"BG_Moe.jpg",0,0
Video,0,"eromanga.avi"
//Break Periods
//Storyboard Layer 0 (Background)
//Storyboard Layer 1 (Fail)
//Storyboard Layer 2 (Pass)
//Storyboard Layer 3 (Foreground)
//Storyboard Sound Samples

[TimingPoints]
1095,363.636363636364,4,2,33,70,1,0
5458,-100,4,2,33,70,0,1
6731,-100,4,2,33,70,0,0
11276,-100,4,2,33,70,0,1
12549,-100,4,2,33,70,0,0
12731,-100,4,2,33,70,0,1
15617,-100,4,2,33,70,0,0
15640,-100,4,2,33,70,0,1
18526,-100,4,2,33,70,0,0
18549,-100,4,2,33,70,0,1
21435,-100,4,2,33,70,0,0
21458,-100,4,2,33,70,0,1
24185,-100,4,2,33,70,0,0
53458,-100,4,2,33,70,0,1
54367,-100,4,2,33,70,0,0
54913,-100,4,2,50,80,0,1
55276,-100,4,2,33,80,0,1
56367,-100,4,2,51,80,0,1
56731,-100,4,2,33,80,0,1
57095,-100,4,2,50,80,0,1
57458,-100,4,2,33,80,0,1
57799,-100,4,2,33,80,0,0
57822,-100,4,2,52,80,0,1
58004,-100,4,2,33,80,0,1
59276,-100,4,2,51,80,0,1
59458,-100,4,2,33,80,0,1
60004,-100,4,2,50,80,0,1
60185,-100,4,2,33,80,0,1
60708,-100,4,2,33,80,0,0
60731,-100,4,2,52,80,0,1
60913,-100,4,2,33,80,0,1
62163,-100,4,2,33,80,0,0
62185,-100,4,2,53,80,0,1
62367,-100,4,2,33,80,0,1
62913,-100,4,2,54,80,0,1
63276,-100,4,2,33,80,0,1
63617,-100,4,2,33,80,0,0
63640,-100,4,2,55,80,0,1
64004,-100,4,2,54,80,0,1
64345,-100,4,2,54,80,0,0
64367,-100,4,2,55,80,0,1
64731,-100,4,2,53,80,0,1
65095,-100,4,2,33,80,0,0
65276,-100,4,2,56,80,0,0
65458,-100,4,2,33,80,0,0
65640,-100,4,2,57,80,0,0
65822,-100,4,2,33,80,0,0
66004,-100,4,2,58,80,0,0
66185,-100,4,2,33,80,0,0
66367,-100,4,2,55,80,0,0
66549,-100,4,2,50,80,0,1
66913,-100,4,2,33,80,0,1
68004,-100,4,2,51,80,0,1
68367,-100,4,2,33,80,0,1
68731,-100,4,2,50,80,0,1
68913,-100,4,2,33,80,0,1
69435,-100,4,2,33,80,0,0
69458,-100,4,2,52,80,0,1
69640,-100,4,2,33,80,0,1
70913,-100,4,2,51,80,0,1
71276,-100,4,2,33,80,0,1
71640,-100,4,2,50,80,0,1
71822,-100,4,2,33,80,0,1
72345,-100,4,2,33,80,0,0
72367,-100,4,2,52,80,0,1
72549,-100,4,2,33,80,0,1
73799,-100,4,2,33,80,0,0
73822,-100,4,2,53,80,0,1
74004,-100,4,2,33,80,0,1
74549,-100,4,2,54,80,0,1
74913,-100,4,2,33,80,0,1
75254,-100,4,2,33,80,0,0
75276,-100,4,2,55,80,0,1
75822,-100,4,2,33,80,0,1
75981,-100,4,2,33,80,0,0
76004,-100,4,2,53,80,0,1
76367,-100,4,2,33,80,0,1
76731,-100,4,2,52,80,0,0
77095,-100,4,2,33,80,0,0
77458,-100,4,2,60,80,0,0
77822,-100,4,2,33,80,0,0
78185,-100,4,2,59,80,0,1
78549,-100,4,2,33,80,0,1
78913,-100,4,2,52,80,0,1
79276,-100,4,2,33,80,0,1
79640,-100,4,2,52,80,0,1
80004,-100,4,2,33,80,0,1
80367,-100,4,2,60,80,0,1
80731,-100,4,2,33,80,0,1
81072,-100,4,2,33,80,0,0
81095,-100,4,2,59,80,0,1
81458,-100,4,2,33,80,0,1
81822,-100,4,2,52,80,0,1
82185,-100,4,2,33,80,0,1
82549,-100,4,2,50,80,0,1
82913,-100,4,2,33,80,0,1
83276,-100,4,2,52,80,0,1
83640,-100,4,2,33,80,0,1
83981,-100,4,2,33,80,0,0
84004,-100,4,2,59,80,0,1
84367,-100,4,2,33,80,0,1
84731,-100,4,2,52,80,0,1
85095,-100,4,2,33,80,0,1
85458,-100,4,2,52,80,0,1
85822,-100,4,2,33,80,0,1
86185,-100,4,2,60,80,0,1
86549,-100,4,2,33,80,0,1
86890,-100,4,2,33,80,0,0
86913,-100,4,2,59,70,0,1
86935,-100,4,2,59,70,0,0
87458,-100,4,2,33,70,0,0
87640,-100,4,2,52,70,0,0
88004,-100,4,2,33,70,0,0
88276,-100,4,2,60,70,0,1
88299,-100,4,2,60,70,0,0
89095,-100,4,2,33,20,0,0

[Colours]
Combo1 : 215,215,183
Combo2 : 0,128,128
Combo3 : 192,192,192
Combo4 : 255,128,192

[HitObjects]
307,218,1095,6,0,L|247:212,1,60,8|8,3:2|3:2,0:0:0:0:
201,149,1458,2,0,P|171:198|184:255,2,120
266,291,2549,6,0,L|325:297,1,60,8|8,3:2|3:2,0:0:0:0:
371,361,2912,2,0,P|401:311|388:254,2,120
317,213,4004,6,0,L|310:153,1,60,8|8,3:2|3:2,0:0:0:0:
247,108,4367,2,0,P|296:77|353:90,2,120
106,39,5458,6,0,L|123:218,1,180,12|0,3:2|0:0,0:0:0:0:
65,269,6185,2,0,P|139:315|227:302,1,180,12|8,3:2|3:2,0:0:0:0:
292,258,6913,6,0,L|351:259,1,60,8|8,3:2|3:2,0:0:0:0:
413,211,7276,2,0,P|432:266|406:318,2,120
270,150,8367,6,0,L|271:90,1,60,8|8,3:2|3:2,0:0:0:0:
223,29,8730,2,0,P|278:9|330:35,2,120
354,114,9822,6,0,L|413:115,1,60,8|8,3:2|3:2,0:0:0:0:
475,67,10185,2,0,P|494:122|468:174,2,120
393,200,11276,6,0,B|328:192|328:192|276:212|276:212|217:204,1,180,12|0,3:2|0:0,0:0:0:0:
222,126,12004,2,0,P|146:165|153:250,1,180,12|8,3:2|3:2,0:0:0:0:
218,293,12731,6,0,L|337:285,2,120,0|8|0,0:0|0:0|3:0,0:0:0:0:
74,355,13822,1,8,0:0:0:0:
74,355,14004,2,0,P|47:303|48:243,2,120,0|8|0,3:0|0:0|3:0,0:0:0:0:
125,208,15095,1,8,0:0:0:0:
337,300,15640,6,0,L|217:292,2,120,4|8|0,3:2|0:0|3:0,0:0:0:0:
480,363,16731,1,8,0:0:0:0:
480,363,16913,2,0,P|507:310|506:250,2,120,0|8|0,3:0|0:0|3:0,0:0:0:0:
430,215,18004,2,0,L|420:92,1,120,8|8,3:2|0:0,0:0:0:0:
492,67,18549,6,0,P|457:21|400:7,1,120,6|8,3:2|0:0,0:0:0:0:
259,75,19276,2,0,L|140:82,1,120,0|8,3:0|0:0,0:0:0:0:
74,126,19822,2,0,P|61:72|98:12,2,120,0|8|0,3:0|0:0|3:0,0:0:0:0:
216,189,20913,1,8,0:0:0:0:
19,316,21458,6,0,P|54:362|111:376,1,120,6|8,3:2|0:0,0:0:0:0:
253,309,22185,2,0,L|372:302,1,120,0|8,3:0|0:0,0:0:0:0:
438,258,22731,2,0,P|451:312|414:372,2,120,4|12|4,3:2|0:0|3:2,0:0:0:0:
296,195,23822,2,0,L|177:202,1,120,8|4,3:2|0:0,0:0:0:0:
20,27,24731,6,0,B|1:75|1:75|23:139,2,120,8|0|8,0:0|3:0|0:0,0:0:0:0:
147,117,25822,2,0,L|266:110,1,120,0|8,3:0|0:0,0:0:0:0:
170,233,26549,2,0,L|51:226,1,120,0|8,3:0|0:0,0:0:0:0:
151,342,27276,6,0,P|238:331|284:257,1,180,0|8,3:0|0:0,0:0:0:0:
260,182,28004,2,0,B|312:173|312:173|377:202|377:202|433:195,1,180,0|8,3:0|0:0,0:0:0:0:
511,224,28731,1,0,3:0:0:0:
511,224,28913,2,0,P|514:165|485:114,2,120,8|8|8,0:0|0:0|0:0,0:0:0:0:
469,289,29822,2,0,L|410:282,1,60,0|8,3:0|0:0,0:0:0:0:
335,257,30185,1,4,3:2:0:0:
206,346,30549,6,0,P|146:342|95:371,2,120,8|0|8,0:0|3:0|0:0,0:0:0:0:
335,257,31640,1,0,3:0:0:0:
218,153,32004,2,0,B|205:33,2,120,8|0|8,0:0|3:0|0:0,0:0:0:0:
335,257,33095,6,0,P|418:238|434:155,1,180,0|8,3:0|0:0,0:0:0:0:
361,183,33822,2,0,B|290:177|290:177|249:200|249:200|187:194,1,180,0|8,3:0|0:0,0:0:0:0:
121,233,34549,1,0,3:0:0:0:
121,233,34731,2,0,P|99:179|105:120,2,120,8|8|8,0:0|0:0|0:0,0:0:0:0:
179,286,35640,2,0,L|238:279,1,60,0|8,3:0|0:0,0:0:0:0:
316,271,36004,1,4,3:2:0:0:
444,359,36367,6,0,B|474:316|474:316|462:249,1,120,0|8,0:0|0:0,0:0:0:0:
319,184,37095,1,0,0:0:0:0:
413,59,37458,2,0,P|428:147|384:223,1,180,0|0,3:0|0:0,0:0:0:0:
315,260,38185,2,0,L|187:247,1,120,8|0,0:0|0:0,0:0:0:0:
141,304,38731,1,8,0:0:0:0:
141,304,38913,6,0,B|115:259|115:259|131:193,1,120,4|0,3:2|0:0,0:0:0:0:
24,78,39640,2,0,P|79:57|137:67,1,120,8|0,0:0|0:0,0:0:0:0:
264,158,40367,2,0,L|363:150,2,60,0|8|0,3:0|0:0|0:0,0:0:0:0:
396,73,41095,2,0,B|437:133|437:133|418:238,1,180,8|0,0:0|0:0,0:0:0:0:
466,300,41822,6,0,P|412:324|355:311,1,120,4|8,3:2|3:2,0:0:0:0:
202,343,42549,2,0,L|216:223,1,120,0|8,3:0|3:2,0:0:0:0:
79,148,43276,2,0,P|132:123|189:136,1,120,0|8,3:0|3:2,0:0:0:0:
316,228,44004,1,0,3:0:0:0:
316,228,44185,2,0,L|435:213,1,120,0|8,3:0|3:2,0:0:0:0:
295,25,45095,6,0,B|271:69|271:69|285:137,1,120,8|0,3:2|3:0,0:0:0:0:
250,289,45822,2,0,P|302:315|360:306,1,120,8|0,3:2|3:0,0:0:0:0:
474,199,46549,1,8,3:2:0:0:
363,89,46913,1,0,3:0:0:0:
363,89,47095,2,0,L|379:225,1,120,0|8,3:0|0:0,0:0:0:0:
408,279,47640,6,0,P|349:288|297:261,1,120,4|8,3:2|3:2,0:0:0:0:
165,177,48367,2,0,L|45:191,1,120,0|8,3:0|3:2,0:0:0:0:
31,347,49095,2,0,P|87:327|117:332,1,60,0|0,3:0|0:0,0:0:0:0:
157,358,49458,2,0,L|276:372,2,120,8|0|8,3:2|3:0|3:2,0:0:0:0:
275,256,50549,6,0,P|309:175|278:93,1,180,0|8,3:0|3:2,0:0:0:0:
207,60,51276,2,0,L|87:74,1,120,0|8,3:0|3:2,0:0:0:0:
19,214,52004,2,0,B|81:235|81:235|194:217,1,180,0|8,3:0|3:2,0:0:0:0:
248,272,52731,2,0,P|269:190|200:139,1,180,0|8,3:0|3:2,0:0:0:0:
123,146,53458,5,8,3:2:0:0:
123,146,53640,2,0,L|110:265,2,120,8|4|8,3:2|3:2|3:2,0:0:0:0:
21,357,54913,6,0,P|79:367|133:344,1,120,6|8,1:2|0:0,0:0:0:0:
154,188,55640,2,0,L|168:257,2,60,0|0|8,3:0|0:0|0:0,0:0:0:0:
229,324,56367,6,0,P|270:306|348:311,1,120,2|8,1:2|0:0,0:0:0:0:
421,319,56913,1,0,0:0:0:0:
499,327,57095,2,0,P|513:270|496:213,2,120,2|8|6,1:2|0:0|1:2,0:0:0:0:
351,377,58185,6,0,L|291:372,1,60,8|0,0:0|0:0,0:0:0:0:
221,335,58549,2,0,P|257:288|313:270,1,120,0|8,3:0|0:0,0:0:0:0:
469,270,59276,6,0,P|412:252|376:205,1,120,2|8,1:2|0:0,0:0:0:0:
505,116,60004,2,0,L|512:56,1,60,2|8,1:2|0:0,0:0:0:0:
450,9,60367,1,8,0:0:0:0:
349,128,60731,6,0,P|291:136|242:105,1,120,6|8,1:2|0:0,0:0:0:0:
178,57,61276,1,0,0:0:0:0:
103,34,61458,2,0,L|43:39,2,60,0|0|8,3:0|0:0|0:0,0:0:0:0:
30,172,62185,6,0,P|87:187|142:167,1,120,6|8,1:2|0:0,1:2:0:0:
214,198,62731,1,0,0:0:0:0:
270,252,62913,2,0,L|253:370,1,120,2|8,1:2|0:0,0:0:0:0:
387,292,63640,6,0,P|399:240|370:178,1,120,6|10,1:2|1:2,0:0:0:0:
278,56,64367,2,0,P|266:108|295:170,1,120,6|10,1:2|1:2,0:0:0:0:
437,224,65095,6,0,L|496:216,2,60,8|2|8,0:2|1:2|0:0,0:0:0:0:
360,240,65640,1,2,1:2:0:0:
283,256,65822,2,0,L|223:248,2,60,8|2|8,0:0|1:2|0:0,0:0:0:0:
335,313,66367,1,2,1:2:0:0:
373,380,66549,6,0,P|431:367|464:319,1,120,6|8,1:2|0:0,0:0:0:0:
452,163,67276,2,0,L|511:167,2,60,0|0|8,3:0|0:0|0:0,0:0:0:0:
309,97,68004,6,0,L|186:105,1,120,2|8,1:2|0:0,0:0:0:0:
112,89,68549,1,0,0:0:0:0:
55,142,68731,2,0,P|33:88|56:34,2,120,2|8|6,1:2|0:0|1:2,1:0:0:0:
28,296,69822,6,0,L|87:287,1,60,8|0,0:0|0:0,0:0:0:0:
134,349,70185,2,0,L|253:336,1,120,0|8,3:0|0:0,0:0:0:0:
407,362,70913,6,0,P|434:310|428:251,1,120,2|8,1:2|0:0,0:0:0:0:
511,118,71640,2,0,L|433:122,1,60,2|8,1:2|0:0,3:0:0:0:
400,60,72004,1,8,0:0:0:0:
347,206,72367,6,0,P|288:210|239:178,1,120,6|8,1:2|0:0,0:0:0:0:
181,124,72913,1,0,0:0:0:0:
109,155,73095,2,0,P|102:126|107:96,2,60,0|0|8,3:0|0:0|0:0,0:0:0:0:
34,292,73822,6,0,B|75:316|75:316|145:300,1,120,6|8,1:2|0:0,0:0:0:0:
221,321,74367,1,0,0:0:0:0:
274,377,74549,2,0,P|298:323|279:268,1,120,2|8,1:2|0:0,0:0:0:0:
132,213,75276,6,0,L|151:34,1,180,6|8,1:2|0:0,0:0:0:0:
229,30,76004,2,0,P|259:81|259:140,1,120,6|8,1:2|0:0,0:0:0:0:
209,201,76549,1,0,3:0:0:0:
132,213,76731,6,0,L|12:222,2,120,2|8|2,1:2|0:0|1:2,0:0:0:0:
281,257,77822,2,0,P|283:292|272:321,1,60,8|8,0:0|0:0,0:0:0:0:
224,374,78185,6,0,P|280:355|340:357,1,120,6|8,1:2|0:0,0:0:0:0:
412,325,78731,1,0,3:0:0:0:
486,347,78913,2,0,L|496:227,1,120,2|8,1:2|0:0,0:0:0:0:
406,99,79640,6,0,P|348:91|296:119,2,120,2|8|2,1:2|0:0|1:2,0:0:0:0:
370,250,80731,2,0,L|311:244,1,60,8|8,0:0|0:0,0:0:0:0:
255,300,81095,6,0,P|200:282|135:289,1,120,6|8,1:2|0:0,0:0:0:0:
81,341,81640,1,0,3:0:0:0:
16,297,81822,2,0,L|7:177,1,120,2|8,1:2|0:0,0:0:0:0:
67,33,82549,6,0,P|121:15|197:44,1,120,2|8,1:2|0:0,0:0:0:0:
308,119,83276,2,0,L|427:107,1,120,2|8,1:2|0:0,0:0:0:0:
507,241,84004,6,0,B|458:258|458:258|391:242,1,120,6|8,1:2|0:0,0:0:0:0:
317,265,84549,1,8,0:0:0:0:
266,324,84731,2,0,P|238:273|255:215,1,120,2|8,1:2|0:0,0:0:0:0:
380,124,85458,6,0,L|499:114,1,120,2|8,1:2|0:0,0:0:0:0:
509,271,86185,2,0,L|390:281,1,120,2|8,1:2|0:0,0:0:0:0:
260,367,86913,6,0,P|220:288|248:205,1,180,6|8,1:2|0:0,0:0:0:0:
299,147,87640,2,0,L|180:157,1,120,2|8,1:2|0:0,0:0:0:0:
67,122,88276,6,0,B|79:48|79:48|197:15|197:15|253:63,1,270,4|0,3:2|0:0,0:0:0:0:
